  0
SECTION
  2
HEADER
  9
$ACADVER
  1
AC1015
  9
$ACADMAINTVER
 70
     6
  9
$DWGCODEPAGE
  3
ANSI_932
  9
$INSBASE
 10
0.0
 20
0.0
 30
0.0
  9
$EXTMIN
 10
-594.5
 20
-420.5
 30
0.0
  9
$EXTMAX
 10
594.5
 20
420.5
 30
0.0
  9
$LIMMIN
 10
-594.5
 20
-420.5
  9
$LIMMAX
 10
594.5
 20
420.5
  9
$ORTHOMODE
 70
     0
  9
$REGENMODE
 70
     1
  9
$FILLMODE
 70
     1
  9
$QTEXTMODE
 70
     0
  9
$MIRRTEXT
 70
     1
  9
$LTSCALE
 40
4.0
  9
$ATTMODE
 70
     1
  9
$TEXTSIZE
 40
2.5
  9
$TRACEWID
 40
1.0
  9
$TEXTSTYLE
  7
Standard
  9
$CLAYER
  8
0
  9
$CELTYPE
  6
ByLayer
  9
$CECOLOR
 62
   256
  9
$CELTSCALE
 40
1.0
  9
$DISPSILH
 70
     0
  9
$DIMSCALE
 40
1.0
  9
$DIMASZ
 40
4.0
  9
$DIMEXO
 40
1.0
  9
$DIMDLI
 40
3.75
  9
$DIMRND
 40
0.1
  9
$DIMDLE
 40
0.0
  9
$DIMEXE
 40
1.0
  9
$DIMTP
 40
0.0
  9
$DIMTM
 40
0.0
  9
$DIMTXT
 40
2.5
  9
$DIMCEN
 40
2.5
  9
$DIMTSZ
 40
0.0
  9
$DIMTOL
 70
     0
  9
$DIMLIM
 70
     0
  9
$DIMTIH
 70
     0
  9
$DIMTOH
 70
     0
  9
$DIMSE1
 70
     0
  9
$DIMSE2
 70
     0
  9
$DIMTAD
 70
     1
  9
$DIMZIN
 70
     8
  9
$DIMBLK
  1

  9
$DIMASO
 70
     1
  9
$DIMSHO
 70
     1
  9
$DIMPOST
  1

  9
$DIMAPOST
  1

  9
$DIMALT
 70
     0
  9
$DIMALTD
 70
     3
  9
$DIMALTF
 40
0.03937007874016
  9
$DIMLFAC
 40
1.0
  9
$DIMTOFL
 70
     1
  9
$DIMTVP
 40
0.0
  9
$DIMTIX
 70
     0
  9
$DIMSOXD
 70
     0
  9
$DIMSAH
 70
     1
  9
$DIMBLK1
  1

  9
$DIMBLK2
  1

  9
$DIMSTYLE
  2
ISO-25
  9
$DIMCLRD
 70
     0
  9
$DIMCLRE
 70
     0
  9
$DIMCLRT
 70
     0
  9
$DIMTFAC
 40
1.0
  9
$DIMGAP
 40
0.5
  9
$DIMJUST
 70
     0
  9
$DIMSD1
 70
     0
  9
$DIMSD2
 70
     0
  9
$DIMTOLJ
 70
     0
  9
$DIMTZIN
 70
     8
  9
$DIMALTZ
 70
     0
  9
$DIMALTTZ
 70
     0
  9
$DIMUPT
 70
     1
  9
$DIMDEC
 70
     1
  9
$DIMTDEC
 70
     2
  9
$DIMALTU
 70
     2
  9
$DIMALTTD
 70
     3
  9
$DIMTXSTY
  7
Standard
  9
$DIMAUNIT
 70
     0
  9
$DIMADEC
 70
     1
  9
$DIMALTRND
 40
0.0
  9
$DIMAZIN
 70
     2
  9
$DIMDSEP
 70
    46
  9
$DIMATFIT
 70
     0
  9
$DIMFRAC
 70
     0
  9
$DIMLDRBLK
  1

  9
$DIMLUNIT
 70
     2
  9
$DIMLWD
 70
    -2
  9
$DIMLWE
 70
    -2
  9
$DIMTMOVE
 70
     0
  9
$LUNITS
 70
     2
  9
$LUPREC
 70
     4
  9
$SKETCHINC
 40
1.0
  9
$FILLETRAD
 40
10.0
  9
$AUNITS
 70
     0
  9
$AUPREC
 70
     0
  9
$MENU
  1
.
  9
$ELEVATION
 40
0.0
  9
$PELEVATION
 40
0.0
  9
$THICKNESS
 40
0.0
  9
$LIMCHECK
 70
     0
  9
$CHAMFERA
 40
10.0
  9
$CHAMFERB
 40
10.0
  9
$CHAMFERC
 40
20.0
  9
$CHAMFERD
 40
0.0
  9
$SKPOLY
 70
     0
  9
$TDCREATE
 40
2455091.0
  9
$TDUCREATE
 40
2451562.87528772
  9
$TDUPDATE
 40
2455120.0
  9
$TDUUPDATE
 40
2452026.917654526
  9
$TDINDWG
 40
0.0010008681
  9
$TDUSRTIMER
 40
0.0009680671
  9
$USRTIMER
 70
     1
  9
$ANGBASE
 50
0.0
  9
$ANGDIR
 70
     0
  9
$PDMODE
 70
     0
  9
$PDSIZE
 40
0.0
  9
$PLINEWID
 40
0.0
  9
$SPLFRAME
 70
     0
  9
$SPLINETYPE
 70
     6
  9
$SPLINESEGS
 70
     8
  9
$HANDSEED
  5
552
  9
$SURFTAB1
 70
     6
  9
$SURFTAB2
 70
     6
  9
$SURFTYPE
 70
     6
  9
$SURFU
 70
     6
  9
$SURFV
 70
     6
  9
$UCSBASE
  2

  9
$UCSNAME
  2

  9
$UCSORG
 10
0.0
 20
0.0
 30
0.0
  9
$UCSXDIR
 10
1.0
 20
0.0
 30
0.0
  9
$UCSYDIR
 10
0.0
 20
1.0
 30
0.0
  9
$UCSORTHOREF
  2

  9
$UCSORTHOVIEW
 70
     0
  9
$UCSORGTOP
 10
0.0
 20
0.0
 30
0.0
  9
$UCSORGBOTTOM
 10
0.0
 20
0.0
 30
0.0
  9
$UCSORGLEFT
 10
0.0
 20
0.0
 30
0.0
  9
$UCSORGRIGHT
 10
0.0
 20
0.0
 30
0.0
  9
$UCSORGFRONT
 10
0.0
 20
0.0
 30
0.0
  9
$UCSORGBACK
 10
0.0
 20
0.0
 30
0.0
  9
$PUCSBASE
  2

  9
$PUCSNAME
  2

  9
$PUCSORG
 10
0.0
 20
0.0
 30
0.0
  9
$PUCSXDIR
 10
1.0
 20
0.0
 30
0.0
  9
$PUCSYDIR
 10
0.0
 20
1.0
 30
0.0
  9
$PUCSORTHOREF
  2

  9
$PUCSORTHOVIEW
 70
     0
  9
$PUCSORGTOP
 10
0.0
 20
0.0
 30
0.0
  9
$PUCSORGBOTTOM
 10
0.0
 20
0.0
 30
0.0
  9
$PUCSORGLEFT
 10
0.0
 20
0.0
 30
0.0
  9
$PUCSORGRIGHT
 10
0.0
 20
0.0
 30
0.0
  9
$PUCSORGFRONT
 10
0.0
 20
0.0
 30
0.0
  9
$PUCSORGBACK
 10
0.0
 20
0.0
 30
0.0
  9
$USERI1
 70
     0
  9
$USERI2
 70
     0
  9
$USERI3
 70
     0
  9
$USERI4
 70
     0
  9
$USERI5
 70
     0
  9
$USERR1
 40
0.0
  9
$USERR2
 40
0.0
  9
$USERR3
 40
0.0
  9
$USERR4
 40
0.0
  9
$USERR5
 40
0.0
  9
$WORLDVIEW
 70
     1
  9
$SHADEDGE
 70
     3
  9
$SHADEDIF
 70
    70
  9
$TILEMODE
 70
     1
  9
$MAXACTVP
 70
    64
  9
$PINSBASE
 10
0.0
 20
0.0
 30
0.0
  9
$PLIMCHECK
 70
     0
  9
$PEXTMIN
 10
-594.5
 20
-420.5
 30
0.0
  9
$PEXTMAX
 10
594.5
 20
420.5
 30
0.0
  9
$PLIMMIN
 10
-594.5
 20
-420.5
  9
$PLIMMAX
 10
594.5
 20
420.5
  9
$UNITMODE
 70
     0
  9
$VISRETAIN
 70
     1
  9
$PLINEGEN
 70
     0
  9
$PSLTSCALE
 70
     1
  9
$TREEDEPTH
 70
  3020
  9
$CMLSTYLE
  2
Standard
  9
$CMLJUST
 70
     0
  9
$CMLSCALE
 40
20.0
  9
$PROXYGRAPHICS
 70
     1
  9
$MEASUREMENT
 70
     1
  9
$CELWEIGHT
370
    -1
  9
$ENDCAPS
280
     0
  9
$JOINSTYLE
280
     0
  9
$LWDISPLAY
290
     0
  9
$INSUNITS
 70
     4
  9
$HYPERLINKBASE
  1

  9
$STYLESHEET
  1

  9
$XEDIT
290
     1
  9
$CEPSNTYPE
380
     0
  9
$PSTYLEMODE
290
     1
  9
$FINGERPRINTGUID
  2
{B6423330-CE35-11D3-AA43-00E0292263AD}
  9
$VERSIONGUID
  2
{EAA0F794-BAE8-4B09-85E0-65C527BE2B8E}
  9
$EXTNAMES
290
     1
  9
$PSVPSCALE
 40
0.0
  9
$OLESTARTUP
290
     0
  0
ENDSEC
  0
SECTION
  2
CLASSES
  0
CLASS
  1
ACDBDICTIONARYWDFLT
  2
AcDbDictionaryWithDefault
  3
ObjectDBX Classes
 90
        0
280
     0
281
     0
  0
CLASS
  1
ACDBPLACEHOLDER
  2
AcDbPlaceHolder
  3
ObjectDBX Classes
 90
        0
280
     0
281
     0
  0
CLASS
  1
LAYOUT
  2
AcDbLayout
  3
ObjectDBX Classes
 90
        0
280
     0
281
     0
  0
ENDSEC
  0
SECTION
  2
TABLES
  0
TABLE
  2
VPORT
  5
8
330
0
100
AcDbSymbolTable
 70
     3
  0
VPORT
  5
30
330
8
100
AcDbSymbolTableRecord
100
AcDbViewportTableRecord
  2
*Active
 70
     0
 10
0.0
 20
0.0
 11
1.0
 21
1.0
 12
259.0560661764706
 22
148.5
 13
0.0
 23
0.0
 14
10.0
 24
10.0
 15
10.0
 25
10.0
 16
0.0
 26
0.0
 36
1.0
 17
0.0
 27
0.0
 37
0.0
 40
297.1173501144164
 41
1.268382352941176
 42
50.0
 43
0.0
 44
0.0
 50
0.0
 51
0.0
 71
     0
 72
   100
 73
     1
 74
     3
 75
     0
 76
     0
 77
     0
 78
     0
281
     0
 65
     1
110
0.0
120
0.0
130
0.0
111
1.0
121
0.0
131
0.0
112
0.0
122
1.0
132
0.0
 79
     0
146
0.0
  0
ENDTAB
  0
TABLE
  2
LTYPE
  5
5
330
0
100
AcDbSymbolTable
 70
    26
  0
LTYPE
  5
14
330
5
100
AcDbSymbolTableRecord
100
AcDbLinetypeTableRecord
  2
ByBlock
 70
     0
  3

 72
    65
 73
     0
 40
0.0
  0
LTYPE
  5
15
330
5
100
AcDbSymbolTableRecord
100
AcDbLinetypeTableRecord
  2
ByLayer
 70
     0
  3

 72
    65
 73
     0
 40
0.0
  0
LTYPE
  5
16
330
5
100
AcDbSymbolTableRecord
100
AcDbLinetypeTableRecord
  2
Continuous
 70
     0
  3
Solid line
 72
    65
 73
     0
 40
0.0
  0
LTYPE
  5
37
330
5
100
AcDbSymbolTableRecord
100
AcDbLinetypeTableRecord
  2
BORDER
 70
     0
  3
 __ __ . __ __ . __ __ . __ __ . __ __ . __ __
 72
    65
 73
     6
 40
1.75
 49
0.5
 74
     0
 49
-0.25
 74
     0
 49
0.5
 74
     0
 49
-0.25
 74
     0
 49
0.0
 74
     0
 49
-0.25
 74
     0
  0
LTYPE
  5
38
330
5
100
AcDbSymbolTableRecord
100
AcDbLinetypeTableRecord
  2
BORDER2
 70
     0
  3
__.__.__.__.__.__.__.__.__.__.__.__.__.__.__
 72
    65
 73
     6
 40
0.875
 49
0.25
 74
     0
 49
-0.125
 74
     0
 49
0.25
 74
     0
 49
-0.125
 74
     0
 49
0.0
 74
     0
 49
-0.125
 74
     0
  0
LTYPE
  5
39
330
5
100
AcDbSymbolTableRecord
100
AcDbLinetypeTableRecord
  2
BORDERX2
 70
     0
  3
____  ____  .  ____  ____  .  ____  ____  .
 72
    65
 73
     6
 40
3.5
 49
1.0
 74
     0
 49
-0.5
 74
     0
 49
1.0
 74
     0
 49
-0.5
 74
     0
 49
0.0
 74
     0
 49
-0.5
 74
     0
  0
LTYPE
  5
3A
330
5
100
AcDbSymbolTableRecord
100
AcDbLinetypeTableRecord
  2
CENTER
 70
     0
  3
____ _ ____ _ ____ _ ____ _ ____ _ ____ _ ____
 72
    65
 73
     4
 40
2.0
 49
1.25
 74
     0
 49
-0.25
 74
     0
 49
0.25
 74
     0
 49
-0.25
 74
     0
  0
LTYPE
  5
3B
330
5
100
AcDbSymbolTableRecord
100
AcDbLinetypeTableRecord
  2
CENTER2
 70
     0
  3
___ _ ___ _ ___ _ ___ _ ___ _ ___ _ ___ _ ___ 
 72
    65
 73
     4
 40
1.125
 49
0.75
 74
     0
 49
-0.125
 74
     0
 49
0.125
 74
     0
 49
-0.125
 74
     0
  0
LTYPE
  5
3C
330
5
100
AcDbSymbolTableRecord
100
AcDbLinetypeTableRecord
  2
CENTERX2
 70
     0
  3
________  __  ________  __  ________  __
 72
    65
 73
     4
 40
4.0
 49
2.5
 74
     0
 49
-0.5
 74
     0
 49
0.5
 74
     0
 49
-0.5
 74
     0
  0
LTYPE
  5
3D
330
5
100
AcDbSymbolTableRecord
100
AcDbLinetypeTableRecord
  2
DASHDOT
 70
     0
  3
__ . __ . __ . __ . __ . __ . __ . __ . __ .
 72
    65
 73
     4
 40
1.0
 49
0.5
 74
     0
 49
-0.25
 74
     0
 49
0.0
 74
     0
 49
-0.25
 74
     0
  0
LTYPE
  5
3E
330
5
100
AcDbSymbolTableRecord
100
AcDbLinetypeTableRecord
  2
DASHDOT2
 70
     0
  3
_._._._._._._._._._._._._._._._._._._._._._._.
 72
    65
 73
     4
 40
0.5
 49
0.25
 74
     0
 49
-0.125
 74
     0
 49
0.0
 74
     0
 49
-0.125
 74
     0
  0
LTYPE
  5
3F
330
5
100
AcDbSymbolTableRecord
100
AcDbLinetypeTableRecord
  2
DASHDOTX2
 70
     0
  3
____  .  ____  .  ____  .  ____  .  ____  .
 72
    65
 73
     4
 40
2.0
 49
1.0
 74
     0
 49
-0.5
 74
     0
 49
0.0
 74
     0
 49
-0.5
 74
     0
  0
LTYPE
  5
40
330
5
100
AcDbSymbolTableRecord
100
AcDbLinetypeTableRecord
  2
DASHED
 70
     0
  3
__ __ __ __ __ __ __ __ __ __ __ __ __ __ __
 72
    65
 73
     2
 40
0.75
 49
0.5
 74
     0
 49
-0.25
 74
     0
  0
LTYPE
  5
41
330
5
100
AcDbSymbolTableRecord
100
AcDbLinetypeTableRecord
  2
DASHED2
 70
     0
  3
_ _ _ _ _ _ _ _ _ _ _ _ _ _ _ _ _ _ _ _ _ _ _
 72
    65
 73
     2
 40
0.375
 49
0.25
 74
     0
 49
-0.125
 74
     0
  0
LTYPE
  5
42
330
5
100
AcDbSymbolTableRecord
100
AcDbLinetypeTableRecord
  2
DASHEDX2
 70
     0
  3
____  ____  ____  ____  ____  ____  ____  ____
 72
    65
 73
     2
 40
1.5
 49
1.0
 74
     0
 49
-0.5
 74
     0
  0
LTYPE
  5
43
330
5
100
AcDbSymbolTableRecord
100
AcDbLinetypeTableRecord
  2
DIVIDE
 70
     0
  3
____ . . ____ . . ____ . . ____ . . ____ . .
 72
    65
 73
     6
 40
1.25
 49
0.5
 74
     0
 49
-0.25
 74
     0
 49
0.0
 74
     0
 49
-0.25
 74
     0
 49
0.0
 74
     0
 49
-0.25
 74
     0
  0
LTYPE
  5
44
330
5
100
AcDbSymbolTableRecord
100
AcDbLinetypeTableRecord
  2
DIVIDE2
 70
     0
  3
__..__..__..__..__..__..__..__..__..__..__..__
 72
    65
 73
     6
 40
0.625
 49
0.25
 74
     0
 49
-0.125
 74
     0
 49
0.0
 74
     0
 49
-0.125
 74
     0
 49
0.0
 74
     0
 49
-0.125
 74
     0
  0
LTYPE
  5
45
330
5
100
AcDbSymbolTableRecord
100
AcDbLinetypeTableRecord
  2
DIVIDEX2
 70
     0
  3
________  .  .  ________  .  .  ________  .  .
 72
    65
 73
     6
 40
2.5
 49
1.0
 74
     0
 49
-0.5
 74
     0
 49
0.0
 74
     0
 49
-0.5
 74
     0
 49
0.0
 74
     0
 49
-0.5
 74
     0
  0
LTYPE
  5
46
330
5
100
AcDbSymbolTableRecord
100
AcDbLinetypeTableRecord
  2
DOT
 70
     0
  3
. . . . . . . . . . . . . . . . . . . . . . .
 72
    65
 73
     2
 40
0.25
 49
0.0
 74
     0
 49
-0.25
 74
     0
  0
LTYPE
  5
47
330
5
100
AcDbSymbolTableRecord
100
AcDbLinetypeTableRecord
  2
DOT2
 70
     0
  3
..............................................
 72
    65
 73
     2
 40
0.125
 49
0.0
 74
     0
 49
-0.125
 74
     0
  0
LTYPE
  5
48
330
5
100
AcDbSymbolTableRecord
100
AcDbLinetypeTableRecord
  2
DOTX2
 70
     0
  3
.  .  .  .  .  .  .  .  .  .  .  .  .  .  .  .
 72
    65
 73
     2
 40
0.5
 49
0.0
 74
     0
 49
-0.5
 74
     0
  0
LTYPE
  5
49
330
5
100
AcDbSymbolTableRecord
100
AcDbLinetypeTableRecord
  2
HIDDEN
 70
     0
  3
__ __ __ __ __ __ __ __ __ __ __ __ __ __ __
 72
    65
 73
     2
 40
0.375
 49
0.25
 74
     0
 49
-0.125
 74
     0
  0
LTYPE
  5
4A
330
5
100
AcDbSymbolTableRecord
100
AcDbLinetypeTableRecord
  2
HIDDEN2
 70
     0
  3
_ _ _ _ _ _ _ _ _ _ _ _ _ _ _ _ _ _ _ _ _ _ _
 72
    65
 73
     2
 40
0.1875
 49
0.125
 74
     0
 49
-0.0625
 74
     0
  0
LTYPE
  5
4B
330
5
100
AcDbSymbolTableRecord
100
AcDbLinetypeTableRecord
  2
HIDDENX2
 70
     0
  3
____ ____ ____ ____ ____ ____ ____ ____ ____
 72
    65
 73
     2
 40
0.75
 49
0.5
 74
     0
 49
-0.25
 74
     0
  0
LTYPE
  5
4C
330
5
100
AcDbSymbolTableRecord
100
AcDbLinetypeTableRecord
  2
PHANTOM
 70
     0
  3
______  __  __  ______  __  __  ______  __
 72
    65
 73
     6
 40
2.5
 49
1.25
 74
     0
 49
-0.25
 74
     0
 49
0.25
 74
     0
 49
-0.25
 74
     0
 49
0.25
 74
     0
 49
-0.25
 74
     0
  0
LTYPE
  5
4D
330
5
100
AcDbSymbolTableRecord
100
AcDbLinetypeTableRecord
  2
PHANTOM2
 70
     0
  3
___ _ _ ___ _ _ ___ _ _ ___ _ _ ___ _ _ ___ _
 72
    65
 73
     6
 40
1.25
 49
0.625
 74
     0
 49
-0.125
 74
     0
 49
0.125
 74
     0
 49
-0.125
 74
     0
 49
0.125
 74
     0
 49
-0.125
 74
     0
  0
LTYPE
  5
4E
330
5
100
AcDbSymbolTableRecord
100
AcDbLinetypeTableRecord
  2
PHANTOMX2
 70
     0
  3
____________    ____    ____    ____________
 72
    65
 73
     6
 40
5.0
 49
2.5
 74
     0
 49
-0.5
 74
     0
 49
0.5
 74
     0
 49
-0.5
 74
     0
 49
0.5
 74
     0
 49
-0.5
 74
     0
  0
LTYPE
  5
4F
330
5
100
AcDbSymbolTableRecord
100
AcDbLinetypeTableRecord
  2
CONTINUOUS2
 70
     0
  3
Solid line
 72
    65
 73
     0
 40
0.0
  0
ENDTAB
  0
TABLE
  2
LAYER
  5
2
330
0
100
AcDbSymbolTable
 70
   514
  0
LAYER
  5
10
330
2
100
AcDbSymbolTableRecord
100
AcDbLayerTableRecord
  2
0
 70
     0
 62
     7
  6
Continuous
370
    -3
390
F
  0
LAYER
  5
50
330
2
100
AcDbSymbolTableRecord
100
AcDbLayerTableRecord
  2
LAYER-001
 70
     0
 62
     7
  6
Continuous
370
    -3
390
F
  0
LAYER
  5
51
330
2
100
AcDbSymbolTableRecord
100
AcDbLayerTableRecord
  2
LAYER-002
 70
     0
 62
     7
  6
Continuous
370
    -3
390
F
  0
LAYER
  5
52
330
2
100
AcDbSymbolTableRecord
100
AcDbLayerTableRecord
  2
LAYER-003
 70
     0
 62
     7
  6
Continuous
370
    -3
390
F
  0
LAYER
  5
53
330
2
100
AcDbSymbolTableRecord
100
AcDbLayerTableRecord
  2
LAYER-004
 70
     0
 62
     7
  6
Continuous
370
    -3
390
F
  0
LAYER
  5
54
330
2
100
AcDbSymbolTableRecord
100
AcDbLayerTableRecord
  2
LAYER-005
 70
     0
 62
     7
  6
Continuous
370
    -3
390
F
  0
LAYER
  5
55
330
2
100
AcDbSymbolTableRecord
100
AcDbLayerTableRecord
  2
LAYER-006
 70
     0
 62
     7
  6
Continuous
370
    -3
390
F
  0
LAYER
  5
56
330
2
100
AcDbSymbolTableRecord
100
AcDbLayerTableRecord
  2
LAYER-007
 70
     0
 62
     7
  6
Continuous
370
    -3
390
F
  0
LAYER
  5
57
330
2
100
AcDbSymbolTableRecord
100
AcDbLayerTableRecord
  2
LAYER-008
 70
     0
 62
     7
  6
Continuous
370
    -3
390
F
  0
LAYER
  5
58
330
2
100
AcDbSymbolTableRecord
100
AcDbLayerTableRecord
  2
LAYER-009
 70
     0
 62
     7
  6
Continuous
370
    -3
390
F
  0
LAYER
  5
59
330
2
100
AcDbSymbolTableRecord
100
AcDbLayerTableRecord
  2
LAYER-010
 70
     0
 62
     7
  6
Continuous
370
    -3
390
F
  0
LAYER
  5
5A
330
2
100
AcDbSymbolTableRecord
100
AcDbLayerTableRecord
  2
LAYER-011
 70
     0
 62
     7
  6
Continuous
370
    -3
390
F
  0
LAYER
  5
5B
330
2
100
AcDbSymbolTableRecord
100
AcDbLayerTableRecord
  2
LAYER-012
 70
     0
 62
     7
  6
Continuous
370
    -3
390
F
  0
LAYER
  5
5C
330
2
100
AcDbSymbolTableRecord
100
AcDbLayerTableRecord
  2
LAYER-013
 70
     0
 62
     7
  6
Continuous
370
    -3
390
F
  0
LAYER
  5
5D
330
2
100
AcDbSymbolTableRecord
100
AcDbLayerTableRecord
  2
LAYER-014
 70
     0
 62
     7
  6
Continuous
370
    -3
390
F
  0
LAYER
  5
5E
330
2
100
AcDbSymbolTableRecord
100
AcDbLayerTableRecord
  2
LAYER-015
 70
     0
 62
    -7
  6
Continuous
370
    -3
390
F
  0
LAYER
  5
5F
330
2
100
AcDbSymbolTableRecord
100
AcDbLayerTableRecord
  2
LAYER-016
 70
     0
 62
     4
  6
Continuous
370
    -3
390
F
  0
LAYER
  5
60
330
2
100
AcDbSymbolTableRecord
100
AcDbLayerTableRecord
  2
LAYER-017
 70
     0
 62
     7
  6
Continuous
370
    -3
390
F
  0
LAYER
  5
61
330
2
100
AcDbSymbolTableRecord
100
AcDbLayerTableRecord
  2
LAYER-018
 70
     0
 62
     2
  6
Continuous
370
    -3
390
F
  0
LAYER
  5
62
330
2
100
AcDbSymbolTableRecord
100
AcDbLayerTableRecord
  2
LAYER-019
 70
     0
 62
     3
  6
Continuous
370
    -3
390
F
  0
LAYER
  5
63
330
2
100
AcDbSymbolTableRecord
100
AcDbLayerTableRecord
  2
LAYER-020
 70
     0
 62
     2
  6
Continuous
370
    -3
390
F
  0
LAYER
  5
64
330
2
100
AcDbSymbolTableRecord
100
AcDbLayerTableRecord
  2
LAYER-021
 70
     0
 62
     7
  6
Continuous
370
    -3
390
F
  0
LAYER
  5
65
330
2
100
AcDbSymbolTableRecord
100
AcDbLayerTableRecord
  2
LAYER-022
 70
     0
 62
     4
  6
Continuous
370
    -3
390
F
  0
LAYER
  5
66
330
2
100
AcDbSymbolTableRecord
100
AcDbLayerTableRecord
  2
LAYER-023
 70
     0
 62
     4
  6
Continuous
370
    -3
390
F
  0
LAYER
  5
67
330
2
100
AcDbSymbolTableRecord
100
AcDbLayerTableRecord
  2
LAYER-024
 70
     0
 62
     7
  6
Continuous
370
    -3
390
F
  0
LAYER
  5
68
330
2
100
AcDbSymbolTableRecord
100
AcDbLayerTableRecord
  2
LAYER-025
 70
     0
 62
     7
  6
Continuous
370
    -3
390
F
  0
LAYER
  5
69
330
2
100
AcDbSymbolTableRecord
100
AcDbLayerTableRecord
  2
LAYER-026
 70
     0
 62
    -7
  6
Continuous
370
    -3
390
F
  0
LAYER
  5
6A
330
2
100
AcDbSymbolTableRecord
100
AcDbLayerTableRecord
  2
LAYER-027
 70
     0
 62
     7
  6
Continuous
370
    -3
390
F
  0
LAYER
  5
6B
330
2
100
AcDbSymbolTableRecord
100
AcDbLayerTableRecord
  2
LAYER-028
 70
     0
 62
     7
  6
Continuous
370
    -3
390
F
  0
LAYER
  5
6C
330
2
100
AcDbSymbolTableRecord
100
AcDbLayerTableRecord
  2
LAYER-029
 70
     0
 62
     7
  6
Continuous
370
    -3
390
F
  0
LAYER
  5
6D
330
2
100
AcDbSymbolTableRecord
100
AcDbLayerTableRecord
  2
LAYER-030
 70
     0
 62
     2
  6
Continuous
370
    -3
390
F
  0
LAYER
  5
6E
330
2
100
AcDbSymbolTableRecord
100
AcDbLayerTableRecord
  2
LAYER-031
 70
     0
 62
     7
  6
Continuous
370
    -3
390
F
  0
LAYER
  5
6F
330
2
100
AcDbSymbolTableRecord
100
AcDbLayerTableRecord
  2
LAYER-032
 70
     0
 62
     2
  6
Continuous
370
    -3
390
F
  0
LAYER
  5
70
330
2
100
AcDbSymbolTableRecord
100
AcDbLayerTableRecord
  2
LAYER-033
 70
     0
 62
     7
  6
Continuous
370
    -3
390
F
  0
LAYER
  5
71
330
2
100
AcDbSymbolTableRecord
100
AcDbLayerTableRecord
  2
LAYER-034
 70
     0
 62
     7
  6
Continuous
370
    -3
390
F
  0
LAYER
  5
72
330
2
100
AcDbSymbolTableRecord
100
AcDbLayerTableRecord
  2
LAYER-035
 70
     0
 62
     3
  6
Continuous
370
    -3
390
F
  0
LAYER
  5
73
330
2
100
AcDbSymbolTableRecord
100
AcDbLayerTableRecord
  2
LAYER-036
 70
     0
 62
     2
  6
Continuous
370
    -3
390
F
  0
LAYER
  5
74
330
2
100
AcDbSymbolTableRecord
100
AcDbLayerTableRecord
  2
LAYER-037
 70
     0
 62
     7
  6
Continuous
370
    -3
390
F
  0
LAYER
  5
75
330
2
100
AcDbSymbolTableRecord
100
AcDbLayerTableRecord
  2
LAYER-038
 70
     0
 62
     7
  6
Continuous
370
    -3
390
F
  0
LAYER
  5
76
330
2
100
AcDbSymbolTableRecord
100
AcDbLayerTableRecord
  2
LAYER-039
 70
     0
 62
     7
  6
Continuous
370
    -3
390
F
  0
LAYER
  5
77
330
2
100
AcDbSymbolTableRecord
100
AcDbLayerTableRecord
  2
LAYER-040
 70
     0
 62
     7
  6
Continuous
370
    -3
390
F
  0
LAYER
  5
78
330
2
100
AcDbSymbolTableRecord
100
AcDbLayerTableRecord
  2
LAYER-041
 70
     0
 62
     7
  6
Continuous
370
    -3
390
F
  0
LAYER
  5
79
330
2
100
AcDbSymbolTableRecord
100
AcDbLayerTableRecord
  2
LAYER-042
 70
     0
 62
     7
  6
Continuous
370
    -3
390
F
  0
LAYER
  5
7A
330
2
100
AcDbSymbolTableRecord
100
AcDbLayerTableRecord
  2
LAYER-043
 70
     0
 62
     7
  6
Continuous
370
    -3
390
F
  0
LAYER
  5
7B
330
2
100
AcDbSymbolTableRecord
100
AcDbLayerTableRecord
  2
LAYER-044
 70
     0
 62
     7
  6
Continuous
370
    -3
390
F
  0
LAYER
  5
7C
330
2
100
AcDbSymbolTableRecord
100
AcDbLayerTableRecord
  2
LAYER-045
 70
     0
 62
     7
  6
Continuous
370
    -3
390
F
  0
LAYER
  5
7D
330
2
100
AcDbSymbolTableRecord
100
AcDbLayerTableRecord
  2
LAYER-046
 70
     0
 62
     7
  6
Continuous
370
    -3
390
F
  0
LAYER
  5
7E
330
2
100
AcDbSymbolTableRecord
100
AcDbLayerTableRecord
  2
LAYER-047
 70
     0
 62
     7
  6
Continuous
370
    -3
390
F
  0
LAYER
  5
7F
330
2
100
AcDbSymbolTableRecord
100
AcDbLayerTableRecord
  2
LAYER-048
 70
     0
 62
     2
  6
Continuous
370
    -3
390
F
  0
LAYER
  5
80
330
2
100
AcDbSymbolTableRecord
100
AcDbLayerTableRecord
  2
LAYER-049
 70
     0
 62
     3
  6
Continuous
370
    -3
390
F
  0
LAYER
  5
81
330
2
100
AcDbSymbolTableRecord
100
AcDbLayerTableRecord
  2
LAYER-050
 70
     0
 62
     7
  6
Continuous
370
    -3
390
F
  0
LAYER
  5
82
330
2
100
AcDbSymbolTableRecord
100
AcDbLayerTableRecord
  2
LAYER-051
 70
     0
 62
     2
  6
Continuous
370
    -3
390
F
  0
LAYER
  5
83
330
2
100
AcDbSymbolTableRecord
100
AcDbLayerTableRecord
  2
LAYER-052
 70
     0
 62
     7
  6
Continuous
370
    -3
390
F
  0
LAYER
  5
84
330
2
100
AcDbSymbolTableRecord
100
AcDbLayerTableRecord
  2
LAYER-053
 70
     0
 62
     7
  6
Continuous
370
    -3
390
F
  0
LAYER
  5
85
330
2
100
AcDbSymbolTableRecord
100
AcDbLayerTableRecord
  2
LAYER-054
 70
     0
 62
     7
  6
Continuous
370
    -3
390
F
  0
LAYER
  5
86
330
2
100
AcDbSymbolTableRecord
100
AcDbLayerTableRecord
  2
LAYER-055
 70
     0
 62
     7
  6
Continuous
370
    -3
390
F
  0
LAYER
  5
87
330
2
100
AcDbSymbolTableRecord
100
AcDbLayerTableRecord
  2
LAYER-056
 70
     0
 62
     7
  6
Continuous
370
    -3
390
F
  0
LAYER
  5
88
330
2
100
AcDbSymbolTableRecord
100
AcDbLayerTableRecord
  2
LAYER-057
 70
     0
 62
     7
  6
Continuous
370
    -3
390
F
  0
LAYER
  5
89
330
2
100
AcDbSymbolTableRecord
100
AcDbLayerTableRecord
  2
LAYER-058
 70
     0
 62
     7
  6
Continuous
370
    -3
390
F
  0
LAYER
  5
8A
330
2
100
AcDbSymbolTableRecord
100
AcDbLayerTableRecord
  2
LAYER-059
 70
     0
 62
     7
  6
Continuous
370
    -3
390
F
  0
LAYER
  5
8B
330
2
100
AcDbSymbolTableRecord
100
AcDbLayerTableRecord
  2
LAYER-060
 70
     0
 62
     7
  6
Continuous
370
    -3
390
F
  0
LAYER
  5
8C
330
2
100
AcDbSymbolTableRecord
100
AcDbLayerTableRecord
  2
LAYER-061
 70
     0
 62
     7
  6
Continuous
370
    -3
390
F
  0
LAYER
  5
8D
330
2
100
AcDbSymbolTableRecord
100
AcDbLayerTableRecord
  2
LAYER-062
 70
     0
 62
     7
  6
Continuous
370
    -3
390
F
  0
LAYER
  5
8E
330
2
100
AcDbSymbolTableRecord
100
AcDbLayerTableRecord
  2
LAYER-063
 70
     0
 62
     7
  6
Continuous
370
    -3
390
F
  0
LAYER
  5
8F
330
2
100
AcDbSymbolTableRecord
100
AcDbLayerTableRecord
  2
LAYER-064
 70
     0
 62
     2
  6
Continuous
370
    -3
390
F
  0
LAYER
  5
90
330
2
100
AcDbSymbolTableRecord
100
AcDbLayerTableRecord
  2
LAYER-065
 70
     0
 62
     7
  6
Continuous
370
    -3
390
F
  0
LAYER
  5
91
330
2
100
AcDbSymbolTableRecord
100
AcDbLayerTableRecord
  2
LAYER-066
 70
     0
 62
     2
  6
Continuous
370
    -3
390
F
  0
LAYER
  5
92
330
2
100
AcDbSymbolTableRecord
100
AcDbLayerTableRecord
  2
LAYER-067
 70
     0
 62
     2
  6
Continuous
370
    -3
390
F
  0
LAYER
  5
93
330
2
100
AcDbSymbolTableRecord
100
AcDbLayerTableRecord
  2
LAYER-068
 70
     0
 62
     7
  6
Continuous
370
    -3
390
F
  0
LAYER
  5
94
330
2
100
AcDbSymbolTableRecord
100
AcDbLayerTableRecord
  2
LAYER-069
 70
     0
 62
     7
  6
Continuous
370
    -3
390
F
  0
LAYER
  5
95
330
2
100
AcDbSymbolTableRecord
100
AcDbLayerTableRecord
  2
LAYER-070
 70
     0
 62
     7
  6
Continuous
370
    -3
390
F
  0
LAYER
  5
96
330
2
100
AcDbSymbolTableRecord
100
AcDbLayerTableRecord
  2
LAYER-071
 70
     0
 62
     7
  6
Continuous
370
    -3
390
F
  0
LAYER
  5
97
330
2
100
AcDbSymbolTableRecord
100
AcDbLayerTableRecord
  2
LAYER-072
 70
     0
 62
     7
  6
Continuous
370
    -3
390
F
  0
LAYER
  5
98
330
2
100
AcDbSymbolTableRecord
100
AcDbLayerTableRecord
  2
LAYER-073
 70
     0
 62
     7
  6
Continuous
370
    -3
390
F
  0
LAYER
  5
99
330
2
100
AcDbSymbolTableRecord
100
AcDbLayerTableRecord
  2
LAYER-074
 70
     0
 62
     7
  6
Continuous
370
    -3
390
F
  0
LAYER
  5
9A
330
2
100
AcDbSymbolTableRecord
100
AcDbLayerTableRecord
  2
LAYER-075
 70
     0
 62
     7
  6
Continuous
370
    -3
390
F
  0
LAYER
  5
9B
330
2
100
AcDbSymbolTableRecord
100
AcDbLayerTableRecord
  2
LAYER-076
 70
     0
 62
     7
  6
Continuous
370
    -3
390
F
  0
LAYER
  5
9C
330
2
100
AcDbSymbolTableRecord
100
AcDbLayerTableRecord
  2
LAYER-077
 70
     0
 62
     7
  6
Continuous
370
    -3
390
F
  0
LAYER
  5
9D
330
2
100
AcDbSymbolTableRecord
100
AcDbLayerTableRecord
  2
LAYER-078
 70
     0
 62
     7
  6
Continuous
370
    -3
390
F
  0
LAYER
  5
9E
330
2
100
AcDbSymbolTableRecord
100
AcDbLayerTableRecord
  2
LAYER-079
 70
     0
 62
     7
  6
Continuous
370
    -3
390
F
  0
LAYER
  5
9F
330
2
100
AcDbSymbolTableRecord
100
AcDbLayerTableRecord
  2
LAYER-080
 70
     0
 62
     2
  6
Continuous
370
    -3
390
F
  0
LAYER
  5
A0
330
2
100
AcDbSymbolTableRecord
100
AcDbLayerTableRecord
  2
LAYER-081
 70
     0
 62
     7
  6
Continuous
370
    -3
390
F
  0
LAYER
  5
A1
330
2
100
AcDbSymbolTableRecord
100
AcDbLayerTableRecord
  2
LAYER-082
 70
     0
 62
     7
  6
Continuous
370
    -3
390
F
  0
LAYER
  5
A2
330
2
100
AcDbSymbolTableRecord
100
AcDbLayerTableRecord
  2
LAYER-083
 70
     0
 62
     7
  6
Continuous
370
    -3
390
F
  0
LAYER
  5
A3
330
2
100
AcDbSymbolTableRecord
100
AcDbLayerTableRecord
  2
LAYER-084
 70
     0
 62
     7
  6
Continuous
370
    -3
390
F
  0
LAYER
  5
A4
330
2
100
AcDbSymbolTableRecord
100
AcDbLayerTableRecord
  2
LAYER-085
 70
     0
 62
     7
  6
Continuous
370
    -3
390
F
  0
LAYER
  5
A5
330
2
100
AcDbSymbolTableRecord
100
AcDbLayerTableRecord
  2
LAYER-086
 70
     0
 62
     7
  6
Continuous
370
    -3
390
F
  0
LAYER
  5
A6
330
2
100
AcDbSymbolTableRecord
100
AcDbLayerTableRecord
  2
LAYER-087
 70
     0
 62
     7
  6
Continuous
370
    -3
390
F
  0
LAYER
  5
A7
330
2
100
AcDbSymbolTableRecord
100
AcDbLayerTableRecord
  2
LAYER-088
 70
     0
 62
     7
  6
Continuous
370
    -3
390
F
  0
LAYER
  5
A8
330
2
100
AcDbSymbolTableRecord
100
AcDbLayerTableRecord
  2
LAYER-089
 70
     0
 62
     7
  6
Continuous
370
    -3
390
F
  0
LAYER
  5
A9
330
2
100
AcDbSymbolTableRecord
100
AcDbLayerTableRecord
  2
LAYER-090
 70
     0
 62
     7
  6
Continuous
370
    -3
390
F
  0
LAYER
  5
AA
330
2
100
AcDbSymbolTableRecord
100
AcDbLayerTableRecord
  2
LAYER-091
 70
     0
 62
     7
  6
Continuous
370
    -3
390
F
  0
LAYER
  5
AB
330
2
100
AcDbSymbolTableRecord
100
AcDbLayerTableRecord
  2
LAYER-092
 70
     0
 62
     7
  6
Continuous
370
    -3
390
F
  0
LAYER
  5
AC
330
2
100
AcDbSymbolTableRecord
100
AcDbLayerTableRecord
  2
LAYER-093
 70
     0
 62
     7
  6
Continuous
370
    -3
390
F
  0
LAYER
  5
AD
330
2
100
AcDbSymbolTableRecord
100
AcDbLayerTableRecord
  2
LAYER-094
 70
     0
 62
     7
  6
Continuous
370
    -3
390
F
  0
LAYER
  5
AE
330
2
100
AcDbSymbolTableRecord
100
AcDbLayerTableRecord
  2
LAYER-095
 70
     0
 62
     7
  6
Continuous
370
    -3
390
F
  0
LAYER
  5
AF
330
2
100
AcDbSymbolTableRecord
100
AcDbLayerTableRecord
  2
LAYER-096
 70
     0
 62
     7
  6
Continuous
370
    -3
390
F
  0
LAYER
  5
B0
330
2
100
AcDbSymbolTableRecord
100
AcDbLayerTableRecord
  2
LAYER-097
 70
     0
 62
     7
  6
Continuous
370
    -3
390
F
  0
LAYER
  5
B1
330
2
100
AcDbSymbolTableRecord
100
AcDbLayerTableRecord
  2
LAYER-098
 70
     0
 62
     7
  6
Continuous
370
    -3
390
F
  0
LAYER
  5
B2
330
2
100
AcDbSymbolTableRecord
100
AcDbLayerTableRecord
  2
LAYER-099
 70
     0
 62
     7
  6
Continuous
370
    -3
390
F
  0
LAYER
  5
B3
330
2
100
AcDbSymbolTableRecord
100
AcDbLayerTableRecord
  2
LAYER-100
 70
     0
 62
     7
  6
Continuous
370
    -3
390
F
  0
LAYER
  5
B4
330
2
100
AcDbSymbolTableRecord
100
AcDbLayerTableRecord
  2
LAYER-101
 70
     0
 62
     7
  6
Continuous
370
    -3
390
F
  0
LAYER
  5
B5
330
2
100
AcDbSymbolTableRecord
100
AcDbLayerTableRecord
  2
LAYER-102
 70
     0
 62
     7
  6
Continuous
370
    -3
390
F
  0
LAYER
  5
B6
330
2
100
AcDbSymbolTableRecord
100
AcDbLayerTableRecord
  2
LAYER-103
 70
     0
 62
     7
  6
Continuous
370
    -3
390
F
  0
LAYER
  5
B7
330
2
100
AcDbSymbolTableRecord
100
AcDbLayerTableRecord
  2
LAYER-104
 70
     0
 62
     7
  6
Continuous
370
    -3
390
F
  0
LAYER
  5
B8
330
2
100
AcDbSymbolTableRecord
100
AcDbLayerTableRecord
  2
LAYER-105
 70
     0
 62
     7
  6
Continuous
370
    -3
390
F
  0
LAYER
  5
B9
330
2
100
AcDbSymbolTableRecord
100
AcDbLayerTableRecord
  2
LAYER-106
 70
     0
 62
     7
  6
Continuous
370
    -3
390
F
  0
LAYER
  5
BA
330
2
100
AcDbSymbolTableRecord
100
AcDbLayerTableRecord
  2
LAYER-107
 70
     0
 62
     7
  6
Continuous
370
    -3
390
F
  0
LAYER
  5
BB
330
2
100
AcDbSymbolTableRecord
100
AcDbLayerTableRecord
  2
LAYER-108
 70
     0
 62
     7
  6
Continuous
370
    -3
390
F
  0
LAYER
  5
BC
330
2
100
AcDbSymbolTableRecord
100
AcDbLayerTableRecord
  2
LAYER-109
 70
     0
 62
     7
  6
Continuous
370
    -3
390
F
  0
LAYER
  5
BD
330
2
100
AcDbSymbolTableRecord
100
AcDbLayerTableRecord
  2
LAYER-110
 70
     0
 62
     7
  6
Continuous
370
    -3
390
F
  0
LAYER
  5
BE
330
2
100
AcDbSymbolTableRecord
100
AcDbLayerTableRecord
  2
LAYER-111
 70
     0
 62
     7
  6
Continuous
370
    -3
390
F
  0
LAYER
  5
BF
330
2
100
AcDbSymbolTableRecord
100
AcDbLayerTableRecord
  2
LAYER-112
 70
     0
 62
     7
  6
Continuous
370
    -3
390
F
  0
LAYER
  5
C0
330
2
100
AcDbSymbolTableRecord
100
AcDbLayerTableRecord
  2
LAYER-113
 70
     0
 62
     7
  6
Continuous
370
    -3
390
F
  0
LAYER
  5
C1
330
2
100
AcDbSymbolTableRecord
100
AcDbLayerTableRecord
  2
LAYER-114
 70
     0
 62
     7
  6
Continuous
370
    -3
390
F
  0
LAYER
  5
C2
330
2
100
AcDbSymbolTableRecord
100
AcDbLayerTableRecord
  2
LAYER-115
 70
     0
 62
     7
  6
Continuous
370
    -3
390
F
  0
LAYER
  5
C3
330
2
100
AcDbSymbolTableRecord
100
AcDbLayerTableRecord
  2
LAYER-116
 70
     0
 62
     7
  6
Continuous
370
    -3
390
F
  0
LAYER
  5
C4
330
2
100
AcDbSymbolTableRecord
100
AcDbLayerTableRecord
  2
LAYER-117
 70
     0
 62
     7
  6
Continuous
370
    -3
390
F
  0
LAYER
  5
C5
330
2
100
AcDbSymbolTableRecord
100
AcDbLayerTableRecord
  2
LAYER-118
 70
     0
 62
     7
  6
Continuous
370
    -3
390
F
  0
LAYER
  5
C6
330
2
100
AcDbSymbolTableRecord
100
AcDbLayerTableRecord
  2
LAYER-119
 70
     0
 62
     7
  6
Continuous
370
    -3
390
F
  0
LAYER
  5
C7
330
2
100
AcDbSymbolTableRecord
100
AcDbLayerTableRecord
  2
LAYER-120
 70
     0
 62
     7
  6
Continuous
370
    -3
390
F
  0
LAYER
  5
C8
330
2
100
AcDbSymbolTableRecord
100
AcDbLayerTableRecord
  2
LAYER-121
 70
     0
 62
     7
  6
Continuous
370
    -3
390
F
  0
LAYER
  5
C9
330
2
100
AcDbSymbolTableRecord
100
AcDbLayerTableRecord
  2
LAYER-122
 70
     0
 62
     7
  6
Continuous
370
    -3
390
F
  0
LAYER
  5
CA
330
2
100
AcDbSymbolTableRecord
100
AcDbLayerTableRecord
  2
LAYER-123
 70
     0
 62
     7
  6
Continuous
370
    -3
390
F
  0
LAYER
  5
CB
330
2
100
AcDbSymbolTableRecord
100
AcDbLayerTableRecord
  2
LAYER-124
 70
     0
 62
     7
  6
Continuous
370
    -3
390
F
  0
LAYER
  5
CC
330
2
100
AcDbSymbolTableRecord
100
AcDbLayerTableRecord
  2
LAYER-125
 70
     0
 62
     7
  6
Continuous
370
    -3
390
F
  0
LAYER
  5
CD
330
2
100
AcDbSymbolTableRecord
100
AcDbLayerTableRecord
  2
LAYER-126
 70
     0
 62
     7
  6
Continuous
370
    -3
390
F
  0
LAYER
  5
CE
330
2
100
AcDbSymbolTableRecord
100
AcDbLayerTableRecord
  2
LAYER-127
 70
     0
 62
     7
  6
Continuous
370
    -3
390
F
  0
LAYER
  5
CF
330
2
100
AcDbSymbolTableRecord
100
AcDbLayerTableRecord
  2
LAYER-128
 70
     0
 62
     7
  6
Continuous
370
    -3
390
F
  0
LAYER
  5
D0
330
2
100
AcDbSymbolTableRecord
100
AcDbLayerTableRecord
  2
LAYER-129
 70
     0
 62
     7
  6
Continuous
370
    -3
390
F
  0
LAYER
  5
D1
330
2
100
AcDbSymbolTableRecord
100
AcDbLayerTableRecord
  2
LAYER-130
 70
     0
 62
     7
  6
Continuous
370
    -3
390
F
  0
LAYER
  5
D2
330
2
100
AcDbSymbolTableRecord
100
AcDbLayerTableRecord
  2
LAYER-131
 70
     0
 62
     7
  6
Continuous
370
    -3
390
F
  0
LAYER
  5
D3
330
2
100
AcDbSymbolTableRecord
100
AcDbLayerTableRecord
  2
LAYER-132
 70
     0
 62
     7
  6
Continuous
370
    -3
390
F
  0
LAYER
  5
D4
330
2
100
AcDbSymbolTableRecord
100
AcDbLayerTableRecord
  2
LAYER-133
 70
     0
 62
     7
  6
Continuous
370
    -3
390
F
  0
LAYER
  5
D5
330
2
100
AcDbSymbolTableRecord
100
AcDbLayerTableRecord
  2
LAYER-134
 70
     0
 62
     7
  6
Continuous
370
    -3
390
F
  0
LAYER
  5
D6
330
2
100
AcDbSymbolTableRecord
100
AcDbLayerTableRecord
  2
LAYER-135
 70
     0
 62
    -4
  6
Continuous
370
    -3
390
F
  0
LAYER
  5
D7
330
2
100
AcDbSymbolTableRecord
100
AcDbLayerTableRecord
  2
LAYER-136
 70
     0
 62
    -3
  6
Continuous
370
    -3
390
F
  0
LAYER
  5
D8
330
2
100
AcDbSymbolTableRecord
100
AcDbLayerTableRecord
  2
LAYER-137
 70
     0
 62
    -1
  6
Continuous
370
    -3
390
F
  0
LAYER
  5
D9
330
2
100
AcDbSymbolTableRecord
100
AcDbLayerTableRecord
  2
LAYER-138
 70
     0
 62
     7
  6
Continuous
370
    -3
390
F
  0
LAYER
  5
DA
330
2
100
AcDbSymbolTableRecord
100
AcDbLayerTableRecord
  2
LAYER-139
 70
     0
 62
     7
  6
Continuous
370
    -3
390
F
  0
LAYER
  5
DB
330
2
100
AcDbSymbolTableRecord
100
AcDbLayerTableRecord
  2
LAYER-140
 70
     0
 62
     7
  6
Continuous
370
    -3
390
F
  0
LAYER
  5
DC
330
2
100
AcDbSymbolTableRecord
100
AcDbLayerTableRecord
  2
LAYER-141
 70
     0
 62
     7
  6
Continuous
370
    -3
390
F
  0
LAYER
  5
DD
330
2
100
AcDbSymbolTableRecord
100
AcDbLayerTableRecord
  2
LAYER-142
 70
     0
 62
     3
  6
Continuous
370
    -3
390
F
  0
LAYER
  5
DE
330
2
100
AcDbSymbolTableRecord
100
AcDbLayerTableRecord
  2
LAYER-143
 70
     0
 62
     7
  6
Continuous
370
    -3
390
F
  0
LAYER
  5
DF
330
2
100
AcDbSymbolTableRecord
100
AcDbLayerTableRecord
  2
LAYER-144
 70
     0
 62
     7
  6
Continuous
370
    -3
390
F
  0
LAYER
  5
E0
330
2
100
AcDbSymbolTableRecord
100
AcDbLayerTableRecord
  2
LAYER-145
 70
     0
 62
     3
  6
Continuous
370
    -3
390
F
  0
LAYER
  5
E1
330
2
100
AcDbSymbolTableRecord
100
AcDbLayerTableRecord
  2
LAYER-146
 70
     0
 62
     7
  6
Continuous
370
    -3
390
F
  0
LAYER
  5
E2
330
2
100
AcDbSymbolTableRecord
100
AcDbLayerTableRecord
  2
LAYER-147
 70
     0
 62
     7
  6
Continuous
370
    -3
390
F
  0
LAYER
  5
E3
330
2
100
AcDbSymbolTableRecord
100
AcDbLayerTableRecord
  2
LAYER-148
 70
     0
 62
     7
  6
Continuous
370
    -3
390
F
  0
LAYER
  5
E4
330
2
100
AcDbSymbolTableRecord
100
AcDbLayerTableRecord
  2
LAYER-149
 70
     0
 62
     7
  6
Continuous
370
    -3
390
F
  0
LAYER
  5
E5
330
2
100
AcDbSymbolTableRecord
100
AcDbLayerTableRecord
  2
LAYER-150
 70
     0
 62
     7
  6
Continuous
370
    -3
390
F
  0
LAYER
  5
E6
330
2
100
AcDbSymbolTableRecord
100
AcDbLayerTableRecord
  2
LAYER-151
 70
     0
 62
     7
  6
Continuous
370
    -3
390
F
  0
LAYER
  5
E7
330
2
100
AcDbSymbolTableRecord
100
AcDbLayerTableRecord
  2
LAYER-152
 70
     0
 62
     7
  6
Continuous
370
    -3
390
F
  0
LAYER
  5
E8
330
2
100
AcDbSymbolTableRecord
100
AcDbLayerTableRecord
  2
LAYER-153
 70
     0
 62
     7
  6
Continuous
370
    -3
390
F
  0
LAYER
  5
E9
330
2
100
AcDbSymbolTableRecord
100
AcDbLayerTableRecord
  2
LAYER-154
 70
     0
 62
     7
  6
Continuous
370
    -3
390
F
  0
LAYER
  5
EA
330
2
100
AcDbSymbolTableRecord
100
AcDbLayerTableRecord
  2
LAYER-155
 70
     0
 62
     7
  6
Continuous
370
    -3
390
F
  0
LAYER
  5
EB
330
2
100
AcDbSymbolTableRecord
100
AcDbLayerTableRecord
  2
LAYER-156
 70
     0
 62
     7
  6
Continuous
370
    -3
390
F
  0
LAYER
  5
EC
330
2
100
AcDbSymbolTableRecord
100
AcDbLayerTableRecord
  2
LAYER-157
 70
     0
 62
     7
  6
Continuous
370
    -3
390
F
  0
LAYER
  5
ED
330
2
100
AcDbSymbolTableRecord
100
AcDbLayerTableRecord
  2
LAYER-158
 70
     0
 62
     7
  6
Continuous
370
    -3
390
F
  0
LAYER
  5
EE
330
2
100
AcDbSymbolTableRecord
100
AcDbLayerTableRecord
  2
LAYER-159
 70
     0
 62
     7
  6
Continuous
370
    -3
390
F
  0
LAYER
  5
EF
330
2
100
AcDbSymbolTableRecord
100
AcDbLayerTableRecord
  2
LAYER-160
 70
     0
 62
     7
  6
Continuous
370
    -3
390
F
  0
LAYER
  5
F0
330
2
100
AcDbSymbolTableRecord
100
AcDbLayerTableRecord
  2
LAYER-161
 70
     0
 62
     7
  6
Continuous
370
    -3
390
F
  0
LAYER
  5
F1
330
2
100
AcDbSymbolTableRecord
100
AcDbLayerTableRecord
  2
LAYER-162
 70
     0
 62
     7
  6
Continuous
370
    -3
390
F
  0
LAYER
  5
F2
330
2
100
AcDbSymbolTableRecord
100
AcDbLayerTableRecord
  2
LAYER-163
 70
     0
 62
     7
  6
Continuous
370
    -3
390
F
  0
LAYER
  5
F3
330
2
100
AcDbSymbolTableRecord
100
AcDbLayerTableRecord
  2
LAYER-164
 70
     0
 62
     7
  6
Continuous
370
    -3
390
F
  0
LAYER
  5
F4
330
2
100
AcDbSymbolTableRecord
100
AcDbLayerTableRecord
  2
LAYER-165
 70
     0
 62
     7
  6
Continuous
370
    -3
390
F
  0
LAYER
  5
F5
330
2
100
AcDbSymbolTableRecord
100
AcDbLayerTableRecord
  2
LAYER-166
 70
     0
 62
     7
  6
Continuous
370
    -3
390
F
  0
LAYER
  5
F6
330
2
100
AcDbSymbolTableRecord
100
AcDbLayerTableRecord
  2
LAYER-167
 70
     0
 62
     7
  6
Continuous
370
    -3
390
F
  0
LAYER
  5
F7
330
2
100
AcDbSymbolTableRecord
100
AcDbLayerTableRecord
  2
LAYER-168
 70
     0
 62
     7
  6
Continuous
370
    -3
390
F
  0
LAYER
  5
F8
330
2
100
AcDbSymbolTableRecord
100
AcDbLayerTableRecord
  2
LAYER-169
 70
     0
 62
     7
  6
Continuous
370
    -3
390
F
  0
LAYER
  5
F9
330
2
100
AcDbSymbolTableRecord
100
AcDbLayerTableRecord
  2
LAYER-170
 70
     0
 62
     7
  6
Continuous
370
    -3
390
F
  0
LAYER
  5
FA
330
2
100
AcDbSymbolTableRecord
100
AcDbLayerTableRecord
  2
LAYER-171
 70
     0
 62
     7
  6
Continuous
370
    -3
390
F
  0
LAYER
  5
FB
330
2
100
AcDbSymbolTableRecord
100
AcDbLayerTableRecord
  2
LAYER-172
 70
     0
 62
     7
  6
Continuous
370
    -3
390
F
  0
LAYER
  5
FC
330
2
100
AcDbSymbolTableRecord
100
AcDbLayerTableRecord
  2
LAYER-173
 70
     0
 62
     7
  6
Continuous
370
    -3
390
F
  0
LAYER
  5
FD
330
2
100
AcDbSymbolTableRecord
100
AcDbLayerTableRecord
  2
LAYER-174
 70
     0
 62
     7
  6
Continuous
370
    -3
390
F
  0
LAYER
  5
FE
330
2
100
AcDbSymbolTableRecord
100
AcDbLayerTableRecord
  2
LAYER-175
 70
     0
 62
     7
  6
Continuous
370
    -3
390
F
  0
LAYER
  5
FF
330
2
100
AcDbSymbolTableRecord
100
AcDbLayerTableRecord
  2
LAYER-176
 70
     0
 62
     7
  6
Continuous
370
    -3
390
F
  0
LAYER
  5
100
330
2
100
AcDbSymbolTableRecord
100
AcDbLayerTableRecord
  2
LAYER-177
 70
     0
 62
     7
  6
Continuous
370
    -3
390
F
  0
LAYER
  5
101
330
2
100
AcDbSymbolTableRecord
100
AcDbLayerTableRecord
  2
LAYER-178
 70
     0
 62
     7
  6
Continuous
370
    -3
390
F
  0
LAYER
  5
102
330
2
100
AcDbSymbolTableRecord
100
AcDbLayerTableRecord
  2
LAYER-179
 70
     0
 62
     7
  6
Continuous
370
    -3
390
F
  0
LAYER
  5
103
330
2
100
AcDbSymbolTableRecord
100
AcDbLayerTableRecord
  2
LAYER-180
 70
     0
 62
     7
  6
Continuous
370
    -3
390
F
  0
LAYER
  5
104
330
2
100
AcDbSymbolTableRecord
100
AcDbLayerTableRecord
  2
LAYER-181
 70
     0
 62
     7
  6
Continuous
370
    -3
390
F
  0
LAYER
  5
105
330
2
100
AcDbSymbolTableRecord
100
AcDbLayerTableRecord
  2
LAYER-182
 70
     0
 62
     7
  6
Continuous
370
    -3
390
F
  0
LAYER
  5
106
330
2
100
AcDbSymbolTableRecord
100
AcDbLayerTableRecord
  2
LAYER-183
 70
     0
 62
     7
  6
Continuous
370
    -3
390
F
  0
LAYER
  5
107
330
2
100
AcDbSymbolTableRecord
100
AcDbLayerTableRecord
  2
LAYER-184
 70
     0
 62
     7
  6
Continuous
370
    -3
390
F
  0
LAYER
  5
108
330
2
100
AcDbSymbolTableRecord
100
AcDbLayerTableRecord
  2
LAYER-185
 70
     0
 62
     7
  6
Continuous
370
    -3
390
F
  0
LAYER
  5
109
330
2
100
AcDbSymbolTableRecord
100
AcDbLayerTableRecord
  2
LAYER-186
 70
     0
 62
     7
  6
Continuous
370
    -3
390
F
  0
LAYER
  5
10A
330
2
100
AcDbSymbolTableRecord
100
AcDbLayerTableRecord
  2
LAYER-187
 70
     0
 62
     7
  6
Continuous
370
    -3
390
F
  0
LAYER
  5
10B
330
2
100
AcDbSymbolTableRecord
100
AcDbLayerTableRecord
  2
LAYER-188
 70
     0
 62
     7
  6
Continuous
370
    -3
390
F
  0
LAYER
  5
10C
330
2
100
AcDbSymbolTableRecord
100
AcDbLayerTableRecord
  2
LAYER-189
 70
     0
 62
     7
  6
Continuous
370
    -3
390
F
  0
LAYER
  5
10D
330
2
100
AcDbSymbolTableRecord
100
AcDbLayerTableRecord
  2
LAYER-190
 70
     0
 62
     7
  6
Continuous
370
    -3
390
F
  0
LAYER
  5
10E
330
2
100
AcDbSymbolTableRecord
100
AcDbLayerTableRecord
  2
LAYER-191
 70
     0
 62
     7
  6
Continuous
370
    -3
390
F
  0
LAYER
  5
10F
330
2
100
AcDbSymbolTableRecord
100
AcDbLayerTableRecord
  2
LAYER-192
 70
     0
 62
     7
  6
Continuous
370
    -3
390
F
  0
LAYER
  5
110
330
2
100
AcDbSymbolTableRecord
100
AcDbLayerTableRecord
  2
LAYER-193
 70
     0
 62
     7
  6
Continuous
370
    -3
390
F
  0
LAYER
  5
111
330
2
100
AcDbSymbolTableRecord
100
AcDbLayerTableRecord
  2
LAYER-194
 70
     0
 62
     2
  6
Continuous
370
    -3
390
F
  0
LAYER
  5
112
330
2
100
AcDbSymbolTableRecord
100
AcDbLayerTableRecord
  2
LAYER-195
 70
     0
 62
     2
  6
Continuous
370
    -3
390
F
  0
LAYER
  5
113
330
2
100
AcDbSymbolTableRecord
100
AcDbLayerTableRecord
  2
LAYER-196
 70
     0
 62
     2
  6
Continuous
370
    -3
390
F
  0
LAYER
  5
114
330
2
100
AcDbSymbolTableRecord
100
AcDbLayerTableRecord
  2
LAYER-197
 70
     0
 62
     7
  6
Continuous
370
    -3
390
F
  0
LAYER
  5
115
330
2
100
AcDbSymbolTableRecord
100
AcDbLayerTableRecord
  2
LAYER-198
 70
     0
 62
     7
  6
Continuous
370
    -3
390
F
  0
LAYER
  5
116
330
2
100
AcDbSymbolTableRecord
100
AcDbLayerTableRecord
  2
LAYER-199
 70
     0
 62
     4
  6
Continuous
370
    -3
390
F
  0
LAYER
  5
117
330
2
100
AcDbSymbolTableRecord
100
AcDbLayerTableRecord
  2
LAYER-200
 70
     0
 62
     1
  6
Continuous
370
    -3
390
F
  0
LAYER
  5
118
330
2
100
AcDbSymbolTableRecord
100
AcDbLayerTableRecord
  2
LAYER-201
 70
     0
 62
     1
  6
Continuous
370
    -3
390
F
  0
LAYER
  5
119
330
2
100
AcDbSymbolTableRecord
100
AcDbLayerTableRecord
  2
LAYER-202
 70
     0
 62
     2
  6
Continuous
370
    -3
390
F
  0
LAYER
  5
11A
330
2
100
AcDbSymbolTableRecord
100
AcDbLayerTableRecord
  2
LAYER-203
 70
     0
 62
     2
  6
Continuous
370
    -3
390
F
  0
LAYER
  5
11B
330
2
100
AcDbSymbolTableRecord
100
AcDbLayerTableRecord
  2
LAYER-204
 70
     0
 62
     7
  6
Continuous
370
    -3
390
F
  0
LAYER
  5
11C
330
2
100
AcDbSymbolTableRecord
100
AcDbLayerTableRecord
  2
LAYER-205
 70
     0
 62
     7
  6
Continuous
370
    -3
390
F
  0
LAYER
  5
11D
330
2
100
AcDbSymbolTableRecord
100
AcDbLayerTableRecord
  2
LAYER-206
 70
     0
 62
     7
  6
Continuous
370
    -3
390
F
  0
LAYER
  5
11E
330
2
100
AcDbSymbolTableRecord
100
AcDbLayerTableRecord
  2
LAYER-207
 70
     0
 62
    -7
  6
Continuous
370
    -3
390
F
  0
LAYER
  5
11F
330
2
100
AcDbSymbolTableRecord
100
AcDbLayerTableRecord
  2
LAYER-208
 70
     0
 62
     2
  6
Continuous
370
    -3
390
F
  0
LAYER
  5
120
330
2
100
AcDbSymbolTableRecord
100
AcDbLayerTableRecord
  2
LAYER-209
 70
     0
 62
     7
  6
Continuous
370
    -3
390
F
  0
LAYER
  5
121
330
2
100
AcDbSymbolTableRecord
100
AcDbLayerTableRecord
  2
LAYER-210
 70
     0
 62
     2
  6
Continuous
290
     0
370
    -3
390
F
  0
LAYER
  5
122
330
2
100
AcDbSymbolTableRecord
100
AcDbLayerTableRecord
  2
LAYER-211
 70
     0
 62
     7
  6
Continuous
370
    -3
390
F
  0
LAYER
  5
123
330
2
100
AcDbSymbolTableRecord
100
AcDbLayerTableRecord
  2
LAYER-212
 70
     0
 62
     7
  6
Continuous
370
    -3
390
F
  0
LAYER
  5
124
330
2
100
AcDbSymbolTableRecord
100
AcDbLayerTableRecord
  2
LAYER-213
 70
     0
 62
     2
  6
Continuous
370
    -3
390
F
  0
LAYER
  5
125
330
2
100
AcDbSymbolTableRecord
100
AcDbLayerTableRecord
  2
LAYER-214
 70
     0
 62
     7
  6
Continuous
370
    -3
390
F
  0
LAYER
  5
126
330
2
100
AcDbSymbolTableRecord
100
AcDbLayerTableRecord
  2
LAYER-215
 70
     0
 62
     7
  6
Continuous
370
    -3
390
F
  0
LAYER
  5
127
330
2
100
AcDbSymbolTableRecord
100
AcDbLayerTableRecord
  2
LAYER-216
 70
     0
 62
     4
  6
Continuous
370
    -3
390
F
  0
LAYER
  5
128
330
2
100
AcDbSymbolTableRecord
100
AcDbLayerTableRecord
  2
LAYER-217
 70
     0
 62
     7
  6
Continuous
370
    -3
390
F
  0
LAYER
  5
129
330
2
100
AcDbSymbolTableRecord
100
AcDbLayerTableRecord
  2
LAYER-218
 70
     0
 62
     7
  6
Continuous
370
    -3
390
F
  0
LAYER
  5
12A
330
2
100
AcDbSymbolTableRecord
100
AcDbLayerTableRecord
  2
LAYER-219
 70
     0
 62
     7
  6
Continuous
370
    -3
390
F
  0
LAYER
  5
12B
330
2
100
AcDbSymbolTableRecord
100
AcDbLayerTableRecord
  2
LAYER-220
 70
     0
 62
     4
  6
Continuous
370
    -3
390
F
  0
LAYER
  5
12C
330
2
100
AcDbSymbolTableRecord
100
AcDbLayerTableRecord
  2
LAYER-221
 70
     0
 62
    -7
  6
Continuous
290
     0
370
    -3
390
F
  0
LAYER
  5
12D
330
2
100
AcDbSymbolTableRecord
100
AcDbLayerTableRecord
  2
LAYER-222
 70
     0
 62
    -4
  6
Continuous
290
     0
370
    -3
390
F
  0
LAYER
  5
12E
330
2
100
AcDbSymbolTableRecord
100
AcDbLayerTableRecord
  2
LAYER-223
 70
     0
 62
    -1
  6
Continuous
290
     0
370
    -3
390
F
  0
LAYER
  5
12F
330
2
100
AcDbSymbolTableRecord
100
AcDbLayerTableRecord
  2
LAYER-224
 70
     0
 62
    -1
  6
Continuous
290
     0
370
    -3
390
F
  0
LAYER
  5
130
330
2
100
AcDbSymbolTableRecord
100
AcDbLayerTableRecord
  2
LAYER-225
 70
     0
 62
     7
  6
Continuous
370
    -3
390
F
  0
LAYER
  5
131
330
2
100
AcDbSymbolTableRecord
100
AcDbLayerTableRecord
  2
LAYER-226
 70
     0
 62
     2
  6
Continuous
370
    -3
390
F
  0
LAYER
  5
132
330
2
100
AcDbSymbolTableRecord
100
AcDbLayerTableRecord
  2
LAYER-227
 70
     0
 62
     7
  6
Continuous
370
    -3
390
F
  0
LAYER
  5
133
330
2
100
AcDbSymbolTableRecord
100
AcDbLayerTableRecord
  2
LAYER-228
 70
     0
 62
     7
  6
Continuous
370
    -3
390
F
  0
LAYER
  5
134
330
2
100
AcDbSymbolTableRecord
100
AcDbLayerTableRecord
  2
LAYER-229
 70
     0
 62
     7
  6
Continuous
370
    -3
390
F
  0
LAYER
  5
135
330
2
100
AcDbSymbolTableRecord
100
AcDbLayerTableRecord
  2
LAYER-230
 70
     0
 62
     7
  6
Continuous
370
    -3
390
F
  0
LAYER
  5
136
330
2
100
AcDbSymbolTableRecord
100
AcDbLayerTableRecord
  2
LAYER-231
 70
     0
 62
     7
  6
Continuous
370
    -3
390
F
  0
LAYER
  5
137
330
2
100
AcDbSymbolTableRecord
100
AcDbLayerTableRecord
  2
LAYER-232
 70
     0
 62
     7
  6
Continuous
370
    -3
390
F
  0
LAYER
  5
138
330
2
100
AcDbSymbolTableRecord
100
AcDbLayerTableRecord
  2
LAYER-233
 70
     0
 62
     7
  6
Continuous
370
    -3
390
F
  0
LAYER
  5
139
330
2
100
AcDbSymbolTableRecord
100
AcDbLayerTableRecord
  2
LAYER-234
 70
     0
 62
     7
  6
Continuous
370
    -3
390
F
  0
LAYER
  5
13A
330
2
100
AcDbSymbolTableRecord
100
AcDbLayerTableRecord
  2
LAYER-235
 70
     0
 62
     7
  6
Continuous
370
    -3
390
F
  0
LAYER
  5
13B
330
2
100
AcDbSymbolTableRecord
100
AcDbLayerTableRecord
  2
LAYER-236
 70
     0
 62
     7
  6
Continuous
370
    -3
390
F
  0
LAYER
  5
13C
330
2
100
AcDbSymbolTableRecord
100
AcDbLayerTableRecord
  2
LAYER-237
 70
     0
 62
     7
  6
Continuous
370
    -3
390
F
  0
LAYER
  5
13D
330
2
100
AcDbSymbolTableRecord
100
AcDbLayerTableRecord
  2
LAYER-238
 70
     0
 62
     7
  6
Continuous
370
    -3
390
F
  0
LAYER
  5
13E
330
2
100
AcDbSymbolTableRecord
100
AcDbLayerTableRecord
  2
LAYER-239
 70
     0
 62
     7
  6
Continuous
370
    -3
390
F
  0
LAYER
  5
13F
330
2
100
AcDbSymbolTableRecord
100
AcDbLayerTableRecord
  2
LAYER-240
 70
     0
 62
     7
  6
Continuous
370
    -3
390
F
  0
LAYER
  5
140
330
2
100
AcDbSymbolTableRecord
100
AcDbLayerTableRecord
  2
LAYER-241
 70
     0
 62
     7
  6
Continuous
370
    -3
390
F
  0
LAYER
  5
141
330
2
100
AcDbSymbolTableRecord
100
AcDbLayerTableRecord
  2
LAYER-242
 70
     0
 62
     7
  6
Continuous
370
    -3
390
F
  0
LAYER
  5
142
330
2
100
AcDbSymbolTableRecord
100
AcDbLayerTableRecord
  2
LAYER-243
 70
     0
 62
     7
  6
Continuous
370
    -3
390
F
  0
LAYER
  5
143
330
2
100
AcDbSymbolTableRecord
100
AcDbLayerTableRecord
  2
LAYER-244
 70
     0
 62
     7
  6
Continuous
370
    -3
390
F
  0
LAYER
  5
144
330
2
100
AcDbSymbolTableRecord
100
AcDbLayerTableRecord
  2
LAYER-245
 70
     0
 62
     7
  6
Continuous
370
    -3
390
F
  0
LAYER
  5
145
330
2
100
AcDbSymbolTableRecord
100
AcDbLayerTableRecord
  2
LAYER-246
 70
     0
 62
     7
  6
Continuous
370
    -3
390
F
  0
LAYER
  5
146
330
2
100
AcDbSymbolTableRecord
100
AcDbLayerTableRecord
  2
LAYER-247
 70
     0
 62
     7
  6
Continuous
370
    -3
390
F
  0
LAYER
  5
147
330
2
100
AcDbSymbolTableRecord
100
AcDbLayerTableRecord
  2
LAYER-248
 70
     0
 62
     7
  6
Continuous
370
    -3
390
F
  0
LAYER
  5
148
330
2
100
AcDbSymbolTableRecord
100
AcDbLayerTableRecord
  2
LAYER-249
 70
     0
 62
     7
  6
Continuous
370
    -3
390
F
  0
LAYER
  5
149
330
2
100
AcDbSymbolTableRecord
100
AcDbLayerTableRecord
  2
LAYER-250
 70
     0
 62
     7
  6
Continuous
370
    -3
390
F
  0
LAYER
  5
14A
330
2
100
AcDbSymbolTableRecord
100
AcDbLayerTableRecord
  2
LAYER-251
 70
     0
 62
     7
  6
Continuous
370
    -3
390
F
  0
LAYER
  5
14B
330
2
100
AcDbSymbolTableRecord
100
AcDbLayerTableRecord
  2
LAYER-252
 70
     0
 62
     7
  6
Continuous
370
    -3
390
F
  0
LAYER
  5
14C
330
2
100
AcDbSymbolTableRecord
100
AcDbLayerTableRecord
  2
LAYER-253
 70
     0
 62
     7
  6
Continuous
370
    -3
390
F
  0
LAYER
  5
14D
330
2
100
AcDbSymbolTableRecord
100
AcDbLayerTableRecord
  2
LAYER-254
 70
     0
 62
     7
  6
Continuous
370
    -3
390
F
  0
LAYER
  5
14E
330
2
100
AcDbSymbolTableRecord
100
AcDbLayerTableRecord
  2
LAYER-255
 70
     0
 62
     7
  6
Continuous
370
    -3
390
F
  0
LAYER
  5
14F
330
2
100
AcDbSymbolTableRecord
100
AcDbLayerTableRecord
  2
LAYER-256
 70
     0
 62
     7
  6
Continuous
370
    -3
390
F
  0
LAYER
  5
150
330
2
100
AcDbSymbolTableRecord
100
AcDbLayerTableRecord
  2
SUPLINE
 70
     0
 62
    -7
  6
Continuous
290
     0
370
    -3
390
F
  0
LAYER
  5
151
330
2
100
AcDbSymbolTableRecord
100
AcDbLayerTableRecord
  2
FRAMELAYER-001
 70
     0
 62
     7
  6
Continuous
370
    -3
390
F
  0
LAYER
  5
152
330
2
100
AcDbSymbolTableRecord
100
AcDbLayerTableRecord
  2
FRAMELAYER-002
 70
     0
 62
     7
  6
Continuous
370
    -3
390
F
  0
LAYER
  5
153
330
2
100
AcDbSymbolTableRecord
100
AcDbLayerTableRecord
  2
FRAMELAYER-003
 70
     0
 62
     7
  6
Continuous
370
    -3
390
F
  0
LAYER
  5
154
330
2
100
AcDbSymbolTableRecord
100
AcDbLayerTableRecord
  2
FRAMELAYER-004
 70
     0
 62
     7
  6
Continuous
370
    -3
390
F
  0
LAYER
  5
155
330
2
100
AcDbSymbolTableRecord
100
AcDbLayerTableRecord
  2
FRAMELAYER-005
 70
     0
 62
     7
  6
Continuous
370
    -3
390
F
  0
LAYER
  5
156
330
2
100
AcDbSymbolTableRecord
100
AcDbLayerTableRecord
  2
FRAMELAYER-006
 70
     0
 62
     7
  6
Continuous
370
    -3
390
F
  0
LAYER
  5
157
330
2
100
AcDbSymbolTableRecord
100
AcDbLayerTableRecord
  2
FRAMELAYER-007
 70
     0
 62
     7
  6
Continuous
370
    -3
390
F
  0
LAYER
  5
158
330
2
100
AcDbSymbolTableRecord
100
AcDbLayerTableRecord
  2
FRAMELAYER-008
 70
     0
 62
     7
  6
Continuous
370
    -3
390
F
  0
LAYER
  5
159
330
2
100
AcDbSymbolTableRecord
100
AcDbLayerTableRecord
  2
FRAMELAYER-009
 70
     0
 62
     7
  6
Continuous
370
    -3
390
F
  0
LAYER
  5
15A
330
2
100
AcDbSymbolTableRecord
100
AcDbLayerTableRecord
  2
FRAMELAYER-010
 70
     0
 62
     7
  6
Continuous
370
    -3
390
F
  0
LAYER
  5
15B
330
2
100
AcDbSymbolTableRecord
100
AcDbLayerTableRecord
  2
FRAMELAYER-011
 70
     0
 62
     7
  6
Continuous
370
    -3
390
F
  0
LAYER
  5
15C
330
2
100
AcDbSymbolTableRecord
100
AcDbLayerTableRecord
  2
FRAMELAYER-012
 70
     0
 62
     7
  6
Continuous
370
    -3
390
F
  0
LAYER
  5
15D
330
2
100
AcDbSymbolTableRecord
100
AcDbLayerTableRecord
  2
FRAMELAYER-013
 70
     0
 62
     7
  6
Continuous
370
    -3
390
F
  0
LAYER
  5
15E
330
2
100
AcDbSymbolTableRecord
100
AcDbLayerTableRecord
  2
FRAMELAYER-014
 70
     0
 62
     7
  6
Continuous
370
    -3
390
F
  0
LAYER
  5
15F
330
2
100
AcDbSymbolTableRecord
100
AcDbLayerTableRecord
  2
FRAMELAYER-015
 70
     0
 62
    -7
  6
Continuous
370
    -3
390
F
  0
LAYER
  5
160
330
2
100
AcDbSymbolTableRecord
100
AcDbLayerTableRecord
  2
FRAMELAYER-016
 70
     0
 62
     4
  6
Continuous
370
    -3
390
F
  0
LAYER
  5
161
330
2
100
AcDbSymbolTableRecord
100
AcDbLayerTableRecord
  2
FRAMELAYER-017
 70
     0
 62
     7
  6
Continuous
370
    -3
390
F
  0
LAYER
  5
162
330
2
100
AcDbSymbolTableRecord
100
AcDbLayerTableRecord
  2
FRAMELAYER-018
 70
     0
 62
     2
  6
Continuous
370
    -3
390
F
  0
LAYER
  5
163
330
2
100
AcDbSymbolTableRecord
100
AcDbLayerTableRecord
  2
FRAMELAYER-019
 70
     0
 62
     3
  6
Continuous
370
    -3
390
F
  0
LAYER
  5
164
330
2
100
AcDbSymbolTableRecord
100
AcDbLayerTableRecord
  2
FRAMELAYER-020
 70
     0
 62
     2
  6
Continuous
370
    -3
390
F
  0
LAYER
  5
165
330
2
100
AcDbSymbolTableRecord
100
AcDbLayerTableRecord
  2
FRAMELAYER-021
 70
     0
 62
     7
  6
Continuous
370
    -3
390
F
  0
LAYER
  5
166
330
2
100
AcDbSymbolTableRecord
100
AcDbLayerTableRecord
  2
FRAMELAYER-022
 70
     0
 62
     4
  6
Continuous
370
    -3
390
F
  0
LAYER
  5
167
330
2
100
AcDbSymbolTableRecord
100
AcDbLayerTableRecord
  2
FRAMELAYER-023
 70
     0
 62
     4
  6
Continuous
370
    -3
390
F
  0
LAYER
  5
168
330
2
100
AcDbSymbolTableRecord
100
AcDbLayerTableRecord
  2
FRAMELAYER-024
 70
     0
 62
     7
  6
Continuous
370
    -3
390
F
  0
LAYER
  5
169
330
2
100
AcDbSymbolTableRecord
100
AcDbLayerTableRecord
  2
FRAMELAYER-025
 70
     0
 62
     7
  6
Continuous
370
    -3
390
F
  0
LAYER
  5
16A
330
2
100
AcDbSymbolTableRecord
100
AcDbLayerTableRecord
  2
FRAMELAYER-026
 70
     0
 62
    -7
  6
Continuous
370
    -3
390
F
  0
LAYER
  5
16B
330
2
100
AcDbSymbolTableRecord
100
AcDbLayerTableRecord
  2
FRAMELAYER-027
 70
     0
 62
     7
  6
Continuous
370
    -3
390
F
  0
LAYER
  5
16C
330
2
100
AcDbSymbolTableRecord
100
AcDbLayerTableRecord
  2
FRAMELAYER-028
 70
     0
 62
     7
  6
Continuous
370
    -3
390
F
  0
LAYER
  5
16D
330
2
100
AcDbSymbolTableRecord
100
AcDbLayerTableRecord
  2
FRAMELAYER-029
 70
     0
 62
     7
  6
Continuous
370
    -3
390
F
  0
LAYER
  5
16E
330
2
100
AcDbSymbolTableRecord
100
AcDbLayerTableRecord
  2
FRAMELAYER-030
 70
     0
 62
     2
  6
Continuous
370
    -3
390
F
  0
LAYER
  5
16F
330
2
100
AcDbSymbolTableRecord
100
AcDbLayerTableRecord
  2
FRAMELAYER-031
 70
     0
 62
     7
  6
Continuous
370
    -3
390
F
  0
LAYER
  5
170
330
2
100
AcDbSymbolTableRecord
100
AcDbLayerTableRecord
  2
FRAMELAYER-032
 70
     0
 62
     2
  6
Continuous
370
    -3
390
F
  0
LAYER
  5
171
330
2
100
AcDbSymbolTableRecord
100
AcDbLayerTableRecord
  2
FRAMELAYER-033
 70
     0
 62
     7
  6
Continuous
370
    -3
390
F
  0
LAYER
  5
172
330
2
100
AcDbSymbolTableRecord
100
AcDbLayerTableRecord
  2
FRAMELAYER-034
 70
     0
 62
     7
  6
Continuous
370
    -3
390
F
  0
LAYER
  5
173
330
2
100
AcDbSymbolTableRecord
100
AcDbLayerTableRecord
  2
FRAMELAYER-035
 70
     0
 62
     3
  6
Continuous
370
    -3
390
F
  0
LAYER
  5
174
330
2
100
AcDbSymbolTableRecord
100
AcDbLayerTableRecord
  2
FRAMELAYER-036
 70
     0
 62
     2
  6
Continuous
370
    -3
390
F
  0
LAYER
  5
175
330
2
100
AcDbSymbolTableRecord
100
AcDbLayerTableRecord
  2
FRAMELAYER-037
 70
     0
 62
     7
  6
Continuous
370
    -3
390
F
  0
LAYER
  5
176
330
2
100
AcDbSymbolTableRecord
100
AcDbLayerTableRecord
  2
FRAMELAYER-038
 70
     0
 62
     7
  6
Continuous
370
    -3
390
F
  0
LAYER
  5
177
330
2
100
AcDbSymbolTableRecord
100
AcDbLayerTableRecord
  2
FRAMELAYER-039
 70
     0
 62
     7
  6
Continuous
370
    -3
390
F
  0
LAYER
  5
178
330
2
100
AcDbSymbolTableRecord
100
AcDbLayerTableRecord
  2
FRAMELAYER-040
 70
     0
 62
     7
  6
Continuous
370
    -3
390
F
  0
LAYER
  5
179
330
2
100
AcDbSymbolTableRecord
100
AcDbLayerTableRecord
  2
FRAMELAYER-041
 70
     0
 62
     7
  6
Continuous
370
    -3
390
F
  0
LAYER
  5
17A
330
2
100
AcDbSymbolTableRecord
100
AcDbLayerTableRecord
  2
FRAMELAYER-042
 70
     0
 62
     7
  6
Continuous
370
    -3
390
F
  0
LAYER
  5
17B
330
2
100
AcDbSymbolTableRecord
100
AcDbLayerTableRecord
  2
FRAMELAYER-043
 70
     0
 62
     7
  6
Continuous
370
    -3
390
F
  0
LAYER
  5
17C
330
2
100
AcDbSymbolTableRecord
100
AcDbLayerTableRecord
  2
FRAMELAYER-044
 70
     0
 62
     7
  6
Continuous
370
    -3
390
F
  0
LAYER
  5
17D
330
2
100
AcDbSymbolTableRecord
100
AcDbLayerTableRecord
  2
FRAMELAYER-045
 70
     0
 62
     7
  6
Continuous
370
    -3
390
F
  0
LAYER
  5
17E
330
2
100
AcDbSymbolTableRecord
100
AcDbLayerTableRecord
  2
FRAMELAYER-046
 70
     0
 62
     7
  6
Continuous
370
    -3
390
F
  0
LAYER
  5
17F
330
2
100
AcDbSymbolTableRecord
100
AcDbLayerTableRecord
  2
FRAMELAYER-047
 70
     0
 62
     7
  6
Continuous
370
    -3
390
F
  0
LAYER
  5
180
330
2
100
AcDbSymbolTableRecord
100
AcDbLayerTableRecord
  2
FRAMELAYER-048
 70
     0
 62
     2
  6
Continuous
370
    -3
390
F
  0
LAYER
  5
181
330
2
100
AcDbSymbolTableRecord
100
AcDbLayerTableRecord
  2
FRAMELAYER-049
 70
     0
 62
     3
  6
Continuous
370
    -3
390
F
  0
LAYER
  5
182
330
2
100
AcDbSymbolTableRecord
100
AcDbLayerTableRecord
  2
FRAMELAYER-050
 70
     0
 62
     7
  6
Continuous
370
    -3
390
F
  0
LAYER
  5
183
330
2
100
AcDbSymbolTableRecord
100
AcDbLayerTableRecord
  2
FRAMELAYER-051
 70
     0
 62
     2
  6
Continuous
370
    -3
390
F
  0
LAYER
  5
184
330
2
100
AcDbSymbolTableRecord
100
AcDbLayerTableRecord
  2
FRAMELAYER-052
 70
     0
 62
     7
  6
Continuous
370
    -3
390
F
  0
LAYER
  5
185
330
2
100
AcDbSymbolTableRecord
100
AcDbLayerTableRecord
  2
FRAMELAYER-053
 70
     0
 62
     7
  6
Continuous
370
    -3
390
F
  0
LAYER
  5
186
330
2
100
AcDbSymbolTableRecord
100
AcDbLayerTableRecord
  2
FRAMELAYER-054
 70
     0
 62
     7
  6
Continuous
370
    -3
390
F
  0
LAYER
  5
187
330
2
100
AcDbSymbolTableRecord
100
AcDbLayerTableRecord
  2
FRAMELAYER-055
 70
     0
 62
     7
  6
Continuous
370
    -3
390
F
  0
LAYER
  5
188
330
2
100
AcDbSymbolTableRecord
100
AcDbLayerTableRecord
  2
FRAMELAYER-056
 70
     0
 62
     7
  6
Continuous
370
    -3
390
F
  0
LAYER
  5
189
330
2
100
AcDbSymbolTableRecord
100
AcDbLayerTableRecord
  2
FRAMELAYER-057
 70
     0
 62
     7
  6
Continuous
370
    -3
390
F
  0
LAYER
  5
18A
330
2
100
AcDbSymbolTableRecord
100
AcDbLayerTableRecord
  2
FRAMELAYER-058
 70
     0
 62
     7
  6
Continuous
370
    -3
390
F
  0
LAYER
  5
18B
330
2
100
AcDbSymbolTableRecord
100
AcDbLayerTableRecord
  2
FRAMELAYER-059
 70
     0
 62
     7
  6
Continuous
370
    -3
390
F
  0
LAYER
  5
18C
330
2
100
AcDbSymbolTableRecord
100
AcDbLayerTableRecord
  2
FRAMELAYER-060
 70
     0
 62
     7
  6
Continuous
370
    -3
390
F
  0
LAYER
  5
18D
330
2
100
AcDbSymbolTableRecord
100
AcDbLayerTableRecord
  2
FRAMELAYER-061
 70
     0
 62
     7
  6
Continuous
370
    -3
390
F
  0
LAYER
  5
18E
330
2
100
AcDbSymbolTableRecord
100
AcDbLayerTableRecord
  2
FRAMELAYER-062
 70
     0
 62
     7
  6
Continuous
370
    -3
390
F
  0
LAYER
  5
18F
330
2
100
AcDbSymbolTableRecord
100
AcDbLayerTableRecord
  2
FRAMELAYER-063
 70
     0
 62
     7
  6
Continuous
370
    -3
390
F
  0
LAYER
  5
190
330
2
100
AcDbSymbolTableRecord
100
AcDbLayerTableRecord
  2
FRAMELAYER-064
 70
     0
 62
     2
  6
Continuous
370
    -3
390
F
  0
LAYER
  5
191
330
2
100
AcDbSymbolTableRecord
100
AcDbLayerTableRecord
  2
FRAMELAYER-065
 70
     0
 62
     7
  6
Continuous
370
    -3
390
F
  0
LAYER
  5
192
330
2
100
AcDbSymbolTableRecord
100
AcDbLayerTableRecord
  2
FRAMELAYER-066
 70
     0
 62
     2
  6
Continuous
370
    -3
390
F
  0
LAYER
  5
193
330
2
100
AcDbSymbolTableRecord
100
AcDbLayerTableRecord
  2
FRAMELAYER-067
 70
     0
 62
     2
  6
Continuous
370
    -3
390
F
  0
LAYER
  5
194
330
2
100
AcDbSymbolTableRecord
100
AcDbLayerTableRecord
  2
FRAMELAYER-068
 70
     0
 62
     7
  6
Continuous
370
    -3
390
F
  0
LAYER
  5
195
330
2
100
AcDbSymbolTableRecord
100
AcDbLayerTableRecord
  2
FRAMELAYER-069
 70
     0
 62
     7
  6
Continuous
370
    -3
390
F
  0
LAYER
  5
196
330
2
100
AcDbSymbolTableRecord
100
AcDbLayerTableRecord
  2
FRAMELAYER-070
 70
     0
 62
     7
  6
Continuous
370
    -3
390
F
  0
LAYER
  5
197
330
2
100
AcDbSymbolTableRecord
100
AcDbLayerTableRecord
  2
FRAMELAYER-071
 70
     0
 62
     7
  6
Continuous
370
    -3
390
F
  0
LAYER
  5
198
330
2
100
AcDbSymbolTableRecord
100
AcDbLayerTableRecord
  2
FRAMELAYER-072
 70
     0
 62
     7
  6
Continuous
370
    -3
390
F
  0
LAYER
  5
199
330
2
100
AcDbSymbolTableRecord
100
AcDbLayerTableRecord
  2
FRAMELAYER-073
 70
     0
 62
     7
  6
Continuous
370
    -3
390
F
  0
LAYER
  5
19A
330
2
100
AcDbSymbolTableRecord
100
AcDbLayerTableRecord
  2
FRAMELAYER-074
 70
     0
 62
     7
  6
Continuous
370
    -3
390
F
  0
LAYER
  5
19B
330
2
100
AcDbSymbolTableRecord
100
AcDbLayerTableRecord
  2
FRAMELAYER-075
 70
     0
 62
     7
  6
Continuous
370
    -3
390
F
  0
LAYER
  5
19C
330
2
100
AcDbSymbolTableRecord
100
AcDbLayerTableRecord
  2
FRAMELAYER-076
 70
     0
 62
     7
  6
Continuous
370
    -3
390
F
  0
LAYER
  5
19D
330
2
100
AcDbSymbolTableRecord
100
AcDbLayerTableRecord
  2
FRAMELAYER-077
 70
     0
 62
     7
  6
Continuous
370
    -3
390
F
  0
LAYER
  5
19E
330
2
100
AcDbSymbolTableRecord
100
AcDbLayerTableRecord
  2
FRAMELAYER-078
 70
     0
 62
     7
  6
Continuous
370
    -3
390
F
  0
LAYER
  5
19F
330
2
100
AcDbSymbolTableRecord
100
AcDbLayerTableRecord
  2
FRAMELAYER-079
 70
     0
 62
     7
  6
Continuous
370
    -3
390
F
  0
LAYER
  5
1A0
330
2
100
AcDbSymbolTableRecord
100
AcDbLayerTableRecord
  2
FRAMELAYER-080
 70
     0
 62
     2
  6
Continuous
370
    -3
390
F
  0
LAYER
  5
1A1
330
2
100
AcDbSymbolTableRecord
100
AcDbLayerTableRecord
  2
FRAMELAYER-081
 70
     0
 62
     7
  6
Continuous
370
    -3
390
F
  0
LAYER
  5
1A2
330
2
100
AcDbSymbolTableRecord
100
AcDbLayerTableRecord
  2
FRAMELAYER-082
 70
     0
 62
     7
  6
Continuous
370
    -3
390
F
  0
LAYER
  5
1A3
330
2
100
AcDbSymbolTableRecord
100
AcDbLayerTableRecord
  2
FRAMELAYER-083
 70
     0
 62
     7
  6
Continuous
370
    -3
390
F
  0
LAYER
  5
1A4
330
2
100
AcDbSymbolTableRecord
100
AcDbLayerTableRecord
  2
FRAMELAYER-084
 70
     0
 62
     7
  6
Continuous
370
    -3
390
F
  0
LAYER
  5
1A5
330
2
100
AcDbSymbolTableRecord
100
AcDbLayerTableRecord
  2
FRAMELAYER-085
 70
     0
 62
     7
  6
Continuous
370
    -3
390
F
  0
LAYER
  5
1A6
330
2
100
AcDbSymbolTableRecord
100
AcDbLayerTableRecord
  2
FRAMELAYER-086
 70
     0
 62
     7
  6
Continuous
370
    -3
390
F
  0
LAYER
  5
1A7
330
2
100
AcDbSymbolTableRecord
100
AcDbLayerTableRecord
  2
FRAMELAYER-087
 70
     0
 62
     7
  6
Continuous
370
    -3
390
F
  0
LAYER
  5
1A8
330
2
100
AcDbSymbolTableRecord
100
AcDbLayerTableRecord
  2
FRAMELAYER-088
 70
     0
 62
     7
  6
Continuous
370
    -3
390
F
  0
LAYER
  5
1A9
330
2
100
AcDbSymbolTableRecord
100
AcDbLayerTableRecord
  2
FRAMELAYER-089
 70
     0
 62
     7
  6
Continuous
370
    -3
390
F
  0
LAYER
  5
1AA
330
2
100
AcDbSymbolTableRecord
100
AcDbLayerTableRecord
  2
FRAMELAYER-090
 70
     0
 62
     7
  6
Continuous
370
    -3
390
F
  0
LAYER
  5
1AB
330
2
100
AcDbSymbolTableRecord
100
AcDbLayerTableRecord
  2
FRAMELAYER-091
 70
     0
 62
     7
  6
Continuous
370
    -3
390
F
  0
LAYER
  5
1AC
330
2
100
AcDbSymbolTableRecord
100
AcDbLayerTableRecord
  2
FRAMELAYER-092
 70
     0
 62
     7
  6
Continuous
370
    -3
390
F
  0
LAYER
  5
1AD
330
2
100
AcDbSymbolTableRecord
100
AcDbLayerTableRecord
  2
FRAMELAYER-093
 70
     0
 62
     7
  6
Continuous
370
    -3
390
F
  0
LAYER
  5
1AE
330
2
100
AcDbSymbolTableRecord
100
AcDbLayerTableRecord
  2
FRAMELAYER-094
 70
     0
 62
     7
  6
Continuous
370
    -3
390
F
  0
LAYER
  5
1AF
330
2
100
AcDbSymbolTableRecord
100
AcDbLayerTableRecord
  2
FRAMELAYER-095
 70
     0
 62
     7
  6
Continuous
370
    -3
390
F
  0
LAYER
  5
1B0
330
2
100
AcDbSymbolTableRecord
100
AcDbLayerTableRecord
  2
FRAMELAYER-096
 70
     0
 62
     7
  6
Continuous
370
    -3
390
F
  0
LAYER
  5
1B1
330
2
100
AcDbSymbolTableRecord
100
AcDbLayerTableRecord
  2
FRAMELAYER-097
 70
     0
 62
     7
  6
Continuous
370
    -3
390
F
  0
LAYER
  5
1B2
330
2
100
AcDbSymbolTableRecord
100
AcDbLayerTableRecord
  2
FRAMELAYER-098
 70
     0
 62
     7
  6
Continuous
370
    -3
390
F
  0
LAYER
  5
1B3
330
2
100
AcDbSymbolTableRecord
100
AcDbLayerTableRecord
  2
FRAMELAYER-099
 70
     0
 62
     7
  6
Continuous
370
    -3
390
F
  0
LAYER
  5
1B4
330
2
100
AcDbSymbolTableRecord
100
AcDbLayerTableRecord
  2
FRAMELAYER-100
 70
     0
 62
     7
  6
Continuous
370
    -3
390
F
  0
LAYER
  5
1B5
330
2
100
AcDbSymbolTableRecord
100
AcDbLayerTableRecord
  2
FRAMELAYER-101
 70
     0
 62
     7
  6
Continuous
370
    -3
390
F
  0
LAYER
  5
1B6
330
2
100
AcDbSymbolTableRecord
100
AcDbLayerTableRecord
  2
FRAMELAYER-102
 70
     0
 62
     7
  6
Continuous
370
    -3
390
F
  0
LAYER
  5
1B7
330
2
100
AcDbSymbolTableRecord
100
AcDbLayerTableRecord
  2
FRAMELAYER-103
 70
     0
 62
     7
  6
Continuous
370
    -3
390
F
  0
LAYER
  5
1B8
330
2
100
AcDbSymbolTableRecord
100
AcDbLayerTableRecord
  2
FRAMELAYER-104
 70
     0
 62
     7
  6
Continuous
370
    -3
390
F
  0
LAYER
  5
1B9
330
2
100
AcDbSymbolTableRecord
100
AcDbLayerTableRecord
  2
FRAMELAYER-105
 70
     0
 62
     7
  6
Continuous
370
    -3
390
F
  0
LAYER
  5
1BA
330
2
100
AcDbSymbolTableRecord
100
AcDbLayerTableRecord
  2
FRAMELAYER-106
 70
     0
 62
     7
  6
Continuous
370
    -3
390
F
  0
LAYER
  5
1BB
330
2
100
AcDbSymbolTableRecord
100
AcDbLayerTableRecord
  2
FRAMELAYER-107
 70
     0
 62
     7
  6
Continuous
370
    -3
390
F
  0
LAYER
  5
1BC
330
2
100
AcDbSymbolTableRecord
100
AcDbLayerTableRecord
  2
FRAMELAYER-108
 70
     0
 62
     7
  6
Continuous
370
    -3
390
F
  0
LAYER
  5
1BD
330
2
100
AcDbSymbolTableRecord
100
AcDbLayerTableRecord
  2
FRAMELAYER-109
 70
     0
 62
     7
  6
Continuous
370
    -3
390
F
  0
LAYER
  5
1BE
330
2
100
AcDbSymbolTableRecord
100
AcDbLayerTableRecord
  2
FRAMELAYER-110
 70
     0
 62
     7
  6
Continuous
370
    -3
390
F
  0
LAYER
  5
1BF
330
2
100
AcDbSymbolTableRecord
100
AcDbLayerTableRecord
  2
FRAMELAYER-111
 70
     0
 62
     7
  6
Continuous
370
    -3
390
F
  0
LAYER
  5
1C0
330
2
100
AcDbSymbolTableRecord
100
AcDbLayerTableRecord
  2
FRAMELAYER-112
 70
     0
 62
     7
  6
Continuous
370
    -3
390
F
  0
LAYER
  5
1C1
330
2
100
AcDbSymbolTableRecord
100
AcDbLayerTableRecord
  2
FRAMELAYER-113
 70
     0
 62
     7
  6
Continuous
370
    -3
390
F
  0
LAYER
  5
1C2
330
2
100
AcDbSymbolTableRecord
100
AcDbLayerTableRecord
  2
FRAMELAYER-114
 70
     0
 62
     7
  6
Continuous
370
    -3
390
F
  0
LAYER
  5
1C3
330
2
100
AcDbSymbolTableRecord
100
AcDbLayerTableRecord
  2
FRAMELAYER-115
 70
     0
 62
     7
  6
Continuous
370
    -3
390
F
  0
LAYER
  5
1C4
330
2
100
AcDbSymbolTableRecord
100
AcDbLayerTableRecord
  2
FRAMELAYER-116
 70
     0
 62
     7
  6
Continuous
370
    -3
390
F
  0
LAYER
  5
1C5
330
2
100
AcDbSymbolTableRecord
100
AcDbLayerTableRecord
  2
FRAMELAYER-117
 70
     0
 62
     7
  6
Continuous
370
    -3
390
F
  0
LAYER
  5
1C6
330
2
100
AcDbSymbolTableRecord
100
AcDbLayerTableRecord
  2
FRAMELAYER-118
 70
     0
 62
     7
  6
Continuous
370
    -3
390
F
  0
LAYER
  5
1C7
330
2
100
AcDbSymbolTableRecord
100
AcDbLayerTableRecord
  2
FRAMELAYER-119
 70
     0
 62
     7
  6
Continuous
370
    -3
390
F
  0
LAYER
  5
1C8
330
2
100
AcDbSymbolTableRecord
100
AcDbLayerTableRecord
  2
FRAMELAYER-120
 70
     0
 62
     7
  6
Continuous
370
    -3
390
F
  0
LAYER
  5
1C9
330
2
100
AcDbSymbolTableRecord
100
AcDbLayerTableRecord
  2
FRAMELAYER-121
 70
     0
 62
     7
  6
Continuous
370
    -3
390
F
  0
LAYER
  5
1CA
330
2
100
AcDbSymbolTableRecord
100
AcDbLayerTableRecord
  2
FRAMELAYER-122
 70
     0
 62
     7
  6
Continuous
370
    -3
390
F
  0
LAYER
  5
1CB
330
2
100
AcDbSymbolTableRecord
100
AcDbLayerTableRecord
  2
FRAMELAYER-123
 70
     0
 62
     7
  6
Continuous
370
    -3
390
F
  0
LAYER
  5
1CC
330
2
100
AcDbSymbolTableRecord
100
AcDbLayerTableRecord
  2
FRAMELAYER-124
 70
     0
 62
     7
  6
Continuous
370
    -3
390
F
  0
LAYER
  5
1CD
330
2
100
AcDbSymbolTableRecord
100
AcDbLayerTableRecord
  2
FRAMELAYER-125
 70
     0
 62
     7
  6
Continuous
370
    -3
390
F
  0
LAYER
  5
1CE
330
2
100
AcDbSymbolTableRecord
100
AcDbLayerTableRecord
  2
FRAMELAYER-126
 70
     0
 62
     7
  6
Continuous
370
    -3
390
F
  0
LAYER
  5
1CF
330
2
100
AcDbSymbolTableRecord
100
AcDbLayerTableRecord
  2
FRAMELAYER-127
 70
     0
 62
     7
  6
Continuous
370
    -3
390
F
  0
LAYER
  5
1D0
330
2
100
AcDbSymbolTableRecord
100
AcDbLayerTableRecord
  2
FRAMELAYER-128
 70
     0
 62
     7
  6
Continuous
370
    -3
390
F
  0
LAYER
  5
1D1
330
2
100
AcDbSymbolTableRecord
100
AcDbLayerTableRecord
  2
FRAMELAYER-129
 70
     0
 62
     7
  6
Continuous
370
    -3
390
F
  0
LAYER
  5
1D2
330
2
100
AcDbSymbolTableRecord
100
AcDbLayerTableRecord
  2
FRAMELAYER-130
 70
     0
 62
     7
  6
Continuous
370
    -3
390
F
  0
LAYER
  5
1D3
330
2
100
AcDbSymbolTableRecord
100
AcDbLayerTableRecord
  2
FRAMELAYER-131
 70
     0
 62
     7
  6
Continuous
370
    -3
390
F
  0
LAYER
  5
1D4
330
2
100
AcDbSymbolTableRecord
100
AcDbLayerTableRecord
  2
FRAMELAYER-132
 70
     0
 62
     7
  6
Continuous
370
    -3
390
F
  0
LAYER
  5
1D5
330
2
100
AcDbSymbolTableRecord
100
AcDbLayerTableRecord
  2
FRAMELAYER-133
 70
     0
 62
     7
  6
Continuous
370
    -3
390
F
  0
LAYER
  5
1D6
330
2
100
AcDbSymbolTableRecord
100
AcDbLayerTableRecord
  2
FRAMELAYER-134
 70
     0
 62
     7
  6
Continuous
370
    -3
390
F
  0
LAYER
  5
1D7
330
2
100
AcDbSymbolTableRecord
100
AcDbLayerTableRecord
  2
FRAMELAYER-135
 70
     0
 62
    -4
  6
Continuous
370
    -3
390
F
  0
LAYER
  5
1D8
330
2
100
AcDbSymbolTableRecord
100
AcDbLayerTableRecord
  2
FRAMELAYER-136
 70
     0
 62
    -3
  6
Continuous
370
    -3
390
F
  0
LAYER
  5
1D9
330
2
100
AcDbSymbolTableRecord
100
AcDbLayerTableRecord
  2
FRAMELAYER-137
 70
     0
 62
    -1
  6
Continuous
370
    -3
390
F
  0
LAYER
  5
1DA
330
2
100
AcDbSymbolTableRecord
100
AcDbLayerTableRecord
  2
FRAMELAYER-138
 70
     0
 62
     7
  6
Continuous
370
    -3
390
F
  0
LAYER
  5
1DB
330
2
100
AcDbSymbolTableRecord
100
AcDbLayerTableRecord
  2
FRAMELAYER-139
 70
     0
 62
     7
  6
Continuous
370
    -3
390
F
  0
LAYER
  5
1DC
330
2
100
AcDbSymbolTableRecord
100
AcDbLayerTableRecord
  2
FRAMELAYER-140
 70
     0
 62
     7
  6
Continuous
370
    -3
390
F
  0
LAYER
  5
1DD
330
2
100
AcDbSymbolTableRecord
100
AcDbLayerTableRecord
  2
FRAMELAYER-141
 70
     0
 62
     7
  6
Continuous
370
    -3
390
F
  0
LAYER
  5
1DE
330
2
100
AcDbSymbolTableRecord
100
AcDbLayerTableRecord
  2
FRAMELAYER-142
 70
     0
 62
     3
  6
Continuous
370
    -3
390
F
  0
LAYER
  5
1DF
330
2
100
AcDbSymbolTableRecord
100
AcDbLayerTableRecord
  2
FRAMELAYER-143
 70
     0
 62
     7
  6
Continuous
370
    -3
390
F
  0
LAYER
  5
1E0
330
2
100
AcDbSymbolTableRecord
100
AcDbLayerTableRecord
  2
FRAMELAYER-144
 70
     0
 62
     7
  6
Continuous
370
    -3
390
F
  0
LAYER
  5
1E1
330
2
100
AcDbSymbolTableRecord
100
AcDbLayerTableRecord
  2
FRAMELAYER-145
 70
     0
 62
     3
  6
Continuous
370
    -3
390
F
  0
LAYER
  5
1E2
330
2
100
AcDbSymbolTableRecord
100
AcDbLayerTableRecord
  2
FRAMELAYER-146
 70
     0
 62
     7
  6
Continuous
370
    -3
390
F
  0
LAYER
  5
1E3
330
2
100
AcDbSymbolTableRecord
100
AcDbLayerTableRecord
  2
FRAMELAYER-147
 70
     0
 62
     7
  6
Continuous
370
    -3
390
F
  0
LAYER
  5
1E4
330
2
100
AcDbSymbolTableRecord
100
AcDbLayerTableRecord
  2
FRAMELAYER-148
 70
     0
 62
     7
  6
Continuous
370
    -3
390
F
  0
LAYER
  5
1E5
330
2
100
AcDbSymbolTableRecord
100
AcDbLayerTableRecord
  2
FRAMELAYER-149
 70
     0
 62
     7
  6
Continuous
370
    -3
390
F
  0
LAYER
  5
1E6
330
2
100
AcDbSymbolTableRecord
100
AcDbLayerTableRecord
  2
FRAMELAYER-150
 70
     0
 62
     7
  6
Continuous
370
    -3
390
F
  0
LAYER
  5
1E7
330
2
100
AcDbSymbolTableRecord
100
AcDbLayerTableRecord
  2
FRAMELAYER-151
 70
     0
 62
     7
  6
Continuous
370
    -3
390
F
  0
LAYER
  5
1E8
330
2
100
AcDbSymbolTableRecord
100
AcDbLayerTableRecord
  2
FRAMELAYER-152
 70
     0
 62
     7
  6
Continuous
370
    -3
390
F
  0
LAYER
  5
1E9
330
2
100
AcDbSymbolTableRecord
100
AcDbLayerTableRecord
  2
FRAMELAYER-153
 70
     0
 62
     7
  6
Continuous
370
    -3
390
F
  0
LAYER
  5
1EA
330
2
100
AcDbSymbolTableRecord
100
AcDbLayerTableRecord
  2
FRAMELAYER-154
 70
     0
 62
     7
  6
Continuous
370
    -3
390
F
  0
LAYER
  5
1EB
330
2
100
AcDbSymbolTableRecord
100
AcDbLayerTableRecord
  2
FRAMELAYER-155
 70
     0
 62
     7
  6
Continuous
370
    -3
390
F
  0
LAYER
  5
1EC
330
2
100
AcDbSymbolTableRecord
100
AcDbLayerTableRecord
  2
FRAMELAYER-156
 70
     0
 62
     7
  6
Continuous
370
    -3
390
F
  0
LAYER
  5
1ED
330
2
100
AcDbSymbolTableRecord
100
AcDbLayerTableRecord
  2
FRAMELAYER-157
 70
     0
 62
     7
  6
Continuous
370
    -3
390
F
  0
LAYER
  5
1EE
330
2
100
AcDbSymbolTableRecord
100
AcDbLayerTableRecord
  2
FRAMELAYER-158
 70
     0
 62
     7
  6
Continuous
370
    -3
390
F
  0
LAYER
  5
1EF
330
2
100
AcDbSymbolTableRecord
100
AcDbLayerTableRecord
  2
FRAMELAYER-159
 70
     0
 62
     7
  6
Continuous
370
    -3
390
F
  0
LAYER
  5
1F0
330
2
100
AcDbSymbolTableRecord
100
AcDbLayerTableRecord
  2
FRAMELAYER-160
 70
     0
 62
     7
  6
Continuous
370
    -3
390
F
  0
LAYER
  5
1F1
330
2
100
AcDbSymbolTableRecord
100
AcDbLayerTableRecord
  2
FRAMELAYER-161
 70
     0
 62
     7
  6
Continuous
370
    -3
390
F
  0
LAYER
  5
1F2
330
2
100
AcDbSymbolTableRecord
100
AcDbLayerTableRecord
  2
FRAMELAYER-162
 70
     0
 62
     7
  6
Continuous
370
    -3
390
F
  0
LAYER
  5
1F3
330
2
100
AcDbSymbolTableRecord
100
AcDbLayerTableRecord
  2
FRAMELAYER-163
 70
     0
 62
     7
  6
Continuous
370
    -3
390
F
  0
LAYER
  5
1F4
330
2
100
AcDbSymbolTableRecord
100
AcDbLayerTableRecord
  2
FRAMELAYER-164
 70
     0
 62
     7
  6
Continuous
370
    -3
390
F
  0
LAYER
  5
1F5
330
2
100
AcDbSymbolTableRecord
100
AcDbLayerTableRecord
  2
FRAMELAYER-165
 70
     0
 62
     7
  6
Continuous
370
    -3
390
F
  0
LAYER
  5
1F6
330
2
100
AcDbSymbolTableRecord
100
AcDbLayerTableRecord
  2
FRAMELAYER-166
 70
     0
 62
     7
  6
Continuous
370
    -3
390
F
  0
LAYER
  5
1F7
330
2
100
AcDbSymbolTableRecord
100
AcDbLayerTableRecord
  2
FRAMELAYER-167
 70
     0
 62
     7
  6
Continuous
370
    -3
390
F
  0
LAYER
  5
1F8
330
2
100
AcDbSymbolTableRecord
100
AcDbLayerTableRecord
  2
FRAMELAYER-168
 70
     0
 62
     7
  6
Continuous
370
    -3
390
F
  0
LAYER
  5
1F9
330
2
100
AcDbSymbolTableRecord
100
AcDbLayerTableRecord
  2
FRAMELAYER-169
 70
     0
 62
     7
  6
Continuous
370
    -3
390
F
  0
LAYER
  5
1FA
330
2
100
AcDbSymbolTableRecord
100
AcDbLayerTableRecord
  2
FRAMELAYER-170
 70
     0
 62
     7
  6
Continuous
370
    -3
390
F
  0
LAYER
  5
1FB
330
2
100
AcDbSymbolTableRecord
100
AcDbLayerTableRecord
  2
FRAMELAYER-171
 70
     0
 62
     7
  6
Continuous
370
    -3
390
F
  0
LAYER
  5
1FC
330
2
100
AcDbSymbolTableRecord
100
AcDbLayerTableRecord
  2
FRAMELAYER-172
 70
     0
 62
     7
  6
Continuous
370
    -3
390
F
  0
LAYER
  5
1FD
330
2
100
AcDbSymbolTableRecord
100
AcDbLayerTableRecord
  2
FRAMELAYER-173
 70
     0
 62
     7
  6
Continuous
370
    -3
390
F
  0
LAYER
  5
1FE
330
2
100
AcDbSymbolTableRecord
100
AcDbLayerTableRecord
  2
FRAMELAYER-174
 70
     0
 62
     7
  6
Continuous
370
    -3
390
F
  0
LAYER
  5
1FF
330
2
100
AcDbSymbolTableRecord
100
AcDbLayerTableRecord
  2
FRAMELAYER-175
 70
     0
 62
     7
  6
Continuous
370
    -3
390
F
  0
LAYER
  5
200
330
2
100
AcDbSymbolTableRecord
100
AcDbLayerTableRecord
  2
FRAMELAYER-176
 70
     0
 62
     7
  6
Continuous
370
    -3
390
F
  0
LAYER
  5
201
330
2
100
AcDbSymbolTableRecord
100
AcDbLayerTableRecord
  2
FRAMELAYER-177
 70
     0
 62
     7
  6
Continuous
370
    -3
390
F
  0
LAYER
  5
202
330
2
100
AcDbSymbolTableRecord
100
AcDbLayerTableRecord
  2
FRAMELAYER-178
 70
     0
 62
     7
  6
Continuous
370
    -3
390
F
  0
LAYER
  5
203
330
2
100
AcDbSymbolTableRecord
100
AcDbLayerTableRecord
  2
FRAMELAYER-179
 70
     0
 62
     7
  6
Continuous
370
    -3
390
F
  0
LAYER
  5
204
330
2
100
AcDbSymbolTableRecord
100
AcDbLayerTableRecord
  2
FRAMELAYER-180
 70
     0
 62
     7
  6
Continuous
370
    -3
390
F
  0
LAYER
  5
205
330
2
100
AcDbSymbolTableRecord
100
AcDbLayerTableRecord
  2
FRAMELAYER-181
 70
     0
 62
     7
  6
Continuous
370
    -3
390
F
  0
LAYER
  5
206
330
2
100
AcDbSymbolTableRecord
100
AcDbLayerTableRecord
  2
FRAMELAYER-182
 70
     0
 62
     7
  6
Continuous
370
    -3
390
F
  0
LAYER
  5
207
330
2
100
AcDbSymbolTableRecord
100
AcDbLayerTableRecord
  2
FRAMELAYER-183
 70
     0
 62
     7
  6
Continuous
370
    -3
390
F
  0
LAYER
  5
208
330
2
100
AcDbSymbolTableRecord
100
AcDbLayerTableRecord
  2
FRAMELAYER-184
 70
     0
 62
     7
  6
Continuous
370
    -3
390
F
  0
LAYER
  5
209
330
2
100
AcDbSymbolTableRecord
100
AcDbLayerTableRecord
  2
FRAMELAYER-185
 70
     0
 62
     7
  6
Continuous
370
    -3
390
F
  0
LAYER
  5
20A
330
2
100
AcDbSymbolTableRecord
100
AcDbLayerTableRecord
  2
FRAMELAYER-186
 70
     0
 62
     7
  6
Continuous
370
    -3
390
F
  0
LAYER
  5
20B
330
2
100
AcDbSymbolTableRecord
100
AcDbLayerTableRecord
  2
FRAMELAYER-187
 70
     0
 62
     7
  6
Continuous
370
    -3
390
F
  0
LAYER
  5
20C
330
2
100
AcDbSymbolTableRecord
100
AcDbLayerTableRecord
  2
FRAMELAYER-188
 70
     0
 62
     7
  6
Continuous
370
    -3
390
F
  0
LAYER
  5
20D
330
2
100
AcDbSymbolTableRecord
100
AcDbLayerTableRecord
  2
FRAMELAYER-189
 70
     0
 62
     7
  6
Continuous
370
    -3
390
F
  0
LAYER
  5
20E
330
2
100
AcDbSymbolTableRecord
100
AcDbLayerTableRecord
  2
FRAMELAYER-190
 70
     0
 62
     7
  6
Continuous
370
    -3
390
F
  0
LAYER
  5
20F
330
2
100
AcDbSymbolTableRecord
100
AcDbLayerTableRecord
  2
FRAMELAYER-191
 70
     0
 62
     7
  6
Continuous
370
    -3
390
F
  0
LAYER
  5
210
330
2
100
AcDbSymbolTableRecord
100
AcDbLayerTableRecord
  2
FRAMELAYER-192
 70
     0
 62
     7
  6
Continuous
370
    -3
390
F
  0
LAYER
  5
211
330
2
100
AcDbSymbolTableRecord
100
AcDbLayerTableRecord
  2
FRAMELAYER-193
 70
     0
 62
     7
  6
Continuous
370
    -3
390
F
  0
LAYER
  5
212
330
2
100
AcDbSymbolTableRecord
100
AcDbLayerTableRecord
  2
FRAMELAYER-194
 70
     0
 62
     2
  6
Continuous
370
    -3
390
F
  0
LAYER
  5
213
330
2
100
AcDbSymbolTableRecord
100
AcDbLayerTableRecord
  2
FRAMELAYER-195
 70
     0
 62
     2
  6
Continuous
370
    -3
390
F
  0
LAYER
  5
214
330
2
100
AcDbSymbolTableRecord
100
AcDbLayerTableRecord
  2
FRAMELAYER-196
 70
     0
 62
     2
  6
Continuous
370
    -3
390
F
  0
LAYER
  5
215
330
2
100
AcDbSymbolTableRecord
100
AcDbLayerTableRecord
  2
FRAMELAYER-197
 70
     0
 62
     7
  6
Continuous
370
    -3
390
F
  0
LAYER
  5
216
330
2
100
AcDbSymbolTableRecord
100
AcDbLayerTableRecord
  2
FRAMELAYER-198
 70
     0
 62
     7
  6
Continuous
370
    -3
390
F
  0
LAYER
  5
217
330
2
100
AcDbSymbolTableRecord
100
AcDbLayerTableRecord
  2
FRAMELAYER-199
 70
     0
 62
     4
  6
Continuous
370
    -3
390
F
  0
LAYER
  5
218
330
2
100
AcDbSymbolTableRecord
100
AcDbLayerTableRecord
  2
FRAMELAYER-200
 70
     0
 62
     1
  6
Continuous
370
    -3
390
F
  0
LAYER
  5
219
330
2
100
AcDbSymbolTableRecord
100
AcDbLayerTableRecord
  2
FRAMELAYER-201
 70
     0
 62
     1
  6
Continuous
370
    -3
390
F
  0
LAYER
  5
21A
330
2
100
AcDbSymbolTableRecord
100
AcDbLayerTableRecord
  2
FRAMELAYER-202
 70
     0
 62
     2
  6
Continuous
370
    -3
390
F
  0
LAYER
  5
21B
330
2
100
AcDbSymbolTableRecord
100
AcDbLayerTableRecord
  2
FRAMELAYER-203
 70
     0
 62
     2
  6
Continuous
370
    -3
390
F
  0
LAYER
  5
21C
330
2
100
AcDbSymbolTableRecord
100
AcDbLayerTableRecord
  2
FRAMELAYER-204
 70
     0
 62
     7
  6
Continuous
370
    -3
390
F
  0
LAYER
  5
21D
330
2
100
AcDbSymbolTableRecord
100
AcDbLayerTableRecord
  2
FRAMELAYER-205
 70
     0
 62
     7
  6
Continuous
370
    -3
390
F
  0
LAYER
  5
21E
330
2
100
AcDbSymbolTableRecord
100
AcDbLayerTableRecord
  2
FRAMELAYER-206
 70
     0
 62
     7
  6
Continuous
370
    -3
390
F
  0
LAYER
  5
21F
330
2
100
AcDbSymbolTableRecord
100
AcDbLayerTableRecord
  2
FRAMELAYER-207
 70
     0
 62
    -7
  6
Continuous
370
    -3
390
F
  0
LAYER
  5
220
330
2
100
AcDbSymbolTableRecord
100
AcDbLayerTableRecord
  2
FRAMELAYER-208
 70
     0
 62
     2
  6
Continuous
370
    -3
390
F
  0
LAYER
  5
221
330
2
100
AcDbSymbolTableRecord
100
AcDbLayerTableRecord
  2
FRAMELAYER-209
 70
     0
 62
     7
  6
Continuous
370
    -3
390
F
  0
LAYER
  5
222
330
2
100
AcDbSymbolTableRecord
100
AcDbLayerTableRecord
  2
FRAMELAYER-210
 70
     0
 62
     2
  6
Continuous
290
     0
370
    -3
390
F
  0
LAYER
  5
223
330
2
100
AcDbSymbolTableRecord
100
AcDbLayerTableRecord
  2
FRAMELAYER-211
 70
     0
 62
     7
  6
Continuous
370
    -3
390
F
  0
LAYER
  5
224
330
2
100
AcDbSymbolTableRecord
100
AcDbLayerTableRecord
  2
FRAMELAYER-212
 70
     0
 62
     7
  6
Continuous
370
    -3
390
F
  0
LAYER
  5
225
330
2
100
AcDbSymbolTableRecord
100
AcDbLayerTableRecord
  2
FRAMELAYER-213
 70
     0
 62
     2
  6
Continuous
370
    -3
390
F
  0
LAYER
  5
226
330
2
100
AcDbSymbolTableRecord
100
AcDbLayerTableRecord
  2
FRAMELAYER-214
 70
     0
 62
     7
  6
Continuous
370
    -3
390
F
  0
LAYER
  5
227
330
2
100
AcDbSymbolTableRecord
100
AcDbLayerTableRecord
  2
FRAMELAYER-215
 70
     0
 62
     7
  6
Continuous
370
    -3
390
F
  0
LAYER
  5
228
330
2
100
AcDbSymbolTableRecord
100
AcDbLayerTableRecord
  2
FRAMELAYER-216
 70
     0
 62
     4
  6
Continuous
370
    -3
390
F
  0
LAYER
  5
229
330
2
100
AcDbSymbolTableRecord
100
AcDbLayerTableRecord
  2
FRAMELAYER-217
 70
     0
 62
     7
  6
Continuous
370
    -3
390
F
  0
LAYER
  5
22A
330
2
100
AcDbSymbolTableRecord
100
AcDbLayerTableRecord
  2
FRAMELAYER-218
 70
     0
 62
     7
  6
Continuous
370
    -3
390
F
  0
LAYER
  5
22B
330
2
100
AcDbSymbolTableRecord
100
AcDbLayerTableRecord
  2
FRAMELAYER-219
 70
     0
 62
     7
  6
Continuous
370
    -3
390
F
  0
LAYER
  5
22C
330
2
100
AcDbSymbolTableRecord
100
AcDbLayerTableRecord
  2
FRAMELAYER-220
 70
     0
 62
     4
  6
Continuous
370
    -3
390
F
  0
LAYER
  5
22D
330
2
100
AcDbSymbolTableRecord
100
AcDbLayerTableRecord
  2
FRAMELAYER-221
 70
     0
 62
    -7
  6
Continuous
290
     0
370
    -3
390
F
  0
LAYER
  5
22E
330
2
100
AcDbSymbolTableRecord
100
AcDbLayerTableRecord
  2
FRAMELAYER-222
 70
     0
 62
    -4
  6
Continuous
290
     0
370
    -3
390
F
  0
LAYER
  5
22F
330
2
100
AcDbSymbolTableRecord
100
AcDbLayerTableRecord
  2
FRAMELAYER-223
 70
     0
 62
    -1
  6
Continuous
290
     0
370
    -3
390
F
  0
LAYER
  5
230
330
2
100
AcDbSymbolTableRecord
100
AcDbLayerTableRecord
  2
FRAMELAYER-224
 70
     0
 62
    -1
  6
Continuous
290
     0
370
    -3
390
F
  0
LAYER
  5
231
330
2
100
AcDbSymbolTableRecord
100
AcDbLayerTableRecord
  2
FRAMELAYER-225
 70
     0
 62
     7
  6
Continuous
370
    -3
390
F
  0
LAYER
  5
232
330
2
100
AcDbSymbolTableRecord
100
AcDbLayerTableRecord
  2
FRAMELAYER-226
 70
     0
 62
     2
  6
Continuous
370
    -3
390
F
  0
LAYER
  5
233
330
2
100
AcDbSymbolTableRecord
100
AcDbLayerTableRecord
  2
FRAMELAYER-227
 70
     0
 62
     7
  6
Continuous
370
    -3
390
F
  0
LAYER
  5
234
330
2
100
AcDbSymbolTableRecord
100
AcDbLayerTableRecord
  2
FRAMELAYER-228
 70
     0
 62
     7
  6
Continuous
370
    -3
390
F
  0
LAYER
  5
235
330
2
100
AcDbSymbolTableRecord
100
AcDbLayerTableRecord
  2
FRAMELAYER-229
 70
     0
 62
     7
  6
Continuous
370
    -3
390
F
  0
LAYER
  5
236
330
2
100
AcDbSymbolTableRecord
100
AcDbLayerTableRecord
  2
FRAMELAYER-230
 70
     0
 62
     7
  6
Continuous
370
    -3
390
F
  0
LAYER
  5
237
330
2
100
AcDbSymbolTableRecord
100
AcDbLayerTableRecord
  2
FRAMELAYER-231
 70
     0
 62
     7
  6
Continuous
370
    -3
390
F
  0
LAYER
  5
238
330
2
100
AcDbSymbolTableRecord
100
AcDbLayerTableRecord
  2
FRAMELAYER-232
 70
     0
 62
     7
  6
Continuous
370
    -3
390
F
  0
LAYER
  5
239
330
2
100
AcDbSymbolTableRecord
100
AcDbLayerTableRecord
  2
FRAMELAYER-233
 70
     0
 62
     7
  6
Continuous
370
    -3
390
F
  0
LAYER
  5
23A
330
2
100
AcDbSymbolTableRecord
100
AcDbLayerTableRecord
  2
FRAMELAYER-234
 70
     0
 62
     7
  6
Continuous
370
    -3
390
F
  0
LAYER
  5
23B
330
2
100
AcDbSymbolTableRecord
100
AcDbLayerTableRecord
  2
FRAMELAYER-235
 70
     0
 62
     7
  6
Continuous
370
    -3
390
F
  0
LAYER
  5
23C
330
2
100
AcDbSymbolTableRecord
100
AcDbLayerTableRecord
  2
FRAMELAYER-236
 70
     0
 62
     7
  6
Continuous
370
    -3
390
F
  0
LAYER
  5
23D
330
2
100
AcDbSymbolTableRecord
100
AcDbLayerTableRecord
  2
FRAMELAYER-237
 70
     0
 62
     7
  6
Continuous
370
    -3
390
F
  0
LAYER
  5
23E
330
2
100
AcDbSymbolTableRecord
100
AcDbLayerTableRecord
  2
FRAMELAYER-238
 70
     0
 62
     7
  6
Continuous
370
    -3
390
F
  0
LAYER
  5
23F
330
2
100
AcDbSymbolTableRecord
100
AcDbLayerTableRecord
  2
FRAMELAYER-239
 70
     0
 62
     7
  6
Continuous
370
    -3
390
F
  0
LAYER
  5
240
330
2
100
AcDbSymbolTableRecord
100
AcDbLayerTableRecord
  2
FRAMELAYER-240
 70
     0
 62
     7
  6
Continuous
370
    -3
390
F
  0
LAYER
  5
241
330
2
100
AcDbSymbolTableRecord
100
AcDbLayerTableRecord
  2
FRAMELAYER-241
 70
     0
 62
     7
  6
Continuous
370
    -3
390
F
  0
LAYER
  5
242
330
2
100
AcDbSymbolTableRecord
100
AcDbLayerTableRecord
  2
FRAMELAYER-242
 70
     0
 62
     7
  6
Continuous
370
    -3
390
F
  0
LAYER
  5
243
330
2
100
AcDbSymbolTableRecord
100
AcDbLayerTableRecord
  2
FRAMELAYER-243
 70
     0
 62
     7
  6
Continuous
370
    -3
390
F
  0
LAYER
  5
244
330
2
100
AcDbSymbolTableRecord
100
AcDbLayerTableRecord
  2
FRAMELAYER-244
 70
     0
 62
     7
  6
Continuous
370
    -3
390
F
  0
LAYER
  5
245
330
2
100
AcDbSymbolTableRecord
100
AcDbLayerTableRecord
  2
FRAMELAYER-245
 70
     0
 62
     7
  6
Continuous
370
    -3
390
F
  0
LAYER
  5
246
330
2
100
AcDbSymbolTableRecord
100
AcDbLayerTableRecord
  2
FRAMELAYER-246
 70
     0
 62
     7
  6
Continuous
370
    -3
390
F
  0
LAYER
  5
247
330
2
100
AcDbSymbolTableRecord
100
AcDbLayerTableRecord
  2
FRAMELAYER-247
 70
     0
 62
     7
  6
Continuous
370
    -3
390
F
  0
LAYER
  5
248
330
2
100
AcDbSymbolTableRecord
100
AcDbLayerTableRecord
  2
FRAMELAYER-248
 70
     0
 62
     7
  6
Continuous
370
    -3
390
F
  0
LAYER
  5
249
330
2
100
AcDbSymbolTableRecord
100
AcDbLayerTableRecord
  2
FRAMELAYER-249
 70
     0
 62
     7
  6
Continuous
370
    -3
390
F
  0
LAYER
  5
24A
330
2
100
AcDbSymbolTableRecord
100
AcDbLayerTableRecord
  2
FRAMELAYER-250
 70
     0
 62
     7
  6
Continuous
370
    -3
390
F
  0
LAYER
  5
24B
330
2
100
AcDbSymbolTableRecord
100
AcDbLayerTableRecord
  2
FRAMELAYER-251
 70
     0
 62
     7
  6
Continuous
370
    -3
390
F
  0
LAYER
  5
24C
330
2
100
AcDbSymbolTableRecord
100
AcDbLayerTableRecord
  2
FRAMELAYER-252
 70
     0
 62
     7
  6
Continuous
370
    -3
390
F
  0
LAYER
  5
24D
330
2
100
AcDbSymbolTableRecord
100
AcDbLayerTableRecord
  2
FRAMELAYER-253
 70
     0
 62
     7
  6
Continuous
370
    -3
390
F
  0
LAYER
  5
24E
330
2
100
AcDbSymbolTableRecord
100
AcDbLayerTableRecord
  2
FRAMELAYER-254
 70
     0
 62
     7
  6
Continuous
370
    -3
390
F
  0
LAYER
  5
24F
330
2
100
AcDbSymbolTableRecord
100
AcDbLayerTableRecord
  2
FRAMELAYER-255
 70
     0
 62
     7
  6
Continuous
370
    -3
390
F
  0
LAYER
  5
250
330
2
100
AcDbSymbolTableRecord
100
AcDbLayerTableRecord
  2
FRAMELAYER-256
 70
     0
 62
     7
  6
Continuous
370
    -3
390
F
  0
ENDTAB
  0
TABLE
  2
STYLE
  5
3
330
0
100
AcDbSymbolTable
 70
     7
  0
STYLE
  5
11
330
3
100
AcDbSymbolTableRecord
100
AcDbTextStyleTableRecord
  2
Standard
 70
     0
 40
0.0
 41
1.0
 50
0.0
 71
     0
 42
2.5
  3
txt
  4

  0
STYLE
  5
31
330
3
100
AcDbSymbolTableRecord
100
AcDbTextStyleTableRecord
  2
STANDARD2
 70
     0
 40
0.0
 41
1.0
 50
0.0
 71
     0
 42
4.0
  3
MS Mincho.ttf
  4

1001
ACAD
1000
MS Mincho
1071
    32785
  0
STYLE
  5
32
330
3
100
AcDbSymbolTableRecord
100
AcDbTextStyleTableRecord
  2
STRING_H
 70
     0
 40
0.0
 41
1.0
 50
0.0
 71
     0
 42
4.0
  3
MS Mincho.ttf
  4

1001
ACAD
1000
MS Mincho
1071
    32785
  0
STYLE
  5
33
330
3
100
AcDbSymbolTableRecord
100
AcDbTextStyleTableRecord
  2
STRING_H_ITALIC
 70
     0
 40
0.0
 41
1.0
 50
15.0
 71
     0
 42
4.0
  3
MS Mincho.ttf
  4

1001
ACAD
1000
MS Mincho
1071
    32785
  0
STYLE
  5
34
330
3
100
AcDbSymbolTableRecord
100
AcDbTextStyleTableRecord
  2
STRING_V
 70
     0
 40
0.0
 41
1.0
 50
0.0
 71
     0
 42
4.0
  3
@MS Mincho.ttf
  4

1001
ACAD
1000
@MS Mincho
1071
    32785
  0
STYLE
  5
35
330
3
100
AcDbSymbolTableRecord
100
AcDbTextStyleTableRecord
  2
STRING_V_ITALIC
 70
     0
 40
0.0
 41
1.0
 50
15.0
 71
     0
 42
4.0
  3
@MS Mincho.ttf
  4

1001
ACAD
1000
@MS Mincho
1071
    32785
  0
STYLE
  5
36
330
3
100
AcDbSymbolTableRecord
100
AcDbTextStyleTableRecord
  2

 70
     1
 40
0.0
 41
1.0
 50
0.0
 71
     0
 42
0.2
  3
ltypeshp.shx
  4

  0
ENDTAB
  0
TABLE
  2
VIEW
  5
6
330
0
100
AcDbSymbolTable
 70
     0
  0
ENDTAB
  0
TABLE
  2
UCS
  5
7
330
0
100
AcDbSymbolTable
 70
     0
  0
ENDTAB
  0
TABLE
  2
APPID
  5
9
330
0
100
AcDbSymbolTable
 70
     1
  0
APPID
  5
12
330
9
100
AcDbSymbolTableRecord
100
AcDbRegAppTableRecord
  2
ACAD
 70
     0
  0
ENDTAB
  0
TABLE
  2
DIMSTYLE
  5
A
330
0
100
AcDbSymbolTable
 70
     2
100
AcDbDimStyleTable
  0
DIMSTYLE
105
27
330
A
100
AcDbSymbolTableRecord
100
AcDbDimStyleTableRecord
  2
ISO-25
 70
     0
 41
2.5
 42
0.625
 43
3.75
 44
1.25
 73
     0
 74
     0
 77
     1
 78
     8
140
2.5
141
2.5
143
0.03937007874016
147
0.625
171
     3
172
     1
271
     2
272
     2
274
     3
283
     0
284
     8
340
11
  0
DIMSTYLE
105
251
102
{ACAD_REACTORS
330
515
330
51F
330
529
330
533
330
53D
330
547
330
551
102
}
330
A
100
AcDbSymbolTableRecord
100
AcDbDimStyleTableRecord
  2
DIO_DIMSTYLE
 70
     0
 41
4.0
 42
1.0
 43
3.75
 44
1.0
 45
0.1
 73
     0
 74
     0
 77
     1
 78
     8
 79
     2
140
3.0
141
2.5
143
0.03937007874016
147
0.5
171
     3
172
     1
173
     1
179
     1
271
     1
272
     1
274
     3
283
     0
284
     8
288
     1
289
     0
340
31
  0
ENDTAB
  0
TABLE
  2
BLOCK_RECORD
  5
1
330
0
100
AcDbSymbolTable
 70
     9
  0
BLOCK_RECORD
  5
1F
330
1
100
AcDbSymbolTableRecord
100
AcDbBlockTableRecord
  2
*Model_Space
340
22
  0
BLOCK_RECORD
  5
1B
330
1
100
AcDbSymbolTableRecord
100
AcDbBlockTableRecord
  2
*Paper_Space
340
1E
  0
BLOCK_RECORD
  5
23
330
1
100
AcDbSymbolTableRecord
100
AcDbBlockTableRecord
  2
*Paper_Space0
340
26
  0
BLOCK_RECORD
  5
506
330
1
100
AcDbSymbolTableRecord
100
AcDbBlockTableRecord
  2
_OPEN
340
0
102
{BLKREFS
331
50F
331
510
331
519
331
51A
331
523
331
524
331
52D
331
52E
331
537
331
538
331
541
331
542
331
54B
331
54C
102
}
  0
BLOCK_RECORD
  5
50C
330
1
100
AcDbSymbolTableRecord
100
AcDbBlockTableRecord
  2
*D02
340
0
  0
BLOCK_RECORD
  5
516
330
1
100
AcDbSymbolTableRecord
100
AcDbBlockTableRecord
  2
*D13
340
0
  0
BLOCK_RECORD
  5
520
330
1
100
AcDbSymbolTableRecord
100
AcDbBlockTableRecord
  2
*D24
340
0
  0
BLOCK_RECORD
  5
52A
330
1
100
AcDbSymbolTableRecord
100
AcDbBlockTableRecord
  2
*D35
340
0
  0
BLOCK_RECORD
  5
534
330
1
100
AcDbSymbolTableRecord
100
AcDbBlockTableRecord
  2
*D46
340
0
  0
BLOCK_RECORD
  5
53E
330
1
100
AcDbSymbolTableRecord
100
AcDbBlockTableRecord
  2
*D57
340
0
  0
BLOCK_RECORD
  5
548
330
1
100
AcDbSymbolTableRecord
100
AcDbBlockTableRecord
  2
*D68
340
0
  0
ENDTAB
  0
ENDSEC
  0
SECTION
  2
BLOCKS
  0
BLOCK
  5
20
330
1F
100
AcDbEntity
  8
0
100
AcDbBlockBegin
  2
*Model_Space
 70
     0
 71
     0
 10
0.0
 20
0.0
 30
0.0
  3
*Model_Space
  1

  0
ENDBLK
  5
21
330
1F
100
AcDbEntity
  8
0
100
AcDbBlockEnd
  0
BLOCK
  5
1C
330
1B
100
AcDbEntity
 67
     1
  8
0
100
AcDbBlockBegin
  2
*Paper_Space
 70
     0
 71
     0
 10
0.0
 20
0.0
 30
0.0
  3
*Paper_Space
  1

  0
ENDBLK
  5
1D
330
1B
100
AcDbEntity
 67
     1
  8
0
100
AcDbBlockEnd
  0
BLOCK
  5
24
330
23
100
AcDbEntity
  8
0
100
AcDbBlockBegin
  2
*Paper_Space0
 70
     0
 71
     0
 10
0.0
 20
0.0
 30
0.0
  3
*Paper_Space0
  1

  0
ENDBLK
  5
25
330
23
100
AcDbEntity
  8
0
100
AcDbBlockEnd
  0
BLOCK
  5
507
330
506
100
AcDbEntity
  8
0
100
AcDbBlockBegin
  2
_OPEN
 70
     0
 71
     0
 10
0.0
 20
0.0
 30
0.0
  3
_OPEN
  1

  0
LINE
  5
509
330
506
100
AcDbEntity
  8
LAYER-035
  6
Continuous
 62
     0
100
AcDbLine
 10
0.0
 20
0.0
 30
0.0
 11
-1.0
 21
0.0
 31
0.0
  0
LINE
  5
50A
330
506
100
AcDbEntity
  8
LAYER-035
  6
Continuous
 62
     0
100
AcDbLine
 10
0.0
 20
0.0
 30
0.0
 11
-1.0
 21
0.1666250109338451
 31
0.0
  0
LINE
  5
50B
330
506
100
AcDbEntity
  8
LAYER-035
  6
Continuous
 62
     0
100
AcDbLine
 10
0.0
 20
0.0
 30
0.0
 11
-1.0
 21
-0.1666250109338451
 31
0.0
  0
ENDBLK
  5
508
330
506
100
AcDbEntity
  8
0
100
AcDbBlockEnd
  0
BLOCK
  5
50D
330
50C
100
AcDbEntity
  8
0
100
AcDbBlockBegin
  2
*D02
 70
     1
 71
     0
 10
0.0
 20
0.0
 30
0.0
  3
*D02
  1

  0
INSERT
  5
50F
330
50C
100
AcDbEntity
  8
LAYER-035
  6
Continuous
 62
     5
100
AcDbBlockReference
  2
_OPEN
 10
-64.85446835295267
 20
-112.2418422714409
 30
0.0
 41
4.0
 42
4.0
 43
4.0
  0
INSERT
  5
510
330
50C
100
AcDbEntity
  8
LAYER-035
  6
Continuous
 62
     5
100
AcDbBlockReference
  2
_OPEN
 10
-379.8544683529527
 20
-112.2418422714409
 30
0.0
 41
4.0
 42
4.0
 43
4.0
 50
180.0
  0
LINE
  5
511
330
50C
100
AcDbEntity
  8
LAYER-035
  6
Continuous
 62
     5
100
AcDbLine
 10
-64.85446835295267
 20
-38.58212820644258
 30
0.0
 11
-64.85446835295267
 21
-113.2418422714409
 31
0.0
  0
LINE
  5
512
330
50C
100
AcDbEntity
  8
LAYER-035
  6
Continuous
 62
     5
100
AcDbLine
 10
-379.8544683529527
 20
-38.58212820644258
 30
0.0
 11
-379.8544683529527
 21
-113.2418422714409
 31
0.0
  0
LINE
  5
513
330
50C
100
AcDbEntity
  8
LAYER-035
  6
Continuous
 62
     5
100
AcDbLine
 10
-64.85446835295267
 20
-112.2418422714409
 30
0.0
 11
-379.8544683529527
 21
-112.2418422714409
 31
0.0
  0
MTEXT
  5
514
330
50C
100
AcDbEntity
  8
LAYER-036
  6
Continuous
 62
     5
100
AcDbMText
 10
-222.3544683529527
 20
-111.7418422714409
 30
0.0
 40
4.0
 41
0.0
 71
     8
 72
     1
  1
315
  7
STRING_H
 73
     1
 44
1.0
  0
ENDBLK
  5
50E
330
50C
100
AcDbEntity
  8
0
100
AcDbBlockEnd
  0
BLOCK
  5
517
330
516
100
AcDbEntity
  8
0
100
AcDbBlockBegin
  2
*D13
 70
     1
 71
     0
 10
0.0
 20
0.0
 30
0.0
  3
*D13
  1

  0
INSERT
  5
519
330
516
100
AcDbEntity
  8
LAYER-035
  6
Continuous
 62
     5
100
AcDbBlockReference
  2
_OPEN
 10
-97.35446835295261
 20
-88.57574783076456
 30
0.0
 41
4.0
 42
4.0
 43
4.0
  0
INSERT
  5
51A
330
516
100
AcDbEntity
  8
LAYER-035
  6
Continuous
 62
     5
100
AcDbBlockReference
  2
_OPEN
 10
-347.3544683529526
 20
-88.57574783076456
 30
0.0
 41
4.0
 42
4.0
 43
4.0
 50
180.0
  0
LINE
  5
51B
330
516
100
AcDbEntity
  8
LAYER-035
  6
Continuous
 62
     5
100
AcDbLine
 10
-97.35446835295267
 20
-51.01863020644305
 30
0.0
 11
-97.35446835295261
 21
-89.57574783076456
 31
0.0
  0
LINE
  5
51C
330
516
100
AcDbEntity
  8
LAYER-035
  6
Continuous
 62
     5
100
AcDbLine
 10
-347.3544683529527
 20
-48.44282241930046
 30
0.0
 11
-347.3544683529526
 21
-89.57574783076456
 31
0.0
  0
LINE
  5
51D
330
516
100
AcDbEntity
  8
LAYER-035
  6
Continuous
 62
     5
100
AcDbLine
 10
-97.35446835295261
 20
-88.57574783076456
 30
0.0
 11
-347.3544683529526
 21
-88.57574783076456
 31
0.0
  0
MTEXT
  5
51E
330
516
100
AcDbEntity
  8
LAYER-036
  6
Continuous
 62
     5
100
AcDbMText
 10
-222.3544683529526
 20
-88.07574783076456
 30
0.0
 40
4.0
 41
0.0
 71
     8
 72
     1
  1
250
  7
STRING_H
 73
     1
 44
1.0
  0
ENDBLK
  5
518
330
516
100
AcDbEntity
  8
0
100
AcDbBlockEnd
  0
BLOCK
  5
521
330
520
100
AcDbEntity
  8
0
100
AcDbBlockBegin
  2
*D24
 70
     1
 71
     0
 10
0.0
 20
0.0
 30
0.0
  3
*D24
  1

  0
INSERT
  5
523
330
520
100
AcDbEntity
  8
LAYER-035
  6
Continuous
 62
     5
100
AcDbBlockReference
  2
_OPEN
 10
-419.9775315457964
 20
227.4178717935574
 30
0.0
 41
4.0
 42
4.0
 43
4.0
 50
90.0
  0
INSERT
  5
524
330
520
100
AcDbEntity
  8
LAYER-035
  6
Continuous
 62
     5
100
AcDbBlockReference
  2
_OPEN
 10
-419.9775315457964
 20
-37.58212820644258
 30
0.0
 41
4.0
 42
4.0
 43
4.0
 50
-90.0
  0
LINE
  5
525
330
520
100
AcDbEntity
  8
LAYER-035
  6
Continuous
 62
     5
100
AcDbLine
 10
-327.3544683529527
 20
227.4178717935574
 30
0.0
 11
-420.9775315457964
 21
227.4178717935574
 31
0.0
  0
LINE
  5
526
330
520
100
AcDbEntity
  8
LAYER-035
  6
Continuous
 62
     5
100
AcDbLine
 10
-380.8544683529527
 20
-37.58212820644258
 30
0.0
 11
-420.9775315457964
 21
-37.58212820644258
 31
0.0
  0
LINE
  5
527
330
520
100
AcDbEntity
  8
LAYER-035
  6
Continuous
 62
     5
100
AcDbLine
 10
-419.9775315457964
 20
227.4178717935574
 30
0.0
 11
-419.9775315457964
 21
-37.58212820644258
 31
0.0
  0
MTEXT
  5
528
330
520
100
AcDbEntity
  8
LAYER-036
  6
Continuous
 62
     5
100
AcDbMText
 10
-420.4775315457964
 20
94.91787179355742
 30
0.0
 40
4.0
 41
0.0
 71
     8
 72
     1
  1
265
  7
STRING_H
 11
6.123031769111886E-17
 21
1.0
 31
0.0
 73
     1
 44
1.0
  0
ENDBLK
  5
522
330
520
100
AcDbEntity
  8
0
100
AcDbBlockEnd
  0
BLOCK
  5
52B
330
52A
100
AcDbEntity
  8
0
100
AcDbBlockBegin
  2
*D35
 70
     1
 71
     0
 10
0.0
 20
0.0
 30
0.0
  3
*D35
  1

  0
INSERT
  5
52D
330
52A
100
AcDbEntity
  8
LAYER-035
  6
Continuous
 62
     5
100
AcDbBlockReference
  2
_OPEN
 10
332.1033083216794
 20
-97.68016601221837
 30
0.0
 41
4.0
 42
4.0
 43
4.0
  0
INSERT
  5
52E
330
52A
100
AcDbEntity
  8
LAYER-035
  6
Continuous
 62
     5
100
AcDbBlockReference
  2
_OPEN
 10
102.1033083216794
 20
-97.68016601221837
 30
0.0
 41
4.0
 42
4.0
 43
4.0
 50
180.0
  0
LINE
  5
52F
330
52A
100
AcDbEntity
  8
LAYER-035
  6
Continuous
 62
     5
100
AcDbLine
 10
332.1033083216794
 20
-38.58212820644258
 30
0.0
 11
332.1033083216794
 21
-98.68016601221837
 31
0.0
  0
LINE
  5
530
330
52A
100
AcDbEntity
  8
LAYER-035
  6
Continuous
 62
     5
100
AcDbLine
 10
102.1033083216794
 20
-38.58212820644258
 30
0.0
 11
102.1033083216794
 21
-98.68016601221837
 31
0.0
  0
LINE
  5
531
330
52A
100
AcDbEntity
  8
LAYER-035
  6
Continuous
 62
     5
100
AcDbLine
 10
332.1033083216794
 20
-97.68016601221837
 30
0.0
 11
102.1033083216794
 21
-97.68016601221837
 31
0.0
  0
MTEXT
  5
532
330
52A
100
AcDbEntity
  8
LAYER-036
  6
Continuous
 62
     5
100
AcDbMText
 10
217.1033083216794
 20
-97.18016601221837
 30
0.0
 40
4.0
 41
0.0
 71
     8
 72
     1
  1
230
  7
STRING_H
 73
     1
 44
1.0
  0
ENDBLK
  5
52C
330
52A
100
AcDbEntity
  8
0
100
AcDbBlockEnd
  0
BLOCK
  5
535
330
534
100
AcDbEntity
  8
0
100
AcDbBlockBegin
  2
*D46
 70
     1
 71
     0
 10
0.0
 20
0.0
 30
0.0
  3
*D46
  1

  0
INSERT
  5
537
330
534
100
AcDbEntity
  8
LAYER-035
  6
Continuous
 62
     5
100
AcDbBlockReference
  2
_OPEN
 10
317.1033083216794
 20
-77.57814762926353
 30
0.0
 41
4.0
 42
4.0
 43
4.0
  0
INSERT
  5
538
330
534
100
AcDbEntity
  8
LAYER-035
  6
Continuous
 62
     5
100
AcDbBlockReference
  2
_OPEN
 10
117.1033083216794
 20
-77.57814762926353
 30
0.0
 41
4.0
 42
4.0
 43
4.0
 50
180.0
  0
LINE
  5
539
330
534
100
AcDbEntity
  8
LAYER-035
  6
Continuous
 62
     5
100
AcDbLine
 10
317.1033083216794
 20
-51.01863020644305
 30
0.0
 11
317.1033083216794
 21
-78.57814762926353
 31
0.0
  0
LINE
  5
53A
330
534
100
AcDbEntity
  8
LAYER-035
  6
Continuous
 62
     5
100
AcDbLine
 10
117.1033083216794
 20
-51.01863020644305
 30
0.0
 11
117.1033083216794
 21
-78.57814762926353
 31
0.0
  0
LINE
  5
53B
330
534
100
AcDbEntity
  8
LAYER-035
  6
Continuous
 62
     5
100
AcDbLine
 10
317.1033083216794
 20
-77.57814762926353
 30
0.0
 11
117.1033083216794
 21
-77.57814762926353
 31
0.0
  0
MTEXT
  5
53C
330
534
100
AcDbEntity
  8
LAYER-036
  6
Continuous
 62
     5
100
AcDbMText
 10
217.1033083216794
 20
-77.07814762926353
 30
0.0
 40
4.0
 41
0.0
 71
     8
 72
     1
  1
200
  7
STRING_H
 73
     1
 44
1.0
  0
ENDBLK
  5
536
330
534
100
AcDbEntity
  8
0
100
AcDbBlockEnd
  0
BLOCK
  5
53F
330
53E
100
AcDbEntity
  8
0
100
AcDbBlockBegin
  2
*D57
 70
     1
 71
     0
 10
0.0
 20
0.0
 30
0.0
  3
*D57
  1

  0
INSERT
  5
541
330
53E
100
AcDbEntity
  8
LAYER-035
  6
Continuous
 62
     5
100
AcDbBlockReference
  2
_OPEN
 10
97.10330832167944
 20
41.70221736153289
 30
0.0
 41
4.0
 42
4.0
 43
4.0
 50
180.0
  0
INSERT
  5
542
330
53E
100
AcDbEntity
  8
LAYER-035
  6
Continuous
 62
     5
100
AcDbBlockReference
  2
_OPEN
 10
337.1033083216794
 20
41.70221736153289
 30
0.0
 41
4.0
 42
4.0
 43
4.0
  0
LINE
  5
543
330
53E
100
AcDbEntity
  8
LAYER-035
  6
Continuous
 62
     5
100
AcDbLine
 10
97.10330832167944
 20
91.41787179355742
 30
0.0
 11
97.10330832167944
 21
40.70221736153289
 31
0.0
  0
LINE
  5
544
330
53E
100
AcDbEntity
  8
LAYER-035
  6
Continuous
 62
     5
100
AcDbLine
 10
337.1033083216794
 20
91.41787179355742
 30
0.0
 11
337.1033083216794
 21
40.70221736153289
 31
0.0
  0
LINE
  5
545
330
53E
100
AcDbEntity
  8
LAYER-035
  6
Continuous
 62
     5
100
AcDbLine
 10
97.10330832167944
 20
41.70221736153289
 30
0.0
 11
337.1033083216794
 21
41.70221736153289
 31
0.0
  0
MTEXT
  5
546
330
53E
100
AcDbEntity
  8
LAYER-036
  6
Continuous
 62
     5
100
AcDbMText
 10
197.7692422669406
 20
42.20221736153289
 30
0.0
 40
4.0
 41
0.0
 71
     8
 72
     1
  1
240
  7
STRING_H
 73
     1
 44
1.0
  0
ENDBLK
  5
540
330
53E
100
AcDbEntity
  8
0
100
AcDbBlockEnd
  0
BLOCK
  5
549
330
548
100
AcDbEntity
  8
0
100
AcDbBlockBegin
  2
*D68
 70
     1
 71
     0
 10
0.0
 20
0.0
 30
0.0
  3
*D68
  1

  0
INSERT
  5
54B
330
548
100
AcDbEntity
  8
LAYER-035
  6
Continuous
 62
     5
100
AcDbBlockReference
  2
_OPEN
 10
387.1033083216794
 20
69.70822350726218
 30
0.0
 41
4.0
 42
4.0
 43
4.0
  0
INSERT
  5
54C
330
548
100
AcDbEntity
  8
LAYER-035
  6
Continuous
 62
     5
100
AcDbBlockReference
  2
_OPEN
 10
337.1033083216794
 20
69.70822350726218
 30
0.0
 41
4.0
 42
4.0
 43
4.0
 50
180.0
  0
LINE
  5
54D
330
548
100
AcDbEntity
  8
LAYER-035
  6
Continuous
 62
     5
100
AcDbLine
 10
387.1033083216794
 20
190.2300577935575
 30
0.0
 11
387.1033083216794
 21
68.70822350726218
 31
0.0
  0
LINE
  5
54E
330
548
100
AcDbEntity
  8
LAYER-035
  6
Continuous
 62
     5
100
AcDbLine
 10
337.1033083216794
 20
91.41787179355742
 30
0.0
 11
337.1033083216794
 21
68.70822350726218
 31
0.0
  0
LINE
  5
54F
330
548
100
AcDbEntity
  8
LAYER-035
  6
Continuous
 62
     5
100
AcDbLine
 10
387.1033083216794
 20
69.70822350726218
 30
0.0
 11
337.1033083216794
 21
69.70822350726218
 31
0.0
  0
MTEXT
  5
550
330
548
100
AcDbEntity
  8
LAYER-036
  6
Continuous
 62
     5
100
AcDbMText
 10
362.1033083216794
 20
70.20822350726218
 30
0.0
 40
4.0
 41
0.0
 71
     8
 72
     1
  1
{\W0.500000;(50)}
  7
STRING_H
 73
     1
 44
1.0
  0
ENDBLK
  5
54A
330
548
100
AcDbEntity
  8
0
100
AcDbBlockEnd
  0
ENDSEC
  0
SECTION
  2
ENTITIES
  0
LINE
  5
252
330
1F
100
AcDbEntity
  8
LAYER-033
  6
Continuous
 62
     1
100
AcDbLine
 10
-80.71560684896083
 20
-235.2017527596956
 30
0.0
 11
42.66105939768147
 21
-235.2017527596956
 31
0.0
  0
LINE
  5
253
330
1F
100
AcDbEntity
  8
LAYER-033
  6
Continuous
 62
     1
100
AcDbLine
 10
-80.71560684896083
 20
-243.287202861
 30
0.0
 11
-22.64859653968249
 21
-243.287202861
 31
0.0
  0
LINE
  5
254
330
1F
100
AcDbEntity
  8
LAYER-033
  6
Continuous
 62
     1
100
AcDbLine
 10
-80.71560684896083
 20
-227.1163026583913
 30
0.0
 11
-22.64859653968249
 21
-227.1163026583913
 31
0.0
  0
LINE
  5
255
330
1F
100
AcDbEntity
  8
LAYER-256
  6
CENTER
 62
     4
100
AcDbLine
 10
261.1216783216783
 20
235.4672667935556
 30
0.0
 11
261.1216783216783
 21
139.5852417935594
 31
0.0
  0
LINE
  5
256
330
1F
100
AcDbEntity
  8
LAYER-256
  6
Continuous
 62
     1
100
AcDbLine
 10
257.1216783216783
 20
227.4178717935574
 30
0.0
 11
265.1216783216783
 21
227.4178717935574
 31
0.0
  0
LINE
  5
257
330
1F
100
AcDbEntity
  8
LAYER-256
  6
Continuous
 62
     1
100
AcDbLine
 10
257.1216783216783
 20
227.4178717935574
 30
0.0
 11
257.1216783216783
 21
220.8938757935566
 31
0.0
  0
LINE
  5
258
330
1F
100
AcDbEntity
  8
LAYER-256
  6
Continuous
 62
     1
100
AcDbLine
 10
265.1216783216783
 20
227.4178717935574
 30
0.0
 11
265.1216783216783
 21
220.8938757935566
 31
0.0
  0
LINE
  5
259
330
1F
100
AcDbEntity
  8
LAYER-256
  6
Continuous
 62
     1
100
AcDbLine
 10
252.8511743216764
 20
220.0211057935558
 30
0.0
 11
252.8511743216764
 21
211.7037027935548
 31
0.0
  0
LINE
  5
25A
330
1F
100
AcDbEntity
  8
LAYER-256
  6
Continuous
 62
     1
100
AcDbLine
 10
257.4897253216792
 20
220.0211057935558
 30
0.0
 11
257.4897253216792
 21
211.7037027935548
 31
0.0
  0
LINE
  5
25B
330
1F
100
AcDbEntity
  8
LAYER-256
  6
Continuous
 62
     1
100
AcDbLine
 10
264.7536303216789
 20
220.0211057935558
 30
0.0
 11
264.7536303216789
 21
211.7037027935548
 31
0.0
  0
LINE
  5
25C
330
1F
100
AcDbEntity
  8
LAYER-256
  6
Continuous
 62
     1
100
AcDbLine
 10
269.3921823216757
 20
220.0211057935558
 30
0.0
 11
269.3921823216757
 21
211.7037027935548
 31
0.0
  0
ARC
  5
25D
330
1F
100
AcDbEntity
  8
LAYER-256
  6
Continuous
 62
     1
100
AcDbCircle
 10
255.1704493216764
 20
217.3759027935585
 30
0.0
 40
3.517973000000001
100
AcDbArc
 50
48.75617399993111
 51
131.243826000016
  0
ARC
  5
25E
330
1F
100
AcDbEntity
  8
LAYER-256
  6
Continuous
 62
     1
100
AcDbCircle
 10
267.0729063253153
 20
217.3759027935585
 30
0.0
 40
3.517973000000001
100
AcDbArc
 50
48.75617404448063
 51
131.2438260446212
  0
LINE
  5
25F
330
1F
100
AcDbEntity
  8
LAYER-256
  6
Continuous
 62
     1
100
AcDbLine
 10
267.0729063253153
 20
220.8938757935566
 30
0.0
 11
255.1704493216764
 21
220.8938757935566
 31
0.0
  0
LINE
  5
260
330
1F
100
AcDbEntity
  8
LAYER-256
  6
Continuous
 62
     1
100
AcDbLine
 10
251.1528723216766
 20
211.7037027935548
 30
0.0
 11
273.075124321676
 21
211.7037027935548
 31
0.0
  0
ARC
  5
261
330
1F
100
AcDbEntity
  8
LAYER-256
  6
Continuous
 62
     1
100
AcDbCircle
 10
261.1216783216783
 20
212.9004797947055
 30
0.0
 40
7.993397
100
AcDbArc
 50
62.97565083753086
 51
117.0243491624692
  0
LINE
  5
262
330
1F
100
AcDbEntity
  8
LAYER-256
  6
Continuous
 62
     1
100
AcDbLine
 10
251.1528723216766
 20
209.303702793557
 30
0.0
 11
290.1274473216786
 21
209.303702793557
 31
0.0
  0
LINE
  5
263
330
1F
100
AcDbEntity
  8
LAYER-256
  6
Continuous
 62
     1
100
AcDbLine
 10
251.1528723216766
 20
211.7037027935548
 30
0.0
 11
251.1528723216766
 21
209.303702793557
 31
0.0
  0
LINE
  5
264
330
1F
100
AcDbEntity
  8
LAYER-256
  6
Continuous
 62
     1
100
AcDbLine
 10
252.8511743216764
 20
200.9862997935561
 30
0.0
 11
252.8511743216764
 21
209.303702793557
 31
0.0
  0
LINE
  5
265
330
1F
100
AcDbEntity
  8
LAYER-256
  6
Continuous
 62
     1
100
AcDbLine
 10
257.4897253216792
 20
200.9862997935561
 30
0.0
 11
257.4897253216792
 21
209.303702793557
 31
0.0
  0
LINE
  5
266
330
1F
100
AcDbEntity
  8
LAYER-256
  6
Continuous
 62
     1
100
AcDbLine
 10
264.7536303216789
 20
200.9862997935561
 30
0.0
 11
264.7536303216789
 21
209.303702793557
 31
0.0
  0
LINE
  5
267
330
1F
100
AcDbEntity
  8
LAYER-256
  6
Continuous
 62
     1
100
AcDbLine
 10
269.3921823216757
 20
200.9862997935561
 30
0.0
 11
269.3921823216757
 21
209.303702793557
 31
0.0
  0
ARC
  5
268
330
1F
100
AcDbEntity
  8
LAYER-256
  6
Continuous
 62
     1
100
AcDbCircle
 10
255.1704493216764
 20
203.631501794
 30
0.0
 40
3.517973000000001
100
AcDbArc
 50
228.7561740048121
 51
311.2438259952408
  0
ARC
  5
269
330
1F
100
AcDbEntity
  8
LAYER-256
  6
Continuous
 62
     1
100
AcDbCircle
 10
267.0729063253153
 20
203.631501794
 30
0.0
 40
3.517973000000001
100
AcDbArc
 50
228.7561739602069
 51
311.2438259506913
  0
ARC
  5
26A
330
1F
100
AcDbEntity
  8
LAYER-256
  6
Continuous
 62
     1
100
AcDbCircle
 10
261.1216783216783
 20
208.1069257935569
 30
0.0
 40
7.993397
100
AcDbArc
 50
242.9756510000022
 51
297.0243489999978
  0
LINE
  5
26B
330
1F
100
AcDbEntity
  8
LAYER-256
  6
Continuous
 62
     1
100
AcDbLine
 10
251.1528723216766
 20
182.7135287935544
 30
0.0
 11
271.0904833216783
 21
182.7135287935544
 31
0.0
  0
LINE
  5
26C
330
1F
100
AcDbEntity
  8
LAYER-256
  6
Continuous
 62
     1
100
AcDbLine
 10
251.1528723216766
 20
185.1135287935567
 30
0.0
 11
251.1528723216766
 21
182.7135287935544
 31
0.0
  0
LINE
  5
26D
330
1F
100
AcDbEntity
  8
LAYER-256
  6
Continuous
 62
     1
100
AcDbLine
 10
271.0904833216783
 20
185.1135287935567
 30
0.0
 11
271.0904833216783
 21
182.7135287935544
 31
0.0
  0
LINE
  5
26E
330
1F
100
AcDbEntity
  8
LAYER-256
  6
Continuous
 62
     1
100
AcDbLine
 10
252.8511743216764
 20
174.3961267935565
 30
0.0
 11
252.8511743216764
 21
182.7135287935544
 31
0.0
  0
LINE
  5
26F
330
1F
100
AcDbEntity
  8
LAYER-256
  6
Continuous
 62
     1
100
AcDbLine
 10
257.4897253216792
 20
174.3961267935565
 30
0.0
 11
257.4897253216792
 21
182.7135287935544
 31
0.0
  0
LINE
  5
270
330
1F
100
AcDbEntity
  8
LAYER-256
  6
Continuous
 62
     1
100
AcDbLine
 10
264.7536303216789
 20
174.3961267935565
 30
0.0
 11
264.7536303216789
 21
182.7135287935544
 31
0.0
  0
LINE
  5
271
330
1F
100
AcDbEntity
  8
LAYER-256
  6
Continuous
 62
     1
100
AcDbLine
 10
269.3921823216757
 20
174.3961267935565
 30
0.0
 11
269.3921823216757
 21
182.7135287935544
 31
0.0
  0
ARC
  5
272
330
1F
100
AcDbEntity
  8
LAYER-256
  6
Continuous
 62
     1
100
AcDbCircle
 10
255.1704493216764
 20
177.0413287935553
 30
0.0
 40
3.517973000000001
100
AcDbArc
 50
228.7561740121871
 51
311.2438259878658
  0
ARC
  5
273
330
1F
100
AcDbEntity
  8
LAYER-256
  6
Continuous
 62
     1
100
AcDbCircle
 10
267.0729063253153
 20
177.0413287935553
 30
0.0
 40
3.517973000000001
100
AcDbArc
 50
228.7561739675819
 51
311.2438259433163
  0
ARC
  5
274
330
1F
100
AcDbEntity
  8
LAYER-256
  6
Continuous
 62
     1
100
AcDbCircle
 10
261.1216783216783
 20
181.5167517935543
 30
0.0
 40
7.993397
100
AcDbArc
 50
242.9756510000022
 51
297.0243489999978
  0
LINE
  5
275
330
1F
100
AcDbEntity
  8
LAYER-256
  6
Continuous
 62
     1
100
AcDbLine
 10
290.1274473216786
 20
223.7503787935581
 30
0.0
 11
290.1274473216786
 21
209.303702793557
 31
0.0
  0
LINE
  5
276
330
1F
100
AcDbEntity
  8
LAYER-256
  6
Continuous
 62
     1
100
AcDbLine
 10
290.1274473216786
 20
221.2300577935575
 30
0.0
 11
357.1033083216794
 21
221.2300577935575
 31
0.0
  0
LINE
  5
277
330
1F
100
AcDbEntity
  8
LAYER-256
  6
Continuous
 62
     1
100
AcDbLine
 10
277.5807153216779
 20
223.7503787935581
 30
0.0
 11
290.1274473216786
 21
223.7503787935581
 31
0.0
  0
ARC
  5
278
330
1F
100
AcDbEntity
  8
LAYER-256
  6
Continuous
 62
     1
100
AcDbCircle
 10
238.4964543206774
 20
225.6250917934856
 30
0.0
 40
37.275857
100
AcDbArc
 50
338.0702610006766
 51
354.3383440003121
  0
ARC
  5
279
330
1F
100
AcDbEntity
  8
LAYER-256
  6
Continuous
 62
     1
100
AcDbCircle
 10
277.5807153216779
 20
221.7503787935581
 30
0.0
 40
2.0
100
AcDbArc
 50
90.0
 51
174.3383440000094
  0
LINE
  5
27A
330
1F
100
AcDbEntity
  8
LAYER-256
  6
Continuous
 62
     1
100
AcDbLine
 10
290.1274473216786
 20
211.7300577935548
 30
0.0
 11
357.1033083216794
 21
211.7300577935548
 31
0.0
  0
LINE
  5
27B
330
1F
100
AcDbEntity
  8
LAYER-256
  6
Continuous
 62
     1
100
AcDbLine
 10
383.095820321682
 20
176.2504287935581
 30
0.0
 11
333.2413093216788
 21
92.41787179355742
 31
0.0
  0
ARC
  5
27C
330
1F
100
AcDbEntity
  8
LAYER-256
  6
Continuous
 62
     1
100
AcDbCircle
 10
357.1033083216794
 20
191.2300577935575
 30
0.0
 40
30.0
100
AcDbArc
 50
330.0449140000002
 51
90.0
  0
ARC
  5
27D
330
1F
100
AcDbEntity
  8
LAYER-256
  6
Continuous
 62
     1
100
AcDbCircle
 10
357.1033083216794
 20
191.2300577935575
 30
0.0
 40
20.5
100
AcDbArc
 50
330.0449139999997
 51
90.0
  0
LINE
  5
27E
330
1F
100
AcDbEntity
  8
LAYER-256
  6
Continuous
 62
     1
100
AcDbLine
 10
374.8648583220457
 20
180.9939777935579
 30
0.0
 11
322.2766133253185
 21
92.41787179355742
 31
0.0
  0
LINE
  5
27F
330
1F
100
AcDbEntity
  8
LAYER-256
  6
CENTER
 62
     4
100
AcDbLine
 10
217.1033083216794
 20
165.095180793558
 30
0.0
 11
217.1033083216794
 21
-50.70811220644555
 31
0.0
  0
LINE
  5
280
330
1F
100
AcDbEntity
  8
LAYER-256
  6
Continuous
 62
     1
100
AcDbLine
 10
102.1033083216794
 20
-37.58212820644258
 30
0.0
 11
332.1033083216794
 21
-37.58212820644258
 31
0.0
  0
LINE
  5
281
330
1F
100
AcDbEntity
  8
LAYER-256
  6
Continuous
 62
     1
100
AcDbLine
 10
102.1033083216794
 20
-32.58212820644258
 30
0.0
 11
147.1033083216794
 21
-32.58212820644258
 31
0.0
  0
LINE
  5
282
330
1F
100
AcDbEntity
  8
LAYER-256
  6
Continuous
 62
     1
100
AcDbLine
 10
147.1033083216794
 20
12.41787179355742
 30
0.0
 11
157.1033083216794
 21
12.41787179355742
 31
0.0
  0
LINE
  5
283
330
1F
100
AcDbEntity
  8
LAYER-256
  6
Continuous
 62
     1
100
AcDbLine
 10
102.1033083216794
 20
-32.58212820644258
 30
0.0
 11
102.1033083216794
 21
-37.58212820644258
 31
0.0
  0
LINE
  5
284
330
1F
100
AcDbEntity
  8
LAYER-256
  6
Continuous
 62
     1
100
AcDbLine
 10
332.1033083216794
 20
-32.58212820644258
 30
0.0
 11
332.1033083216794
 21
-37.58212820644258
 31
0.0
  0
LINE
  5
285
330
1F
100
AcDbEntity
  8
LAYER-256
  6
Continuous
 62
     1
100
AcDbLine
 10
97.10330832167944
 20
92.41787179355742
 30
0.0
 11
97.10330832167944
 21
22.41787179355742
 31
0.0
  0
LINE
  5
286
330
1F
100
AcDbEntity
  8
LAYER-256
  6
Continuous
 62
     1
100
AcDbLine
 10
337.1033083216794
 20
92.41787179355742
 30
0.0
 11
337.1033083216794
 21
22.41787179355742
 31
0.0
  0
LINE
  5
287
330
1F
100
AcDbEntity
  8
LAYER-256
  6
Continuous
 62
     1
100
AcDbLine
 10
97.10330832167944
 20
92.41787179355742
 30
0.0
 11
157.1033083216794
 21
92.41787179355742
 31
0.0
  0
LINE
  5
288
330
1F
100
AcDbEntity
  8
LAYER-256
  6
Continuous
 62
     1
100
AcDbLine
 10
97.10330832167944
 20
22.41787179355742
 30
0.0
 11
157.1033083216794
 21
22.41787179355742
 31
0.0
  0
LINE
  5
289
330
1F
100
AcDbEntity
  8
LAYER-256
  6
Continuous
 62
     1
100
AcDbLine
 10
152.1033083216794
 20
152.4178717935574
 30
0.0
 11
202.1033083216794
 21
152.4178717935574
 31
0.0
  0
LINE
  5
28A
330
1F
100
AcDbEntity
  8
LAYER-256
  6
Continuous
 62
     1
100
AcDbLine
 10
100.2913753216758
 20
116.6536637935569
 30
0.0
 11
102.0386783196996
 21
116.6536637935569
 31
0.0
  0
LINE
  5
28B
330
1F
100
AcDbEntity
  8
LAYER-256
  6
Continuous
 62
     1
100
AcDbLine
 10
100.2913753216758
 20
98.36443579355819
 30
0.0
 11
111.7257813216789
 21
98.36443579355819
 31
0.0
  0
LINE
  5
28C
330
1F
100
AcDbEntity
  8
LAYER-256
  6
Continuous
 62
     1
100
AcDbLine
 10
100.2913753216758
 20
116.6536637935569
 30
0.0
 11
100.2913753216758
 21
98.36443579355819
 31
0.0
  0
LINE
  5
28D
330
1F
100
AcDbEntity
  8
LAYER-256
  6
Continuous
 62
     1
100
AcDbLine
 10
102.0386783196996
 20
98.36443579355819
 30
0.0
 11
102.0386783196996
 21
92.41787179355742
 31
0.0
  0
LINE
  5
28E
330
1F
100
AcDbEntity
  8
LAYER-256
  6
Continuous
 62
     1
100
AcDbLine
 10
110.0686783216766
 20
98.36443579355819
 30
0.0
 11
110.0686783216766
 21
92.41787179355742
 31
0.0
  0
LINE
  5
28F
330
1F
100
AcDbEntity
  8
LAYER-256
  6
Continuous
 62
     1
100
AcDbLine
 10
111.7257813216789
 20
98.36443579355819
 30
0.0
 11
111.7257813216789
 21
104.8678357935551
 31
0.0
  0
LINE
  5
290
330
1F
100
AcDbEntity
  8
LAYER-256
  6
Continuous
 62
     1
100
AcDbLine
 10
102.0386783196996
 20
116.6536637935569
 30
0.0
 11
102.0386783196996
 21
107.5661927935589
 31
0.0
  0
ARC
  5
291
330
1F
100
AcDbEntity
  8
LAYER-256
  6
Continuous
 62
     1
100
AcDbCircle
 10
112.0524343216762
 20
135.7369177935589
 30
0.0
 40
29.897576
100
AcDbArc
 50
250.4313920005407
 51
267.5391280000096
  0
ARC
  5
292
330
1F
100
AcDbEntity
  8
LAYER-256
  6
Continuous
 62
     1
100
AcDbCircle
 10
110.7257813216752
 20
104.8678357935551
 30
0.0
 40
1.0
100
AcDbArc
 50
0.0
 51
87.53912799996577
  0
LINE
  5
293
330
1F
100
AcDbEntity
  8
LAYER-256
  6
CENTER
 62
     4
100
AcDbLine
 10
117.1033083216794
 20
-21.145153206
 30
0.0
 11
117.1033083216794
 21
-50.01863020644305
 31
0.0
  0
LINE
  5
294
330
1F
100
AcDbEntity
  8
LAYER-256
  6
CENTER
 62
     4
100
AcDbLine
 10
317.1033083216794
 20
-21.145153206
 30
0.0
 11
317.1033083216794
 21
-50.01863020644305
 31
0.0
  0
LINE
  5
295
330
1F
100
AcDbEntity
  8
LAYER-256
  6
Continuous
 62
     1
100
AcDbLine
 10
152.1033083216794
 20
-37.58212820644258
 30
0.0
 11
152.1033083216794
 21
12.41787179355742
 31
0.0
  0
LINE
  5
296
330
1F
100
AcDbEntity
  8
LAYER-256
  6
Continuous
 62
     1
100
AcDbLine
 10
147.1033083216794
 20
-32.58212820644258
 30
0.0
 11
147.1033083216794
 21
12.41787179355742
 31
0.0
  0
LINE
  5
297
330
1F
100
AcDbEntity
  8
LAYER-256
  6
Continuous
 62
     1
100
AcDbLine
 10
157.1033083216794
 20
-32.58212820644258
 30
0.0
 11
157.1033083216794
 21
147.4178717935574
 31
0.0
  0
LINE
  5
298
330
1F
100
AcDbEntity
  8
LAYER-256
  6
Continuous
 62
     1
100
AcDbLine
 10
157.1033083216794
 20
-32.58212820644258
 30
0.0
 11
277.1033083216794
 21
-32.58212820644258
 31
0.0
  0
LINE
  5
299
330
1F
100
AcDbEntity
  8
LAYER-256
  6
Continuous
 62
     1
100
AcDbLine
 10
287.1033083216794
 20
12.41787179355742
 30
0.0
 11
277.1033083216794
 21
12.41787179355742
 31
0.0
  0
LINE
  5
29A
330
1F
100
AcDbEntity
  8
LAYER-256
  6
Continuous
 62
     1
100
AcDbLine
 10
282.1033083216794
 20
-37.58212820644258
 30
0.0
 11
282.1033083216794
 21
12.41787179355742
 31
0.0
  0
LINE
  5
29B
330
1F
100
AcDbEntity
  8
LAYER-256
  6
Continuous
 62
     1
100
AcDbLine
 10
287.1033083216794
 20
-32.58212820644258
 30
0.0
 11
287.1033083216794
 21
12.41787179355742
 31
0.0
  0
LINE
  5
29C
330
1F
100
AcDbEntity
  8
LAYER-256
  6
Continuous
 62
     1
100
AcDbLine
 10
277.1033083216794
 20
-32.58212820644258
 30
0.0
 11
277.1033083216794
 21
147.4178717935574
 31
0.0
  0
LINE
  5
29D
330
1F
100
AcDbEntity
  8
LAYER-256
  6
Continuous
 62
     1
100
AcDbLine
 10
287.1033083216794
 20
-32.58212820644258
 30
0.0
 11
332.1033083216794
 21
-32.58212820644258
 31
0.0
  0
LINE
  5
29E
330
1F
100
AcDbEntity
  8
LAYER-256
  6
CENTER
 62
     4
100
AcDbLine
 10
125.6918883216754
 20
-8.746505206442635
 30
0.0
 11
309.1012203217823
 21
-8.746505206442635
 31
0.0
  0
LINE
  5
29F
330
1F
100
AcDbEntity
  8
LAYER-256
  6
Continuous
 62
     1
100
AcDbLine
 10
131.3891393196998
 20
-12.74650520644354
 30
0.0
 11
131.3891393196998
 21
-4.746505206441725
 31
0.0
  0
LINE
  5
2A0
330
1F
100
AcDbEntity
  8
LAYER-256
  6
Continuous
 62
     1
100
AcDbLine
 10
131.3891393196998
 20
-12.74650520644354
 30
0.0
 11
137.9131353216774
 21
-12.74650520644354
 31
0.0
  0
LINE
  5
2A1
330
1F
100
AcDbEntity
  8
LAYER-256
  6
Continuous
 62
     1
100
AcDbLine
 10
131.3891393196998
 20
-4.746505206441725
 30
0.0
 11
137.9131353216774
 21
-4.746505206441725
 31
0.0
  0
LINE
  5
2A2
330
1F
100
AcDbEntity
  8
LAYER-256
  6
Continuous
 62
     1
100
AcDbLine
 10
138.785906321677
 20
-17.01700920644453
 30
0.0
 11
147.1033083216794
 21
-17.01700920644453
 31
0.0
  0
LINE
  5
2A3
330
1F
100
AcDbEntity
  8
LAYER-256
  6
Continuous
 62
     1
100
AcDbLine
 10
138.785906321677
 20
-12.37845720644327
 30
0.0
 11
147.1033083216794
 21
-12.37845720644327
 31
0.0
  0
LINE
  5
2A4
330
1F
100
AcDbEntity
  8
LAYER-256
  6
Continuous
 62
     1
100
AcDbLine
 10
138.785906321677
 20
-5.114552206443477
 30
0.0
 11
147.1033083216794
 21
-5.114552206443477
 31
0.0
  0
LINE
  5
2A5
330
1F
100
AcDbEntity
  8
LAYER-256
  6
Continuous
 62
     1
100
AcDbLine
 10
138.785906321677
 20
-0.4760012064452894
 30
0.0
 11
147.1033083216794
 21
-0.4760012064452894
 31
0.0
  0
ARC
  5
2A6
330
1F
100
AcDbEntity
  8
LAYER-256
  6
Continuous
 62
     1
100
AcDbCircle
 10
141.4311083216758
 20
-14.69773320644163
 30
0.0
 40
3.517973000000001
100
AcDbArc
 50
138.7561739959314
 51
221.2438260358947
  0
ARC
  5
2A7
330
1F
100
AcDbEntity
  8
LAYER-256
  6
Continuous
 62
     1
100
AcDbCircle
 10
141.4311083216758
 20
-2.795276206442573
 30
0.0
 40
3.517973000000001
100
AcDbArc
 50
138.7561740000098
 51
221.243825999997
  0
LINE
  5
2A8
330
1F
100
AcDbEntity
  8
LAYER-256
  6
Continuous
 62
     1
100
AcDbLine
 10
137.9131353216774
 20
-2.795276206442573
 30
0.0
 11
137.9131353216774
 21
-14.69773320644163
 31
0.0
  0
ARC
  5
2A9
330
1F
100
AcDbEntity
  8
LAYER-256
  6
Continuous
 62
     1
100
AcDbCircle
 10
145.9065313216748
 20
-8.746505206442635
 30
0.0
 40
7.993397
100
AcDbArc
 50
152.9756510000022
 51
207.0243489999978
  0
LINE
  5
2AA
330
1F
100
AcDbEntity
  8
LAYER-256
  6
Continuous
 62
     1
100
AcDbLine
 10
159.9385113239227
 20
-4.746505206441725
 30
0.0
 11
274.2681053216753
 21
-4.746505206441725
 31
0.0
  0
LINE
  5
2AB
330
1F
100
AcDbEntity
  8
LAYER-256
  6
Continuous
 62
     1
100
AcDbLine
 10
159.9385113239227
 20
-12.74650520644354
 30
0.0
 11
274.2681053216753
 21
-12.74650520644354
 31
0.0
  0
LINE
  5
2AC
330
1F
100
AcDbEntity
  8
LAYER-256
  6
Continuous
 62
     1
100
AcDbLine
 10
302.817478321676
 20
-12.74650520644354
 30
0.0
 11
302.817478321676
 21
-4.746505206441725
 31
0.0
  0
LINE
  5
2AD
330
1F
100
AcDbEntity
  8
LAYER-256
  6
Continuous
 62
     1
100
AcDbLine
 10
302.817478321676
 20
-12.74650520644354
 30
0.0
 11
296.2934823216752
 21
-12.74650520644354
 31
0.0
  0
LINE
  5
2AE
330
1F
100
AcDbEntity
  8
LAYER-256
  6
Continuous
 62
     1
100
AcDbLine
 10
302.817478321676
 20
-4.746505206441725
 30
0.0
 11
296.2934823216752
 21
-4.746505206441725
 31
0.0
  0
LINE
  5
2AF
330
1F
100
AcDbEntity
  8
LAYER-256
  6
Continuous
 62
     1
100
AcDbLine
 10
295.4207113216758
 20
-17.01700920644453
 30
0.0
 11
287.1033083216794
 21
-17.01700920644453
 31
0.0
  0
LINE
  5
2B0
330
1F
100
AcDbEntity
  8
LAYER-256
  6
Continuous
 62
     1
100
AcDbLine
 10
295.4207113216758
 20
-12.37845720644327
 30
0.0
 11
287.1033083216794
 21
-12.37845720644327
 31
0.0
  0
LINE
  5
2B1
330
1F
100
AcDbEntity
  8
LAYER-256
  6
Continuous
 62
     1
100
AcDbLine
 10
295.4207113216758
 20
-5.114552206443477
 30
0.0
 11
287.1033083216794
 21
-5.114552206443477
 31
0.0
  0
LINE
  5
2B2
330
1F
100
AcDbEntity
  8
LAYER-256
  6
Continuous
 62
     1
100
AcDbLine
 10
295.4207113216758
 20
-0.4760012064452894
 30
0.0
 11
287.1033083216794
 21
-0.4760012064452894
 31
0.0
  0
ARC
  5
2B3
330
1F
100
AcDbEntity
  8
LAYER-256
  6
Continuous
 62
     1
100
AcDbCircle
 10
292.775509321677
 20
-14.69773320644163
 30
0.0
 40
3.517973000000001
100
AcDbArc
 50
318.7561731509891
 51
41.24382681718497
  0
ARC
  5
2B4
330
1F
100
AcDbEntity
  8
LAYER-256
  6
Continuous
 62
     1
100
AcDbCircle
 10
292.775509321677
 20
-2.795276206442573
 30
0.0
 40
3.517973000000001
100
AcDbArc
 50
318.7561731868867
 51
41.24382681310656
  0
LINE
  5
2B5
330
1F
100
AcDbEntity
  8
LAYER-256
  6
Continuous
 62
     1
100
AcDbLine
 10
296.2934823216752
 20
-2.795276206442573
 30
0.0
 11
296.2934823216752
 21
-14.69773320644163
 31
0.0
  0
ARC
  5
2B6
330
1F
100
AcDbEntity
  8
LAYER-256
  6
Continuous
 62
     1
100
AcDbCircle
 10
288.3000853216796
 20
-8.746505206442635
 30
0.0
 40
7.993397
100
AcDbArc
 50
332.9756508412631
 51
27.0243491587369
  0
LINE
  5
2B7
330
1F
100
AcDbEntity
  8
LAYER-256
  6
Continuous
 62
     1
100
AcDbLine
 10
159.9385113239227
 20
147.4178717935574
 30
0.0
 11
159.9385113239227
 21
-32.58212820644258
 31
0.0
  0
LINE
  5
2B8
330
1F
100
AcDbEntity
  8
LAYER-256
  6
Continuous
 62
     1
100
AcDbLine
 10
152.1033083216794
 20
102.4178717935574
 30
0.0
 11
152.1033083216794
 21
152.4178717935574
 31
0.0
  0
LINE
  5
2B9
330
1F
100
AcDbEntity
  8
LAYER-256
  6
Continuous
 62
     1
100
AcDbLine
 10
202.1033083216794
 20
147.4178717935574
 30
0.0
 11
202.1033083216794
 21
152.4178717935574
 31
0.0
  0
LINE
  5
2BA
330
1F
100
AcDbEntity
  8
LAYER-256
  6
Continuous
 62
     1
100
AcDbLine
 10
157.1033083216794
 20
147.4178717935574
 30
0.0
 11
277.1033083216794
 21
147.4178717935574
 31
0.0
  0
LINE
  5
2BB
330
1F
100
AcDbEntity
  8
LAYER-256
  6
Continuous
 62
     1
100
AcDbLine
 10
152.1033083216794
 20
102.4178717935574
 30
0.0
 11
157.1033083216794
 21
102.4178717935574
 31
0.0
  0
LINE
  5
2BC
330
1F
100
AcDbEntity
  8
LAYER-256
  6
Continuous
 62
     1
100
AcDbLine
 10
282.1033083216794
 20
152.4178717935574
 30
0.0
 11
232.1033083216794
 21
152.4178717935574
 31
0.0
  0
LINE
  5
2BD
330
1F
100
AcDbEntity
  8
LAYER-256
  6
Continuous
 62
     1
100
AcDbLine
 10
282.1033083216794
 20
102.4178717935574
 30
0.0
 11
282.1033083216794
 21
152.4178717935574
 31
0.0
  0
LINE
  5
2BE
330
1F
100
AcDbEntity
  8
LAYER-256
  6
Continuous
 62
     1
100
AcDbLine
 10
232.1033083216794
 20
147.4178717935574
 30
0.0
 11
232.1033083216794
 21
152.4178717935574
 31
0.0
  0
LINE
  5
2BF
330
1F
100
AcDbEntity
  8
LAYER-256
  6
Continuous
 62
     1
100
AcDbLine
 10
282.1033083216794
 20
102.4178717935574
 30
0.0
 11
277.1033083216794
 21
102.4178717935574
 31
0.0
  0
LINE
  5
2C0
330
1F
100
AcDbEntity
  8
LAYER-256
  6
Continuous
 62
     1
100
AcDbLine
 10
274.2681053216753
 20
147.4178717935574
 30
0.0
 11
274.2681053216753
 21
-32.58212820644258
 31
0.0
  0
LINE
  5
2C1
330
1F
100
AcDbEntity
  8
LAYER-256
  6
Continuous
 62
     1
100
AcDbLine
 10
136.3891393216769
 20
119.5822487935566
 30
0.0
 11
136.3891393216769
 21
127.5822487935584
 31
0.0
  0
LINE
  5
2C2
330
1F
100
AcDbEntity
  8
LAYER-256
  6
Continuous
 62
     1
100
AcDbLine
 10
136.3891393216769
 20
119.5822487935566
 30
0.0
 11
142.9131353216774
 21
119.5822487935566
 31
0.0
  0
LINE
  5
2C3
330
1F
100
AcDbEntity
  8
LAYER-256
  6
Continuous
 62
     1
100
AcDbLine
 10
136.3891393216769
 20
127.5822487935584
 30
0.0
 11
142.9131353216774
 21
127.5822487935584
 31
0.0
  0
LINE
  5
2C4
330
1F
100
AcDbEntity
  8
LAYER-256
  6
Continuous
 62
     1
100
AcDbLine
 10
143.785906321677
 20
115.3117447935556
 30
0.0
 11
152.1033083216794
 21
115.3117447935556
 31
0.0
  0
LINE
  5
2C5
330
1F
100
AcDbEntity
  8
LAYER-256
  6
Continuous
 62
     1
100
AcDbLine
 10
143.785906321677
 20
119.9502957935583
 30
0.0
 11
152.1033083216794
 21
119.9502957935583
 31
0.0
  0
LINE
  5
2C6
330
1F
100
AcDbEntity
  8
LAYER-256
  6
Continuous
 62
     1
100
AcDbLine
 10
143.785906321677
 20
127.2142007935581
 30
0.0
 11
152.1033083216794
 21
127.2142007935581
 31
0.0
  0
LINE
  5
2C7
330
1F
100
AcDbEntity
  8
LAYER-256
  6
Continuous
 62
     1
100
AcDbLine
 10
143.785906321677
 20
131.8527527935594
 30
0.0
 11
152.1033083216794
 21
131.8527527935594
 31
0.0
  0
ARC
  5
2C8
330
1F
100
AcDbEntity
  8
LAYER-256
  6
Continuous
 62
     1
100
AcDbCircle
 10
146.4311083216758
 20
117.6310207935585
 30
0.0
 40
3.517973000000001
100
AcDbArc
 50
138.7561740000342
 51
221.2438260000214
  0
ARC
  5
2C9
330
1F
100
AcDbEntity
  8
LAYER-256
  6
Continuous
 62
     1
100
AcDbCircle
 10
146.4311083216758
 20
129.5334767935565
 30
0.0
 40
3.517973000000001
100
AcDbArc
 50
138.7561739999785
 51
221.2438259927068
  0
LINE
  5
2CA
330
1F
100
AcDbEntity
  8
LAYER-256
  6
Continuous
 62
     1
100
AcDbLine
 10
142.9131353216774
 20
129.5334767935565
 30
0.0
 11
142.9131353216774
 21
117.6310207935585
 31
0.0
  0
ARC
  5
2CB
330
1F
100
AcDbEntity
  8
LAYER-256
  6
Continuous
 62
     1
100
AcDbCircle
 10
150.9065313216748
 20
123.5822487935564
 30
0.0
 40
7.993397
100
AcDbArc
 50
152.975650999995
 51
207.0243489999905
  0
LINE
  5
2CC
330
1F
100
AcDbEntity
  8
LAYER-256
  6
CENTER
 62
     4
100
AcDbLine
 10
130.6918883216754
 20
123.5822487935564
 30
0.0
 11
306.491282321676
 21
123.5822487935564
 31
0.0
  0
LINE
  5
2CD
330
1F
100
AcDbEntity
  8
LAYER-256
  6
Continuous
 62
     1
100
AcDbLine
 10
159.9385113239227
 20
119.5822487935566
 30
0.0
 11
274.2681053216753
 21
119.5822487935566
 31
0.0
  0
LINE
  5
2CE
330
1F
100
AcDbEntity
  8
LAYER-256
  6
Continuous
 62
     1
100
AcDbLine
 10
159.9385113239227
 20
127.5822487935584
 30
0.0
 11
274.2681053216753
 21
127.5822487935584
 31
0.0
  0
LINE
  5
2CF
330
1F
100
AcDbEntity
  8
LAYER-256
  6
Continuous
 62
     1
100
AcDbLine
 10
297.817478321676
 20
119.5822487935566
 30
0.0
 11
297.817478321676
 21
127.5822487935584
 31
0.0
  0
LINE
  5
2D0
330
1F
100
AcDbEntity
  8
LAYER-256
  6
Continuous
 62
     1
100
AcDbLine
 10
297.817478321676
 20
119.5822487935566
 30
0.0
 11
291.2934823216752
 21
119.5822487935566
 31
0.0
  0
LINE
  5
2D1
330
1F
100
AcDbEntity
  8
LAYER-256
  6
Continuous
 62
     1
100
AcDbLine
 10
297.817478321676
 20
127.5822487935584
 30
0.0
 11
291.2934823216752
 21
127.5822487935584
 31
0.0
  0
LINE
  5
2D2
330
1F
100
AcDbEntity
  8
LAYER-256
  6
Continuous
 62
     1
100
AcDbLine
 10
290.4207113216758
 20
115.3117447935556
 30
0.0
 11
282.1033083216794
 21
115.3117447935556
 31
0.0
  0
LINE
  5
2D3
330
1F
100
AcDbEntity
  8
LAYER-256
  6
Continuous
 62
     1
100
AcDbLine
 10
290.4207113216758
 20
119.9502957935583
 30
0.0
 11
282.1033083216794
 21
119.9502957935583
 31
0.0
  0
LINE
  5
2D4
330
1F
100
AcDbEntity
  8
LAYER-256
  6
Continuous
 62
     1
100
AcDbLine
 10
290.4207113216758
 20
127.2142007935581
 30
0.0
 11
282.1033083216794
 21
127.2142007935581
 31
0.0
  0
LINE
  5
2D5
330
1F
100
AcDbEntity
  8
LAYER-256
  6
Continuous
 62
     1
100
AcDbLine
 10
290.4207113216758
 20
131.8527527935594
 30
0.0
 11
282.1033083216794
 21
131.8527527935594
 31
0.0
  0
ARC
  5
2D6
330
1F
100
AcDbEntity
  8
LAYER-256
  6
Continuous
 62
     1
100
AcDbCircle
 10
287.775509321677
 20
117.6310207935585
 30
0.0
 40
3.517973000000001
100
AcDbArc
 50
318.7561731868623
 51
41.2438268130821
  0
ARC
  5
2D7
330
1F
100
AcDbEntity
  8
LAYER-256
  6
Continuous
 62
     1
100
AcDbCircle
 10
287.775509321677
 20
129.5334767935565
 30
0.0
 40
3.517973000000001
100
AcDbArc
 50
318.7561731941769
 51
41.2438268131378
  0
LINE
  5
2D8
330
1F
100
AcDbEntity
  8
LAYER-256
  6
Continuous
 62
     1
100
AcDbLine
 10
291.2934823216752
 20
129.5334767935565
 30
0.0
 11
291.2934823216752
 21
117.6310207935585
 31
0.0
  0
ARC
  5
2D9
330
1F
100
AcDbEntity
  8
LAYER-256
  6
Continuous
 62
     1
100
AcDbCircle
 10
283.3000853216796
 20
123.5822487935564
 30
0.0
 40
7.993397
100
AcDbArc
 50
332.9756508412704
 51
27.02434915874417
  0
LINE
  5
2DA
330
1F
100
AcDbEntity
  8
LAYER-256
  6
Continuous
 62
     1
100
AcDbLine
 10
277.1033083216794
 20
92.41787179355742
 30
0.0
 11
337.1033083216794
 21
92.41787179355742
 31
0.0
  0
LINE
  5
2DB
330
1F
100
AcDbEntity
  8
LAYER-256
  6
Continuous
 62
     1
100
AcDbLine
 10
277.1033083216794
 20
22.41787179355742
 30
0.0
 11
337.1033083216794
 21
22.41787179355742
 31
0.0
  0
LINE
  5
2DC
330
1F
100
AcDbEntity
  8
LAYER-256
  6
Continuous
 62
     1
100
AcDbLine
 10
159.9385113239227
 20
92.41787179355742
 30
0.0
 11
274.2681053216753
 21
92.41787179355742
 31
0.0
  0
LINE
  5
2DD
330
1F
100
AcDbEntity
  8
LAYER-256
  6
Continuous
 62
     1
100
AcDbLine
 10
159.9385113239227
 20
22.41787179355742
 30
0.0
 11
274.2681053216753
 21
22.41787179355742
 31
0.0
  0
LINE
  5
2DE
330
1F
100
AcDbEntity
  8
LAYER-256
  6
Continuous
 62
     1
100
AcDbLine
 10
266.1216783216783
 20
173.6543977935553
 30
0.0
 11
266.1216783216783
 21
152.4178717935574
 31
0.0
  0
LINE
  5
2DF
330
1F
100
AcDbEntity
  8
LAYER-256
  6
Continuous
 62
     1
100
AcDbLine
 10
256.1216783216783
 20
173.6543977935553
 30
0.0
 11
256.1216783216783
 21
152.4178717935574
 31
0.0
  0
LINE
  5
2E0
330
1F
100
AcDbEntity
  8
LAYER-256
  6
Continuous
 62
     1
100
AcDbLine
 10
250.6940903211958
 20
185.1135287935567
 30
0.0
 11
271.5492653216775
 21
185.1135287935567
 31
0.0
  0
LINE
  5
2E1
330
1F
100
AcDbEntity
  8
LAYER-256
  6
Continuous
 62
     1
100
AcDbLine
 10
271.5492653216775
 20
200.1135287935567
 30
0.0
 11
250.6940903211958
 21
200.1135287935567
 31
0.0
  0
LINE
  5
2E2
330
1F
100
AcDbEntity
  8
LAYER-256
  6
Continuous
 62
     1
100
AcDbLine
 10
271.5492653216775
 20
200.1135287935567
 30
0.0
 11
271.5492653216775
 21
185.1135287935567
 31
0.0
  0
LINE
  5
2E3
330
1F
100
AcDbEntity
  8
LAYER-256
  6
Continuous
 62
     1
100
AcDbLine
 10
250.6940903211958
 20
200.1135287935567
 30
0.0
 11
250.6940903211958
 21
185.1135287935567
 31
0.0
  0
LINE
  5
2E4
330
1F
100
AcDbEntity
  8
LAYER-256
  6
CENTER
 62
     4
100
AcDbLine
 10
-322.3544683529527
 20
233.2164297935588
 30
0.0
 11
-322.3544683529527
 21
169.2069737935553
 31
0.0
  0
LINE
  5
2E5
330
1F
100
AcDbEntity
  8
LAYER-256
  6
Continuous
 62
     1
100
AcDbLine
 10
-318.3544683529527
 20
227.4178717935574
 30
0.0
 11
-318.3544683529527
 21
220.8938757935566
 31
0.0
  0
LINE
  5
2E6
330
1F
100
AcDbEntity
  8
LAYER-256
  6
Continuous
 62
     1
100
AcDbLine
 10
-326.3544683529527
 20
227.4178717935574
 30
0.0
 11
-326.3544683529527
 21
220.8938757935566
 31
0.0
  0
LINE
  5
2E7
330
1F
100
AcDbEntity
  8
LAYER-256
  6
Continuous
 62
     1
100
AcDbLine
 10
-314.0839643529525
 20
220.0211057935558
 30
0.0
 11
-314.0839643529525
 21
211.7037027935548
 31
0.0
  0
LINE
  5
2E8
330
1F
100
AcDbEntity
  8
LAYER-256
  6
Continuous
 62
     1
100
AcDbLine
 10
-318.722516352952
 20
220.0211057935558
 30
0.0
 11
-318.722516352952
 21
211.7037027935548
 31
0.0
  0
LINE
  5
2E9
330
1F
100
AcDbEntity
  8
LAYER-256
  6
Continuous
 62
     1
100
AcDbLine
 10
-325.9864213529518
 20
220.0211057935558
 30
0.0
 11
-325.9864213529518
 21
211.7037027935548
 31
0.0
  0
LINE
  5
2EA
330
1F
100
AcDbEntity
  8
LAYER-256
  6
Continuous
 62
     1
100
AcDbLine
 10
-330.6249723529546
 20
220.0211057935558
 30
0.0
 11
-330.6249723529546
 21
211.7037027935548
 31
0.0
  0
ARC
  5
2EB
330
1F
100
AcDbEntity
  8
LAYER-256
  6
Continuous
 62
     1
100
AcDbCircle
 10
-316.4032403529537
 20
217.3759027935585
 30
0.0
 40
3.517973000000001
100
AcDbArc
 50
48.75617399992972
 51
131.2438260000146
  0
ARC
  5
2EC
330
1F
100
AcDbEntity
  8
LAYER-256
  6
Continuous
 62
     1
100
AcDbCircle
 10
-328.3056973523217
 20
217.3759027935585
 30
0.0
 40
3.517973000000001
100
AcDbArc
 50
48.75617400270718
 51
131.2438260077664
  0
LINE
  5
2ED
330
1F
100
AcDbEntity
  8
LAYER-256
  6
Continuous
 62
     1
100
AcDbLine
 10
-328.3056973523217
 20
220.8938757935566
 30
0.0
 11
-316.4032403529537
 21
220.8938757935566
 31
0.0
  0
LINE
  5
2EE
330
1F
100
AcDbEntity
  8
LAYER-256
  6
Continuous
 62
     1
100
AcDbLine
 10
-312.3856633529541
 20
211.7037027935548
 30
0.0
 11
-332.3232743529543
 21
211.7037027935548
 31
0.0
  0
ARC
  5
2EF
330
1F
100
AcDbEntity
  8
LAYER-256
  6
Continuous
 62
     1
100
AcDbCircle
 10
-322.3544683529527
 20
212.9004797947055
 30
0.0
 40
7.993397
100
AcDbArc
 50
62.97565083753086
 51
117.0243491624692
  0
LINE
  5
2F0
330
1F
100
AcDbEntity
  8
LAYER-256
  6
Continuous
 62
     1
100
AcDbLine
 10
-312.3856633529541
 20
209.303702793557
 30
0.0
 11
-332.3232743529543
 21
209.303702793557
 31
0.0
  0
LINE
  5
2F1
330
1F
100
AcDbEntity
  8
LAYER-256
  6
Continuous
 62
     1
100
AcDbLine
 10
-312.3856633529541
 20
211.7037027935548
 30
0.0
 11
-312.3856633529541
 21
209.303702793557
 31
0.0
  0
LINE
  5
2F2
330
1F
100
AcDbEntity
  8
LAYER-256
  6
Continuous
 62
     1
100
AcDbLine
 10
-332.3232743529543
 20
211.7037027935548
 30
0.0
 11
-332.3232743529543
 21
209.303702793557
 31
0.0
  0
LINE
  5
2F3
330
1F
100
AcDbEntity
  8
LAYER-256
  6
Continuous
 62
     1
100
AcDbLine
 10
-314.0839643529525
 20
200.9862997935561
 30
0.0
 11
-314.0839643529525
 21
209.303702793557
 31
0.0
  0
LINE
  5
2F4
330
1F
100
AcDbEntity
  8
LAYER-256
  6
Continuous
 62
     1
100
AcDbLine
 10
-318.722516352952
 20
200.9862997935561
 30
0.0
 11
-318.722516352952
 21
209.303702793557
 31
0.0
  0
LINE
  5
2F5
330
1F
100
AcDbEntity
  8
LAYER-256
  6
Continuous
 62
     1
100
AcDbLine
 10
-325.9864213529518
 20
200.9862997935561
 30
0.0
 11
-325.9864213529518
 21
209.303702793557
 31
0.0
  0
LINE
  5
2F6
330
1F
100
AcDbEntity
  8
LAYER-256
  6
Continuous
 62
     1
100
AcDbLine
 10
-330.6249723529546
 20
200.9862997935561
 30
0.0
 11
-330.6249723529546
 21
209.303702793557
 31
0.0
  0
ARC
  5
2F7
330
1F
100
AcDbEntity
  8
LAYER-256
  6
Continuous
 62
     1
100
AcDbCircle
 10
-316.4032403529537
 20
203.631501794
 30
0.0
 40
3.517973000000001
100
AcDbArc
 50
228.7561740048135
 51
311.2438259952422
  0
ARC
  5
2F8
330
1F
100
AcDbEntity
  8
LAYER-256
  6
Continuous
 62
     1
100
AcDbCircle
 10
-328.3056973523217
 20
203.631501794
 30
0.0
 40
3.517973000000001
100
AcDbArc
 50
228.7561739970616
 51
311.2438259924648
  0
ARC
  5
2F9
330
1F
100
AcDbEntity
  8
LAYER-256
  6
Continuous
 62
     1
100
AcDbCircle
 10
-322.3544683529527
 20
208.1069257935569
 30
0.0
 40
7.993397
100
AcDbArc
 50
242.9756510000022
 51
297.0243489999978
  0
LINE
  5
2FA
330
1F
100
AcDbEntity
  8
LAYER-256
  6
Continuous
 62
     1
100
AcDbLine
 10
-312.3856633529541
 20
182.7135287935544
 30
0.0
 11
-332.3232743529543
 21
182.7135287935544
 31
0.0
  0
LINE
  5
2FB
330
1F
100
AcDbEntity
  8
LAYER-256
  6
Continuous
 62
     1
100
AcDbLine
 10
-312.3856633529541
 20
185.1135287935567
 30
0.0
 11
-312.3856633529541
 21
182.7135287935544
 31
0.0
  0
LINE
  5
2FC
330
1F
100
AcDbEntity
  8
LAYER-256
  6
Continuous
 62
     1
100
AcDbLine
 10
-332.3232743529543
 20
185.1135287935567
 30
0.0
 11
-332.3232743529543
 21
182.7135287935544
 31
0.0
  0
LINE
  5
2FD
330
1F
100
AcDbEntity
  8
LAYER-256
  6
Continuous
 62
     1
100
AcDbLine
 10
-314.0839643529525
 20
174.3961267935565
 30
0.0
 11
-314.0839643529525
 21
182.7135287935544
 31
0.0
  0
LINE
  5
2FE
330
1F
100
AcDbEntity
  8
LAYER-256
  6
Continuous
 62
     1
100
AcDbLine
 10
-318.722516352952
 20
174.3961267935565
 30
0.0
 11
-318.722516352952
 21
182.7135287935544
 31
0.0
  0
LINE
  5
2FF
330
1F
100
AcDbEntity
  8
LAYER-256
  6
Continuous
 62
     1
100
AcDbLine
 10
-325.9864213529518
 20
174.3961267935565
 30
0.0
 11
-325.9864213529518
 21
182.7135287935544
 31
0.0
  0
LINE
  5
300
330
1F
100
AcDbEntity
  8
LAYER-256
  6
Continuous
 62
     1
100
AcDbLine
 10
-330.6249723529546
 20
174.3961267935565
 30
0.0
 11
-330.6249723529546
 21
182.7135287935544
 31
0.0
  0
ARC
  5
301
330
1F
100
AcDbEntity
  8
LAYER-256
  6
Continuous
 62
     1
100
AcDbCircle
 10
-316.4032403529537
 20
177.0413287935553
 30
0.0
 40
3.517973000000001
100
AcDbArc
 50
228.7561740121885
 51
311.2438259878672
  0
ARC
  5
302
330
1F
100
AcDbEntity
  8
LAYER-256
  6
Continuous
 62
     1
100
AcDbCircle
 10
-328.3056973523217
 20
177.0413287935553
 30
0.0
 40
3.517973000000001
100
AcDbArc
 50
228.7561740044366
 51
311.2438259850897
  0
ARC
  5
303
330
1F
100
AcDbEntity
  8
LAYER-256
  6
Continuous
 62
     1
100
AcDbCircle
 10
-322.3544683529527
 20
181.5167517935543
 30
0.0
 40
7.993397
100
AcDbArc
 50
242.9756510000022
 51
297.0243489999978
  0
LINE
  5
304
330
1F
100
AcDbEntity
  8
LAYER-256
  6
Continuous
 62
     1
100
AcDbLine
 10
-343.8728383529515
 20
207.1573747935581
 30
0.0
 11
-343.8728383529515
 21
200.1135287935567
 31
0.0
  0
LINE
  5
305
330
1F
100
AcDbEntity
  8
LAYER-256
  6
Continuous
 62
     1
100
AcDbLine
 10
-353.8728383529515
 20
207.1573747935581
 30
0.0
 11
-353.8728383529515
 21
200.1135287935567
 31
0.0
  0
LINE
  5
306
330
1F
100
AcDbEntity
  8
LAYER-256
  6
Continuous
 62
     1
100
AcDbLine
 10
-368.1965643529539
 20
200.1135287935567
 30
0.0
 11
-368.1965643529539
 21
185.1135287935567
 31
0.0
  0
LINE
  5
307
330
1F
100
AcDbEntity
  8
LAYER-256
  6
Continuous
 62
     1
100
AcDbLine
 10
-353.8728383529515
 20
207.1573747935581
 30
0.0
 11
-343.8728383529515
 21
207.1573747935581
 31
0.0
  0
LINE
  5
308
330
1F
100
AcDbEntity
  8
LAYER-256
  6
Continuous
 62
     1
100
AcDbLine
 10
-353.8728383529515
 20
185.1135287935567
 30
0.0
 11
-353.8728383529515
 21
152.4178717935574
 31
0.0
  0
LINE
  5
309
330
1F
100
AcDbEntity
  8
LAYER-256
  6
Continuous
 62
     1
100
AcDbLine
 10
-343.8728383529515
 20
185.1135287935567
 30
0.0
 11
-343.8728383529515
 21
152.4178717935574
 31
0.0
  0
LINE
  5
30A
330
1F
100
AcDbEntity
  8
LAYER-256
  6
HIDDEN
 62
     4
100
AcDbLine
 10
-379.8544683529527
 20
147.4178717935574
 30
0.0
 11
-64.85446835295267
 21
147.4178717935574
 31
0.0
  0
LINE
  5
30B
330
1F
100
AcDbEntity
  8
LAYER-256
  6
Continuous
 62
     1
100
AcDbLine
 10
-80.94257135295453
 20
102.4178717935574
 30
0.0
 11
-80.94257135295453
 21
12.41787179355742
 31
0.0
  0
LINE
  5
30C
330
1F
100
AcDbEntity
  8
LAYER-256
  6
Continuous
 62
     1
100
AcDbLine
 10
-363.7663663529539
 20
102.4178717935574
 30
0.0
 11
-363.7663663529539
 21
12.41787179355742
 31
0.0
  0
LINE
  5
30D
330
1F
100
AcDbEntity
  8
LAYER-256
  6
Continuous
 62
     1
100
AcDbLine
 10
-353.1782113529535
 20
22.41787179355742
 30
0.0
 11
-269.1782113529526
 21
22.41787179355742
 31
0.0
  0
LINE
  5
30E
330
1F
100
AcDbEntity
  8
LAYER-256
  6
Continuous
 62
     1
100
AcDbLine
 10
-353.1782113529535
 20
92.41787179355742
 30
0.0
 11
-269.1782113529526
 21
92.41787179355742
 31
0.0
  0
LINE
  5
30F
330
1F
100
AcDbEntity
  8
LAYER-256
  6
Continuous
 62
     1
100
AcDbLine
 10
-353.1782113529535
 20
92.41787179355742
 30
0.0
 11
-353.1782113529535
 21
22.41787179355742
 31
0.0
  0
LINE
  5
310
330
1F
100
AcDbEntity
  8
LAYER-256
  6
Continuous
 62
     1
100
AcDbLine
 10
-91.53072535258804
 20
92.41787179355742
 30
0.0
 11
-91.53072535258804
 21
22.41787179355742
 31
0.0
  0
LINE
  5
311
330
1F
100
AcDbEntity
  8
LAYER-256
  6
Continuous
 62
     1
100
AcDbLine
 10
-264.3544683529527
 20
92.41787179355742
 30
0.0
 11
-264.3544683529527
 21
22.41787179355742
 31
0.0
  0
LINE
  5
312
330
1F
100
AcDbEntity
  8
LAYER-256
  6
Continuous
 62
     1
100
AcDbLine
 10
-180.3544683529545
 20
92.41787179355742
 30
0.0
 11
-180.3544683529545
 21
22.41787179355742
 31
0.0
  0
LINE
  5
313
330
1F
100
AcDbEntity
  8
LAYER-256
  6
Continuous
 62
     1
100
AcDbLine
 10
-269.1782113529526
 20
92.41787179355742
 30
0.0
 11
-269.1782113529526
 21
22.41787179355742
 31
0.0
  0
LINE
  5
314
330
1F
100
AcDbEntity
  8
LAYER-256
  6
Continuous
 62
     1
100
AcDbLine
 10
-175.530725352588
 20
92.41787179355742
 30
0.0
 11
-175.530725352588
 21
22.41787179355742
 31
0.0
  0
LINE
  5
315
330
1F
100
AcDbEntity
  8
LAYER-256
  6
Continuous
 62
     1
100
AcDbLine
 10
-264.3544683529527
 20
92.41787179355742
 30
0.0
 11
-180.3544683529545
 21
92.41787179355742
 31
0.0
  0
LINE
  5
316
330
1F
100
AcDbEntity
  8
LAYER-256
  6
Continuous
 62
     1
100
AcDbLine
 10
-264.3544683529527
 20
22.41787179355742
 30
0.0
 11
-180.3544683529545
 21
22.41787179355742
 31
0.0
  0
LINE
  5
317
330
1F
100
AcDbEntity
  8
LAYER-256
  6
Continuous
 62
     1
100
AcDbLine
 10
-175.530725352588
 20
92.41787179355742
 30
0.0
 11
-91.53072535258804
 21
92.41787179355742
 31
0.0
  0
LINE
  5
318
330
1F
100
AcDbEntity
  8
LAYER-256
  6
Continuous
 62
     1
100
AcDbLine
 10
-175.530725352588
 20
22.41787179355742
 30
0.0
 11
-91.53072535258804
 21
22.41787179355742
 31
0.0
  0
CIRCLE
  5
319
330
1F
100
AcDbEntity
  8
LAYER-256
  6
Continuous
 62
     1
100
AcDbCircle
 10
-233.4092093529555
 20
110.2836637935552
 30
0.0
 40
3.43
  0
ARC
  5
31A
330
1F
100
AcDbEntity
  8
LAYER-256
  6
Continuous
 62
     1
100
AcDbCircle
 10
-233.4092093529555
 20
110.2836637935552
 30
0.0
 40
6.37
100
AcDbArc
 50
0.0
 51
180.0
  0
LINE
  5
31B
330
1F
100
AcDbEntity
  8
LAYER-256
  6
Continuous
 62
     1
100
AcDbLine
 10
-239.7792093529525
 20
110.2836637935552
 30
0.0
 11
-239.7792093529525
 21
98.36443579355819
 31
0.0
  0
LINE
  5
31C
330
1F
100
AcDbEntity
  8
LAYER-256
  6
Continuous
 62
     1
100
AcDbLine
 10
-227.0392093534343
 20
110.2836637935552
 30
0.0
 11
-227.0392093534343
 21
98.36443579355819
 31
0.0
  0
LINE
  5
31D
330
1F
100
AcDbEntity
  8
LAYER-256
  6
Continuous
 62
     1
100
AcDbLine
 10
-237.4257613529535
 20
106.1378717935559
 30
0.0
 11
-237.4257613529535
 21
101.0885457935574
 31
0.0
  0
LINE
  5
31E
330
1F
100
AcDbEntity
  8
LAYER-256
  6
Continuous
 62
     1
100
AcDbLine
 10
-229.392656352954
 20
106.1378717935559
 30
0.0
 11
-229.392656352954
 21
101.0885457935574
 31
0.0
  0
LINE
  5
31F
330
1F
100
AcDbEntity
  8
LAYER-256
  6
Continuous
 62
     1
100
AcDbLine
 10
-239.7792093529525
 20
98.36443579355819
 30
0.0
 11
-227.0392093534343
 21
98.36443579355819
 31
0.0
  0
LINE
  5
320
330
1F
100
AcDbEntity
  8
LAYER-256
  6
Continuous
 62
     1
100
AcDbLine
 10
-237.4257613529535
 20
98.36443579355819
 30
0.0
 11
-237.4257613529535
 21
92.41787179355742
 31
0.0
  0
LINE
  5
321
330
1F
100
AcDbEntity
  8
LAYER-256
  6
Continuous
 62
     1
100
AcDbLine
 10
-229.392656352954
 20
98.36443579355819
 30
0.0
 11
-229.392656352954
 21
92.41787179355742
 31
0.0
  0
LINE
  5
322
330
1F
100
AcDbEntity
  8
LAYER-256
  6
Continuous
 62
     1
100
AcDbLine
 10
-227.0392093534343
 20
102.4178717935574
 30
0.0
 11
-217.6697283529548
 21
102.4178717935574
 31
0.0
  0
LINE
  5
323
330
1F
100
AcDbEntity
  8
LAYER-256
  6
Continuous
 62
     1
100
AcDbLine
 10
-204.9297283509526
 20
102.4178717935574
 30
0.0
 11
-150.9554663529544
 21
102.4178717935574
 31
0.0
  0
CIRCLE
  5
324
330
1F
100
AcDbEntity
  8
LAYER-256
  6
Continuous
 62
     1
100
AcDbCircle
 10
-211.2997283529531
 20
110.2836637935552
 30
0.0
 40
3.43
  0
ARC
  5
325
330
1F
100
AcDbEntity
  8
LAYER-256
  6
Continuous
 62
     1
100
AcDbCircle
 10
-211.2997283529531
 20
110.2836637935552
 30
0.0
 40
6.37
100
AcDbArc
 50
0.0
 51
180.0
  0
LINE
  5
326
330
1F
100
AcDbEntity
  8
LAYER-256
  6
Continuous
 62
     1
100
AcDbLine
 10
-204.9297283507072
 20
110.2836637935552
 30
0.0
 11
-204.9297283507072
 21
98.36443579355819
 31
0.0
  0
LINE
  5
327
330
1F
100
AcDbEntity
  8
LAYER-256
  6
Continuous
 62
     1
100
AcDbLine
 10
-217.6697283529548
 20
110.2836637935552
 30
0.0
 11
-217.6697283529548
 21
98.36443579355819
 31
0.0
  0
LINE
  5
328
330
1F
100
AcDbEntity
  8
LAYER-256
  6
Continuous
 62
     1
100
AcDbLine
 10
-207.2831753549305
 20
106.1378717935559
 30
0.0
 11
-207.2831753549305
 21
101.0885457935574
 31
0.0
  0
LINE
  5
329
330
1F
100
AcDbEntity
  8
LAYER-256
  6
Continuous
 62
     1
100
AcDbLine
 10
-215.3162813529544
 20
106.1378717935559
 30
0.0
 11
-215.3162813529544
 21
101.0885457935574
 31
0.0
  0
LINE
  5
32A
330
1F
100
AcDbEntity
  8
LAYER-256
  6
Continuous
 62
     1
100
AcDbLine
 10
-204.9297283507072
 20
98.36443579355819
 30
0.0
 11
-217.6697283529548
 21
98.36443579355819
 31
0.0
  0
LINE
  5
32B
330
1F
100
AcDbEntity
  8
LAYER-256
  6
Continuous
 62
     1
100
AcDbLine
 10
-207.2831753549305
 20
98.36443579355819
 30
0.0
 11
-207.2831753549305
 21
92.41787179355742
 31
0.0
  0
LINE
  5
32C
330
1F
100
AcDbEntity
  8
LAYER-256
  6
Continuous
 62
     1
100
AcDbLine
 10
-215.3162813529544
 20
98.36443579355819
 30
0.0
 11
-215.3162813529544
 21
92.41787179355742
 31
0.0
  0
CIRCLE
  5
32D
330
1F
100
AcDbEntity
  8
LAYER-256
  6
Continuous
 62
     1
100
AcDbCircle
 10
-322.2329523534343
 20
110.2836637935552
 30
0.0
 40
3.43
  0
ARC
  5
32E
330
1F
100
AcDbEntity
  8
LAYER-256
  6
Continuous
 62
     1
100
AcDbCircle
 10
-322.2329523534343
 20
110.2836637935552
 30
0.0
 40
6.37
100
AcDbArc
 50
0.0
 51
180.0
  0
LINE
  5
32F
330
1F
100
AcDbEntity
  8
LAYER-256
  6
Continuous
 62
     1
100
AcDbLine
 10
-328.6029523529551
 20
110.2836637935552
 30
0.0
 11
-328.6029523529551
 21
98.36443579355819
 31
0.0
  0
LINE
  5
330
330
1F
100
AcDbEntity
  8
LAYER-256
  6
Continuous
 62
     1
100
AcDbLine
 10
-315.8629523529517
 20
110.2836637935552
 30
0.0
 11
-315.8629523529517
 21
98.36443579355819
 31
0.0
  0
LINE
  5
331
330
1F
100
AcDbEntity
  8
LAYER-256
  6
Continuous
 62
     1
100
AcDbLine
 10
-326.2495053529502
 20
106.1378717935559
 30
0.0
 11
-326.2495053529502
 21
101.0885457935574
 31
0.0
  0
LINE
  5
332
330
1F
100
AcDbEntity
  8
LAYER-256
  6
Continuous
 62
     1
100
AcDbLine
 10
-318.2163993523217
 20
106.1378717935559
 30
0.0
 11
-318.2163993523217
 21
101.0885457935574
 31
0.0
  0
LINE
  5
333
330
1F
100
AcDbEntity
  8
LAYER-256
  6
Continuous
 62
     1
100
AcDbLine
 10
-328.6029523529551
 20
98.36443579355819
 30
0.0
 11
-315.8629523529517
 21
98.36443579355819
 31
0.0
  0
LINE
  5
334
330
1F
100
AcDbEntity
  8
LAYER-256
  6
Continuous
 62
     1
100
AcDbLine
 10
-326.2495053529502
 20
98.36443579355819
 30
0.0
 11
-326.2495053529502
 21
92.41787179355742
 31
0.0
  0
LINE
  5
335
330
1F
100
AcDbEntity
  8
LAYER-256
  6
Continuous
 62
     1
100
AcDbLine
 10
-318.2163993523217
 20
98.36443579355819
 30
0.0
 11
-318.2163993523217
 21
92.41787179355742
 31
0.0
  0
CIRCLE
  5
336
330
1F
100
AcDbEntity
  8
LAYER-256
  6
Continuous
 62
     1
100
AcDbCircle
 10
-300.1234713529512
 20
110.2836637935552
 30
0.0
 40
3.43
  0
ARC
  5
337
330
1F
100
AcDbEntity
  8
LAYER-256
  6
Continuous
 62
     1
100
AcDbCircle
 10
-300.1234713529512
 20
110.2836637935552
 30
0.0
 40
6.37
100
AcDbArc
 50
0.0
 51
180.0
  0
LINE
  5
338
330
1F
100
AcDbEntity
  8
LAYER-256
  6
Continuous
 62
     1
100
AcDbLine
 10
-293.753471352954
 20
110.2836637935552
 30
0.0
 11
-293.753471352954
 21
98.36443579355819
 31
0.0
  0
LINE
  5
339
330
1F
100
AcDbEntity
  8
LAYER-256
  6
Continuous
 62
     1
100
AcDbLine
 10
-306.4934713510407
 20
110.2836637935552
 30
0.0
 11
-306.4934713510407
 21
98.36443579355819
 31
0.0
  0
LINE
  5
33A
330
1F
100
AcDbEntity
  8
LAYER-256
  6
Continuous
 62
     1
100
AcDbLine
 10
-296.1069183529544
 20
106.1378717935559
 30
0.0
 11
-296.1069183529544
 21
101.0885457935574
 31
0.0
  0
LINE
  5
33B
330
1F
100
AcDbEntity
  8
LAYER-256
  6
Continuous
 62
     1
100
AcDbLine
 10
-304.1400243549306
 20
106.1378717935559
 30
0.0
 11
-304.1400243549306
 21
101.0885457935574
 31
0.0
  0
LINE
  5
33C
330
1F
100
AcDbEntity
  8
LAYER-256
  6
Continuous
 62
     1
100
AcDbLine
 10
-293.753471352954
 20
98.36443579355819
 30
0.0
 11
-306.4934713510407
 21
98.36443579355819
 31
0.0
  0
LINE
  5
33D
330
1F
100
AcDbEntity
  8
LAYER-256
  6
Continuous
 62
     1
100
AcDbLine
 10
-296.1069183529544
 20
98.36443579355819
 30
0.0
 11
-296.1069183529544
 21
92.41787179355742
 31
0.0
  0
LINE
  5
33E
330
1F
100
AcDbEntity
  8
LAYER-256
  6
Continuous
 62
     1
100
AcDbLine
 10
-304.1400243549306
 20
98.36443579355819
 30
0.0
 11
-304.1400243549306
 21
92.41787179355742
 31
0.0
  0
CIRCLE
  5
33F
330
1F
100
AcDbEntity
  8
LAYER-256
  6
Continuous
 62
     1
100
AcDbCircle
 10
-144.5854663529527
 20
110.2836637935552
 30
0.0
 40
3.43
  0
ARC
  5
340
330
1F
100
AcDbEntity
  8
LAYER-256
  6
Continuous
 62
     1
100
AcDbCircle
 10
-144.5854663529527
 20
110.2836637935552
 30
0.0
 40
6.37
100
AcDbArc
 50
0.0
 51
180.0
  0
LINE
  5
341
330
1F
100
AcDbEntity
  8
LAYER-256
  6
Continuous
 62
     1
100
AcDbLine
 10
-150.9554663529544
 20
110.2836637935552
 30
0.0
 11
-150.9554663529544
 21
98.36443579355819
 31
0.0
  0
LINE
  5
342
330
1F
100
AcDbEntity
  8
LAYER-256
  6
Continuous
 62
     1
100
AcDbLine
 10
-138.2154663529555
 20
110.2836637935552
 30
0.0
 11
-138.2154663529555
 21
98.36443579355819
 31
0.0
  0
LINE
  5
343
330
1F
100
AcDbEntity
  8
LAYER-256
  6
Continuous
 62
     1
100
AcDbLine
 10
-148.6020183529554
 20
106.1378717935559
 30
0.0
 11
-148.6020183529554
 21
101.0885457935574
 31
0.0
  0
LINE
  5
344
330
1F
100
AcDbEntity
  8
LAYER-256
  6
Continuous
 62
     1
100
AcDbLine
 10
-140.5689133529514
 20
106.1378717935559
 30
0.0
 11
-140.5689133529514
 21
101.0885457935574
 31
0.0
  0
LINE
  5
345
330
1F
100
AcDbEntity
  8
LAYER-256
  6
Continuous
 62
     1
100
AcDbLine
 10
-150.9554663529544
 20
98.36443579355819
 30
0.0
 11
-138.2154663529555
 21
98.36443579355819
 31
0.0
  0
LINE
  5
346
330
1F
100
AcDbEntity
  8
LAYER-256
  6
Continuous
 62
     1
100
AcDbLine
 10
-148.6020183529554
 20
98.36443579355819
 30
0.0
 11
-148.6020183529554
 21
92.41787179355742
 31
0.0
  0
LINE
  5
347
330
1F
100
AcDbEntity
  8
LAYER-256
  6
Continuous
 62
     1
100
AcDbLine
 10
-140.5689133529514
 20
98.36443579355819
 30
0.0
 11
-140.5689133529514
 21
92.41787179355742
 31
0.0
  0
CIRCLE
  5
348
330
1F
100
AcDbEntity
  8
LAYER-256
  6
Continuous
 62
     1
100
AcDbCircle
 10
-122.4759853529518
 20
110.2836637935552
 30
0.0
 40
3.43
  0
ARC
  5
349
330
1F
100
AcDbEntity
  8
LAYER-256
  6
Continuous
 62
     1
100
AcDbCircle
 10
-122.4759853529518
 20
110.2836637935552
 30
0.0
 40
6.37
100
AcDbArc
 50
0.0
 51
180.0
  0
LINE
  5
34A
330
1F
100
AcDbEntity
  8
LAYER-256
  6
Continuous
 62
     1
100
AcDbLine
 10
-116.1059853510411
 20
110.2836637935552
 30
0.0
 11
-116.1059853510411
 21
98.36443579355819
 31
0.0
  0
LINE
  5
34B
330
1F
100
AcDbEntity
  8
LAYER-256
  6
Continuous
 62
     1
100
AcDbLine
 10
-128.84598535406
 20
110.2836637935552
 30
0.0
 11
-128.84598535406
 21
98.36443579355819
 31
0.0
  0
LINE
  5
34C
330
1F
100
AcDbEntity
  8
LAYER-256
  6
Continuous
 62
     1
100
AcDbLine
 10
-118.4594323529537
 20
106.1378717935559
 30
0.0
 11
-118.4594323529537
 21
101.0885457935574
 31
0.0
  0
LINE
  5
34D
330
1F
100
AcDbEntity
  8
LAYER-256
  6
Continuous
 62
     1
100
AcDbLine
 10
-126.4925383529517
 20
106.1378717935559
 30
0.0
 11
-126.4925383529517
 21
101.0885457935574
 31
0.0
  0
LINE
  5
34E
330
1F
100
AcDbEntity
  8
LAYER-256
  6
Continuous
 62
     1
100
AcDbLine
 10
-116.1059853510411
 20
98.36443579355819
 30
0.0
 11
-128.84598535406
 21
98.36443579355819
 31
0.0
  0
LINE
  5
34F
330
1F
100
AcDbEntity
  8
LAYER-256
  6
Continuous
 62
     1
100
AcDbLine
 10
-118.4594323529537
 20
98.36443579355819
 30
0.0
 11
-118.4594323529537
 21
92.41787179355742
 31
0.0
  0
LINE
  5
350
330
1F
100
AcDbEntity
  8
LAYER-256
  6
Continuous
 62
     1
100
AcDbLine
 10
-126.4925383529517
 20
98.36443579355819
 30
0.0
 11
-126.4925383529517
 21
92.41787179355742
 31
0.0
  0
LINE
  5
351
330
1F
100
AcDbEntity
  8
LAYER-256
  6
Continuous
 62
     1
100
AcDbLine
 10
-116.1059853510411
 20
102.4178717935574
 30
0.0
 11
-64.85446835295267
 21
102.4178717935574
 31
0.0
  0
LINE
  5
352
330
1F
100
AcDbEntity
  8
LAYER-256
  6
Continuous
 62
     1
100
AcDbLine
 10
-138.2154663529555
 20
102.4178717935574
 30
0.0
 11
-128.84598535406
 21
102.4178717935574
 31
0.0
  0
LINE
  5
353
330
1F
100
AcDbEntity
  8
LAYER-256
  6
Continuous
 62
     1
100
AcDbLine
 10
-293.753471352954
 20
102.4178717935574
 30
0.0
 11
-239.7792093529525
 21
102.4178717935574
 31
0.0
  0
LINE
  5
354
330
1F
100
AcDbEntity
  8
LAYER-256
  6
Continuous
 62
     1
100
AcDbLine
 10
-315.8629523529517
 20
102.4178717935574
 30
0.0
 11
-306.4934713510407
 21
102.4178717935574
 31
0.0
  0
LINE
  5
355
330
1F
100
AcDbEntity
  8
LAYER-256
  6
CENTER
 62
     4
100
AcDbLine
 10
-392.9263223529525
 20
58.75513479355777
 30
0.0
 11
-55.62870834931499
 21
58.75513479355777
 31
0.0
  0
LINE
  5
356
330
1F
100
AcDbEntity
  8
LAYER-256
  6
CENTER
 62
     4
100
AcDbLine
 10
-114.3987013529541
 20
123.5822487935564
 30
0.0
 11
-81.62154735295377
 21
123.5822487935564
 31
0.0
  0
CIRCLE
  5
357
330
1F
100
AcDbEntity
  8
LAYER-256
  6
Continuous
 62
     4
100
AcDbCircle
 10
-97.35446835295267
 20
123.5822487935564
 30
0.0
 40
4.0
  0
CIRCLE
  5
358
330
1F
100
AcDbEntity
  8
LAYER-256
  6
Continuous
 62
     4
100
AcDbCircle
 10
-97.35446835295267
 20
123.5822487935564
 30
0.0
 40
8.25
  0
LINE
  5
359
330
1F
100
AcDbEntity
  8
LAYER-256
  6
Continuous
 62
     4
100
AcDbLine
 10
-97.35446835295267
 20
115.3209267940108
 30
0.0
 11
-98.21801235295158
 21
115.366182793557
 31
0.0
  0
LINE
  5
35A
330
1F
100
AcDbEntity
  8
LAYER-256
  6
Continuous
 62
     4
100
AcDbLine
 10
-98.21801235295158
 20
115.366182793557
 30
0.0
 11
-99.07209435295232
 21
115.5014567935568
 31
0.0
  0
LINE
  5
35B
330
1F
100
AcDbEntity
  8
LAYER-256
  6
Continuous
 62
     4
100
AcDbLine
 10
-99.07209435295232
 20
115.5014567935568
 30
0.0
 11
-99.90735735295135
 21
115.7252647935575
 31
0.0
  0
LINE
  5
35C
330
1F
100
AcDbEntity
  8
LAYER-256
  6
Continuous
 62
     4
100
AcDbLine
 10
-99.90735735295135
 20
115.7252647935575
 30
0.0
 11
-100.7146513529524
 21
116.0351557935546
 31
0.0
  0
LINE
  5
35D
330
1F
100
AcDbEntity
  8
LAYER-256
  6
Continuous
 62
     4
100
AcDbLine
 10
-100.7146513529524
 20
116.0351557935546
 30
0.0
 11
-101.485129352686
 21
116.4277337935555
 31
0.0
  0
LINE
  5
35E
330
1F
100
AcDbEntity
  8
LAYER-256
  6
Continuous
 62
     4
100
AcDbLine
 10
-101.485129352686
 20
116.4277337935555
 30
0.0
 11
-102.2103523529514
 21
116.8986987935596
 31
0.0
  0
LINE
  5
35F
330
1F
100
AcDbEntity
  8
LAYER-256
  6
Continuous
 62
     4
100
AcDbLine
 10
-102.2103523529514
 20
116.8986987935596
 30
0.0
 11
-102.8823723529532
 21
117.4428897935586
 31
0.0
  0
LINE
  5
360
330
1F
100
AcDbEntity
  8
LAYER-256
  6
Continuous
 62
     4
100
AcDbLine
 10
-102.8823723529532
 20
117.4428897935586
 30
0.0
 11
-103.4938273529515
 21
118.0543457935555
 31
0.0
  0
LINE
  5
361
330
1F
100
AcDbEntity
  8
LAYER-256
  6
Continuous
 62
     4
100
AcDbLine
 10
-103.4938273529515
 20
118.0543457935555
 30
0.0
 11
-104.0380183529551
 21
118.7263657935573
 31
0.0
  0
LINE
  5
362
330
1F
100
AcDbEntity
  8
LAYER-256
  6
Continuous
 62
     4
100
AcDbLine
 10
-104.0380183529551
 20
118.7263657935573
 30
0.0
 11
-104.508983354
 21
119.4515877935583
 31
0.0
  0
LINE
  5
363
330
1F
100
AcDbEntity
  8
LAYER-256
  6
Continuous
 62
     4
100
AcDbLine
 10
-104.508983354
 20
119.4515877935583
 30
0.0
 11
-104.901561352951
 21
120.2220667935562
 31
0.0
  0
LINE
  5
364
330
1F
100
AcDbEntity
  8
LAYER-256
  6
Continuous
 62
     4
100
AcDbLine
 10
-104.901561352951
 20
120.2220667935562
 30
0.0
 11
-105.2114523529527
 21
121.0293597935588
 31
0.0
  0
LINE
  5
365
330
1F
100
AcDbEntity
  8
LAYER-256
  6
Continuous
 62
     4
100
AcDbLine
 10
-105.2114523529527
 20
121.0293597935588
 30
0.0
 11
-105.4352613529518
 21
121.8646237935564
 31
0.0
  0
LINE
  5
366
330
1F
100
AcDbEntity
  8
LAYER-256
  6
Continuous
 62
     4
100
AcDbLine
 10
-105.4352613529518
 20
121.8646237935564
 30
0.0
 11
-105.5705343529526
 21
122.7187057935571
 31
0.0
  0
LINE
  5
367
330
1F
100
AcDbEntity
  8
LAYER-256
  6
Continuous
 62
     4
100
AcDbLine
 10
-105.5705343529526
 20
122.7187057935571
 30
0.0
 11
-105.6157903529511
 21
123.5822487935564
 31
0.0
  0
LINE
  5
368
330
1F
100
AcDbEntity
  8
LAYER-256
  6
Continuous
 62
     4
100
AcDbLine
 10
-105.6157903529511
 20
123.5822487935564
 30
0.0
 11
-105.5705343529526
 21
124.4457917935579
 31
0.0
  0
LINE
  5
369
330
1F
100
AcDbEntity
  8
LAYER-256
  6
Continuous
 62
     4
100
AcDbLine
 10
-105.5705343529526
 20
124.4457917935579
 30
0.0
 11
-105.4352613529518
 21
125.2998737935586
 31
0.0
  0
LINE
  5
36A
330
1F
100
AcDbEntity
  8
LAYER-256
  6
Continuous
 62
     4
100
AcDbLine
 10
-105.4352613529518
 20
125.2998737935586
 30
0.0
 11
-105.2114523529527
 21
126.1351377935562
 31
0.0
  0
LINE
  5
36B
330
1F
100
AcDbEntity
  8
LAYER-256
  6
Continuous
 62
     4
100
AcDbLine
 10
-105.2114523529527
 20
126.1351377935562
 30
0.0
 11
-104.901561352951
 21
126.9424307935587
 31
0.0
  0
LINE
  5
36C
330
1F
100
AcDbEntity
  8
LAYER-256
  6
Continuous
 62
     4
100
AcDbLine
 10
-104.901561352951
 20
126.9424307935587
 30
0.0
 11
-104.508983354
 21
127.7129097935567
 31
0.0
  0
LINE
  5
36D
330
1F
100
AcDbEntity
  8
LAYER-256
  6
Continuous
 62
     4
100
AcDbLine
 10
-104.508983354
 20
127.7129097935567
 30
0.0
 11
-104.0380183529551
 21
128.4381317964914
 31
0.0
  0
LINE
  5
36E
330
1F
100
AcDbEntity
  8
LAYER-256
  6
Continuous
 62
     4
100
AcDbLine
 10
-104.0380183529551
 20
128.4381317964914
 30
0.0
 11
-103.4938273529515
 21
129.1101517935595
 31
0.0
  0
LINE
  5
36F
330
1F
100
AcDbEntity
  8
LAYER-256
  6
Continuous
 62
     4
100
AcDbLine
 10
-103.4938273529515
 20
129.1101517935595
 30
0.0
 11
-102.8823723529532
 21
129.7216067935578
 31
0.0
  0
LINE
  5
370
330
1F
100
AcDbEntity
  8
LAYER-256
  6
Continuous
 62
     4
100
AcDbLine
 10
-102.8823723529532
 20
129.7216067935578
 30
0.0
 11
-102.2103523529514
 21
130.2657987935554
 31
0.0
  0
LINE
  5
371
330
1F
100
AcDbEntity
  8
LAYER-256
  6
Continuous
 62
     4
100
AcDbLine
 10
-102.2103523529514
 20
130.2657987935554
 30
0.0
 11
-101.485129352686
 21
130.7367627935564
 31
0.0
  0
LINE
  5
372
330
1F
100
AcDbEntity
  8
LAYER-256
  6
Continuous
 62
     4
100
AcDbLine
 10
-101.485129352686
 20
130.7367627935564
 30
0.0
 11
-100.7146513529524
 21
131.1293417935558
 31
0.0
  0
LINE
  5
373
330
1F
100
AcDbEntity
  8
LAYER-256
  6
Continuous
 62
     4
100
AcDbLine
 10
-100.7146513529524
 20
131.1293417935558
 30
0.0
 11
-99.90735735295135
 21
131.4392327940108
 31
0.0
  0
LINE
  5
374
330
1F
100
AcDbEntity
  8
LAYER-256
  6
Continuous
 62
     4
100
AcDbLine
 10
-99.90735735295135
 20
131.4392327940108
 30
0.0
 11
-99.07209435295232
 21
131.6630407935581
 31
0.0
  0
LINE
  5
375
330
1F
100
AcDbEntity
  8
LAYER-256
  6
Continuous
 62
     4
100
AcDbLine
 10
-99.07209435295232
 20
131.6630407935581
 30
0.0
 11
-98.21801235295158
 21
131.7983137935589
 31
0.0
  0
LINE
  5
376
330
1F
100
AcDbEntity
  8
LAYER-256
  6
Continuous
 62
     4
100
AcDbLine
 10
-98.21801235295158
 20
131.7983137935589
 30
0.0
 11
-97.35446835295267
 21
131.843570793556
 31
0.0
  0
LINE
  5
377
330
1F
100
AcDbEntity
  8
LAYER-256
  6
Continuous
 62
     4
100
AcDbLine
 10
-97.35446835295267
 20
131.843570793556
 30
0.0
 11
-96.49092535295227
 21
131.7983137935589
 31
0.0
  0
LINE
  5
378
330
1F
100
AcDbEntity
  8
LAYER-256
  6
Continuous
 62
     4
100
AcDbLine
 10
-96.49092535295227
 20
131.7983137935589
 30
0.0
 11
-95.63684335295153
 21
131.6630407935581
 31
0.0
  0
LINE
  5
379
330
1F
100
AcDbEntity
  8
LAYER-256
  6
Continuous
 62
     4
100
AcDbLine
 10
-95.63684335295153
 20
131.6630407935581
 30
0.0
 11
-94.8015803529525
 21
131.4392327940108
 31
0.0
  0
LINE
  5
37A
330
1F
100
AcDbEntity
  8
LAYER-256
  6
Continuous
 62
     4
100
AcDbLine
 10
-94.8015803529525
 20
131.4392327940108
 30
0.0
 11
-93.99428635295141
 21
131.1293417935558
 31
0.0
  0
LINE
  5
37B
330
1F
100
AcDbEntity
  8
LAYER-256
  6
Continuous
 62
     4
100
AcDbLine
 10
-93.99428635295141
 20
131.1293417935558
 30
0.0
 11
-93.22380735295343
 21
130.7367627935564
 31
0.0
  0
LINE
  5
37C
330
1F
100
AcDbEntity
  8
LAYER-256
  6
Continuous
 62
     4
100
AcDbLine
 10
-93.22380735295343
 20
130.7367627935564
 30
0.0
 11
-92.49858535295249
 21
130.2657987935554
 31
0.0
  0
LINE
  5
37D
330
1F
100
AcDbEntity
  8
LAYER-256
  6
Continuous
 62
     4
100
AcDbLine
 10
-92.49858535295249
 20
130.2657987935554
 30
0.0
 11
-91.82656535295524
 21
129.7216067935578
 31
0.0
  0
LINE
  5
37E
330
1F
100
AcDbEntity
  8
LAYER-256
  6
Continuous
 62
     4
100
AcDbLine
 10
-91.82656535295524
 20
129.7216067935578
 30
0.0
 11
-91.21511035295231
 21
129.1101517935595
 31
0.0
  0
LINE
  5
37F
330
1F
100
AcDbEntity
  8
LAYER-256
  6
Continuous
 62
     4
100
AcDbLine
 10
-91.21511035295231
 20
129.1101517935595
 30
0.0
 11
-90.67091935295326
 21
128.4381317964914
 31
0.0
  0
LINE
  5
380
330
1F
100
AcDbEntity
  8
LAYER-256
  6
Continuous
 62
     4
100
AcDbLine
 10
-90.67091935295326
 20
128.4381317964914
 30
0.0
 11
-90.19995435295374
 21
127.7129097935567
 31
0.0
  0
LINE
  5
381
330
1F
100
AcDbEntity
  8
LAYER-256
  6
Continuous
 62
     4
100
AcDbLine
 10
-90.19995435295374
 20
127.7129097935567
 30
0.0
 11
-89.80737535268594
 21
126.9424307935587
 31
0.0
  0
LINE
  5
382
330
1F
100
AcDbEntity
  8
LAYER-256
  6
Continuous
 62
     4
100
AcDbLine
 10
-89.80737535268594
 20
126.9424307935587
 30
0.0
 11
-89.49748435295265
 21
126.1351377935562
 31
0.0
  0
LINE
  5
383
330
1F
100
AcDbEntity
  8
LAYER-256
  6
Continuous
 62
     4
100
AcDbLine
 10
-89.49748435295265
 20
126.1351377935562
 30
0.0
 11
-89.27367635295201
 21
125.2998737935586
 31
0.0
  0
LINE
  5
384
330
1F
100
AcDbEntity
  8
LAYER-256
  6
Continuous
 62
     4
100
AcDbLine
 10
-89.27367635295201
 20
125.2998737935586
 30
0.0
 11
-89.13840335295123
 21
124.4457917935579
 31
0.0
  0
LINE
  5
385
330
1F
100
AcDbEntity
  8
LAYER-256
  6
Continuous
 62
     4
100
AcDbLine
 10
-89.13840335295123
 20
124.4457917935579
 30
0.0
 11
-89.09314735295271
 21
123.5822487935564
 31
0.0
  0
LINE
  5
386
330
1F
100
AcDbEntity
  8
LAYER-256
  6
Continuous
 62
     4
100
AcDbLine
 10
-89.09314735295271
 20
123.5822487935564
 30
0.0
 11
-89.13840335295123
 21
122.7187057935571
 31
0.0
  0
LINE
  5
387
330
1F
100
AcDbEntity
  8
LAYER-256
  6
Continuous
 62
     4
100
AcDbLine
 10
-89.13840335295123
 20
122.7187057935571
 30
0.0
 11
-89.27367635295201
 21
121.8646237935564
 31
0.0
  0
LINE
  5
388
330
1F
100
AcDbEntity
  8
LAYER-256
  6
Continuous
 62
     4
100
AcDbLine
 10
-89.27367635295201
 20
121.8646237935564
 30
0.0
 11
-89.49748435295265
 21
121.0293597935588
 31
0.0
  0
LINE
  5
389
330
1F
100
AcDbEntity
  8
LAYER-256
  6
Continuous
 62
     4
100
AcDbLine
 10
-89.49748435295265
 20
121.0293597935588
 30
0.0
 11
-89.80737535268594
 21
120.2220667935562
 31
0.0
  0
LINE
  5
38A
330
1F
100
AcDbEntity
  8
LAYER-256
  6
Continuous
 62
     4
100
AcDbLine
 10
-89.80737535268594
 20
120.2220667935562
 30
0.0
 11
-90.19995435295374
 21
119.4515877935583
 31
0.0
  0
LINE
  5
38B
330
1F
100
AcDbEntity
  8
LAYER-256
  6
Continuous
 62
     4
100
AcDbLine
 10
-90.19995435295374
 20
119.4515877935583
 30
0.0
 11
-90.67091935295326
 21
118.7263657935573
 31
0.0
  0
LINE
  5
38C
330
1F
100
AcDbEntity
  8
LAYER-256
  6
Continuous
 62
     4
100
AcDbLine
 10
-90.67091935295326
 20
118.7263657935573
 30
0.0
 11
-91.21511035295231
 21
118.0543457935555
 31
0.0
  0
LINE
  5
38D
330
1F
100
AcDbEntity
  8
LAYER-256
  6
Continuous
 62
     4
100
AcDbLine
 10
-91.21511035295231
 20
118.0543457935555
 30
0.0
 11
-91.82656535295524
 21
117.4428897935586
 31
0.0
  0
LINE
  5
38E
330
1F
100
AcDbEntity
  8
LAYER-256
  6
Continuous
 62
     4
100
AcDbLine
 10
-91.82656535295524
 20
117.4428897935586
 30
0.0
 11
-92.49858535295249
 21
116.8986987935596
 31
0.0
  0
LINE
  5
38F
330
1F
100
AcDbEntity
  8
LAYER-256
  6
Continuous
 62
     4
100
AcDbLine
 10
-92.49858535295249
 20
116.8986987935596
 30
0.0
 11
-93.22380735295343
 21
116.4277337935555
 31
0.0
  0
LINE
  5
390
330
1F
100
AcDbEntity
  8
LAYER-256
  6
Continuous
 62
     4
100
AcDbLine
 10
-93.22380735295343
 20
116.4277337935555
 30
0.0
 11
-93.99428635295141
 21
116.0351557935546
 31
0.0
  0
LINE
  5
391
330
1F
100
AcDbEntity
  8
LAYER-256
  6
Continuous
 62
     4
100
AcDbLine
 10
-93.99428635295141
 20
116.0351557935546
 30
0.0
 11
-94.8015803529525
 21
115.7252647935575
 31
0.0
  0
LINE
  5
392
330
1F
100
AcDbEntity
  8
LAYER-256
  6
Continuous
 62
     4
100
AcDbLine
 10
-94.8015803529525
 20
115.7252647935575
 30
0.0
 11
-95.63684335295153
 21
115.5014567935568
 31
0.0
  0
LINE
  5
393
330
1F
100
AcDbEntity
  8
LAYER-256
  6
Continuous
 62
     4
100
AcDbLine
 10
-95.63684335295153
 20
115.5014567935568
 30
0.0
 11
-96.49092535295227
 21
115.366182793557
 31
0.0
  0
LINE
  5
394
330
1F
100
AcDbEntity
  8
LAYER-256
  6
Continuous
 62
     4
100
AcDbLine
 10
-96.49092535295227
 20
115.366182793557
 30
0.0
 11
-97.35446835295267
 21
115.3209267940108
 31
0.0
  0
LINE
  5
395
330
1F
100
AcDbEntity
  8
LAYER-256
  6
Continuous
 62
     4
100
AcDbLine
 10
-97.35446835295267
 20
114.0559687935574
 30
0.0
 11
-105.6044683529554
 21
118.8191087935575
 31
0.0
  0
LINE
  5
396
330
1F
100
AcDbEntity
  8
LAYER-256
  6
Continuous
 62
     4
100
AcDbLine
 10
-105.6044683529554
 20
118.8191087935575
 30
0.0
 11
-105.6044683529554
 21
128.3453887935575
 31
0.0
  0
LINE
  5
397
330
1F
100
AcDbEntity
  8
LAYER-256
  6
Continuous
 62
     4
100
AcDbLine
 10
-105.6044683529554
 20
128.3453887935575
 30
0.0
 11
-97.35446835295267
 21
133.108527793559
 31
0.0
  0
LINE
  5
398
330
1F
100
AcDbEntity
  8
LAYER-256
  6
Continuous
 62
     4
100
AcDbLine
 10
-97.35446835295267
 20
133.108527793559
 30
0.0
 11
-89.10446835295448
 21
128.3453887935575
 31
0.0
  0
LINE
  5
399
330
1F
100
AcDbEntity
  8
LAYER-256
  6
Continuous
 62
     4
100
AcDbLine
 10
-89.10446835295448
 20
128.3453887935575
 30
0.0
 11
-89.10446835295448
 21
118.8191087935575
 31
0.0
  0
LINE
  5
39A
330
1F
100
AcDbEntity
  8
LAYER-256
  6
Continuous
 62
     4
100
AcDbLine
 10
-89.10446835295448
 20
118.8191087935575
 30
0.0
 11
-97.35446835295267
 21
114.0559687935574
 31
0.0
  0
LINE
  5
39B
330
1F
100
AcDbEntity
  8
LAYER-256
  6
CENTER
 62
     4
100
AcDbLine
 10
-97.35446835295267
 20
107.1114237935562
 30
0.0
 11
-97.35446835295267
 21
138.7931377935574
 31
0.0
  0
CIRCLE
  5
39C
330
1F
100
AcDbEntity
  8
LAYER-256
  6
Continuous
 62
     4
100
AcDbCircle
 10
-347.3544683529527
 20
123.5822487935564
 30
0.0
 40
4.0
  0
CIRCLE
  5
39D
330
1F
100
AcDbEntity
  8
LAYER-256
  6
Continuous
 62
     4
100
AcDbCircle
 10
-347.3544683529527
 20
123.5822487935564
 30
0.0
 40
8.25
  0
LINE
  5
39E
330
1F
100
AcDbEntity
  8
LAYER-256
  6
Continuous
 62
     4
100
AcDbLine
 10
-347.3544683529527
 20
115.3209267940108
 30
0.0
 11
-346.4909253529523
 21
115.366182793557
 31
0.0
  0
LINE
  5
39F
330
1F
100
AcDbEntity
  8
LAYER-256
  6
Continuous
 62
     4
100
AcDbLine
 10
-346.4909253529523
 20
115.366182793557
 30
0.0
 11
-345.6368433529515
 21
115.5014567935568
 31
0.0
  0
LINE
  5
3A0
330
1F
100
AcDbEntity
  8
LAYER-256
  6
Continuous
 62
     4
100
AcDbLine
 10
-345.6368433529515
 20
115.5014567935568
 30
0.0
 11
-344.8015803529525
 21
115.7252647935575
 31
0.0
  0
LINE
  5
3A1
330
1F
100
AcDbEntity
  8
LAYER-256
  6
Continuous
 62
     4
100
AcDbLine
 10
-344.8015803529525
 20
115.7252647935575
 30
0.0
 11
-343.9942863529514
 21
116.0351557935546
 31
0.0
  0
LINE
  5
3A2
330
1F
100
AcDbEntity
  8
LAYER-256
  6
Continuous
 62
     4
100
AcDbLine
 10
-343.9942863529514
 20
116.0351557935546
 30
0.0
 11
-343.2238073529534
 21
116.4277337935555
 31
0.0
  0
LINE
  5
3A3
330
1F
100
AcDbEntity
  8
LAYER-256
  6
Continuous
 62
     4
100
AcDbLine
 10
-343.2238073529534
 20
116.4277337935555
 30
0.0
 11
-342.4985853529525
 21
116.8986987935596
 31
0.0
  0
LINE
  5
3A4
330
1F
100
AcDbEntity
  8
LAYER-256
  6
Continuous
 62
     4
100
AcDbLine
 10
-342.4985853529525
 20
116.8986987935596
 30
0.0
 11
-341.8265653529552
 21
117.4428897935586
 31
0.0
  0
LINE
  5
3A5
330
1F
100
AcDbEntity
  8
LAYER-256
  6
Continuous
 62
     4
100
AcDbLine
 10
-341.8265653529552
 20
117.4428897935586
 30
0.0
 11
-341.2151103529523
 21
118.0543457935555
 31
0.0
  0
LINE
  5
3A6
330
1F
100
AcDbEntity
  8
LAYER-256
  6
Continuous
 62
     4
100
AcDbLine
 10
-341.2151103529523
 20
118.0543457935555
 30
0.0
 11
-340.6709193529533
 21
118.7263657935573
 31
0.0
  0
LINE
  5
3A7
330
1F
100
AcDbEntity
  8
LAYER-256
  6
Continuous
 62
     4
100
AcDbLine
 10
-340.6709193529533
 20
118.7263657935573
 30
0.0
 11
-340.1999543529537
 21
119.4515877935583
 31
0.0
  0
LINE
  5
3A8
330
1F
100
AcDbEntity
  8
LAYER-256
  6
Continuous
 62
     4
100
AcDbLine
 10
-340.1999543529537
 20
119.4515877935583
 30
0.0
 11
-339.8073753526861
 21
120.2220667935562
 31
0.0
  0
LINE
  5
3A9
330
1F
100
AcDbEntity
  8
LAYER-256
  6
Continuous
 62
     4
100
AcDbLine
 10
-339.8073753526861
 20
120.2220667935562
 30
0.0
 11
-339.4974843529527
 21
121.0293597935588
 31
0.0
  0
LINE
  5
3AA
330
1F
100
AcDbEntity
  8
LAYER-256
  6
Continuous
 62
     4
100
AcDbLine
 10
-339.4974843529527
 20
121.0293597935588
 30
0.0
 11
-339.273676352952
 21
121.8646237935564
 31
0.0
  0
LINE
  5
3AB
330
1F
100
AcDbEntity
  8
LAYER-256
  6
Continuous
 62
     4
100
AcDbLine
 10
-339.273676352952
 20
121.8646237935564
 30
0.0
 11
-339.1384033529512
 21
122.7187057935571
 31
0.0
  0
LINE
  5
3AC
330
1F
100
AcDbEntity
  8
LAYER-256
  6
Continuous
 62
     4
100
AcDbLine
 10
-339.1384033529512
 20
122.7187057935571
 30
0.0
 11
-339.0931473529527
 21
123.5822487935564
 31
0.0
  0
LINE
  5
3AD
330
1F
100
AcDbEntity
  8
LAYER-256
  6
Continuous
 62
     4
100
AcDbLine
 10
-339.0931473529527
 20
123.5822487935564
 30
0.0
 11
-339.1384033529512
 21
124.4457917935579
 31
0.0
  0
LINE
  5
3AE
330
1F
100
AcDbEntity
  8
LAYER-256
  6
Continuous
 62
     4
100
AcDbLine
 10
-339.1384033529512
 20
124.4457917935579
 30
0.0
 11
-339.273676352952
 21
125.2998737935586
 31
0.0
  0
LINE
  5
3AF
330
1F
100
AcDbEntity
  8
LAYER-256
  6
Continuous
 62
     4
100
AcDbLine
 10
-339.273676352952
 20
125.2998737935586
 30
0.0
 11
-339.4974843529527
 21
126.1351377935562
 31
0.0
  0
LINE
  5
3B0
330
1F
100
AcDbEntity
  8
LAYER-256
  6
Continuous
 62
     4
100
AcDbLine
 10
-339.4974843529527
 20
126.1351377935562
 30
0.0
 11
-339.8073753526861
 21
126.9424307935587
 31
0.0
  0
LINE
  5
3B1
330
1F
100
AcDbEntity
  8
LAYER-256
  6
Continuous
 62
     4
100
AcDbLine
 10
-339.8073753526861
 20
126.9424307935587
 30
0.0
 11
-340.1999543529537
 21
127.7129097935567
 31
0.0
  0
LINE
  5
3B2
330
1F
100
AcDbEntity
  8
LAYER-256
  6
Continuous
 62
     4
100
AcDbLine
 10
-340.1999543529537
 20
127.7129097935567
 30
0.0
 11
-340.6709193529533
 21
128.4381317964914
 31
0.0
  0
LINE
  5
3B3
330
1F
100
AcDbEntity
  8
LAYER-256
  6
Continuous
 62
     4
100
AcDbLine
 10
-340.6709193529533
 20
128.4381317964914
 30
0.0
 11
-341.2151103529523
 21
129.1101517935595
 31
0.0
  0
LINE
  5
3B4
330
1F
100
AcDbEntity
  8
LAYER-256
  6
Continuous
 62
     4
100
AcDbLine
 10
-341.2151103529523
 20
129.1101517935595
 30
0.0
 11
-341.8265653529552
 21
129.7216067935578
 31
0.0
  0
LINE
  5
3B5
330
1F
100
AcDbEntity
  8
LAYER-256
  6
Continuous
 62
     4
100
AcDbLine
 10
-341.8265653529552
 20
129.7216067935578
 30
0.0
 11
-342.4985853529525
 21
130.2657987935554
 31
0.0
  0
LINE
  5
3B6
330
1F
100
AcDbEntity
  8
LAYER-256
  6
Continuous
 62
     4
100
AcDbLine
 10
-342.4985853529525
 20
130.2657987935554
 30
0.0
 11
-343.2238073529534
 21
130.7367627935564
 31
0.0
  0
LINE
  5
3B7
330
1F
100
AcDbEntity
  8
LAYER-256
  6
Continuous
 62
     4
100
AcDbLine
 10
-343.2238073529534
 20
130.7367627935564
 30
0.0
 11
-343.9942863529514
 21
131.1293417935558
 31
0.0
  0
LINE
  5
3B8
330
1F
100
AcDbEntity
  8
LAYER-256
  6
Continuous
 62
     4
100
AcDbLine
 10
-343.9942863529514
 20
131.1293417935558
 30
0.0
 11
-344.8015803529525
 21
131.4392327940108
 31
0.0
  0
LINE
  5
3B9
330
1F
100
AcDbEntity
  8
LAYER-256
  6
Continuous
 62
     4
100
AcDbLine
 10
-344.8015803529525
 20
131.4392327940108
 30
0.0
 11
-345.6368433529515
 21
131.6630407935581
 31
0.0
  0
LINE
  5
3BA
330
1F
100
AcDbEntity
  8
LAYER-256
  6
Continuous
 62
     4
100
AcDbLine
 10
-345.6368433529515
 20
131.6630407935581
 30
0.0
 11
-346.4909253529523
 21
131.7983137935589
 31
0.0
  0
LINE
  5
3BB
330
1F
100
AcDbEntity
  8
LAYER-256
  6
Continuous
 62
     4
100
AcDbLine
 10
-346.4909253529523
 20
131.7983137935589
 30
0.0
 11
-347.3544683529527
 21
131.843570793556
 31
0.0
  0
LINE
  5
3BC
330
1F
100
AcDbEntity
  8
LAYER-256
  6
Continuous
 62
     4
100
AcDbLine
 10
-347.3544683529527
 20
131.843570793556
 30
0.0
 11
-348.2180123529516
 21
131.7983137935589
 31
0.0
  0
LINE
  5
3BD
330
1F
100
AcDbEntity
  8
LAYER-256
  6
Continuous
 62
     4
100
AcDbLine
 10
-348.2180123529516
 20
131.7983137935589
 30
0.0
 11
-349.0720943529523
 21
131.6630407935581
 31
0.0
  0
LINE
  5
3BE
330
1F
100
AcDbEntity
  8
LAYER-256
  6
Continuous
 62
     4
100
AcDbLine
 10
-349.0720943529523
 20
131.6630407935581
 30
0.0
 11
-349.9073573529514
 21
131.4392327940108
 31
0.0
  0
LINE
  5
3BF
330
1F
100
AcDbEntity
  8
LAYER-256
  6
Continuous
 62
     4
100
AcDbLine
 10
-349.9073573529514
 20
131.4392327940108
 30
0.0
 11
-350.7146513529524
 21
131.1293417935558
 31
0.0
  0
LINE
  5
3C0
330
1F
100
AcDbEntity
  8
LAYER-256
  6
Continuous
 62
     4
100
AcDbLine
 10
-350.7146513529524
 20
131.1293417935558
 30
0.0
 11
-351.485129352686
 21
130.7367627935564
 31
0.0
  0
LINE
  5
3C1
330
1F
100
AcDbEntity
  8
LAYER-256
  6
Continuous
 62
     4
100
AcDbLine
 10
-351.485129352686
 20
130.7367627935564
 30
0.0
 11
-352.2103523529514
 21
130.2657987935554
 31
0.0
  0
LINE
  5
3C2
330
1F
100
AcDbEntity
  8
LAYER-256
  6
Continuous
 62
     4
100
AcDbLine
 10
-352.2103523529514
 20
130.2657987935554
 30
0.0
 11
-352.8823723529532
 21
129.7216067935578
 31
0.0
  0
LINE
  5
3C3
330
1F
100
AcDbEntity
  8
LAYER-256
  6
Continuous
 62
     4
100
AcDbLine
 10
-352.8823723529532
 20
129.7216067935578
 30
0.0
 11
-353.4938273529515
 21
129.1101517935595
 31
0.0
  0
LINE
  5
3C4
330
1F
100
AcDbEntity
  8
LAYER-256
  6
Continuous
 62
     4
100
AcDbLine
 10
-353.4938273529515
 20
129.1101517935595
 30
0.0
 11
-354.0380183529551
 21
128.4381317964914
 31
0.0
  0
LINE
  5
3C5
330
1F
100
AcDbEntity
  8
LAYER-256
  6
Continuous
 62
     4
100
AcDbLine
 10
-354.0380183529551
 20
128.4381317964914
 30
0.0
 11
-354.508983354
 21
127.7129097935567
 31
0.0
  0
LINE
  5
3C6
330
1F
100
AcDbEntity
  8
LAYER-256
  6
Continuous
 62
     4
100
AcDbLine
 10
-354.508983354
 20
127.7129097935567
 30
0.0
 11
-354.901561352951
 21
126.9424307935587
 31
0.0
  0
LINE
  5
3C7
330
1F
100
AcDbEntity
  8
LAYER-256
  6
Continuous
 62
     4
100
AcDbLine
 10
-354.901561352951
 20
126.9424307935587
 30
0.0
 11
-355.2114523529527
 21
126.1351377935562
 31
0.0
  0
LINE
  5
3C8
330
1F
100
AcDbEntity
  8
LAYER-256
  6
Continuous
 62
     4
100
AcDbLine
 10
-355.2114523529527
 20
126.1351377935562
 30
0.0
 11
-355.4352613529518
 21
125.2998737935586
 31
0.0
  0
LINE
  5
3C9
330
1F
100
AcDbEntity
  8
LAYER-256
  6
Continuous
 62
     4
100
AcDbLine
 10
-355.4352613529518
 20
125.2998737935586
 30
0.0
 11
-355.5705343529526
 21
124.4457917935579
 31
0.0
  0
LINE
  5
3CA
330
1F
100
AcDbEntity
  8
LAYER-256
  6
Continuous
 62
     4
100
AcDbLine
 10
-355.5705343529526
 20
124.4457917935579
 30
0.0
 11
-355.6157903529511
 21
123.5822487935564
 31
0.0
  0
LINE
  5
3CB
330
1F
100
AcDbEntity
  8
LAYER-256
  6
Continuous
 62
     4
100
AcDbLine
 10
-355.6157903529511
 20
123.5822487935564
 30
0.0
 11
-355.5705343529526
 21
122.7187057935571
 31
0.0
  0
LINE
  5
3CC
330
1F
100
AcDbEntity
  8
LAYER-256
  6
Continuous
 62
     4
100
AcDbLine
 10
-355.5705343529526
 20
122.7187057935571
 30
0.0
 11
-355.4352613529518
 21
121.8646237935564
 31
0.0
  0
LINE
  5
3CD
330
1F
100
AcDbEntity
  8
LAYER-256
  6
Continuous
 62
     4
100
AcDbLine
 10
-355.4352613529518
 20
121.8646237935564
 30
0.0
 11
-355.2114523529527
 21
121.0293597935588
 31
0.0
  0
LINE
  5
3CE
330
1F
100
AcDbEntity
  8
LAYER-256
  6
Continuous
 62
     4
100
AcDbLine
 10
-355.2114523529527
 20
121.0293597935588
 30
0.0
 11
-354.901561352951
 21
120.2220667935562
 31
0.0
  0
LINE
  5
3CF
330
1F
100
AcDbEntity
  8
LAYER-256
  6
Continuous
 62
     4
100
AcDbLine
 10
-354.901561352951
 20
120.2220667935562
 30
0.0
 11
-354.508983354
 21
119.4515877935583
 31
0.0
  0
LINE
  5
3D0
330
1F
100
AcDbEntity
  8
LAYER-256
  6
Continuous
 62
     4
100
AcDbLine
 10
-354.508983354
 20
119.4515877935583
 30
0.0
 11
-354.0380183529551
 21
118.7263657935573
 31
0.0
  0
LINE
  5
3D1
330
1F
100
AcDbEntity
  8
LAYER-256
  6
Continuous
 62
     4
100
AcDbLine
 10
-354.0380183529551
 20
118.7263657935573
 30
0.0
 11
-353.4938273529515
 21
118.0543457935555
 31
0.0
  0
LINE
  5
3D2
330
1F
100
AcDbEntity
  8
LAYER-256
  6
Continuous
 62
     4
100
AcDbLine
 10
-353.4938273529515
 20
118.0543457935555
 30
0.0
 11
-352.8823723529532
 21
117.4428897935586
 31
0.0
  0
LINE
  5
3D3
330
1F
100
AcDbEntity
  8
LAYER-256
  6
Continuous
 62
     4
100
AcDbLine
 10
-352.8823723529532
 20
117.4428897935586
 30
0.0
 11
-352.2103523529514
 21
116.8986987935596
 31
0.0
  0
LINE
  5
3D4
330
1F
100
AcDbEntity
  8
LAYER-256
  6
Continuous
 62
     4
100
AcDbLine
 10
-352.2103523529514
 20
116.8986987935596
 30
0.0
 11
-351.485129352686
 21
116.4277337935555
 31
0.0
  0
LINE
  5
3D5
330
1F
100
AcDbEntity
  8
LAYER-256
  6
Continuous
 62
     4
100
AcDbLine
 10
-351.485129352686
 20
116.4277337935555
 30
0.0
 11
-350.7146513529524
 21
116.0351557935546
 31
0.0
  0
LINE
  5
3D6
330
1F
100
AcDbEntity
  8
LAYER-256
  6
Continuous
 62
     4
100
AcDbLine
 10
-350.7146513529524
 20
116.0351557935546
 30
0.0
 11
-349.9073573529514
 21
115.7252647935575
 31
0.0
  0
LINE
  5
3D7
330
1F
100
AcDbEntity
  8
LAYER-256
  6
Continuous
 62
     4
100
AcDbLine
 10
-349.9073573529514
 20
115.7252647935575
 30
0.0
 11
-349.0720943529523
 21
115.5014567935568
 31
0.0
  0
LINE
  5
3D8
330
1F
100
AcDbEntity
  8
LAYER-256
  6
Continuous
 62
     4
100
AcDbLine
 10
-349.0720943529523
 20
115.5014567935568
 30
0.0
 11
-348.2180123529516
 21
115.366182793557
 31
0.0
  0
LINE
  5
3D9
330
1F
100
AcDbEntity
  8
LAYER-256
  6
Continuous
 62
     4
100
AcDbLine
 10
-348.2180123529516
 20
115.366182793557
 30
0.0
 11
-347.3544683529527
 21
115.3209267940108
 31
0.0
  0
LINE
  5
3DA
330
1F
100
AcDbEntity
  8
LAYER-256
  6
Continuous
 62
     4
100
AcDbLine
 10
-347.3544683529527
 20
114.0559687935574
 30
0.0
 11
-339.1044683529545
 21
118.8191087935575
 31
0.0
  0
LINE
  5
3DB
330
1F
100
AcDbEntity
  8
LAYER-256
  6
Continuous
 62
     4
100
AcDbLine
 10
-339.1044683529545
 20
118.8191087935575
 30
0.0
 11
-339.1044683529545
 21
128.3453887935575
 31
0.0
  0
LINE
  5
3DC
330
1F
100
AcDbEntity
  8
LAYER-256
  6
Continuous
 62
     4
100
AcDbLine
 10
-339.1044683529545
 20
128.3453887935575
 30
0.0
 11
-347.3544683529527
 21
133.108527793559
 31
0.0
  0
LINE
  5
3DD
330
1F
100
AcDbEntity
  8
LAYER-256
  6
Continuous
 62
     4
100
AcDbLine
 10
-347.3544683529527
 20
133.108527793559
 30
0.0
 11
-355.6044683529554
 21
128.3453887935575
 31
0.0
  0
LINE
  5
3DE
330
1F
100
AcDbEntity
  8
LAYER-256
  6
Continuous
 62
     4
100
AcDbLine
 10
-355.6044683529554
 20
128.3453887935575
 30
0.0
 11
-355.6044683529554
 21
118.8191087935575
 31
0.0
  0
LINE
  5
3DF
330
1F
100
AcDbEntity
  8
LAYER-256
  6
Continuous
 62
     4
100
AcDbLine
 10
-355.6044683529554
 20
118.8191087935575
 30
0.0
 11
-347.3544683529527
 21
114.0559687935574
 31
0.0
  0
LINE
  5
3E0
330
1F
100
AcDbEntity
  8
LAYER-256
  6
CENTER
 62
     4
100
AcDbLine
 10
-347.3544683529527
 20
107.1114237935562
 30
0.0
 11
-347.3544683529527
 21
138.7931377935574
 31
0.0
  0
LINE
  5
3E1
330
1F
100
AcDbEntity
  8
LAYER-256
  6
CENTER
 62
     4
100
AcDbLine
 10
-330.3102363529543
 20
123.5822487935564
 30
0.0
 11
-363.0873903529546
 21
123.5822487935564
 31
0.0
  0
LINE
  5
3E2
330
1F
100
AcDbEntity
  8
LAYER-256
  6
CENTER
 62
     4
100
AcDbLine
 10
-114.3987013529541
 20
-8.746505206442635
 30
0.0
 11
-81.62154735295377
 21
-8.746505206442635
 31
0.0
  0
LINE
  5
3E3
330
1F
100
AcDbEntity
  8
LAYER-256
  6
Continuous
 62
     1
100
AcDbLine
 10
-108.2614063529555
 20
12.41787179355742
 30
0.0
 11
-108.2614063529555
 21
-32.58212820644258
 31
0.0
  0
LINE
  5
3E4
330
1F
100
AcDbEntity
  8
LAYER-256
  6
Continuous
 62
     1
100
AcDbLine
 10
-86.44753135295292
 20
12.41787179355742
 30
0.0
 11
-86.44753135295292
 21
-32.58212820644258
 31
0.0
  0
LINE
  5
3E5
330
1F
100
AcDbEntity
  8
LAYER-256
  6
Continuous
 62
     1
100
AcDbLine
 10
-358.2614063529555
 20
12.41787179355742
 30
0.0
 11
-358.2614063529555
 21
-32.58212820644258
 31
0.0
  0
LINE
  5
3E6
330
1F
100
AcDbEntity
  8
LAYER-256
  6
Continuous
 62
     1
100
AcDbLine
 10
-336.4475313529529
 20
12.41787179355742
 30
0.0
 11
-336.4475313529529
 21
-32.58212820644258
 31
0.0
  0
CIRCLE
  5
3E7
330
1F
100
AcDbEntity
  8
LAYER-256
  6
Continuous
 62
     4
100
AcDbCircle
 10
-97.35446835295267
 20
-8.746505206442635
 30
0.0
 40
4.0
  0
CIRCLE
  5
3E8
330
1F
100
AcDbEntity
  8
LAYER-256
  6
Continuous
 62
     4
100
AcDbCircle
 10
-97.35446835295267
 20
-8.746505206442635
 30
0.0
 40
8.25
  0
LINE
  5
3E9
330
1F
100
AcDbEntity
  8
LAYER-256
  6
Continuous
 62
     4
100
AcDbLine
 10
-97.35446835295267
 20
-0.4851832064441624
 30
0.0
 11
-98.21801235295158
 21
-0.5304392064426793
 31
0.0
  0
LINE
  5
3EA
330
1F
100
AcDbEntity
  8
LAYER-256
  6
Continuous
 62
     4
100
AcDbLine
 10
-98.21801235295158
 20
-0.5304392064426793
 30
0.0
 11
-99.07209435295232
 21
-0.6657122064434589
 31
0.0
  0
LINE
  5
3EB
330
1F
100
AcDbEntity
  8
LAYER-256
  6
Continuous
 62
     4
100
AcDbLine
 10
-99.07209435295232
 20
-0.6657122064434589
 30
0.0
 11
-99.90735735295135
 21
-0.8895212064426232
 31
0.0
  0
LINE
  5
3EC
330
1F
100
AcDbEntity
  8
LAYER-256
  6
Continuous
 62
     4
100
AcDbLine
 10
-99.90735735295135
 20
-0.8895212064426232
 30
0.0
 11
-100.7146513529524
 21
-1.199412206444322
 31
0.0
  0
LINE
  5
3ED
330
1F
100
AcDbEntity
  8
LAYER-256
  6
Continuous
 62
     4
100
AcDbLine
 10
-100.7146513529524
 20
-1.199412206444322
 30
0.0
 11
-101.485129352686
 21
-1.591990206445189
 31
0.0
  0
LINE
  5
3EE
330
1F
100
AcDbEntity
  8
LAYER-256
  6
Continuous
 62
     4
100
AcDbLine
 10
-101.485129352686
 20
-1.591990206445189
 30
0.0
 11
-102.2103523529514
 21
-2.062955206444713
 31
0.0
  0
LINE
  5
3EF
330
1F
100
AcDbEntity
  8
LAYER-256
  6
Continuous
 62
     4
100
AcDbLine
 10
-102.2103523529514
 20
-2.062955206444713
 30
0.0
 11
-102.8823723529532
 21
-2.607146206443758
 31
0.0
  0
LINE
  5
3F0
330
1F
100
AcDbEntity
  8
LAYER-256
  6
Continuous
 62
     4
100
AcDbLine
 10
-102.8823723529532
 20
-2.607146206443758
 30
0.0
 11
-103.4938273529515
 21
-3.218601206442145
 31
0.0
  0
LINE
  5
3F1
330
1F
100
AcDbEntity
  8
LAYER-256
  6
Continuous
 62
     4
100
AcDbLine
 10
-103.4938273529515
 20
-3.218601206442145
 30
0.0
 11
-104.0380183529551
 21
-3.890621206443939
 31
0.0
  0
LINE
  5
3F2
330
1F
100
AcDbEntity
  8
LAYER-256
  6
Continuous
 62
     4
100
AcDbLine
 10
-104.0380183529551
 20
-3.890621206443939
 30
0.0
 11
-104.508983354
 21
-4.615844206443398
 31
0.0
  0
LINE
  5
3F3
330
1F
100
AcDbEntity
  8
LAYER-256
  6
Continuous
 62
     4
100
AcDbLine
 10
-104.508983354
 20
-4.615844206443398
 30
0.0
 11
-104.901561352951
 21
-5.386322206442856
 31
0.0
  0
LINE
  5
3F4
330
1F
100
AcDbEntity
  8
LAYER-256
  6
Continuous
 62
     4
100
AcDbLine
 10
-104.901561352951
 20
-5.386322206442856
 30
0.0
 11
-105.2114523529527
 21
-6.193616206443949
 31
0.0
  0
LINE
  5
3F5
330
1F
100
AcDbEntity
  8
LAYER-256
  6
Continuous
 62
     4
100
AcDbLine
 10
-105.2114523529527
 20
-6.193616206443949
 30
0.0
 11
-105.4352613529518
 21
-7.02887920644298
 31
0.0
  0
LINE
  5
3F6
330
1F
100
AcDbEntity
  8
LAYER-256
  6
Continuous
 62
     4
100
AcDbLine
 10
-105.4352613529518
 20
-7.02887920644298
 30
0.0
 11
-105.5705343529526
 21
-7.882961206443724
 31
0.0
  0
LINE
  5
3F7
330
1F
100
AcDbEntity
  8
LAYER-256
  6
Continuous
 62
     4
100
AcDbLine
 10
-105.5705343529526
 20
-7.882961206443724
 30
0.0
 11
-105.6157903529511
 21
-8.746505206442635
 31
0.0
  0
LINE
  5
3F8
330
1F
100
AcDbEntity
  8
LAYER-256
  6
Continuous
 62
     4
100
AcDbLine
 10
-105.6157903529511
 20
-8.746505206442635
 30
0.0
 11
-105.5705343529526
 21
-9.610048206443025
 31
0.0
  0
LINE
  5
3F9
330
1F
100
AcDbEntity
  8
LAYER-256
  6
Continuous
 62
     4
100
AcDbLine
 10
-105.5705343529526
 20
-9.610048206443025
 30
0.0
 11
-105.4352613529518
 21
-10.46413020644377
 31
0.0
  0
LINE
  5
3FA
330
1F
100
AcDbEntity
  8
LAYER-256
  6
Continuous
 62
     4
100
AcDbLine
 10
-105.4352613529518
 20
-10.46413020644377
 30
0.0
 11
-105.2114523529527
 21
-11.2993932064428
 31
0.0
  0
LINE
  5
3FB
330
1F
100
AcDbEntity
  8
LAYER-256
  6
Continuous
 62
     4
100
AcDbLine
 10
-105.2114523529527
 20
-11.2993932064428
 30
0.0
 11
-104.901561352951
 21
-12.10668720644389
 31
0.0
  0
LINE
  5
3FC
330
1F
100
AcDbEntity
  8
LAYER-256
  6
Continuous
 62
     4
100
AcDbLine
 10
-104.901561352951
 20
-12.10668720644389
 30
0.0
 11
-104.508983354
 21
-12.87716620644187
 31
0.0
  0
LINE
  5
3FD
330
1F
100
AcDbEntity
  8
LAYER-256
  6
Continuous
 62
     4
100
AcDbLine
 10
-104.508983354
 20
-12.87716620644187
 30
0.0
 11
-104.0380183529551
 21
-13.60238820644281
 31
0.0
  0
LINE
  5
3FE
330
1F
100
AcDbEntity
  8
LAYER-256
  6
Continuous
 62
     4
100
AcDbLine
 10
-104.0380183529551
 20
-13.60238820644281
 30
0.0
 11
-103.4938273529515
 21
-14.27440820644461
 31
0.0
  0
LINE
  5
3FF
330
1F
100
AcDbEntity
  8
LAYER-256
  6
Continuous
 62
     4
100
AcDbLine
 10
-103.4938273529515
 20
-14.27440820644461
 30
0.0
 11
-102.8823723529532
 21
-14.88586320644299
 31
0.0
  0
LINE
  5
400
330
1F
100
AcDbEntity
  8
LAYER-256
  6
Continuous
 62
     4
100
AcDbLine
 10
-102.8823723529532
 20
-14.88586320644299
 30
0.0
 11
-102.2103523529514
 21
-15.43005420644204
 31
0.0
  0
LINE
  5
401
330
1F
100
AcDbEntity
  8
LAYER-256
  6
Continuous
 62
     4
100
AcDbLine
 10
-102.2103523529514
 20
-15.43005420644204
 30
0.0
 11
-101.485129352686
 21
-15.90101920644156
 31
0.0
  0
LINE
  5
402
330
1F
100
AcDbEntity
  8
LAYER-256
  6
Continuous
 62
     4
100
AcDbLine
 10
-101.485129352686
 20
-15.90101920644156
 30
0.0
 11
-100.7146513529524
 21
-16.2935982064455
 31
0.0
  0
LINE
  5
403
330
1F
100
AcDbEntity
  8
LAYER-256
  6
Continuous
 62
     4
100
AcDbLine
 10
-100.7146513529524
 20
-16.2935982064455
 30
0.0
 11
-99.90735735295135
 21
-16.60348920644265
 31
0.0
  0
LINE
  5
404
330
1F
100
AcDbEntity
  8
LAYER-256
  6
Continuous
 62
     4
100
AcDbLine
 10
-99.90735735295135
 20
-16.60348920644265
 30
0.0
 11
-99.07209435295232
 21
-16.82729720644329
 31
0.0
  0
LINE
  5
405
330
1F
100
AcDbEntity
  8
LAYER-256
  6
Continuous
 62
     4
100
AcDbLine
 10
-99.07209435295232
 20
-16.82729720644329
 30
0.0
 11
-98.21801235295158
 21
-16.96257020644407
 31
0.0
  0
LINE
  5
406
330
1F
100
AcDbEntity
  8
LAYER-256
  6
Continuous
 62
     4
100
AcDbLine
 10
-98.21801235295158
 20
-16.96257020644407
 30
0.0
 11
-97.35446835295267
 21
-17.00782620644259
 31
0.0
  0
LINE
  5
407
330
1F
100
AcDbEntity
  8
LAYER-256
  6
Continuous
 62
     4
100
AcDbLine
 10
-97.35446835295267
 20
-17.00782620644259
 30
0.0
 11
-96.49092535295227
 21
-16.96257020644407
 31
0.0
  0
LINE
  5
408
330
1F
100
AcDbEntity
  8
LAYER-256
  6
Continuous
 62
     4
100
AcDbLine
 10
-96.49092535295227
 20
-16.96257020644407
 30
0.0
 11
-95.63684335295153
 21
-16.82729720644329
 31
0.0
  0
LINE
  5
409
330
1F
100
AcDbEntity
  8
LAYER-256
  6
Continuous
 62
     4
100
AcDbLine
 10
-95.63684335295153
 20
-16.82729720644329
 30
0.0
 11
-94.8015803529525
 21
-16.60348920644265
 31
0.0
  0
LINE
  5
40A
330
1F
100
AcDbEntity
  8
LAYER-256
  6
Continuous
 62
     4
100
AcDbLine
 10
-94.8015803529525
 20
-16.60348920644265
 30
0.0
 11
-93.99428635295141
 21
-16.2935982064455
 31
0.0
  0
LINE
  5
40B
330
1F
100
AcDbEntity
  8
LAYER-256
  6
Continuous
 62
     4
100
AcDbLine
 10
-93.99428635295141
 20
-16.2935982064455
 30
0.0
 11
-93.22380735295343
 21
-15.90101920644156
 31
0.0
  0
LINE
  5
40C
330
1F
100
AcDbEntity
  8
LAYER-256
  6
Continuous
 62
     4
100
AcDbLine
 10
-93.22380735295343
 20
-15.90101920644156
 30
0.0
 11
-92.49858535295249
 21
-15.43005420644204
 31
0.0
  0
LINE
  5
40D
330
1F
100
AcDbEntity
  8
LAYER-256
  6
Continuous
 62
     4
100
AcDbLine
 10
-92.49858535295249
 20
-15.43005420644204
 30
0.0
 11
-91.82656535295524
 21
-14.88586320644299
 31
0.0
  0
LINE
  5
40E
330
1F
100
AcDbEntity
  8
LAYER-256
  6
Continuous
 62
     4
100
AcDbLine
 10
-91.82656535295524
 20
-14.88586320644299
 30
0.0
 11
-91.21511035295231
 21
-14.27440820644461
 31
0.0
  0
LINE
  5
40F
330
1F
100
AcDbEntity
  8
LAYER-256
  6
Continuous
 62
     4
100
AcDbLine
 10
-91.21511035295231
 20
-14.27440820644461
 30
0.0
 11
-90.67091935295326
 21
-13.60238820644281
 31
0.0
  0
LINE
  5
410
330
1F
100
AcDbEntity
  8
LAYER-256
  6
Continuous
 62
     4
100
AcDbLine
 10
-90.67091935295326
 20
-13.60238820644281
 30
0.0
 11
-90.19995435295374
 21
-12.87716620644187
 31
0.0
  0
LINE
  5
411
330
1F
100
AcDbEntity
  8
LAYER-256
  6
Continuous
 62
     4
100
AcDbLine
 10
-90.19995435295374
 20
-12.87716620644187
 30
0.0
 11
-89.80737535268594
 21
-12.10668720644389
 31
0.0
  0
LINE
  5
412
330
1F
100
AcDbEntity
  8
LAYER-256
  6
Continuous
 62
     4
100
AcDbLine
 10
-89.80737535268594
 20
-12.10668720644389
 30
0.0
 11
-89.49748435295265
 21
-11.2993932064428
 31
0.0
  0
LINE
  5
413
330
1F
100
AcDbEntity
  8
LAYER-256
  6
Continuous
 62
     4
100
AcDbLine
 10
-89.49748435295265
 20
-11.2993932064428
 30
0.0
 11
-89.27367635295201
 21
-10.46413020644377
 31
0.0
  0
LINE
  5
414
330
1F
100
AcDbEntity
  8
LAYER-256
  6
Continuous
 62
     4
100
AcDbLine
 10
-89.27367635295201
 20
-10.46413020644377
 30
0.0
 11
-89.13840335295123
 21
-9.610048206443025
 31
0.0
  0
LINE
  5
415
330
1F
100
AcDbEntity
  8
LAYER-256
  6
Continuous
 62
     4
100
AcDbLine
 10
-89.13840335295123
 20
-9.610048206443025
 30
0.0
 11
-89.09314735295271
 21
-8.746505206442635
 31
0.0
  0
LINE
  5
416
330
1F
100
AcDbEntity
  8
LAYER-256
  6
Continuous
 62
     4
100
AcDbLine
 10
-89.09314735295271
 20
-8.746505206442635
 30
0.0
 11
-89.13840335295123
 21
-7.882961206443724
 31
0.0
  0
LINE
  5
417
330
1F
100
AcDbEntity
  8
LAYER-256
  6
Continuous
 62
     4
100
AcDbLine
 10
-89.13840335295123
 20
-7.882961206443724
 30
0.0
 11
-89.27367635295201
 21
-7.02887920644298
 31
0.0
  0
LINE
  5
418
330
1F
100
AcDbEntity
  8
LAYER-256
  6
Continuous
 62
     4
100
AcDbLine
 10
-89.27367635295201
 20
-7.02887920644298
 30
0.0
 11
-89.49748435295265
 21
-6.193616206443949
 31
0.0
  0
LINE
  5
419
330
1F
100
AcDbEntity
  8
LAYER-256
  6
Continuous
 62
     4
100
AcDbLine
 10
-89.49748435295265
 20
-6.193616206443949
 30
0.0
 11
-89.80737535268594
 21
-5.386322206442856
 31
0.0
  0
LINE
  5
41A
330
1F
100
AcDbEntity
  8
LAYER-256
  6
Continuous
 62
     4
100
AcDbLine
 10
-89.80737535268594
 20
-5.386322206442856
 30
0.0
 11
-90.19995435295374
 21
-4.615844206443398
 31
0.0
  0
LINE
  5
41B
330
1F
100
AcDbEntity
  8
LAYER-256
  6
Continuous
 62
     4
100
AcDbLine
 10
-90.19995435295374
 20
-4.615844206443398
 30
0.0
 11
-90.67091935295326
 21
-3.890621206443939
 31
0.0
  0
LINE
  5
41C
330
1F
100
AcDbEntity
  8
LAYER-256
  6
Continuous
 62
     4
100
AcDbLine
 10
-90.67091935295326
 20
-3.890621206443939
 30
0.0
 11
-91.21511035295231
 21
-3.218601206442145
 31
0.0
  0
LINE
  5
41D
330
1F
100
AcDbEntity
  8
LAYER-256
  6
Continuous
 62
     4
100
AcDbLine
 10
-91.21511035295231
 20
-3.218601206442145
 30
0.0
 11
-91.82656535295524
 21
-2.607146206443758
 31
0.0
  0
LINE
  5
41E
330
1F
100
AcDbEntity
  8
LAYER-256
  6
Continuous
 62
     4
100
AcDbLine
 10
-91.82656535295524
 20
-2.607146206443758
 30
0.0
 11
-92.49858535295249
 21
-2.062955206444713
 31
0.0
  0
LINE
  5
41F
330
1F
100
AcDbEntity
  8
LAYER-256
  6
Continuous
 62
     4
100
AcDbLine
 10
-92.49858535295249
 20
-2.062955206444713
 30
0.0
 11
-93.22380735295343
 21
-1.591990206445189
 31
0.0
  0
LINE
  5
420
330
1F
100
AcDbEntity
  8
LAYER-256
  6
Continuous
 62
     4
100
AcDbLine
 10
-93.22380735295343
 20
-1.591990206445189
 30
0.0
 11
-93.99428635295141
 21
-1.199412206444322
 31
0.0
  0
LINE
  5
421
330
1F
100
AcDbEntity
  8
LAYER-256
  6
Continuous
 62
     4
100
AcDbLine
 10
-93.99428635295141
 20
-1.199412206444322
 30
0.0
 11
-94.8015803529525
 21
-0.8895212064426232
 31
0.0
  0
LINE
  5
422
330
1F
100
AcDbEntity
  8
LAYER-256
  6
Continuous
 62
     4
100
AcDbLine
 10
-94.8015803529525
 20
-0.8895212064426232
 30
0.0
 11
-95.63684335295153
 21
-0.6657122064434589
 31
0.0
  0
LINE
  5
423
330
1F
100
AcDbEntity
  8
LAYER-256
  6
Continuous
 62
     4
100
AcDbLine
 10
-95.63684335295153
 20
-0.6657122064434589
 30
0.0
 11
-96.49092535295227
 21
-0.5304392064426793
 31
0.0
  0
LINE
  5
424
330
1F
100
AcDbEntity
  8
LAYER-256
  6
Continuous
 62
     4
100
AcDbLine
 10
-96.49092535295227
 20
-0.5304392064426793
 30
0.0
 11
-97.35446835295267
 21
-0.4851832064441624
 31
0.0
  0
LINE
  5
425
330
1F
100
AcDbEntity
  8
LAYER-256
  6
Continuous
 62
     4
100
AcDbLine
 10
-97.35446835295267
 20
0.779774793557408
 30
0.0
 11
-105.6044683529554
 21
-3.983365208589021
 31
0.0
  0
LINE
  5
426
330
1F
100
AcDbEntity
  8
LAYER-256
  6
Continuous
 62
     4
100
AcDbLine
 10
-105.6044683529554
 20
-3.983365208589021
 30
0.0
 11
-105.6044683529554
 21
-13.50964420644414
 31
0.0
  0
LINE
  5
427
330
1F
100
AcDbEntity
  8
LAYER-256
  6
Continuous
 62
     4
100
AcDbLine
 10
-105.6044683529554
 20
-13.50964420644414
 30
0.0
 11
-97.35446835295267
 21
-18.27278420644416
 31
0.0
  0
LINE
  5
428
330
1F
100
AcDbEntity
  8
LAYER-256
  6
Continuous
 62
     4
100
AcDbLine
 10
-97.35446835295267
 20
-18.27278420644416
 30
0.0
 11
-89.10446835295448
 21
-13.50964420644414
 31
0.0
  0
LINE
  5
429
330
1F
100
AcDbEntity
  8
LAYER-256
  6
Continuous
 62
     4
100
AcDbLine
 10
-89.10446835295448
 20
-13.50964420644414
 30
0.0
 11
-89.10446835295448
 21
-3.983365208589021
 31
0.0
  0
LINE
  5
42A
330
1F
100
AcDbEntity
  8
LAYER-256
  6
Continuous
 62
     4
100
AcDbLine
 10
-89.10446835295448
 20
-3.983365208589021
 30
0.0
 11
-97.35446835295267
 21
0.779774793557408
 31
0.0
  0
LINE
  5
42B
330
1F
100
AcDbEntity
  8
LAYER-256
  6
CENTER
 62
     4
100
AcDbLine
 10
-330.3102363529543
 20
-8.746505206442635
 30
0.0
 11
-363.0873903529546
 21
-8.746505206442635
 31
0.0
  0
CIRCLE
  5
42C
330
1F
100
AcDbEntity
  8
LAYER-256
  6
Continuous
 62
     4
100
AcDbCircle
 10
-347.3544683529527
 20
-8.746505206442635
 30
0.0
 40
4.0
  0
CIRCLE
  5
42D
330
1F
100
AcDbEntity
  8
LAYER-256
  6
Continuous
 62
     4
100
AcDbCircle
 10
-347.3544683529527
 20
-8.746505206442635
 30
0.0
 40
8.25
  0
LINE
  5
42E
330
1F
100
AcDbEntity
  8
LAYER-256
  6
Continuous
 62
     4
100
AcDbLine
 10
-347.3544683529527
 20
-0.4851832064441624
 30
0.0
 11
-346.4909253529523
 21
-0.5304392064426793
 31
0.0
  0
LINE
  5
42F
330
1F
100
AcDbEntity
  8
LAYER-256
  6
Continuous
 62
     4
100
AcDbLine
 10
-346.4909253529523
 20
-0.5304392064426793
 30
0.0
 11
-345.6368433529515
 21
-0.6657122064434589
 31
0.0
  0
LINE
  5
430
330
1F
100
AcDbEntity
  8
LAYER-256
  6
Continuous
 62
     4
100
AcDbLine
 10
-345.6368433529515
 20
-0.6657122064434589
 30
0.0
 11
-344.8015803529525
 21
-0.8895212064426232
 31
0.0
  0
LINE
  5
431
330
1F
100
AcDbEntity
  8
LAYER-256
  6
Continuous
 62
     4
100
AcDbLine
 10
-344.8015803529525
 20
-0.8895212064426232
 30
0.0
 11
-343.9942863529514
 21
-1.199412206444322
 31
0.0
  0
LINE
  5
432
330
1F
100
AcDbEntity
  8
LAYER-256
  6
Continuous
 62
     4
100
AcDbLine
 10
-343.9942863529514
 20
-1.199412206444322
 30
0.0
 11
-343.2238073529534
 21
-1.591990206445189
 31
0.0
  0
LINE
  5
433
330
1F
100
AcDbEntity
  8
LAYER-256
  6
Continuous
 62
     4
100
AcDbLine
 10
-343.2238073529534
 20
-1.591990206445189
 30
0.0
 11
-342.4985853529525
 21
-2.062955206444713
 31
0.0
  0
LINE
  5
434
330
1F
100
AcDbEntity
  8
LAYER-256
  6
Continuous
 62
     4
100
AcDbLine
 10
-342.4985853529525
 20
-2.062955206444713
 30
0.0
 11
-341.8265653529552
 21
-2.607146206443758
 31
0.0
  0
LINE
  5
435
330
1F
100
AcDbEntity
  8
LAYER-256
  6
Continuous
 62
     4
100
AcDbLine
 10
-341.8265653529552
 20
-2.607146206443758
 30
0.0
 11
-341.2151103529523
 21
-3.218601206442145
 31
0.0
  0
LINE
  5
436
330
1F
100
AcDbEntity
  8
LAYER-256
  6
Continuous
 62
     4
100
AcDbLine
 10
-341.2151103529523
 20
-3.218601206442145
 30
0.0
 11
-340.6709193529533
 21
-3.890621206443939
 31
0.0
  0
LINE
  5
437
330
1F
100
AcDbEntity
  8
LAYER-256
  6
Continuous
 62
     4
100
AcDbLine
 10
-340.6709193529533
 20
-3.890621206443939
 30
0.0
 11
-340.1999543529537
 21
-4.615844206443398
 31
0.0
  0
LINE
  5
438
330
1F
100
AcDbEntity
  8
LAYER-256
  6
Continuous
 62
     4
100
AcDbLine
 10
-340.1999543529537
 20
-4.615844206443398
 30
0.0
 11
-339.8073753526861
 21
-5.386322206442856
 31
0.0
  0
LINE
  5
439
330
1F
100
AcDbEntity
  8
LAYER-256
  6
Continuous
 62
     4
100
AcDbLine
 10
-339.8073753526861
 20
-5.386322206442856
 30
0.0
 11
-339.4974843529527
 21
-6.193616206443949
 31
0.0
  0
LINE
  5
43A
330
1F
100
AcDbEntity
  8
LAYER-256
  6
Continuous
 62
     4
100
AcDbLine
 10
-339.4974843529527
 20
-6.193616206443949
 30
0.0
 11
-339.273676352952
 21
-7.02887920644298
 31
0.0
  0
LINE
  5
43B
330
1F
100
AcDbEntity
  8
LAYER-256
  6
Continuous
 62
     4
100
AcDbLine
 10
-339.273676352952
 20
-7.02887920644298
 30
0.0
 11
-339.1384033529512
 21
-7.882961206443724
 31
0.0
  0
LINE
  5
43C
330
1F
100
AcDbEntity
  8
LAYER-256
  6
Continuous
 62
     4
100
AcDbLine
 10
-339.1384033529512
 20
-7.882961206443724
 30
0.0
 11
-339.0931473529527
 21
-8.746505206442635
 31
0.0
  0
LINE
  5
43D
330
1F
100
AcDbEntity
  8
LAYER-256
  6
Continuous
 62
     4
100
AcDbLine
 10
-339.0931473529527
 20
-8.746505206442635
 30
0.0
 11
-339.1384033529512
 21
-9.610048206443025
 31
0.0
  0
LINE
  5
43E
330
1F
100
AcDbEntity
  8
LAYER-256
  6
Continuous
 62
     4
100
AcDbLine
 10
-339.1384033529512
 20
-9.610048206443025
 30
0.0
 11
-339.273676352952
 21
-10.46413020644377
 31
0.0
  0
LINE
  5
43F
330
1F
100
AcDbEntity
  8
LAYER-256
  6
Continuous
 62
     4
100
AcDbLine
 10
-339.273676352952
 20
-10.46413020644377
 30
0.0
 11
-339.4974843529527
 21
-11.2993932064428
 31
0.0
  0
LINE
  5
440
330
1F
100
AcDbEntity
  8
LAYER-256
  6
Continuous
 62
     4
100
AcDbLine
 10
-339.4974843529527
 20
-11.2993932064428
 30
0.0
 11
-339.8073753526861
 21
-12.10668720644389
 31
0.0
  0
LINE
  5
441
330
1F
100
AcDbEntity
  8
LAYER-256
  6
Continuous
 62
     4
100
AcDbLine
 10
-339.8073753526861
 20
-12.10668720644389
 30
0.0
 11
-340.1999543529537
 21
-12.87716620644187
 31
0.0
  0
LINE
  5
442
330
1F
100
AcDbEntity
  8
LAYER-256
  6
Continuous
 62
     4
100
AcDbLine
 10
-340.1999543529537
 20
-12.87716620644187
 30
0.0
 11
-340.6709193529533
 21
-13.60238820644281
 31
0.0
  0
LINE
  5
443
330
1F
100
AcDbEntity
  8
LAYER-256
  6
Continuous
 62
     4
100
AcDbLine
 10
-340.6709193529533
 20
-13.60238820644281
 30
0.0
 11
-341.2151103529523
 21
-14.27440820644461
 31
0.0
  0
LINE
  5
444
330
1F
100
AcDbEntity
  8
LAYER-256
  6
Continuous
 62
     4
100
AcDbLine
 10
-341.2151103529523
 20
-14.27440820644461
 30
0.0
 11
-341.8265653529552
 21
-14.88586320644299
 31
0.0
  0
LINE
  5
445
330
1F
100
AcDbEntity
  8
LAYER-256
  6
Continuous
 62
     4
100
AcDbLine
 10
-341.8265653529552
 20
-14.88586320644299
 30
0.0
 11
-342.4985853529525
 21
-15.43005420644204
 31
0.0
  0
LINE
  5
446
330
1F
100
AcDbEntity
  8
LAYER-256
  6
Continuous
 62
     4
100
AcDbLine
 10
-342.4985853529525
 20
-15.43005420644204
 30
0.0
 11
-343.2238073529534
 21
-15.90101920644156
 31
0.0
  0
LINE
  5
447
330
1F
100
AcDbEntity
  8
LAYER-256
  6
Continuous
 62
     4
100
AcDbLine
 10
-343.2238073529534
 20
-15.90101920644156
 30
0.0
 11
-343.9942863529514
 21
-16.2935982064455
 31
0.0
  0
LINE
  5
448
330
1F
100
AcDbEntity
  8
LAYER-256
  6
Continuous
 62
     4
100
AcDbLine
 10
-343.9942863529514
 20
-16.2935982064455
 30
0.0
 11
-344.8015803529525
 21
-16.60348920644265
 31
0.0
  0
LINE
  5
449
330
1F
100
AcDbEntity
  8
LAYER-256
  6
Continuous
 62
     4
100
AcDbLine
 10
-344.8015803529525
 20
-16.60348920644265
 30
0.0
 11
-345.6368433529515
 21
-16.82729720644329
 31
0.0
  0
LINE
  5
44A
330
1F
100
AcDbEntity
  8
LAYER-256
  6
Continuous
 62
     4
100
AcDbLine
 10
-345.6368433529515
 20
-16.82729720644329
 30
0.0
 11
-346.4909253529523
 21
-16.96257020644407
 31
0.0
  0
LINE
  5
44B
330
1F
100
AcDbEntity
  8
LAYER-256
  6
Continuous
 62
     4
100
AcDbLine
 10
-346.4909253529523
 20
-16.96257020644407
 30
0.0
 11
-347.3544683529527
 21
-17.00782620644259
 31
0.0
  0
LINE
  5
44C
330
1F
100
AcDbEntity
  8
LAYER-256
  6
Continuous
 62
     4
100
AcDbLine
 10
-347.3544683529527
 20
-17.00782620644259
 30
0.0
 11
-348.2180123529516
 21
-16.96257020644407
 31
0.0
  0
LINE
  5
44D
330
1F
100
AcDbEntity
  8
LAYER-256
  6
Continuous
 62
     4
100
AcDbLine
 10
-348.2180123529516
 20
-16.96257020644407
 30
0.0
 11
-349.0720943529523
 21
-16.82729720644329
 31
0.0
  0
LINE
  5
44E
330
1F
100
AcDbEntity
  8
LAYER-256
  6
Continuous
 62
     4
100
AcDbLine
 10
-349.0720943529523
 20
-16.82729720644329
 30
0.0
 11
-349.9073573529514
 21
-16.60348920644265
 31
0.0
  0
LINE
  5
44F
330
1F
100
AcDbEntity
  8
LAYER-256
  6
Continuous
 62
     4
100
AcDbLine
 10
-349.9073573529514
 20
-16.60348920644265
 30
0.0
 11
-350.7146513529524
 21
-16.2935982064455
 31
0.0
  0
LINE
  5
450
330
1F
100
AcDbEntity
  8
LAYER-256
  6
Continuous
 62
     4
100
AcDbLine
 10
-350.7146513529524
 20
-16.2935982064455
 30
0.0
 11
-351.485129352686
 21
-15.90101920644156
 31
0.0
  0
LINE
  5
451
330
1F
100
AcDbEntity
  8
LAYER-256
  6
Continuous
 62
     4
100
AcDbLine
 10
-351.485129352686
 20
-15.90101920644156
 30
0.0
 11
-352.2103523529514
 21
-15.43005420644204
 31
0.0
  0
LINE
  5
452
330
1F
100
AcDbEntity
  8
LAYER-256
  6
Continuous
 62
     4
100
AcDbLine
 10
-352.2103523529514
 20
-15.43005420644204
 30
0.0
 11
-352.8823723529532
 21
-14.88586320644299
 31
0.0
  0
LINE
  5
453
330
1F
100
AcDbEntity
  8
LAYER-256
  6
Continuous
 62
     4
100
AcDbLine
 10
-352.8823723529532
 20
-14.88586320644299
 30
0.0
 11
-353.4938273529515
 21
-14.27440820644461
 31
0.0
  0
LINE
  5
454
330
1F
100
AcDbEntity
  8
LAYER-256
  6
Continuous
 62
     4
100
AcDbLine
 10
-353.4938273529515
 20
-14.27440820644461
 30
0.0
 11
-354.0380183529551
 21
-13.60238820644281
 31
0.0
  0
LINE
  5
455
330
1F
100
AcDbEntity
  8
LAYER-256
  6
Continuous
 62
     4
100
AcDbLine
 10
-354.0380183529551
 20
-13.60238820644281
 30
0.0
 11
-354.508983354
 21
-12.87716620644187
 31
0.0
  0
LINE
  5
456
330
1F
100
AcDbEntity
  8
LAYER-256
  6
Continuous
 62
     4
100
AcDbLine
 10
-354.508983354
 20
-12.87716620644187
 30
0.0
 11
-354.901561352951
 21
-12.10668720644389
 31
0.0
  0
LINE
  5
457
330
1F
100
AcDbEntity
  8
LAYER-256
  6
Continuous
 62
     4
100
AcDbLine
 10
-354.901561352951
 20
-12.10668720644389
 30
0.0
 11
-355.2114523529527
 21
-11.2993932064428
 31
0.0
  0
LINE
  5
458
330
1F
100
AcDbEntity
  8
LAYER-256
  6
Continuous
 62
     4
100
AcDbLine
 10
-355.2114523529527
 20
-11.2993932064428
 30
0.0
 11
-355.4352613529518
 21
-10.46413020644377
 31
0.0
  0
LINE
  5
459
330
1F
100
AcDbEntity
  8
LAYER-256
  6
Continuous
 62
     4
100
AcDbLine
 10
-355.4352613529518
 20
-10.46413020644377
 30
0.0
 11
-355.5705343529526
 21
-9.610048206443025
 31
0.0
  0
LINE
  5
45A
330
1F
100
AcDbEntity
  8
LAYER-256
  6
Continuous
 62
     4
100
AcDbLine
 10
-355.5705343529526
 20
-9.610048206443025
 30
0.0
 11
-355.6157903529511
 21
-8.746505206442635
 31
0.0
  0
LINE
  5
45B
330
1F
100
AcDbEntity
  8
LAYER-256
  6
Continuous
 62
     4
100
AcDbLine
 10
-355.6157903529511
 20
-8.746505206442635
 30
0.0
 11
-355.5705343529526
 21
-7.882961206443724
 31
0.0
  0
LINE
  5
45C
330
1F
100
AcDbEntity
  8
LAYER-256
  6
Continuous
 62
     4
100
AcDbLine
 10
-355.5705343529526
 20
-7.882961206443724
 30
0.0
 11
-355.4352613529518
 21
-7.02887920644298
 31
0.0
  0
LINE
  5
45D
330
1F
100
AcDbEntity
  8
LAYER-256
  6
Continuous
 62
     4
100
AcDbLine
 10
-355.4352613529518
 20
-7.02887920644298
 30
0.0
 11
-355.2114523529527
 21
-6.193616206443949
 31
0.0
  0
LINE
  5
45E
330
1F
100
AcDbEntity
  8
LAYER-256
  6
Continuous
 62
     4
100
AcDbLine
 10
-355.2114523529527
 20
-6.193616206443949
 30
0.0
 11
-354.901561352951
 21
-5.386322206442856
 31
0.0
  0
LINE
  5
45F
330
1F
100
AcDbEntity
  8
LAYER-256
  6
Continuous
 62
     4
100
AcDbLine
 10
-354.901561352951
 20
-5.386322206442856
 30
0.0
 11
-354.508983354
 21
-4.615844206443398
 31
0.0
  0
LINE
  5
460
330
1F
100
AcDbEntity
  8
LAYER-256
  6
Continuous
 62
     4
100
AcDbLine
 10
-354.508983354
 20
-4.615844206443398
 30
0.0
 11
-354.0380183529551
 21
-3.890621206443939
 31
0.0
  0
LINE
  5
461
330
1F
100
AcDbEntity
  8
LAYER-256
  6
Continuous
 62
     4
100
AcDbLine
 10
-354.0380183529551
 20
-3.890621206443939
 30
0.0
 11
-353.4938273529515
 21
-3.218601206442145
 31
0.0
  0
LINE
  5
462
330
1F
100
AcDbEntity
  8
LAYER-256
  6
Continuous
 62
     4
100
AcDbLine
 10
-353.4938273529515
 20
-3.218601206442145
 30
0.0
 11
-352.8823723529532
 21
-2.607146206443758
 31
0.0
  0
LINE
  5
463
330
1F
100
AcDbEntity
  8
LAYER-256
  6
Continuous
 62
     4
100
AcDbLine
 10
-352.8823723529532
 20
-2.607146206443758
 30
0.0
 11
-352.2103523529514
 21
-2.062955206444713
 31
0.0
  0
LINE
  5
464
330
1F
100
AcDbEntity
  8
LAYER-256
  6
Continuous
 62
     4
100
AcDbLine
 10
-352.2103523529514
 20
-2.062955206444713
 30
0.0
 11
-351.485129352686
 21
-1.591990206445189
 31
0.0
  0
LINE
  5
465
330
1F
100
AcDbEntity
  8
LAYER-256
  6
Continuous
 62
     4
100
AcDbLine
 10
-351.485129352686
 20
-1.591990206445189
 30
0.0
 11
-350.7146513529524
 21
-1.199412206444322
 31
0.0
  0
LINE
  5
466
330
1F
100
AcDbEntity
  8
LAYER-256
  6
Continuous
 62
     4
100
AcDbLine
 10
-350.7146513529524
 20
-1.199412206444322
 30
0.0
 11
-349.9073573529514
 21
-0.8895212064426232
 31
0.0
  0
LINE
  5
467
330
1F
100
AcDbEntity
  8
LAYER-256
  6
Continuous
 62
     4
100
AcDbLine
 10
-349.9073573529514
 20
-0.8895212064426232
 30
0.0
 11
-349.0720943529523
 21
-0.6657122064434589
 31
0.0
  0
LINE
  5
468
330
1F
100
AcDbEntity
  8
LAYER-256
  6
Continuous
 62
     4
100
AcDbLine
 10
-349.0720943529523
 20
-0.6657122064434589
 30
0.0
 11
-348.2180123529516
 21
-0.5304392064426793
 31
0.0
  0
LINE
  5
469
330
1F
100
AcDbEntity
  8
LAYER-256
  6
Continuous
 62
     4
100
AcDbLine
 10
-348.2180123529516
 20
-0.5304392064426793
 30
0.0
 11
-347.3544683529527
 21
-0.4851832064441624
 31
0.0
  0
LINE
  5
46A
330
1F
100
AcDbEntity
  8
LAYER-256
  6
Continuous
 62
     4
100
AcDbLine
 10
-347.3544683529527
 20
0.779774793557408
 30
0.0
 11
-339.1044683529545
 21
-3.983365208589021
 31
0.0
  0
LINE
  5
46B
330
1F
100
AcDbEntity
  8
LAYER-256
  6
Continuous
 62
     4
100
AcDbLine
 10
-339.1044683529545
 20
-3.983365208589021
 30
0.0
 11
-339.1044683529545
 21
-13.50964420644414
 31
0.0
  0
LINE
  5
46C
330
1F
100
AcDbEntity
  8
LAYER-256
  6
Continuous
 62
     4
100
AcDbLine
 10
-339.1044683529545
 20
-13.50964420644414
 30
0.0
 11
-347.3544683529527
 21
-18.27278420644416
 31
0.0
  0
LINE
  5
46D
330
1F
100
AcDbEntity
  8
LAYER-256
  6
Continuous
 62
     4
100
AcDbLine
 10
-347.3544683529527
 20
-18.27278420644416
 30
0.0
 11
-355.6044683529554
 21
-13.50964420644414
 31
0.0
  0
LINE
  5
46E
330
1F
100
AcDbEntity
  8
LAYER-256
  6
Continuous
 62
     4
100
AcDbLine
 10
-355.6044683529554
 20
-13.50964420644414
 30
0.0
 11
-355.6044683529554
 21
-3.983365208589021
 31
0.0
  0
LINE
  5
46F
330
1F
100
AcDbEntity
  8
LAYER-256
  6
Continuous
 62
     4
100
AcDbLine
 10
-355.6044683529554
 20
-3.983365208589021
 30
0.0
 11
-347.3544683529527
 21
0.779774793557408
 31
0.0
  0
LINE
  5
470
330
1F
100
AcDbEntity
  8
LAYER-256
  6
CENTER
 62
     4
100
AcDbLine
 10
-347.3544683529527
 20
12.41787179355742
 30
0.0
 11
-347.3544683529527
 21
-50.01863020644305
 31
0.0
  0
LINE
  5
471
330
1F
100
AcDbEntity
  8
LAYER-256
  6
CENTER
 62
     4
100
AcDbLine
 10
-97.35446835295267
 20
16.55411179355542
 30
0.0
 11
-97.35446835295267
 21
-50.01863020644305
 31
0.0
  0
LINE
  5
472
330
1F
100
AcDbEntity
  8
LAYER-256
  6
CENTER
 62
     4
100
AcDbLine
 10
-222.3544683529527
 20
164.3947277947062
 30
0.0
 11
-222.3544683529527
 21
-50.01863020644305
 31
0.0
  0
LINE
  5
473
330
1F
100
AcDbEntity
  8
LAYER-256
  6
Continuous
 62
     1
100
AcDbLine
 10
-379.8544683529527
 20
-37.58212820644258
 30
0.0
 11
-64.85446835295267
 21
-37.58212820644258
 31
0.0
  0
LINE
  5
474
330
1F
100
AcDbEntity
  8
LAYER-256
  6
Continuous
 62
     1
100
AcDbLine
 10
-379.8544683529527
 20
152.4178717935574
 30
0.0
 11
-379.8544683529527
 21
-37.58212820644258
 31
0.0
  0
LINE
  5
475
330
1F
100
AcDbEntity
  8
LAYER-256
  6
Continuous
 62
     1
100
AcDbLine
 10
-64.85446835295267
 20
152.4178717935574
 30
0.0
 11
-64.85446835295267
 21
-37.58212820644258
 31
0.0
  0
LINE
  5
476
330
1F
100
AcDbEntity
  8
LAYER-256
  6
Continuous
 62
     1
100
AcDbLine
 10
-126.3544683529536
 20
227.4178717935574
 30
0.0
 11
-118.3544683540889
 21
227.4178717935574
 31
0.0
  0
LINE
  5
477
330
1F
100
AcDbEntity
  8
LAYER-256
  6
CENTER
 62
     4
100
AcDbLine
 10
-242.3544683529527
 20
233.2164297935588
 30
0.0
 11
-242.3544683529527
 21
169.2069737935553
 31
0.0
  0
LINE
  5
478
330
1F
100
AcDbEntity
  8
LAYER-256
  6
CENTER
 62
     4
100
AcDbLine
 10
-282.3544683529527
 20
233.2164297935588
 30
0.0
 11
-282.3544683529527
 21
169.2069737935553
 31
0.0
  0
LINE
  5
479
330
1F
100
AcDbEntity
  8
LAYER-256
  6
CENTER
 62
     4
100
AcDbLine
 10
-202.3544683529527
 20
233.2164297935588
 30
0.0
 11
-202.3544683529527
 21
169.2069737935553
 31
0.0
  0
LINE
  5
47A
330
1F
100
AcDbEntity
  8
LAYER-256
  6
CENTER
 62
     4
100
AcDbLine
 10
-162.3544683529527
 20
233.2164297935588
 30
0.0
 11
-162.3544683529527
 21
169.2069737935553
 31
0.0
  0
LINE
  5
47B
330
1F
100
AcDbEntity
  8
LAYER-256
  6
CENTER
 62
     4
100
AcDbLine
 10
-122.3544683529527
 20
233.2164297935588
 30
0.0
 11
-122.3544683529527
 21
169.2069737935553
 31
0.0
  0
LINE
  5
47C
330
1F
100
AcDbEntity
  8
LAYER-256
  6
Continuous
 62
     1
100
AcDbLine
 10
-126.3544683529536
 20
227.4178717935574
 30
0.0
 11
-126.3544683529536
 21
220.8938757935566
 31
0.0
  0
LINE
  5
47D
330
1F
100
AcDbEntity
  8
LAYER-256
  6
Continuous
 62
     1
100
AcDbLine
 10
-118.3544683540889
 20
227.4178717935574
 30
0.0
 11
-118.3544683540889
 21
220.8938757935566
 31
0.0
  0
LINE
  5
47E
330
1F
100
AcDbEntity
  8
LAYER-256
  6
Continuous
 62
     1
100
AcDbLine
 10
-130.6249723529546
 20
220.0211057935558
 30
0.0
 11
-130.6249723529546
 21
211.7037027935548
 31
0.0
  0
LINE
  5
47F
330
1F
100
AcDbEntity
  8
LAYER-256
  6
Continuous
 62
     1
100
AcDbLine
 10
-125.9864213529518
 20
220.0211057935558
 30
0.0
 11
-125.9864213529518
 21
211.7037027935548
 31
0.0
  0
LINE
  5
480
330
1F
100
AcDbEntity
  8
LAYER-256
  6
Continuous
 62
     1
100
AcDbLine
 10
-118.722516352952
 20
220.0211057935558
 30
0.0
 11
-118.722516352952
 21
211.7037027935548
 31
0.0
  0
LINE
  5
481
330
1F
100
AcDbEntity
  8
LAYER-256
  6
Continuous
 62
     1
100
AcDbLine
 10
-114.0839643529525
 20
220.0211057935558
 30
0.0
 11
-114.0839643529525
 21
211.7037027935548
 31
0.0
  0
ARC
  5
482
330
1F
100
AcDbEntity
  8
LAYER-256
  6
Continuous
 62
     1
100
AcDbCircle
 10
-128.3056973523217
 20
217.3759027935585
 30
0.0
 40
3.517973000000001
100
AcDbArc
 50
48.75617400270579
 51
131.2438260077664
  0
ARC
  5
483
330
1F
100
AcDbEntity
  8
LAYER-256
  6
Continuous
 62
     1
100
AcDbCircle
 10
-116.4032403529537
 20
217.3759027935585
 30
0.0
 40
3.517973000000001
100
AcDbArc
 50
48.75617399992972
 51
131.2438260000146
  0
LINE
  5
484
330
1F
100
AcDbEntity
  8
LAYER-256
  6
Continuous
 62
     1
100
AcDbLine
 10
-116.4032403529537
 20
220.8938757935566
 30
0.0
 11
-128.3056973523217
 21
220.8938757935566
 31
0.0
  0
LINE
  5
485
330
1F
100
AcDbEntity
  8
LAYER-256
  6
Continuous
 62
     1
100
AcDbLine
 10
-132.3232743529543
 20
211.7037027935548
 30
0.0
 11
-112.3856633529541
 21
211.7037027935548
 31
0.0
  0
ARC
  5
486
330
1F
100
AcDbEntity
  8
LAYER-256
  6
Continuous
 62
     1
100
AcDbCircle
 10
-122.3544683529527
 20
212.9004797947055
 30
0.0
 40
7.993397
100
AcDbArc
 50
62.97565099626998
 51
117.0243490037301
  0
LINE
  5
487
330
1F
100
AcDbEntity
  8
LAYER-256
  6
Continuous
 62
     1
100
AcDbLine
 10
-132.3232743529543
 20
209.303702793557
 30
0.0
 11
-112.3856633529541
 21
209.303702793557
 31
0.0
  0
LINE
  5
488
330
1F
100
AcDbEntity
  8
LAYER-256
  6
Continuous
 62
     1
100
AcDbLine
 10
-132.3232743529543
 20
211.7037027935548
 30
0.0
 11
-132.3232743529543
 21
209.303702793557
 31
0.0
  0
LINE
  5
489
330
1F
100
AcDbEntity
  8
LAYER-256
  6
Continuous
 62
     1
100
AcDbLine
 10
-112.3856633529541
 20
211.7037027935548
 30
0.0
 11
-112.3856633529541
 21
209.303702793557
 31
0.0
  0
LINE
  5
48A
330
1F
100
AcDbEntity
  8
LAYER-256
  6
Continuous
 62
     1
100
AcDbLine
 10
-130.6249723529546
 20
200.9862997935561
 30
0.0
 11
-130.6249723529546
 21
209.303702793557
 31
0.0
  0
LINE
  5
48B
330
1F
100
AcDbEntity
  8
LAYER-256
  6
Continuous
 62
     1
100
AcDbLine
 10
-125.9864213529518
 20
200.9862997935561
 30
0.0
 11
-125.9864213529518
 21
209.303702793557
 31
0.0
  0
LINE
  5
48C
330
1F
100
AcDbEntity
  8
LAYER-256
  6
Continuous
 62
     1
100
AcDbLine
 10
-118.722516352952
 20
200.9862997935561
 30
0.0
 11
-118.722516352952
 21
209.303702793557
 31
0.0
  0
LINE
  5
48D
330
1F
100
AcDbEntity
  8
LAYER-256
  6
Continuous
 62
     1
100
AcDbLine
 10
-114.0839643529525
 20
200.9862997935561
 30
0.0
 11
-114.0839643529525
 21
209.303702793557
 31
0.0
  0
ARC
  5
48E
330
1F
100
AcDbEntity
  8
LAYER-256
  6
Continuous
 62
     1
100
AcDbCircle
 10
-128.3056973523217
 20
203.631501794
 30
0.0
 40
3.517973000000001
100
AcDbArc
 50
228.7561739970616
 51
311.2438259924662
  0
ARC
  5
48F
330
1F
100
AcDbEntity
  8
LAYER-256
  6
Continuous
 62
     1
100
AcDbCircle
 10
-116.4032403529537
 20
203.631501794
 30
0.0
 40
3.517973000000001
100
AcDbArc
 50
228.7561740048135
 51
311.2438259952422
  0
LINE
  5
490
330
1F
100
AcDbEntity
  8
LAYER-256
  6
Continuous
 62
     1
100
AcDbLine
 10
-76.51237335295451
 20
200.1135287935567
 30
0.0
 11
-368.1965643529539
 21
200.1135287935567
 31
0.0
  0
ARC
  5
491
330
1F
100
AcDbEntity
  8
LAYER-256
  6
Continuous
 62
     1
100
AcDbCircle
 10
-122.3544683529527
 20
208.1069257935569
 30
0.0
 40
7.993397
100
AcDbArc
 50
242.9756510000022
 51
297.0243489999978
  0
LINE
  5
492
330
1F
100
AcDbEntity
  8
LAYER-256
  6
Continuous
 62
     1
100
AcDbLine
 10
-368.1965643529539
 20
185.1135287935567
 30
0.0
 11
-76.51237335295451
 21
185.1135287935567
 31
0.0
  0
LINE
  5
493
330
1F
100
AcDbEntity
  8
LAYER-256
  6
Continuous
 62
     1
100
AcDbLine
 10
-132.3232743529543
 20
182.7135287935544
 30
0.0
 11
-112.3856633529541
 21
182.7135287935544
 31
0.0
  0
LINE
  5
494
330
1F
100
AcDbEntity
  8
LAYER-256
  6
Continuous
 62
     1
100
AcDbLine
 10
-132.3232743529543
 20
185.1135287935567
 30
0.0
 11
-132.3232743529543
 21
182.7135287935544
 31
0.0
  0
LINE
  5
495
330
1F
100
AcDbEntity
  8
LAYER-256
  6
Continuous
 62
     1
100
AcDbLine
 10
-112.3856633529541
 20
185.1135287935567
 30
0.0
 11
-112.3856633529541
 21
182.7135287935544
 31
0.0
  0
LINE
  5
496
330
1F
100
AcDbEntity
  8
LAYER-256
  6
Continuous
 62
     1
100
AcDbLine
 10
-130.6249723529546
 20
174.3961267935565
 30
0.0
 11
-130.6249723529546
 21
182.7135287935544
 31
0.0
  0
LINE
  5
497
330
1F
100
AcDbEntity
  8
LAYER-256
  6
Continuous
 62
     1
100
AcDbLine
 10
-125.9864213529518
 20
174.3961267935565
 30
0.0
 11
-125.9864213529518
 21
182.7135287935544
 31
0.0
  0
LINE
  5
498
330
1F
100
AcDbEntity
  8
LAYER-256
  6
Continuous
 62
     1
100
AcDbLine
 10
-118.722516352952
 20
174.3961267935565
 30
0.0
 11
-118.722516352952
 21
182.7135287935544
 31
0.0
  0
LINE
  5
499
330
1F
100
AcDbEntity
  8
LAYER-256
  6
Continuous
 62
     1
100
AcDbLine
 10
-114.0839643529525
 20
174.3961267935565
 30
0.0
 11
-114.0839643529525
 21
182.7135287935544
 31
0.0
  0
ARC
  5
49A
330
1F
100
AcDbEntity
  8
LAYER-256
  6
Continuous
 62
     1
100
AcDbCircle
 10
-128.3056973523217
 20
177.0413287935553
 30
0.0
 40
3.517973000000001
100
AcDbArc
 50
228.7561740044366
 51
311.2438259850911
  0
ARC
  5
49B
330
1F
100
AcDbEntity
  8
LAYER-256
  6
Continuous
 62
     1
100
AcDbCircle
 10
-116.4032403529537
 20
177.0413287935553
 30
0.0
 40
3.517973000000001
100
AcDbArc
 50
228.7561740121885
 51
311.2438259878672
  0
ARC
  5
49C
330
1F
100
AcDbEntity
  8
LAYER-256
  6
Continuous
 62
     1
100
AcDbCircle
 10
-122.3544683529527
 20
181.5167517935543
 30
0.0
 40
7.993397
100
AcDbArc
 50
242.9756510000022
 51
297.0243489999978
  0
LINE
  5
49D
330
1F
100
AcDbEntity
  8
LAYER-256
  6
Continuous
 62
     1
100
AcDbLine
 10
-100.8360993529523
 20
207.1573747935581
 30
0.0
 11
-100.8360993529523
 21
200.1135287935567
 31
0.0
  0
LINE
  5
49E
330
1F
100
AcDbEntity
  8
LAYER-256
  6
Continuous
 62
     1
100
AcDbLine
 10
-90.83609935295232
 20
207.1573747935581
 30
0.0
 11
-90.83609935295232
 21
200.1135287935567
 31
0.0
  0
LINE
  5
49F
330
1F
100
AcDbEntity
  8
LAYER-256
  6
Continuous
 62
     1
100
AcDbLine
 10
-76.51237335295451
 20
200.1135287935567
 30
0.0
 11
-76.51237335295451
 21
185.1135287935567
 31
0.0
  0
LINE
  5
4A0
330
1F
100
AcDbEntity
  8
LAYER-256
  6
Continuous
 62
     1
100
AcDbLine
 10
-90.83609935295232
 20
207.1573747935581
 30
0.0
 11
-100.8360993529523
 21
207.1573747935581
 31
0.0
  0
LINE
  5
4A1
330
1F
100
AcDbEntity
  8
LAYER-256
  6
Continuous
 62
     1
100
AcDbLine
 10
-90.83609935295232
 20
185.1135287935567
 30
0.0
 11
-90.83609935295232
 21
152.4178717935574
 31
0.0
  0
LINE
  5
4A2
330
1F
100
AcDbEntity
  8
LAYER-256
  6
Continuous
 62
     1
100
AcDbLine
 10
-100.8360993529523
 20
185.1135287935567
 30
0.0
 11
-100.8360993529523
 21
152.4178717935574
 31
0.0
  0
LINE
  5
4A3
330
1F
100
AcDbEntity
  8
LAYER-256
  6
Continuous
 62
     1
100
AcDbLine
 10
-379.8544683529527
 20
152.4178717935574
 30
0.0
 11
-64.85446835295267
 21
152.4178717935574
 31
0.0
  0
LINE
  5
4A4
330
1F
100
AcDbEntity
  8
LAYER-256
  6
Continuous
 62
     1
100
AcDbLine
 10
-379.8544683529527
 20
-32.58212820644258
 30
0.0
 11
-64.85446835295267
 21
-32.58212820644258
 31
0.0
  0
LINE
  5
4A5
330
1F
100
AcDbEntity
  8
LAYER-256
  6
Continuous
 62
     1
100
AcDbLine
 10
-379.8544683529527
 20
12.41787179355742
 30
0.0
 11
-64.85446835295267
 21
12.41787179355742
 31
0.0
  0
LINE
  5
4A6
330
1F
100
AcDbEntity
  8
LAYER-256
  6
Continuous
 62
     1
100
AcDbLine
 10
-379.8544683529527
 20
102.4178717935574
 30
0.0
 11
-328.6029523529551
 21
102.4178717935574
 31
0.0
  0
LINE
  5
4A7
330
1F
100
AcDbEntity
  8
LAYER-256
  6
Continuous
 62
     1
100
AcDbLine
 10
-318.3544683529527
 20
227.4178717935574
 30
0.0
 11
-326.3544683529527
 21
227.4178717935574
 31
0.0
  0
LINE
  5
4A8
330
1F
100
AcDbEntity
  8
LAYER-033
  6
Continuous
 62
     4
100
AcDbLine
 10
290.1274473216786
 20
216.2803103252517
 30
0.0
 11
295.0771947899845
 21
221.2300577935575
 31
0.0
  0
LINE
  5
4A9
330
1F
100
AcDbEntity
  8
LAYER-033
  6
Continuous
 62
     4
100
AcDbLine
 10
290.526942258337
 20
211.7300577935548
 30
0.0
 11
300.0269422582903
 21
221.2300577935575
 31
0.0
  0
LINE
  5
4AA
330
1F
100
AcDbEntity
  8
LAYER-033
  6
Continuous
 62
     4
100
AcDbLine
 10
295.4766897261375
 20
211.7300577935548
 30
0.0
 11
304.9766897265962
 21
221.2300577935575
 31
0.0
  0
LINE
  5
4AB
330
1F
100
AcDbEntity
  8
LAYER-033
  6
Continuous
 62
     4
100
AcDbLine
 10
300.4264371948993
 20
211.7300577935548
 30
0.0
 11
309.926437194902
 21
221.2300577935575
 31
0.0
  0
LINE
  5
4AC
330
1F
100
AcDbEntity
  8
LAYER-033
  6
Continuous
 62
     4
100
AcDbLine
 10
305.3761846632051
 20
211.7300577935548
 30
0.0
 11
314.8761846632079
 21
221.2300577935575
 31
0.0
  0
LINE
  5
4AD
330
1F
100
AcDbEntity
  8
LAYER-033
  6
Continuous
 62
     4
100
AcDbLine
 10
310.3259321315057
 20
211.7300577935548
 30
0.0
 11
319.8259321315137
 21
221.2300577935575
 31
0.0
  0
LINE
  5
4AE
330
1F
100
AcDbEntity
  8
LAYER-033
  6
Continuous
 62
     4
100
AcDbLine
 10
315.2756795998168
 20
211.7300577935548
 30
0.0
 11
324.7756795998196
 21
221.2300577935575
 31
0.0
  0
LINE
  5
4AF
330
1F
100
AcDbEntity
  8
LAYER-033
  6
Continuous
 62
     4
100
AcDbLine
 10
320.2254270681227
 20
211.7300577935548
 30
0.0
 11
329.7254270681254
 21
221.2300577935575
 31
0.0
  0
LINE
  5
4B0
330
1F
100
AcDbEntity
  8
LAYER-033
  6
Continuous
 62
     4
100
AcDbLine
 10
325.1751745364285
 20
211.7300577935548
 30
0.0
 11
334.6751745364312
 21
221.2300577935575
 31
0.0
  0
LINE
  5
4B1
330
1F
100
AcDbEntity
  8
LAYER-033
  6
Continuous
 62
     4
100
AcDbLine
 10
330.1249220047343
 20
211.7300577935548
 30
0.0
 11
339.6249220047371
 21
221.2300577935575
 31
0.0
  0
LINE
  5
4B2
330
1F
100
AcDbEntity
  8
LAYER-033
  6
Continuous
 62
     4
100
AcDbLine
 10
335.0746694730402
 20
211.7300577935548
 30
0.0
 11
344.574669473043
 21
221.2300577935575
 31
0.0
  0
LINE
  5
4B3
330
1F
100
AcDbEntity
  8
LAYER-033
  6
Continuous
 62
     4
100
AcDbLine
 10
340.024416941346
 20
211.7300577935548
 30
0.0
 11
349.5244169413488
 21
221.2300577935575
 31
0.0
  0
LINE
  5
4B4
330
1F
100
AcDbEntity
  8
LAYER-033
  6
Continuous
 62
     4
100
AcDbLine
 10
344.9741644096519
 20
211.7300577935548
 30
0.0
 11
354.4741644096546
 21
221.2300577935575
 31
0.0
  0
LINE
  5
4B5
330
1F
100
AcDbEntity
  8
LAYER-033
  6
Continuous
 62
     4
100
AcDbLine
 10
349.9239118779577
 20
211.7300577935548
 30
0.0
 11
359.3403869262817
 21
221.1465328418788
 31
0.0
  0
LINE
  5
4B6
330
1F
100
AcDbEntity
  8
LAYER-033
  6
Continuous
 62
     4
100
AcDbLine
 10
354.8736593462636
 20
211.7300577935548
 30
0.0
 11
363.6505123166329
 21
220.5069107639242
 31
0.0
  0
LINE
  5
4B7
330
1F
100
AcDbEntity
  8
LAYER-033
  6
Continuous
 62
     4
100
AcDbLine
 10
359.6629765589913
 20
211.5696275379766
 30
0.0
 11
367.4739072902752
 21
219.3805582692606
 31
0.0
  0
LINE
  5
4B8
330
1F
100
AcDbEntity
  8
LAYER-033
  6
Continuous
 62
     4
100
AcDbLine
 10
363.6871460795241
 20
210.6440495902037
 30
0.0
 11
370.9081914119119
 21
217.8650949225915
 31
0.0
  0
LINE
  5
4B9
330
1F
100
AcDbEntity
  8
LAYER-033
  6
Continuous
 62
     4
100
AcDbLine
 10
367.1130081137965
 20
209.1201641561702
 30
0.0
 11
374.0071640958117
 21
216.0143201381854
 31
0.0
  0
LINE
  5
4BA
330
1F
100
AcDbEntity
  8
LAYER-033
  6
Continuous
 62
     4
100
AcDbLine
 10
370.059414429186
 20
207.1168230032538
 30
0.0
 11
376.8005119201555
 21
213.8579204942234
 31
0.0
  0
LINE
  5
4BB
330
1F
100
AcDbEntity
  8
LAYER-033
  6
Continuous
 62
     4
100
AcDbLine
 10
372.5733440986589
 20
204.681005204421
 30
0.0
 11
379.3020200330396
 21
211.4096811388016
 31
0.0
  0
LINE
  5
4BC
330
1F
100
AcDbEntity
  8
LAYER-033
  6
Continuous
 62
     4
100
AcDbLine
 10
374.6583988565926
 20
201.8163124940487
 30
0.0
 11
381.5128028642751
 21
208.6707165017312
 31
0.0
  0
LINE
  5
4BD
330
1F
100
AcDbEntity
  8
LAYER-033
  6
Continuous
 62
     4
100
AcDbLine
 10
376.2766772694029
 20
198.4848434385532
 30
0.0
 11
383.421549921751
 21
205.6297160909013
 31
0.0
  0
LINE
  5
4BE
330
1F
100
AcDbEntity
  8
LAYER-033
  6
Continuous
 62
     4
100
AcDbLine
 10
377.3268693574749
 20
194.5852880583194
 30
0.0
 11
385.0019247461993
 21
202.2603434470439
 31
0.0
  0
LINE
  5
4BF
330
1F
100
AcDbEntity
  8
LAYER-033
  6
Continuous
 62
     4
100
AcDbLine
 10
377.5579150506502
 20
189.8665862831888
 30
0.0
 11
386.205556764762
 21
198.5142279973006
 31
0.0
  0
LINE
  5
4C0
330
1F
100
AcDbEntity
  8
LAYER-033
  6
Continuous
 62
     4
100
AcDbLine
 10
376.0546148700756
 20
183.4135386343083
 30
0.0
 11
386.9453765010931
 21
194.3043002653259
 31
0.0
  0
LINE
  5
4C1
330
1F
100
AcDbEntity
  8
LAYER-033
  6
Continuous
 62
     4
100
AcDbLine
 10
369.4289897364193
 20
171.8381660323463
 30
0.0
 11
387.0510582482499
 21
189.4602345441769
 31
0.0
  0
LINE
  5
4C2
330
1F
100
AcDbEntity
  8
LAYER-033
  6
Continuous
 62
     4
100
AcDbLine
 10
362.1960360319998
 20
159.6554648591919
 30
0.0
 11
386.1082806150225
 21
183.5677094422145
 31
0.0
  0
LINE
  5
4C3
330
1F
100
AcDbEntity
  8
LAYER-033
  6
Continuous
 62
     4
100
AcDbLine
 10
354.9630823282072
 20
147.4727636870935
 30
0.0
 11
382.1495484162575
 21
174.6592297751437
 31
0.0
  0
LINE
  5
4C4
330
1F
100
AcDbEntity
  8
LAYER-033
  6
Continuous
 62
     4
100
AcDbLine
 10
347.7301286244147
 20
135.2900625149951
 30
0.0
 11
374.8869987143139
 21
162.4469326048942
 31
0.0
  0
LINE
  5
4C5
330
1F
100
AcDbEntity
  8
LAYER-033
  6
Continuous
 62
     4
100
AcDbLine
 10
340.4971749206221
 20
123.1073613428966
 30
0.0
 11
367.6244490123702
 21
150.2346354346448
 31
0.0
  0
LINE
  5
4C6
330
1F
100
AcDbEntity
  8
LAYER-033
  6
Continuous
 62
     4
100
AcDbLine
 10
333.2642212168295
 20
110.9246601707982
 30
0.0
 11
360.3618993104267
 21
138.0223382643954
 31
0.0
  0
LINE
  5
4C7
330
1F
100
AcDbEntity
  8
LAYER-033
  6
Continuous
 62
     4
100
AcDbLine
 10
326.0312675130369
 20
98.74195899869977
 30
0.0
 11
353.0993496084831
 21
125.8100410941459
 31
0.0
  0
LINE
  5
4C8
330
1F
100
AcDbEntity
  8
LAYER-033
  6
Continuous
 62
     4
100
AcDbLine
 10
324.6569277762004
 20
92.41787179355742
 30
0.0
 11
345.8367999065395
 21
113.5977439238965
 31
0.0
  0
LINE
  5
4C9
330
1F
100
AcDbEntity
  8
LAYER-033
  6
Continuous
 62
     4
100
AcDbLine
 10
329.6066752445062
 20
92.41787179355742
 30
0.0
 11
338.5742502045958
 21
101.385446753647
 31
0.0
  0
LINE
  5
4CA
330
1F
100
AcDbEntity
  8
LAYER-033
  6
Continuous
 62
     4
100
AcDbLine
 10
323.2075956064581
 20
93.98595578691899
 30
0.0
 11
324.7756795998196
 21
92.41787179355742
 31
0.0
  0
LINE
  5
4CB
330
1F
100
AcDbEntity
  8
LAYER-033
  6
Continuous
 62
     4
100
AcDbLine
 10
325.051535175459
 20
97.09176368622394
 30
0.0
 11
329.7254270681255
 21
92.41787179355742
 31
0.0
  0
LINE
  5
4CC
330
1F
100
AcDbEntity
  8
LAYER-033
  6
Continuous
 62
     4
100
AcDbLine
 10
326.8954747444599
 20
100.1975715855289
 30
0.0
 11
333.7760255870425
 21
93.31702074294633
 31
0.0
  0
LINE
  5
4CD
330
1F
100
AcDbEntity
  8
LAYER-033
  6
Continuous
 62
     4
100
AcDbLine
 10
328.7394143134608
 20
103.3033794848338
 30
0.0
 11
335.6218828220983
 21
96.42091097619641
 31
0.0
  0
LINE
  5
4CE
330
1F
100
AcDbEntity
  8
LAYER-033
  6
Continuous
 62
     4
100
AcDbLine
 10
330.5833538824617
 20
106.4091873841388
 30
0.0
 11
337.467740057154
 21
99.52480120944651
 31
0.0
  0
LINE
  5
4CF
330
1F
100
AcDbEntity
  8
LAYER-033
  6
Continuous
 62
     4
100
AcDbLine
 10
332.4272934514626
 20
109.5149952834437
 30
0.0
 11
339.3135972922098
 21
102.6286914426966
 31
0.0
  0
LINE
  5
4D0
330
1F
100
AcDbEntity
  8
LAYER-033
  6
Continuous
 62
     4
100
AcDbLine
 10
334.2712330204635
 20
112.6208031827487
 30
0.0
 11
341.1594545272656
 21
105.7325816759467
 31
0.0
  0
LINE
  5
4D1
330
1F
100
AcDbEntity
  8
LAYER-033
  6
Continuous
 62
     4
100
AcDbLine
 10
336.1151725894644
 20
115.7266110820537
 30
0.0
 11
343.005311762324
 21
108.8364719092012
 31
0.0
  0
LINE
  5
4D2
330
1F
100
AcDbEntity
  8
LAYER-033
  6
Continuous
 62
     4
100
AcDbLine
 10
337.9591121584653
 20
118.8324189813586
 30
0.0
 11
344.8511689973771
 21
111.9403621424468
 31
0.0
  0
LINE
  5
4D3
330
1F
100
AcDbEntity
  8
LAYER-033
  6
Continuous
 62
     4
100
AcDbLine
 10
339.8030517274663
 20
121.9382268806635
 30
0.0
 11
346.6970262324329
 21
115.0442523756969
 31
0.0
  0
LINE
  5
4D4
330
1F
100
AcDbEntity
  8
LAYER-033
  6
Continuous
 62
     4
100
AcDbLine
 10
341.6469912964672
 20
125.0440347799685
 30
0.0
 11
348.5428834544005
 21
118.1481425869386
 31
0.0
  0
LINE
  5
4D5
330
1F
100
AcDbEntity
  8
LAYER-033
  6
Continuous
 62
     4
100
AcDbLine
 10
343.490930865468
 20
128.1498426792734
 30
0.0
 11
350.3887407025444
 21
121.2520328421971
 31
0.0
  0
LINE
  5
4D6
330
1F
100
AcDbEntity
  8
LAYER-033
  6
Continuous
 62
     4
100
AcDbLine
 10
345.3348704344689
 20
131.2556505785784
 30
0.0
 11
352.2345979376001
 21
124.3559230754471
 31
0.0
  0
LINE
  5
4D7
330
1F
100
AcDbEntity
  8
LAYER-033
  6
Continuous
 62
     4
100
AcDbLine
 10
347.1788100034698
 20
134.3614584778833
 30
0.0
 11
354.080455172656
 21
127.4598133086972
 31
0.0
  0
LINE
  5
4D8
330
1F
100
AcDbEntity
  8
LAYER-033
  6
Continuous
 62
     4
100
AcDbLine
 10
349.0227495724707
 20
137.4672663771883
 30
0.0
 11
355.9263124077117
 21
130.5637035419473
 31
0.0
  0
LINE
  5
4D9
330
1F
100
AcDbEntity
  8
LAYER-033
  6
Continuous
 62
     4
100
AcDbLine
 10
350.8666891414716
 20
140.5730742764932
 30
0.0
 11
357.7721696427674
 21
133.6675937751974
 31
0.0
  0
LINE
  5
4DA
330
1F
100
AcDbEntity
  8
LAYER-033
  6
Continuous
 62
     4
100
AcDbLine
 10
352.7106287104725
 20
143.6788821757981
 30
0.0
 11
359.6180268778232
 21
136.7714840084474
 31
0.0
  0
LINE
  5
4DB
330
1F
100
AcDbEntity
  8
LAYER-033
  6
Continuous
 62
     4
100
AcDbLine
 10
354.5545682794734
 20
146.7846900751031
 30
0.0
 11
361.463884112879
 21
139.8753742416975
 31
0.0
  0
LINE
  5
4DC
330
1F
100
AcDbEntity
  8
LAYER-033
  6
Continuous
 62
     4
100
AcDbLine
 10
290.1274473216786
 20
216.1615585012037
 30
0.0
 11
294.5589480293276
 21
211.7300577935548
 31
0.0
  0
LINE
  5
4DD
330
1F
100
AcDbEntity
  8
LAYER-033
  6
Continuous
 62
     4
100
AcDbLine
 10
356.3985078484744
 20
149.890497974408
 30
0.0
 11
363.3097413479347
 21
142.9792644749476
 31
0.0
  0
LINE
  5
4DE
330
1F
100
AcDbEntity
  8
LAYER-033
  6
Continuous
 62
     4
100
AcDbLine
 10
290.1274473216786
 20
221.1113059695095
 30
0.0
 11
299.5086954976334
 21
211.7300577935548
 31
0.0
  0
LINE
  5
4DF
330
1F
100
AcDbEntity
  8
LAYER-033
  6
Continuous
 62
     4
100
AcDbLine
 10
358.2424474174753
 20
152.996305873713
 30
0.0
 11
365.1555985829905
 21
146.0831547081977
 31
0.0
  0
LINE
  5
4E0
330
1F
100
AcDbEntity
  8
LAYER-033
  6
Continuous
 62
     4
100
AcDbLine
 10
294.9584429659365
 20
221.2300577935575
 30
0.0
 11
304.4584429659392
 21
211.7300577935548
 31
0.0
  0
LINE
  5
4E1
330
1F
100
AcDbEntity
  8
LAYER-033
  6
Continuous
 62
     4
100
AcDbLine
 10
360.0863869864762
 20
156.1021137730179
 30
0.0
 11
367.0014558180463
 21
149.1870449414478
 31
0.0
  0
LINE
  5
4E2
330
1F
100
AcDbEntity
  8
LAYER-033
  6
Continuous
 62
     4
100
AcDbLine
 10
299.9081904342423
 20
221.2300577935575
 30
0.0
 11
309.4081904342451
 21
211.7300577935548
 31
0.0
  0
LINE
  5
4E3
330
1F
100
AcDbEntity
  8
LAYER-033
  6
Continuous
 62
     4
100
AcDbLine
 10
361.9303265554771
 20
159.2079216723228
 30
0.0
 11
368.8473130531021
 21
152.2909351746978
 31
0.0
  0
LINE
  5
4E4
330
1F
100
AcDbEntity
  8
LAYER-033
  6
Continuous
 62
     4
100
AcDbLine
 10
304.8579379025482
 20
221.2300577935575
 30
0.0
 11
314.3579379025552
 21
211.7300577935548
 31
0.0
  0
LINE
  5
4E5
330
1F
100
AcDbEntity
  8
LAYER-033
  6
Continuous
 62
     4
100
AcDbLine
 10
363.774266124478
 20
162.3137295716278
 30
0.0
 11
370.6931702881578
 21
155.3948254079479
 31
0.0
  0
LINE
  5
4E6
330
1F
100
AcDbEntity
  8
LAYER-033
  6
Continuous
 62
     4
100
AcDbLine
 10
309.8076853708541
 20
221.2300577935575
 30
0.0
 11
319.3076853708568
 21
211.7300577935548
 31
0.0
  0
LINE
  5
4E7
330
1F
100
AcDbEntity
  8
LAYER-033
  6
Continuous
 62
     4
100
AcDbLine
 10
365.6182056934788
 20
165.4195374709327
 30
0.0
 11
372.5390275232136
 21
158.498715641198
 31
0.0
  0
LINE
  5
4E8
330
1F
100
AcDbEntity
  8
LAYER-033
  6
Continuous
 62
     4
100
AcDbLine
 10
314.7574328391599
 20
221.2300577935575
 30
0.0
 11
324.2574328391626
 21
211.7300577935548
 31
0.0
  0
LINE
  5
4E9
330
1F
100
AcDbEntity
  8
LAYER-033
  6
Continuous
 62
     4
100
AcDbLine
 10
367.4621452624797
 20
168.5253453702377
 30
0.0
 11
374.3848847582694
 21
161.6026058744481
 31
0.0
  0
LINE
  5
4EA
330
1F
100
AcDbEntity
  8
LAYER-033
  6
Continuous
 62
     4
100
AcDbLine
 10
319.7071803074657
 20
221.2300577935575
 30
0.0
 11
329.2071803074684
 21
211.7300577935548
 31
0.0
  0
LINE
  5
4EB
330
1F
100
AcDbEntity
  8
LAYER-033
  6
Continuous
 62
     4
100
AcDbLine
 10
369.3060848314806
 20
171.6311532695426
 30
0.0
 11
376.2307419933251
 21
164.7064961076981
 31
0.0
  0
LINE
  5
4EC
330
1F
100
AcDbEntity
  8
LAYER-033
  6
Continuous
 62
     4
100
AcDbLine
 10
324.6569277757716
 20
221.2300577935575
 30
0.0
 11
334.1569277757743
 21
211.7300577935548
 31
0.0
  0
LINE
  5
4ED
330
1F
100
AcDbEntity
  8
LAYER-033
  6
Continuous
 62
     4
100
AcDbLine
 10
371.1500244004816
 20
174.7369611685574
 30
0.0
 11
378.0765992283809
 21
167.8103863409482
 31
0.0
  0
LINE
  5
4EE
330
1F
100
AcDbEntity
  8
LAYER-033
  6
Continuous
 62
     4
100
AcDbLine
 10
329.6066752440774
 20
221.2300577935575
 30
0.0
 11
339.1066752440801
 21
211.7300577935548
 31
0.0
  0
LINE
  5
4EF
330
1F
100
AcDbEntity
  8
LAYER-033
  6
Continuous
 62
     4
100
AcDbLine
 10
372.9939639694825
 20
177.8427690681525
 30
0.0
 11
379.9224564634367
 21
170.9142765741983
 31
0.0
  0
LINE
  5
4F0
330
1F
100
AcDbEntity
  8
LAYER-033
  6
Continuous
 62
     4
100
AcDbLine
 10
334.5564227123833
 20
221.2300577935575
 30
0.0
 11
344.056422712386
 21
211.7300577935548
 31
0.0
  0
LINE
  5
4F1
330
1F
100
AcDbEntity
  8
LAYER-033
  6
Continuous
 62
     4
100
AcDbLine
 10
374.8379035384834
 20
180.9485769674574
 30
0.0
 11
381.7683136984924
 21
174.0181668074484
 31
0.0
  0
LINE
  5
4F2
330
1F
100
AcDbEntity
  8
LAYER-033
  6
Continuous
 62
     4
100
AcDbLine
 10
339.5061701806891
 20
221.2300577935575
 30
0.0
 11
349.0061701806918
 21
211.7300577935548
 31
0.0
  0
LINE
  5
4F3
330
1F
100
AcDbEntity
  8
LAYER-033
  6
Continuous
 62
     4
100
AcDbLine
 10
376.406924190275
 20
184.3293037839717
 30
0.0
 11
383.5912434948085
 21
177.1449844794382
 31
0.0
  0
LINE
  5
4F4
330
1F
100
AcDbEntity
  8
LAYER-033
  6
Continuous
 62
     4
100
AcDbLine
 10
344.455917648995
 20
221.2300577935575
 30
0.0
 11
353.955917649005
 21
211.7300577935548
 31
0.0
  0
LINE
  5
4F5
330
1F
100
AcDbEntity
  8
LAYER-033
  6
Continuous
 62
     4
100
AcDbLine
 10
377.3919655858286
 20
188.2940098567239
 30
0.0
 11
385.1373436731916
 21
180.5486317693609
 31
0.0
  0
LINE
  5
4F6
330
1F
100
AcDbEntity
  8
LAYER-033
  6
Continuous
 62
     4
100
AcDbLine
 10
349.4056651173008
 20
221.2300577935575
 30
0.0
 11
358.9929414961345
 21
211.6427814147239
 31
0.0
  0
LINE
  5
4F7
330
1F
100
AcDbEntity
  8
LAYER-033
  6
Continuous
 62
     4
100
AcDbLine
 10
377.516031722762
 20
193.1196911880963
 30
0.0
 11
386.3002956606321
 21
184.3354272502262
 31
0.0
  0
LINE
  5
4F8
330
1F
100
AcDbEntity
  8
LAYER-033
  6
Continuous
 62
     4
100
AcDbLine
 10
354.3554125856066
 20
221.2300577935575
 30
0.0
 11
365.7840898456405
 21
209.8013805335236
 31
0.0
  0
LINE
  5
4F9
330
1F
100
AcDbEntity
  8
LAYER-033
  6
Continuous
 62
     4
100
AcDbLine
 10
375.6746308415619
 20
199.9108395376023
 30
0.0
 11
386.9876107683912
 21
188.5978596107729
 31
0.0
  0
LINE
  5
4FA
330
1F
100
AcDbEntity
  8
LAYER-033
  6
Continuous
 62
     4
100
AcDbLine
 10
359.3926381086377
 20
221.1425797388323
 30
0.0
 11
387.0158302669543
 21
193.5193875805158
 31
0.0
  0
LINE
  5
4FB
330
1F
100
AcDbEntity
  8
LAYER-033
  6
Continuous
 62
     4
100
AcDbLine
 10
365.4351014200655
 20
220.0498638957104
 30
0.0
 11
385.9231144238323
 21
199.5618508919436
 31
0.0
  0
LINE
  5
4FC
330
1F
100
AcDbEntity
  8
LAYER-033
  6
Continuous
 62
     4
100
AcDbLine
 10
375.5330749108246
 20
214.9016378732571
 30
0.0
 11
380.774888401379
 21
209.6598243827027
 31
0.0
  0
TEXT
  5
4FD
330
1F
100
AcDbEntity
  8
LAYER-033
  6
Continuous
 62
     7
100
AcDbText
 10
-78.59006319201528
 20
-233.7017527596956
 30
0.0
 40
4.0
  1
２００／２２０Ｖ　５０／６０Ｈｚ　３０～３７ｋＷ
  7
STRING_H
 11
-78.59006319201528
 21
-231.7017527596956
 31
0.0
100
AcDbText
 73
     2
  0
TEXT
  5
4FE
330
1F
100
AcDbEntity
  8
LAYER-033
  6
Continuous
 62
     7
100
AcDbText
 10
-78.59006319201528
 20
-241.7872028606628
 30
0.0
 40
4.0
  1
質　　量　　５０㎏
  7
STRING_H
 11
-78.59006319201528
 21
-239.7872028606628
 31
0.0
100
AcDbText
 73
     2
  0
TEXT
  5
4FF
330
1F
100
AcDbEntity
  8
LAYER-033
  6
Continuous
 62
     7
100
AcDbText
 10
-78.59006319201528
 20
-225.6163026583913
 30
0.0
 40
4.0
  1
ＫＲ－１Ｐ(低　圧)
  7
STRING_H
 11
-78.59006319201528
 21
-223.6163026583913
 31
0.0
100
AcDbText
 73
     2
  0
TEXT
  5
500
330
1F
100
AcDbEntity
  8
LAYER-033
  6
Continuous
 62
     7
100
AcDbText
 10
-328.1544683529527
 20
233.2164297935588
 30
0.0
 40
8.0
  1
Ｕ
  7
STRING_H
 72
     1
 11
-322.3544683529527
 21
233.2164297935588
 31
0.0
100
AcDbText
 73
     1
  0
TEXT
  5
501
330
1F
100
AcDbEntity
  8
LAYER-033
  6
Continuous
 62
     7
100
AcDbText
 10
-288.1544683529527
 20
233.2164297935588
 30
0.0
 40
8.0
  1
Ｒ
  7
STRING_H
 72
     1
 11
-282.3544683529527
 21
233.2164297935588
 31
0.0
100
AcDbText
 73
     1
  0
TEXT
  5
502
330
1F
100
AcDbEntity
  8
LAYER-033
  6
Continuous
 62
     7
100
AcDbText
 10
-248.1544683529527
 20
233.2164297935588
 30
0.0
 40
8.0
  1
Ｖ
  7
STRING_H
 72
     1
 11
-242.3544683529527
 21
233.2164297935588
 31
0.0
100
AcDbText
 73
     1
  0
TEXT
  5
503
330
1F
100
AcDbEntity
  8
LAYER-033
  6
Continuous
 62
     7
100
AcDbText
 10
-208.1544683529527
 20
233.2164297935588
 30
0.0
 40
8.0
  1
Ｓ
  7
STRING_H
 72
     1
 11
-202.3544683529527
 21
233.2164297935588
 31
0.0
100
AcDbText
 73
     1
  0
TEXT
  5
504
330
1F
100
AcDbEntity
  8
LAYER-033
  6
Continuous
 62
     7
100
AcDbText
 10
-168.1544683529527
 20
233.2164297935588
 30
0.0
 40
8.0
  1
Ｗ
  7
STRING_H
 72
     1
 11
-162.3544683529527
 21
233.2164297935588
 31
0.0
100
AcDbText
 73
     1
  0
TEXT
  5
505
330
1F
100
AcDbEntity
  8
LAYER-033
  6
Continuous
 62
     7
100
AcDbText
 10
-128.1544683529527
 20
233.2164297935588
 30
0.0
 40
8.0
  1
Ｔ
  7
STRING_H
 72
     1
 11
-122.3544683529527
 21
233.2164297935588
 31
0.0
100
AcDbText
 73
     1
  0
DIMENSION
  5
515
330
1F
100
AcDbEntity
  8
LAYER-035
  6
Continuous
 62
     5
100
AcDbDimension
  2
*D02
 10
-379.8544683529527
 20
-112.2418422714409
 30
0.0
 11
-222.3544683529527
 21
-112.2418422714409
 31
0.0
 70
   129
  1
<>
 71
     0
 42
0.0
  3
DIO_DIMSTYLE
100
AcDbAlignedDimension
 13
-64.85446835295267
 23
-37.58212820644258
 33
0.0
 14
-379.8544683529527
 24
-37.58212820644258
 34
0.0
1001
ACAD
1000
DSTYLE
1002
{
1070
    41
1040
4.0
1070
    44
1040
1.0
1070
    42
1040
1.0
1070
     6
1000
_OPEN
1070
     7
1000
_OPEN
1070
   173
1070
     1
1070
   140
1040
4.0
1070
   178
1070
     5
1070
   147
1040
0.5
1002
}
  0
DIMENSION
  5
51F
330
1F
100
AcDbEntity
  8
LAYER-035
  6
Continuous
 62
     5
100
AcDbDimension
  2
*D13
 10
-347.3544683529526
 20
-88.57574783076456
 30
0.0
 11
-222.3544683529526
 21
-88.57574783076456
 31
0.0
 70
   128
  1
<>
 71
     0
 42
0.0
  3
DIO_DIMSTYLE
100
AcDbAlignedDimension
 13
-97.35446835295267
 23
-50.01863020644305
 33
0.0
 14
-347.3544683529527
 24
-47.44282241930046
 34
0.0
100
AcDbRotatedDimension
1001
ACAD
1000
DSTYLE
1002
{
1070
    41
1040
4.0
1070
    44
1040
1.0
1070
    42
1040
1.0
1070
     6
1000
_OPEN
1070
     7
1000
_OPEN
1070
   173
1070
     1
1070
   140
1040
4.0
1070
   178
1070
     5
1070
   147
1040
0.5
1002
}
  0
DIMENSION
  5
529
330
1F
100
AcDbEntity
  8
LAYER-035
  6
Continuous
 62
     5
100
AcDbDimension
  2
*D24
 10
-419.9775315457964
 20
-37.58212820644258
 30
0.0
 11
-419.9775315457964
 21
94.91787179355742
 31
0.0
 70
   128
  1
<>
 71
     0
 42
0.0
  3
DIO_DIMSTYLE
100
AcDbAlignedDimension
 13
-326.3544683529527
 23
227.4178717935574
 33
0.0
 14
-379.8544683529527
 24
-37.58212820644258
 34
0.0
 50
90.0
100
AcDbRotatedDimension
1001
ACAD
1000
DSTYLE
1002
{
1070
    41
1040
4.0
1070
    44
1040
1.0
1070
    42
1040
1.0
1070
     6
1000
_OPEN
1070
     7
1000
_OPEN
1070
   173
1070
     1
1070
   140
1040
4.0
1070
   178
1070
     5
1070
   147
1040
0.5
1002
}
  0
DIMENSION
  5
533
330
1F
100
AcDbEntity
  8
LAYER-035
  6
Continuous
 62
     5
100
AcDbDimension
  2
*D35
 10
102.1033083216794
 20
-97.68016601221837
 30
0.0
 11
217.1033083216794
 21
-97.68016601221837
 31
0.0
 70
   129
  1
<>
 71
     0
 42
0.0
  3
DIO_DIMSTYLE
100
AcDbAlignedDimension
 13
332.1033083216794
 23
-37.58212820644258
 33
0.0
 14
102.1033083216794
 24
-37.58212820644258
 34
0.0
1001
ACAD
1000
DSTYLE
1002
{
1070
    41
1040
4.0
1070
    44
1040
1.0
1070
    42
1040
1.0
1070
     6
1000
_OPEN
1070
     7
1000
_OPEN
1070
   173
1070
     1
1070
   140
1040
4.0
1070
   178
1070
     5
1070
   147
1040
0.5
1002
}
  0
DIMENSION
  5
53D
330
1F
100
AcDbEntity
  8
LAYER-035
  6
Continuous
 62
     5
100
AcDbDimension
  2
*D46
 10
117.1033083216794
 20
-77.57814762926353
 30
0.0
 11
217.1033083216794
 21
-77.57814762926353
 31
0.0
 70
   129
  1
<>
 71
     0
 42
0.0
  3
DIO_DIMSTYLE
100
AcDbAlignedDimension
 13
317.1033083216794
 23
-50.01863020644305
 33
0.0
 14
117.1033083216794
 24
-50.01863020644305
 34
0.0
1001
ACAD
1000
DSTYLE
1002
{
1070
    41
1040
4.0
1070
    44
1040
1.0
1070
    42
1040
1.0
1070
     6
1000
_OPEN
1070
     7
1000
_OPEN
1070
   173
1070
     1
1070
   140
1040
4.0
1070
   178
1070
     5
1070
   147
1040
0.5
1002
}
  0
DIMENSION
  5
547
330
1F
100
AcDbEntity
  8
LAYER-035
  6
Continuous
 62
     5
100
AcDbDimension
  2
*D57
 10
337.1033083216794
 20
41.70221736153289
 30
0.0
 11
197.7692422669406
 21
41.70221736153289
 31
0.0
 70
   129
  1
<>
 71
     0
 42
0.0
  3
DIO_DIMSTYLE
100
AcDbAlignedDimension
 13
97.10330832167944
 23
92.41787179355742
 33
0.0
 14
337.1033083216794
 24
92.41787179355742
 34
0.0
1001
ACAD
1000
DSTYLE
1002
{
1070
    41
1040
4.0
1070
    44
1040
1.0
1070
    42
1040
1.0
1070
     6
1000
_OPEN
1070
     7
1000
_OPEN
1070
   173
1070
     1
1070
   140
1040
4.0
1070
   178
1070
     5
1070
   147
1040
0.5
1002
}
  0
DIMENSION
  5
551
330
1F
100
AcDbEntity
  8
LAYER-035
  6
Continuous
 62
     5
100
AcDbDimension
  2
*D68
 10
337.1033083216794
 20
69.70822350726218
 30
0.0
 11
362.1033083216794
 21
69.70822350726218
 31
0.0
 70
   128
  1
(<>)
 71
     0
 42
0.0
  3
DIO_DIMSTYLE
100
AcDbAlignedDimension
 13
387.1033083216794
 23
191.2300577935575
 33
0.0
 14
337.1033083216794
 24
92.41787179355742
 34
0.0
100
AcDbRotatedDimension
1001
ACAD
1000
DSTYLE
1002
{
1070
    41
1040
4.0
1070
    44
1040
1.0
1070
    42
1040
1.0
1070
     6
1000
_OPEN
1070
     7
1000
_OPEN
1070
   173
1070
     1
1070
   140
1040
4.0
1070
   178
1070
     5
1070
   147
1040
0.5
1002
}
  0
ENDSEC
  0
SECTION
  2
OBJECTS
  0
DICTIONARY
  5
C
330
0
100
AcDbDictionary
281
     1
  3
ACAD_GROUP
350
D
  3
ACAD_LAYOUT
350
1A
  3
ACAD_MLINESTYLE
350
17
  3
ACAD_PLOTSETTINGS
350
19
  3
ACAD_PLOTSTYLENAME
350
E
  0
DICTIONARY
  5
D
102
{ACAD_REACTORS
330
C
102
}
330
C
100
AcDbDictionary
281
     1
  0
DICTIONARY
  5
1A
102
{ACAD_REACTORS
330
C
102
}
330
C
100
AcDbDictionary
281
     1
  3
Model
350
22
  3
ﾚｲｱｳﾄ1
350
1E
  3
ﾚｲｱｳﾄ2
350
26
  0
DICTIONARY
  5
17
102
{ACAD_REACTORS
330
C
102
}
330
C
100
AcDbDictionary
281
     1
  3
Standard
350
18
  0
DICTIONARY
  5
19
102
{ACAD_REACTORS
330
C
102
}
330
C
100
AcDbDictionary
281
     1
  0
ACDBDICTIONARYWDFLT
  5
E
102
{ACAD_REACTORS
330
C
102
}
330
C
100
AcDbDictionary
281
     1
  3
Normal
350
F
100
AcDbDictionaryWithDefault
340
F
  0
LAYOUT
  5
22
102
{ACAD_REACTORS
330
1A
102
}
330
1A
100
AcDbPlotSettings
  1

  2
DWF ePlot.pc3
  4
ANSI_A_(8.50_x_11.00_Inches)
  6

 40
5.793749809265137
 41
17.79375076293945
 42
5.793746948242188
 43
17.79376220703125
 44
215.8999938964844
 45
279.3999938964844
 46
0.0
 47
0.0
 48
0.0
 49
0.0
140
0.0
141
0.0
142
1.0
143
39.26051453979704
 70
 11952
 72
     0
 73
     1
 74
     0
  7
acad.ctb
 75
     0
147
0.0254708837039396
148
-1793.922354682663
149
1.490346453088415
100
AcDbLayout
  1
Model
 70
     1
 71
     0
 10
-594.5
 20
-420.5
 11
594.5
 21
420.5
 12
0.0
 22
0.0
 32
0.0
 14
-594.5
 24
-420.5
 34
0.0
 15
594.5
 25
420.5
 35
0.0
146
0.0
 13
0.0
 23
0.0
 33
0.0
 16
1.0
 26
0.0
 36
0.0
 17
0.0
 27
1.0
 37
0.0
 76
     0
330
1F
  0
LAYOUT
  5
1E
102
{ACAD_REACTORS
330
1A
102
}
330
1A
100
AcDbPlotSettings
  1

  2
RICOH IPSiO NX700
  4

  6

 40
0.0
 41
0.0
 42
0.0
 43
0.0
 44
0.0
 45
0.0
 46
0.0
 47
0.0
 48
0.0
 49
0.0
140
0.0
141
0.0
142
1.0
143
1.0
 70
   688
 72
     0
 73
     0
 74
     5
  7
acad.ctb
 75
    16
147
1.0
148
0.0
149
0.0
100
AcDbLayout
  1
ﾚｲｱｳﾄ1
 70
     1
 71
     1
 10
-594.5
 20
-420.5
 11
594.5
 21
420.5
 12
0.0
 22
0.0
 32
0.0
 14
-594.5
 24
-420.5
 34
0.0
 15
594.5
 25
420.5
 35
0.0
146
0.0
 13
0.0
 23
0.0
 33
0.0
 16
1.0
 26
0.0
 36
0.0
 17
0.0
 27
1.0
 37
0.0
 76
     0
330
1B
  0
LAYOUT
  5
26
102
{ACAD_REACTORS
330
1A
102
}
330
1A
100
AcDbPlotSettings
  1

  2
RICOH IPSiO NX700
  4

  6

 40
0.0
 41
0.0
 42
0.0
 43
0.0
 44
0.0
 45
0.0
 46
0.0
 47
0.0
 48
0.0
 49
0.0
140
0.0
141
0.0
142
1.0
143
1.0
 70
   688
 72
     0
 73
     0
 74
     5
  7
acad.ctb
 75
    16
147
1.0
148
0.0
149
0.0
100
AcDbLayout
  1
ﾚｲｱｳﾄ2
 70
     1
 71
     2
 10
0.0
 20
0.0
 11
12.0
 21
9.0
 12
0.0
 22
0.0
 32
0.0
 14
0.0
 24
0.0
 34
0.0
 15
0.0
 25
0.0
 35
0.0
146
0.0
 13
0.0
 23
0.0
 33
0.0
 16
1.0
 26
0.0
 36
0.0
 17
0.0
 27
1.0
 37
0.0
 76
     0
330
23
  0
MLINESTYLE
  5
18
102
{ACAD_REACTORS
330
17
102
}
330
17
100
AcDbMlineStyle
  2
STANDARD
 70
     0
  3

 62
   256
 51
90.0
 52
90.0
 71
     2
 49
0.5
 62
   256
  6
BYLAYER
 49
-0.5
 62
   256
  6
BYLAYER
  0
ACDBPLACEHOLDER
  5
F
102
{ACAD_REACTORS
330
E
102
}
330
E
  0
ENDSEC
  0
EOF
