  0
SECTION
  2
HEADER
  9
$ACADVER
  1
AC1015
  9
$ACADMAINTVER
 70
     6
  9
$DWGCODEPAGE
  3
ANSI_932
  9
$INSBASE
 10
0.0
 20
0.0
 30
0.0
  9
$EXTMIN
 10
-594.5
 20
-420.5
 30
0.0
  9
$EXTMAX
 10
594.5
 20
420.5
 30
0.0
  9
$LIMMIN
 10
-594.5
 20
-420.5
  9
$LIMMAX
 10
594.5
 20
420.5
  9
$ORTHOMODE
 70
     0
  9
$REGENMODE
 70
     1
  9
$FILLMODE
 70
     1
  9
$QTEXTMODE
 70
     0
  9
$MIRRTEXT
 70
     1
  9
$LTSCALE
 40
4.0
  9
$ATTMODE
 70
     1
  9
$TEXTSIZE
 40
2.5
  9
$TRACEWID
 40
1.0
  9
$TEXTSTYLE
  7
Standard
  9
$CLAYER
  8
0
  9
$CELTYPE
  6
ByLayer
  9
$CECOLOR
 62
   256
  9
$CELTSCALE
 40
1.0
  9
$DISPSILH
 70
     0
  9
$DIMSCALE
 40
1.0
  9
$DIMASZ
 40
4.0
  9
$DIMEXO
 40
1.0
  9
$DIMDLI
 40
3.75
  9
$DIMRND
 40
0.1
  9
$DIMDLE
 40
0.0
  9
$DIMEXE
 40
1.0
  9
$DIMTP
 40
0.0
  9
$DIMTM
 40
0.0
  9
$DIMTXT
 40
2.5
  9
$DIMCEN
 40
2.5
  9
$DIMTSZ
 40
0.0
  9
$DIMTOL
 70
     0
  9
$DIMLIM
 70
     0
  9
$DIMTIH
 70
     0
  9
$DIMTOH
 70
     0
  9
$DIMSE1
 70
     0
  9
$DIMSE2
 70
     0
  9
$DIMTAD
 70
     1
  9
$DIMZIN
 70
     8
  9
$DIMBLK
  1

  9
$DIMASO
 70
     1
  9
$DIMSHO
 70
     1
  9
$DIMPOST
  1

  9
$DIMAPOST
  1

  9
$DIMALT
 70
     0
  9
$DIMALTD
 70
     3
  9
$DIMALTF
 40
0.03937007874016
  9
$DIMLFAC
 40
1.0
  9
$DIMTOFL
 70
     1
  9
$DIMTVP
 40
0.0
  9
$DIMTIX
 70
     0
  9
$DIMSOXD
 70
     0
  9
$DIMSAH
 70
     1
  9
$DIMBLK1
  1

  9
$DIMBLK2
  1

  9
$DIMSTYLE
  2
ISO-25
  9
$DIMCLRD
 70
     0
  9
$DIMCLRE
 70
     0
  9
$DIMCLRT
 70
     0
  9
$DIMTFAC
 40
1.0
  9
$DIMGAP
 40
0.5
  9
$DIMJUST
 70
     0
  9
$DIMSD1
 70
     0
  9
$DIMSD2
 70
     0
  9
$DIMTOLJ
 70
     0
  9
$DIMTZIN
 70
     8
  9
$DIMALTZ
 70
     0
  9
$DIMALTTZ
 70
     0
  9
$DIMUPT
 70
     1
  9
$DIMDEC
 70
     1
  9
$DIMTDEC
 70
     2
  9
$DIMALTU
 70
     2
  9
$DIMALTTD
 70
     3
  9
$DIMTXSTY
  7
Standard
  9
$DIMAUNIT
 70
     0
  9
$DIMADEC
 70
     1
  9
$DIMALTRND
 40
0.0
  9
$DIMAZIN
 70
     2
  9
$DIMDSEP
 70
    46
  9
$DIMATFIT
 70
     0
  9
$DIMFRAC
 70
     0
  9
$DIMLDRBLK
  1

  9
$DIMLUNIT
 70
     2
  9
$DIMLWD
 70
    -2
  9
$DIMLWE
 70
    -2
  9
$DIMTMOVE
 70
     0
  9
$LUNITS
 70
     2
  9
$LUPREC
 70
     4
  9
$SKETCHINC
 40
1.0
  9
$FILLETRAD
 40
10.0
  9
$AUNITS
 70
     0
  9
$AUPREC
 70
     0
  9
$MENU
  1
.
  9
$ELEVATION
 40
0.0
  9
$PELEVATION
 40
0.0
  9
$THICKNESS
 40
0.0
  9
$LIMCHECK
 70
     0
  9
$CHAMFERA
 40
10.0
  9
$CHAMFERB
 40
10.0
  9
$CHAMFERC
 40
20.0
  9
$CHAMFERD
 40
0.0
  9
$SKPOLY
 70
     0
  9
$TDCREATE
 40
2455091.0
  9
$TDUCREATE
 40
2451562.87528772
  9
$TDUPDATE
 40
2455121.0
  9
$TDUUPDATE
 40
2452026.917654526
  9
$TDINDWG
 40
0.0010008681
  9
$TDUSRTIMER
 40
0.0009680671
  9
$USRTIMER
 70
     1
  9
$ANGBASE
 50
0.0
  9
$ANGDIR
 70
     0
  9
$PDMODE
 70
     0
  9
$PDSIZE
 40
0.0
  9
$PLINEWID
 40
0.0
  9
$SPLFRAME
 70
     0
  9
$SPLINETYPE
 70
     6
  9
$SPLINESEGS
 70
     8
  9
$HANDSEED
  5
59E
  9
$SURFTAB1
 70
     6
  9
$SURFTAB2
 70
     6
  9
$SURFTYPE
 70
     6
  9
$SURFU
 70
     6
  9
$SURFV
 70
     6
  9
$UCSBASE
  2

  9
$UCSNAME
  2

  9
$UCSORG
 10
0.0
 20
0.0
 30
0.0
  9
$UCSXDIR
 10
1.0
 20
0.0
 30
0.0
  9
$UCSYDIR
 10
0.0
 20
1.0
 30
0.0
  9
$UCSORTHOREF
  2

  9
$UCSORTHOVIEW
 70
     0
  9
$UCSORGTOP
 10
0.0
 20
0.0
 30
0.0
  9
$UCSORGBOTTOM
 10
0.0
 20
0.0
 30
0.0
  9
$UCSORGLEFT
 10
0.0
 20
0.0
 30
0.0
  9
$UCSORGRIGHT
 10
0.0
 20
0.0
 30
0.0
  9
$UCSORGFRONT
 10
0.0
 20
0.0
 30
0.0
  9
$UCSORGBACK
 10
0.0
 20
0.0
 30
0.0
  9
$PUCSBASE
  2

  9
$PUCSNAME
  2

  9
$PUCSORG
 10
0.0
 20
0.0
 30
0.0
  9
$PUCSXDIR
 10
1.0
 20
0.0
 30
0.0
  9
$PUCSYDIR
 10
0.0
 20
1.0
 30
0.0
  9
$PUCSORTHOREF
  2

  9
$PUCSORTHOVIEW
 70
     0
  9
$PUCSORGTOP
 10
0.0
 20
0.0
 30
0.0
  9
$PUCSORGBOTTOM
 10
0.0
 20
0.0
 30
0.0
  9
$PUCSORGLEFT
 10
0.0
 20
0.0
 30
0.0
  9
$PUCSORGRIGHT
 10
0.0
 20
0.0
 30
0.0
  9
$PUCSORGFRONT
 10
0.0
 20
0.0
 30
0.0
  9
$PUCSORGBACK
 10
0.0
 20
0.0
 30
0.0
  9
$USERI1
 70
     0
  9
$USERI2
 70
     0
  9
$USERI3
 70
     0
  9
$USERI4
 70
     0
  9
$USERI5
 70
     0
  9
$USERR1
 40
0.0
  9
$USERR2
 40
0.0
  9
$USERR3
 40
0.0
  9
$USERR4
 40
0.0
  9
$USERR5
 40
0.0
  9
$WORLDVIEW
 70
     1
  9
$SHADEDGE
 70
     3
  9
$SHADEDIF
 70
    70
  9
$TILEMODE
 70
     1
  9
$MAXACTVP
 70
    64
  9
$PINSBASE
 10
0.0
 20
0.0
 30
0.0
  9
$PLIMCHECK
 70
     0
  9
$PEXTMIN
 10
-594.5
 20
-420.5
 30
0.0
  9
$PEXTMAX
 10
594.5
 20
420.5
 30
0.0
  9
$PLIMMIN
 10
-594.5
 20
-420.5
  9
$PLIMMAX
 10
594.5
 20
420.5
  9
$UNITMODE
 70
     0
  9
$VISRETAIN
 70
     1
  9
$PLINEGEN
 70
     0
  9
$PSLTSCALE
 70
     1
  9
$TREEDEPTH
 70
  3020
  9
$CMLSTYLE
  2
Standard
  9
$CMLJUST
 70
     0
  9
$CMLSCALE
 40
20.0
  9
$PROXYGRAPHICS
 70
     1
  9
$MEASUREMENT
 70
     1
  9
$CELWEIGHT
370
    -1
  9
$ENDCAPS
280
     0
  9
$JOINSTYLE
280
     0
  9
$LWDISPLAY
290
     0
  9
$INSUNITS
 70
     4
  9
$HYPERLINKBASE
  1

  9
$STYLESHEET
  1

  9
$XEDIT
290
     1
  9
$CEPSNTYPE
380
     0
  9
$PSTYLEMODE
290
     1
  9
$FINGERPRINTGUID
  2
{B6423330-CE35-11D3-AA43-00E0292263AD}
  9
$VERSIONGUID
  2
{EAA0F794-BAE8-4B09-85E0-65C527BE2B8E}
  9
$EXTNAMES
290
     1
  9
$PSVPSCALE
 40
0.0
  9
$OLESTARTUP
290
     0
  0
ENDSEC
  0
SECTION
  2
CLASSES
  0
CLASS
  1
ACDBDICTIONARYWDFLT
  2
AcDbDictionaryWithDefault
  3
ObjectDBX Classes
 90
        0
280
     0
281
     0
  0
CLASS
  1
ACDBPLACEHOLDER
  2
AcDbPlaceHolder
  3
ObjectDBX Classes
 90
        0
280
     0
281
     0
  0
CLASS
  1
LAYOUT
  2
AcDbLayout
  3
ObjectDBX Classes
 90
        0
280
     0
281
     0
  0
ENDSEC
  0
SECTION
  2
TABLES
  0
TABLE
  2
VPORT
  5
8
330
0
100
AcDbSymbolTable
 70
     3
  0
VPORT
  5
30
330
8
100
AcDbSymbolTableRecord
100
AcDbViewportTableRecord
  2
*Active
 70
     0
 10
0.0
 20
0.0
 11
1.0
 21
1.0
 12
259.0560661764706
 22
148.5
 13
0.0
 23
0.0
 14
10.0
 24
10.0
 15
10.0
 25
10.0
 16
0.0
 26
0.0
 36
1.0
 17
0.0
 27
0.0
 37
0.0
 40
297.1173501144164
 41
1.268382352941176
 42
50.0
 43
0.0
 44
0.0
 50
0.0
 51
0.0
 71
     0
 72
   100
 73
     1
 74
     3
 75
     0
 76
     0
 77
     0
 78
     0
281
     0
 65
     1
110
0.0
120
0.0
130
0.0
111
1.0
121
0.0
131
0.0
112
0.0
122
1.0
132
0.0
 79
     0
146
0.0
  0
ENDTAB
  0
TABLE
  2
LTYPE
  5
5
330
0
100
AcDbSymbolTable
 70
    26
  0
LTYPE
  5
14
330
5
100
AcDbSymbolTableRecord
100
AcDbLinetypeTableRecord
  2
ByBlock
 70
     0
  3

 72
    65
 73
     0
 40
0.0
  0
LTYPE
  5
15
330
5
100
AcDbSymbolTableRecord
100
AcDbLinetypeTableRecord
  2
ByLayer
 70
     0
  3

 72
    65
 73
     0
 40
0.0
  0
LTYPE
  5
16
330
5
100
AcDbSymbolTableRecord
100
AcDbLinetypeTableRecord
  2
Continuous
 70
     0
  3
Solid line
 72
    65
 73
     0
 40
0.0
  0
LTYPE
  5
37
330
5
100
AcDbSymbolTableRecord
100
AcDbLinetypeTableRecord
  2
BORDER
 70
     0
  3
 __ __ . __ __ . __ __ . __ __ . __ __ . __ __
 72
    65
 73
     6
 40
1.75
 49
0.5
 74
     0
 49
-0.25
 74
     0
 49
0.5
 74
     0
 49
-0.25
 74
     0
 49
0.0
 74
     0
 49
-0.25
 74
     0
  0
LTYPE
  5
38
330
5
100
AcDbSymbolTableRecord
100
AcDbLinetypeTableRecord
  2
BORDER2
 70
     0
  3
__.__.__.__.__.__.__.__.__.__.__.__.__.__.__
 72
    65
 73
     6
 40
0.875
 49
0.25
 74
     0
 49
-0.125
 74
     0
 49
0.25
 74
     0
 49
-0.125
 74
     0
 49
0.0
 74
     0
 49
-0.125
 74
     0
  0
LTYPE
  5
39
330
5
100
AcDbSymbolTableRecord
100
AcDbLinetypeTableRecord
  2
BORDERX2
 70
     0
  3
____  ____  .  ____  ____  .  ____  ____  .
 72
    65
 73
     6
 40
3.5
 49
1.0
 74
     0
 49
-0.5
 74
     0
 49
1.0
 74
     0
 49
-0.5
 74
     0
 49
0.0
 74
     0
 49
-0.5
 74
     0
  0
LTYPE
  5
3A
330
5
100
AcDbSymbolTableRecord
100
AcDbLinetypeTableRecord
  2
CENTER
 70
     0
  3
____ _ ____ _ ____ _ ____ _ ____ _ ____ _ ____
 72
    65
 73
     4
 40
2.0
 49
1.25
 74
     0
 49
-0.25
 74
     0
 49
0.25
 74
     0
 49
-0.25
 74
     0
  0
LTYPE
  5
3B
330
5
100
AcDbSymbolTableRecord
100
AcDbLinetypeTableRecord
  2
CENTER2
 70
     0
  3
___ _ ___ _ ___ _ ___ _ ___ _ ___ _ ___ _ ___ 
 72
    65
 73
     4
 40
1.125
 49
0.75
 74
     0
 49
-0.125
 74
     0
 49
0.125
 74
     0
 49
-0.125
 74
     0
  0
LTYPE
  5
3C
330
5
100
AcDbSymbolTableRecord
100
AcDbLinetypeTableRecord
  2
CENTERX2
 70
     0
  3
________  __  ________  __  ________  __
 72
    65
 73
     4
 40
4.0
 49
2.5
 74
     0
 49
-0.5
 74
     0
 49
0.5
 74
     0
 49
-0.5
 74
     0
  0
LTYPE
  5
3D
330
5
100
AcDbSymbolTableRecord
100
AcDbLinetypeTableRecord
  2
DASHDOT
 70
     0
  3
__ . __ . __ . __ . __ . __ . __ . __ . __ .
 72
    65
 73
     4
 40
1.0
 49
0.5
 74
     0
 49
-0.25
 74
     0
 49
0.0
 74
     0
 49
-0.25
 74
     0
  0
LTYPE
  5
3E
330
5
100
AcDbSymbolTableRecord
100
AcDbLinetypeTableRecord
  2
DASHDOT2
 70
     0
  3
_._._._._._._._._._._._._._._._._._._._._._._.
 72
    65
 73
     4
 40
0.5
 49
0.25
 74
     0
 49
-0.125
 74
     0
 49
0.0
 74
     0
 49
-0.125
 74
     0
  0
LTYPE
  5
3F
330
5
100
AcDbSymbolTableRecord
100
AcDbLinetypeTableRecord
  2
DASHDOTX2
 70
     0
  3
____  .  ____  .  ____  .  ____  .  ____  .
 72
    65
 73
     4
 40
2.0
 49
1.0
 74
     0
 49
-0.5
 74
     0
 49
0.0
 74
     0
 49
-0.5
 74
     0
  0
LTYPE
  5
40
330
5
100
AcDbSymbolTableRecord
100
AcDbLinetypeTableRecord
  2
DASHED
 70
     0
  3
__ __ __ __ __ __ __ __ __ __ __ __ __ __ __
 72
    65
 73
     2
 40
0.75
 49
0.5
 74
     0
 49
-0.25
 74
     0
  0
LTYPE
  5
41
330
5
100
AcDbSymbolTableRecord
100
AcDbLinetypeTableRecord
  2
DASHED2
 70
     0
  3
_ _ _ _ _ _ _ _ _ _ _ _ _ _ _ _ _ _ _ _ _ _ _
 72
    65
 73
     2
 40
0.375
 49
0.25
 74
     0
 49
-0.125
 74
     0
  0
LTYPE
  5
42
330
5
100
AcDbSymbolTableRecord
100
AcDbLinetypeTableRecord
  2
DASHEDX2
 70
     0
  3
____  ____  ____  ____  ____  ____  ____  ____
 72
    65
 73
     2
 40
1.5
 49
1.0
 74
     0
 49
-0.5
 74
     0
  0
LTYPE
  5
43
330
5
100
AcDbSymbolTableRecord
100
AcDbLinetypeTableRecord
  2
DIVIDE
 70
     0
  3
____ . . ____ . . ____ . . ____ . . ____ . .
 72
    65
 73
     6
 40
1.25
 49
0.5
 74
     0
 49
-0.25
 74
     0
 49
0.0
 74
     0
 49
-0.25
 74
     0
 49
0.0
 74
     0
 49
-0.25
 74
     0
  0
LTYPE
  5
44
330
5
100
AcDbSymbolTableRecord
100
AcDbLinetypeTableRecord
  2
DIVIDE2
 70
     0
  3
__..__..__..__..__..__..__..__..__..__..__..__
 72
    65
 73
     6
 40
0.625
 49
0.25
 74
     0
 49
-0.125
 74
     0
 49
0.0
 74
     0
 49
-0.125
 74
     0
 49
0.0
 74
     0
 49
-0.125
 74
     0
  0
LTYPE
  5
45
330
5
100
AcDbSymbolTableRecord
100
AcDbLinetypeTableRecord
  2
DIVIDEX2
 70
     0
  3
________  .  .  ________  .  .  ________  .  .
 72
    65
 73
     6
 40
2.5
 49
1.0
 74
     0
 49
-0.5
 74
     0
 49
0.0
 74
     0
 49
-0.5
 74
     0
 49
0.0
 74
     0
 49
-0.5
 74
     0
  0
LTYPE
  5
46
330
5
100
AcDbSymbolTableRecord
100
AcDbLinetypeTableRecord
  2
DOT
 70
     0
  3
. . . . . . . . . . . . . . . . . . . . . . .
 72
    65
 73
     2
 40
0.25
 49
0.0
 74
     0
 49
-0.25
 74
     0
  0
LTYPE
  5
47
330
5
100
AcDbSymbolTableRecord
100
AcDbLinetypeTableRecord
  2
DOT2
 70
     0
  3
..............................................
 72
    65
 73
     2
 40
0.125
 49
0.0
 74
     0
 49
-0.125
 74
     0
  0
LTYPE
  5
48
330
5
100
AcDbSymbolTableRecord
100
AcDbLinetypeTableRecord
  2
DOTX2
 70
     0
  3
.  .  .  .  .  .  .  .  .  .  .  .  .  .  .  .
 72
    65
 73
     2
 40
0.5
 49
0.0
 74
     0
 49
-0.5
 74
     0
  0
LTYPE
  5
49
330
5
100
AcDbSymbolTableRecord
100
AcDbLinetypeTableRecord
  2
HIDDEN
 70
     0
  3
__ __ __ __ __ __ __ __ __ __ __ __ __ __ __
 72
    65
 73
     2
 40
0.375
 49
0.25
 74
     0
 49
-0.125
 74
     0
  0
LTYPE
  5
4A
330
5
100
AcDbSymbolTableRecord
100
AcDbLinetypeTableRecord
  2
HIDDEN2
 70
     0
  3
_ _ _ _ _ _ _ _ _ _ _ _ _ _ _ _ _ _ _ _ _ _ _
 72
    65
 73
     2
 40
0.1875
 49
0.125
 74
     0
 49
-0.0625
 74
     0
  0
LTYPE
  5
4B
330
5
100
AcDbSymbolTableRecord
100
AcDbLinetypeTableRecord
  2
HIDDENX2
 70
     0
  3
____ ____ ____ ____ ____ ____ ____ ____ ____
 72
    65
 73
     2
 40
0.75
 49
0.5
 74
     0
 49
-0.25
 74
     0
  0
LTYPE
  5
4C
330
5
100
AcDbSymbolTableRecord
100
AcDbLinetypeTableRecord
  2
PHANTOM
 70
     0
  3
______  __  __  ______  __  __  ______  __
 72
    65
 73
     6
 40
2.5
 49
1.25
 74
     0
 49
-0.25
 74
     0
 49
0.25
 74
     0
 49
-0.25
 74
     0
 49
0.25
 74
     0
 49
-0.25
 74
     0
  0
LTYPE
  5
4D
330
5
100
AcDbSymbolTableRecord
100
AcDbLinetypeTableRecord
  2
PHANTOM2
 70
     0
  3
___ _ _ ___ _ _ ___ _ _ ___ _ _ ___ _ _ ___ _
 72
    65
 73
     6
 40
1.25
 49
0.625
 74
     0
 49
-0.125
 74
     0
 49
0.125
 74
     0
 49
-0.125
 74
     0
 49
0.125
 74
     0
 49
-0.125
 74
     0
  0
LTYPE
  5
4E
330
5
100
AcDbSymbolTableRecord
100
AcDbLinetypeTableRecord
  2
PHANTOMX2
 70
     0
  3
____________    ____    ____    ____________
 72
    65
 73
     6
 40
5.0
 49
2.5
 74
     0
 49
-0.5
 74
     0
 49
0.5
 74
     0
 49
-0.5
 74
     0
 49
0.5
 74
     0
 49
-0.5
 74
     0
  0
LTYPE
  5
4F
330
5
100
AcDbSymbolTableRecord
100
AcDbLinetypeTableRecord
  2
CONTINUOUS2
 70
     0
  3
Solid line
 72
    65
 73
     0
 40
0.0
  0
ENDTAB
  0
TABLE
  2
LAYER
  5
2
330
0
100
AcDbSymbolTable
 70
   514
  0
LAYER
  5
10
330
2
100
AcDbSymbolTableRecord
100
AcDbLayerTableRecord
  2
0
 70
     0
 62
     7
  6
Continuous
370
    -3
390
F
  0
LAYER
  5
50
330
2
100
AcDbSymbolTableRecord
100
AcDbLayerTableRecord
  2
LAYER-001
 70
     0
 62
     7
  6
Continuous
370
    -3
390
F
  0
LAYER
  5
51
330
2
100
AcDbSymbolTableRecord
100
AcDbLayerTableRecord
  2
LAYER-002
 70
     0
 62
     7
  6
Continuous
370
    -3
390
F
  0
LAYER
  5
52
330
2
100
AcDbSymbolTableRecord
100
AcDbLayerTableRecord
  2
LAYER-003
 70
     0
 62
     7
  6
Continuous
370
    -3
390
F
  0
LAYER
  5
53
330
2
100
AcDbSymbolTableRecord
100
AcDbLayerTableRecord
  2
LAYER-004
 70
     0
 62
     7
  6
Continuous
370
    -3
390
F
  0
LAYER
  5
54
330
2
100
AcDbSymbolTableRecord
100
AcDbLayerTableRecord
  2
LAYER-005
 70
     0
 62
     7
  6
Continuous
370
    -3
390
F
  0
LAYER
  5
55
330
2
100
AcDbSymbolTableRecord
100
AcDbLayerTableRecord
  2
LAYER-006
 70
     0
 62
     7
  6
Continuous
370
    -3
390
F
  0
LAYER
  5
56
330
2
100
AcDbSymbolTableRecord
100
AcDbLayerTableRecord
  2
LAYER-007
 70
     0
 62
     7
  6
Continuous
370
    -3
390
F
  0
LAYER
  5
57
330
2
100
AcDbSymbolTableRecord
100
AcDbLayerTableRecord
  2
LAYER-008
 70
     0
 62
     7
  6
Continuous
370
    -3
390
F
  0
LAYER
  5
58
330
2
100
AcDbSymbolTableRecord
100
AcDbLayerTableRecord
  2
LAYER-009
 70
     0
 62
     7
  6
Continuous
370
    -3
390
F
  0
LAYER
  5
59
330
2
100
AcDbSymbolTableRecord
100
AcDbLayerTableRecord
  2
LAYER-010
 70
     0
 62
     7
  6
Continuous
370
    -3
390
F
  0
LAYER
  5
5A
330
2
100
AcDbSymbolTableRecord
100
AcDbLayerTableRecord
  2
LAYER-011
 70
     0
 62
     7
  6
Continuous
370
    -3
390
F
  0
LAYER
  5
5B
330
2
100
AcDbSymbolTableRecord
100
AcDbLayerTableRecord
  2
LAYER-012
 70
     0
 62
     7
  6
Continuous
370
    -3
390
F
  0
LAYER
  5
5C
330
2
100
AcDbSymbolTableRecord
100
AcDbLayerTableRecord
  2
LAYER-013
 70
     0
 62
     7
  6
Continuous
370
    -3
390
F
  0
LAYER
  5
5D
330
2
100
AcDbSymbolTableRecord
100
AcDbLayerTableRecord
  2
LAYER-014
 70
     0
 62
     7
  6
Continuous
370
    -3
390
F
  0
LAYER
  5
5E
330
2
100
AcDbSymbolTableRecord
100
AcDbLayerTableRecord
  2
LAYER-015
 70
     0
 62
    -7
  6
Continuous
370
    -3
390
F
  0
LAYER
  5
5F
330
2
100
AcDbSymbolTableRecord
100
AcDbLayerTableRecord
  2
LAYER-016
 70
     0
 62
     4
  6
Continuous
370
    -3
390
F
  0
LAYER
  5
60
330
2
100
AcDbSymbolTableRecord
100
AcDbLayerTableRecord
  2
LAYER-017
 70
     0
 62
     7
  6
Continuous
370
    -3
390
F
  0
LAYER
  5
61
330
2
100
AcDbSymbolTableRecord
100
AcDbLayerTableRecord
  2
LAYER-018
 70
     0
 62
     2
  6
Continuous
370
    -3
390
F
  0
LAYER
  5
62
330
2
100
AcDbSymbolTableRecord
100
AcDbLayerTableRecord
  2
LAYER-019
 70
     0
 62
     3
  6
Continuous
370
    -3
390
F
  0
LAYER
  5
63
330
2
100
AcDbSymbolTableRecord
100
AcDbLayerTableRecord
  2
LAYER-020
 70
     0
 62
     2
  6
Continuous
370
    -3
390
F
  0
LAYER
  5
64
330
2
100
AcDbSymbolTableRecord
100
AcDbLayerTableRecord
  2
LAYER-021
 70
     0
 62
     7
  6
Continuous
370
    -3
390
F
  0
LAYER
  5
65
330
2
100
AcDbSymbolTableRecord
100
AcDbLayerTableRecord
  2
LAYER-022
 70
     0
 62
     4
  6
Continuous
370
    -3
390
F
  0
LAYER
  5
66
330
2
100
AcDbSymbolTableRecord
100
AcDbLayerTableRecord
  2
LAYER-023
 70
     0
 62
     4
  6
Continuous
370
    -3
390
F
  0
LAYER
  5
67
330
2
100
AcDbSymbolTableRecord
100
AcDbLayerTableRecord
  2
LAYER-024
 70
     0
 62
     7
  6
Continuous
370
    -3
390
F
  0
LAYER
  5
68
330
2
100
AcDbSymbolTableRecord
100
AcDbLayerTableRecord
  2
LAYER-025
 70
     0
 62
     7
  6
Continuous
370
    -3
390
F
  0
LAYER
  5
69
330
2
100
AcDbSymbolTableRecord
100
AcDbLayerTableRecord
  2
LAYER-026
 70
     0
 62
    -7
  6
Continuous
370
    -3
390
F
  0
LAYER
  5
6A
330
2
100
AcDbSymbolTableRecord
100
AcDbLayerTableRecord
  2
LAYER-027
 70
     0
 62
     7
  6
Continuous
370
    -3
390
F
  0
LAYER
  5
6B
330
2
100
AcDbSymbolTableRecord
100
AcDbLayerTableRecord
  2
LAYER-028
 70
     0
 62
     7
  6
Continuous
370
    -3
390
F
  0
LAYER
  5
6C
330
2
100
AcDbSymbolTableRecord
100
AcDbLayerTableRecord
  2
LAYER-029
 70
     0
 62
     7
  6
Continuous
370
    -3
390
F
  0
LAYER
  5
6D
330
2
100
AcDbSymbolTableRecord
100
AcDbLayerTableRecord
  2
LAYER-030
 70
     0
 62
     2
  6
Continuous
370
    -3
390
F
  0
LAYER
  5
6E
330
2
100
AcDbSymbolTableRecord
100
AcDbLayerTableRecord
  2
LAYER-031
 70
     0
 62
     7
  6
Continuous
370
    -3
390
F
  0
LAYER
  5
6F
330
2
100
AcDbSymbolTableRecord
100
AcDbLayerTableRecord
  2
LAYER-032
 70
     0
 62
     2
  6
Continuous
370
    -3
390
F
  0
LAYER
  5
70
330
2
100
AcDbSymbolTableRecord
100
AcDbLayerTableRecord
  2
LAYER-033
 70
     0
 62
     7
  6
Continuous
370
    -3
390
F
  0
LAYER
  5
71
330
2
100
AcDbSymbolTableRecord
100
AcDbLayerTableRecord
  2
LAYER-034
 70
     0
 62
     7
  6
Continuous
370
    -3
390
F
  0
LAYER
  5
72
330
2
100
AcDbSymbolTableRecord
100
AcDbLayerTableRecord
  2
LAYER-035
 70
     0
 62
     3
  6
Continuous
370
    -3
390
F
  0
LAYER
  5
73
330
2
100
AcDbSymbolTableRecord
100
AcDbLayerTableRecord
  2
LAYER-036
 70
     0
 62
     2
  6
Continuous
370
    -3
390
F
  0
LAYER
  5
74
330
2
100
AcDbSymbolTableRecord
100
AcDbLayerTableRecord
  2
LAYER-037
 70
     0
 62
     7
  6
Continuous
370
    -3
390
F
  0
LAYER
  5
75
330
2
100
AcDbSymbolTableRecord
100
AcDbLayerTableRecord
  2
LAYER-038
 70
     0
 62
     7
  6
Continuous
370
    -3
390
F
  0
LAYER
  5
76
330
2
100
AcDbSymbolTableRecord
100
AcDbLayerTableRecord
  2
LAYER-039
 70
     0
 62
     7
  6
Continuous
370
    -3
390
F
  0
LAYER
  5
77
330
2
100
AcDbSymbolTableRecord
100
AcDbLayerTableRecord
  2
LAYER-040
 70
     0
 62
     7
  6
Continuous
370
    -3
390
F
  0
LAYER
  5
78
330
2
100
AcDbSymbolTableRecord
100
AcDbLayerTableRecord
  2
LAYER-041
 70
     0
 62
     7
  6
Continuous
370
    -3
390
F
  0
LAYER
  5
79
330
2
100
AcDbSymbolTableRecord
100
AcDbLayerTableRecord
  2
LAYER-042
 70
     0
 62
     7
  6
Continuous
370
    -3
390
F
  0
LAYER
  5
7A
330
2
100
AcDbSymbolTableRecord
100
AcDbLayerTableRecord
  2
LAYER-043
 70
     0
 62
     7
  6
Continuous
370
    -3
390
F
  0
LAYER
  5
7B
330
2
100
AcDbSymbolTableRecord
100
AcDbLayerTableRecord
  2
LAYER-044
 70
     0
 62
     7
  6
Continuous
370
    -3
390
F
  0
LAYER
  5
7C
330
2
100
AcDbSymbolTableRecord
100
AcDbLayerTableRecord
  2
LAYER-045
 70
     0
 62
     7
  6
Continuous
370
    -3
390
F
  0
LAYER
  5
7D
330
2
100
AcDbSymbolTableRecord
100
AcDbLayerTableRecord
  2
LAYER-046
 70
     0
 62
     7
  6
Continuous
370
    -3
390
F
  0
LAYER
  5
7E
330
2
100
AcDbSymbolTableRecord
100
AcDbLayerTableRecord
  2
LAYER-047
 70
     0
 62
     7
  6
Continuous
370
    -3
390
F
  0
LAYER
  5
7F
330
2
100
AcDbSymbolTableRecord
100
AcDbLayerTableRecord
  2
LAYER-048
 70
     0
 62
     2
  6
Continuous
370
    -3
390
F
  0
LAYER
  5
80
330
2
100
AcDbSymbolTableRecord
100
AcDbLayerTableRecord
  2
LAYER-049
 70
     0
 62
     3
  6
Continuous
370
    -3
390
F
  0
LAYER
  5
81
330
2
100
AcDbSymbolTableRecord
100
AcDbLayerTableRecord
  2
LAYER-050
 70
     0
 62
     7
  6
Continuous
370
    -3
390
F
  0
LAYER
  5
82
330
2
100
AcDbSymbolTableRecord
100
AcDbLayerTableRecord
  2
LAYER-051
 70
     0
 62
     2
  6
Continuous
370
    -3
390
F
  0
LAYER
  5
83
330
2
100
AcDbSymbolTableRecord
100
AcDbLayerTableRecord
  2
LAYER-052
 70
     0
 62
     7
  6
Continuous
370
    -3
390
F
  0
LAYER
  5
84
330
2
100
AcDbSymbolTableRecord
100
AcDbLayerTableRecord
  2
LAYER-053
 70
     0
 62
     7
  6
Continuous
370
    -3
390
F
  0
LAYER
  5
85
330
2
100
AcDbSymbolTableRecord
100
AcDbLayerTableRecord
  2
LAYER-054
 70
     0
 62
     7
  6
Continuous
370
    -3
390
F
  0
LAYER
  5
86
330
2
100
AcDbSymbolTableRecord
100
AcDbLayerTableRecord
  2
LAYER-055
 70
     0
 62
     7
  6
Continuous
370
    -3
390
F
  0
LAYER
  5
87
330
2
100
AcDbSymbolTableRecord
100
AcDbLayerTableRecord
  2
LAYER-056
 70
     0
 62
     7
  6
Continuous
370
    -3
390
F
  0
LAYER
  5
88
330
2
100
AcDbSymbolTableRecord
100
AcDbLayerTableRecord
  2
LAYER-057
 70
     0
 62
     7
  6
Continuous
370
    -3
390
F
  0
LAYER
  5
89
330
2
100
AcDbSymbolTableRecord
100
AcDbLayerTableRecord
  2
LAYER-058
 70
     0
 62
     7
  6
Continuous
370
    -3
390
F
  0
LAYER
  5
8A
330
2
100
AcDbSymbolTableRecord
100
AcDbLayerTableRecord
  2
LAYER-059
 70
     0
 62
     7
  6
Continuous
370
    -3
390
F
  0
LAYER
  5
8B
330
2
100
AcDbSymbolTableRecord
100
AcDbLayerTableRecord
  2
LAYER-060
 70
     0
 62
     7
  6
Continuous
370
    -3
390
F
  0
LAYER
  5
8C
330
2
100
AcDbSymbolTableRecord
100
AcDbLayerTableRecord
  2
LAYER-061
 70
     0
 62
     7
  6
Continuous
370
    -3
390
F
  0
LAYER
  5
8D
330
2
100
AcDbSymbolTableRecord
100
AcDbLayerTableRecord
  2
LAYER-062
 70
     0
 62
     7
  6
Continuous
370
    -3
390
F
  0
LAYER
  5
8E
330
2
100
AcDbSymbolTableRecord
100
AcDbLayerTableRecord
  2
LAYER-063
 70
     0
 62
     7
  6
Continuous
370
    -3
390
F
  0
LAYER
  5
8F
330
2
100
AcDbSymbolTableRecord
100
AcDbLayerTableRecord
  2
LAYER-064
 70
     0
 62
     2
  6
Continuous
370
    -3
390
F
  0
LAYER
  5
90
330
2
100
AcDbSymbolTableRecord
100
AcDbLayerTableRecord
  2
LAYER-065
 70
     0
 62
     7
  6
Continuous
370
    -3
390
F
  0
LAYER
  5
91
330
2
100
AcDbSymbolTableRecord
100
AcDbLayerTableRecord
  2
LAYER-066
 70
     0
 62
     2
  6
Continuous
370
    -3
390
F
  0
LAYER
  5
92
330
2
100
AcDbSymbolTableRecord
100
AcDbLayerTableRecord
  2
LAYER-067
 70
     0
 62
     2
  6
Continuous
370
    -3
390
F
  0
LAYER
  5
93
330
2
100
AcDbSymbolTableRecord
100
AcDbLayerTableRecord
  2
LAYER-068
 70
     0
 62
     7
  6
Continuous
370
    -3
390
F
  0
LAYER
  5
94
330
2
100
AcDbSymbolTableRecord
100
AcDbLayerTableRecord
  2
LAYER-069
 70
     0
 62
     7
  6
Continuous
370
    -3
390
F
  0
LAYER
  5
95
330
2
100
AcDbSymbolTableRecord
100
AcDbLayerTableRecord
  2
LAYER-070
 70
     0
 62
     7
  6
Continuous
370
    -3
390
F
  0
LAYER
  5
96
330
2
100
AcDbSymbolTableRecord
100
AcDbLayerTableRecord
  2
LAYER-071
 70
     0
 62
     7
  6
Continuous
370
    -3
390
F
  0
LAYER
  5
97
330
2
100
AcDbSymbolTableRecord
100
AcDbLayerTableRecord
  2
LAYER-072
 70
     0
 62
     7
  6
Continuous
370
    -3
390
F
  0
LAYER
  5
98
330
2
100
AcDbSymbolTableRecord
100
AcDbLayerTableRecord
  2
LAYER-073
 70
     0
 62
     7
  6
Continuous
370
    -3
390
F
  0
LAYER
  5
99
330
2
100
AcDbSymbolTableRecord
100
AcDbLayerTableRecord
  2
LAYER-074
 70
     0
 62
     7
  6
Continuous
370
    -3
390
F
  0
LAYER
  5
9A
330
2
100
AcDbSymbolTableRecord
100
AcDbLayerTableRecord
  2
LAYER-075
 70
     0
 62
     7
  6
Continuous
370
    -3
390
F
  0
LAYER
  5
9B
330
2
100
AcDbSymbolTableRecord
100
AcDbLayerTableRecord
  2
LAYER-076
 70
     0
 62
     7
  6
Continuous
370
    -3
390
F
  0
LAYER
  5
9C
330
2
100
AcDbSymbolTableRecord
100
AcDbLayerTableRecord
  2
LAYER-077
 70
     0
 62
     7
  6
Continuous
370
    -3
390
F
  0
LAYER
  5
9D
330
2
100
AcDbSymbolTableRecord
100
AcDbLayerTableRecord
  2
LAYER-078
 70
     0
 62
     7
  6
Continuous
370
    -3
390
F
  0
LAYER
  5
9E
330
2
100
AcDbSymbolTableRecord
100
AcDbLayerTableRecord
  2
LAYER-079
 70
     0
 62
     7
  6
Continuous
370
    -3
390
F
  0
LAYER
  5
9F
330
2
100
AcDbSymbolTableRecord
100
AcDbLayerTableRecord
  2
LAYER-080
 70
     0
 62
     2
  6
Continuous
370
    -3
390
F
  0
LAYER
  5
A0
330
2
100
AcDbSymbolTableRecord
100
AcDbLayerTableRecord
  2
LAYER-081
 70
     0
 62
     7
  6
Continuous
370
    -3
390
F
  0
LAYER
  5
A1
330
2
100
AcDbSymbolTableRecord
100
AcDbLayerTableRecord
  2
LAYER-082
 70
     0
 62
     7
  6
Continuous
370
    -3
390
F
  0
LAYER
  5
A2
330
2
100
AcDbSymbolTableRecord
100
AcDbLayerTableRecord
  2
LAYER-083
 70
     0
 62
     7
  6
Continuous
370
    -3
390
F
  0
LAYER
  5
A3
330
2
100
AcDbSymbolTableRecord
100
AcDbLayerTableRecord
  2
LAYER-084
 70
     0
 62
     7
  6
Continuous
370
    -3
390
F
  0
LAYER
  5
A4
330
2
100
AcDbSymbolTableRecord
100
AcDbLayerTableRecord
  2
LAYER-085
 70
     0
 62
     7
  6
Continuous
370
    -3
390
F
  0
LAYER
  5
A5
330
2
100
AcDbSymbolTableRecord
100
AcDbLayerTableRecord
  2
LAYER-086
 70
     0
 62
     7
  6
Continuous
370
    -3
390
F
  0
LAYER
  5
A6
330
2
100
AcDbSymbolTableRecord
100
AcDbLayerTableRecord
  2
LAYER-087
 70
     0
 62
     7
  6
Continuous
370
    -3
390
F
  0
LAYER
  5
A7
330
2
100
AcDbSymbolTableRecord
100
AcDbLayerTableRecord
  2
LAYER-088
 70
     0
 62
     7
  6
Continuous
370
    -3
390
F
  0
LAYER
  5
A8
330
2
100
AcDbSymbolTableRecord
100
AcDbLayerTableRecord
  2
LAYER-089
 70
     0
 62
     7
  6
Continuous
370
    -3
390
F
  0
LAYER
  5
A9
330
2
100
AcDbSymbolTableRecord
100
AcDbLayerTableRecord
  2
LAYER-090
 70
     0
 62
     7
  6
Continuous
370
    -3
390
F
  0
LAYER
  5
AA
330
2
100
AcDbSymbolTableRecord
100
AcDbLayerTableRecord
  2
LAYER-091
 70
     0
 62
     7
  6
Continuous
370
    -3
390
F
  0
LAYER
  5
AB
330
2
100
AcDbSymbolTableRecord
100
AcDbLayerTableRecord
  2
LAYER-092
 70
     0
 62
     7
  6
Continuous
370
    -3
390
F
  0
LAYER
  5
AC
330
2
100
AcDbSymbolTableRecord
100
AcDbLayerTableRecord
  2
LAYER-093
 70
     0
 62
     7
  6
Continuous
370
    -3
390
F
  0
LAYER
  5
AD
330
2
100
AcDbSymbolTableRecord
100
AcDbLayerTableRecord
  2
LAYER-094
 70
     0
 62
     7
  6
Continuous
370
    -3
390
F
  0
LAYER
  5
AE
330
2
100
AcDbSymbolTableRecord
100
AcDbLayerTableRecord
  2
LAYER-095
 70
     0
 62
     7
  6
Continuous
370
    -3
390
F
  0
LAYER
  5
AF
330
2
100
AcDbSymbolTableRecord
100
AcDbLayerTableRecord
  2
LAYER-096
 70
     0
 62
     7
  6
Continuous
370
    -3
390
F
  0
LAYER
  5
B0
330
2
100
AcDbSymbolTableRecord
100
AcDbLayerTableRecord
  2
LAYER-097
 70
     0
 62
     7
  6
Continuous
370
    -3
390
F
  0
LAYER
  5
B1
330
2
100
AcDbSymbolTableRecord
100
AcDbLayerTableRecord
  2
LAYER-098
 70
     0
 62
     7
  6
Continuous
370
    -3
390
F
  0
LAYER
  5
B2
330
2
100
AcDbSymbolTableRecord
100
AcDbLayerTableRecord
  2
LAYER-099
 70
     0
 62
     7
  6
Continuous
370
    -3
390
F
  0
LAYER
  5
B3
330
2
100
AcDbSymbolTableRecord
100
AcDbLayerTableRecord
  2
LAYER-100
 70
     0
 62
     7
  6
Continuous
370
    -3
390
F
  0
LAYER
  5
B4
330
2
100
AcDbSymbolTableRecord
100
AcDbLayerTableRecord
  2
LAYER-101
 70
     0
 62
     7
  6
Continuous
370
    -3
390
F
  0
LAYER
  5
B5
330
2
100
AcDbSymbolTableRecord
100
AcDbLayerTableRecord
  2
LAYER-102
 70
     0
 62
     7
  6
Continuous
370
    -3
390
F
  0
LAYER
  5
B6
330
2
100
AcDbSymbolTableRecord
100
AcDbLayerTableRecord
  2
LAYER-103
 70
     0
 62
     7
  6
Continuous
370
    -3
390
F
  0
LAYER
  5
B7
330
2
100
AcDbSymbolTableRecord
100
AcDbLayerTableRecord
  2
LAYER-104
 70
     0
 62
     7
  6
Continuous
370
    -3
390
F
  0
LAYER
  5
B8
330
2
100
AcDbSymbolTableRecord
100
AcDbLayerTableRecord
  2
LAYER-105
 70
     0
 62
     7
  6
Continuous
370
    -3
390
F
  0
LAYER
  5
B9
330
2
100
AcDbSymbolTableRecord
100
AcDbLayerTableRecord
  2
LAYER-106
 70
     0
 62
     7
  6
Continuous
370
    -3
390
F
  0
LAYER
  5
BA
330
2
100
AcDbSymbolTableRecord
100
AcDbLayerTableRecord
  2
LAYER-107
 70
     0
 62
     7
  6
Continuous
370
    -3
390
F
  0
LAYER
  5
BB
330
2
100
AcDbSymbolTableRecord
100
AcDbLayerTableRecord
  2
LAYER-108
 70
     0
 62
     7
  6
Continuous
370
    -3
390
F
  0
LAYER
  5
BC
330
2
100
AcDbSymbolTableRecord
100
AcDbLayerTableRecord
  2
LAYER-109
 70
     0
 62
     7
  6
Continuous
370
    -3
390
F
  0
LAYER
  5
BD
330
2
100
AcDbSymbolTableRecord
100
AcDbLayerTableRecord
  2
LAYER-110
 70
     0
 62
     7
  6
Continuous
370
    -3
390
F
  0
LAYER
  5
BE
330
2
100
AcDbSymbolTableRecord
100
AcDbLayerTableRecord
  2
LAYER-111
 70
     0
 62
     7
  6
Continuous
370
    -3
390
F
  0
LAYER
  5
BF
330
2
100
AcDbSymbolTableRecord
100
AcDbLayerTableRecord
  2
LAYER-112
 70
     0
 62
     7
  6
Continuous
370
    -3
390
F
  0
LAYER
  5
C0
330
2
100
AcDbSymbolTableRecord
100
AcDbLayerTableRecord
  2
LAYER-113
 70
     0
 62
     7
  6
Continuous
370
    -3
390
F
  0
LAYER
  5
C1
330
2
100
AcDbSymbolTableRecord
100
AcDbLayerTableRecord
  2
LAYER-114
 70
     0
 62
     7
  6
Continuous
370
    -3
390
F
  0
LAYER
  5
C2
330
2
100
AcDbSymbolTableRecord
100
AcDbLayerTableRecord
  2
LAYER-115
 70
     0
 62
     7
  6
Continuous
370
    -3
390
F
  0
LAYER
  5
C3
330
2
100
AcDbSymbolTableRecord
100
AcDbLayerTableRecord
  2
LAYER-116
 70
     0
 62
     7
  6
Continuous
370
    -3
390
F
  0
LAYER
  5
C4
330
2
100
AcDbSymbolTableRecord
100
AcDbLayerTableRecord
  2
LAYER-117
 70
     0
 62
     7
  6
Continuous
370
    -3
390
F
  0
LAYER
  5
C5
330
2
100
AcDbSymbolTableRecord
100
AcDbLayerTableRecord
  2
LAYER-118
 70
     0
 62
     7
  6
Continuous
370
    -3
390
F
  0
LAYER
  5
C6
330
2
100
AcDbSymbolTableRecord
100
AcDbLayerTableRecord
  2
LAYER-119
 70
     0
 62
     7
  6
Continuous
370
    -3
390
F
  0
LAYER
  5
C7
330
2
100
AcDbSymbolTableRecord
100
AcDbLayerTableRecord
  2
LAYER-120
 70
     0
 62
     7
  6
Continuous
370
    -3
390
F
  0
LAYER
  5
C8
330
2
100
AcDbSymbolTableRecord
100
AcDbLayerTableRecord
  2
LAYER-121
 70
     0
 62
     7
  6
Continuous
370
    -3
390
F
  0
LAYER
  5
C9
330
2
100
AcDbSymbolTableRecord
100
AcDbLayerTableRecord
  2
LAYER-122
 70
     0
 62
     7
  6
Continuous
370
    -3
390
F
  0
LAYER
  5
CA
330
2
100
AcDbSymbolTableRecord
100
AcDbLayerTableRecord
  2
LAYER-123
 70
     0
 62
     7
  6
Continuous
370
    -3
390
F
  0
LAYER
  5
CB
330
2
100
AcDbSymbolTableRecord
100
AcDbLayerTableRecord
  2
LAYER-124
 70
     0
 62
     7
  6
Continuous
370
    -3
390
F
  0
LAYER
  5
CC
330
2
100
AcDbSymbolTableRecord
100
AcDbLayerTableRecord
  2
LAYER-125
 70
     0
 62
     7
  6
Continuous
370
    -3
390
F
  0
LAYER
  5
CD
330
2
100
AcDbSymbolTableRecord
100
AcDbLayerTableRecord
  2
LAYER-126
 70
     0
 62
     7
  6
Continuous
370
    -3
390
F
  0
LAYER
  5
CE
330
2
100
AcDbSymbolTableRecord
100
AcDbLayerTableRecord
  2
LAYER-127
 70
     0
 62
     7
  6
Continuous
370
    -3
390
F
  0
LAYER
  5
CF
330
2
100
AcDbSymbolTableRecord
100
AcDbLayerTableRecord
  2
LAYER-128
 70
     0
 62
     7
  6
Continuous
370
    -3
390
F
  0
LAYER
  5
D0
330
2
100
AcDbSymbolTableRecord
100
AcDbLayerTableRecord
  2
LAYER-129
 70
     0
 62
     7
  6
Continuous
370
    -3
390
F
  0
LAYER
  5
D1
330
2
100
AcDbSymbolTableRecord
100
AcDbLayerTableRecord
  2
LAYER-130
 70
     0
 62
     7
  6
Continuous
370
    -3
390
F
  0
LAYER
  5
D2
330
2
100
AcDbSymbolTableRecord
100
AcDbLayerTableRecord
  2
LAYER-131
 70
     0
 62
     7
  6
Continuous
370
    -3
390
F
  0
LAYER
  5
D3
330
2
100
AcDbSymbolTableRecord
100
AcDbLayerTableRecord
  2
LAYER-132
 70
     0
 62
     7
  6
Continuous
370
    -3
390
F
  0
LAYER
  5
D4
330
2
100
AcDbSymbolTableRecord
100
AcDbLayerTableRecord
  2
LAYER-133
 70
     0
 62
     7
  6
Continuous
370
    -3
390
F
  0
LAYER
  5
D5
330
2
100
AcDbSymbolTableRecord
100
AcDbLayerTableRecord
  2
LAYER-134
 70
     0
 62
     7
  6
Continuous
370
    -3
390
F
  0
LAYER
  5
D6
330
2
100
AcDbSymbolTableRecord
100
AcDbLayerTableRecord
  2
LAYER-135
 70
     0
 62
    -4
  6
Continuous
370
    -3
390
F
  0
LAYER
  5
D7
330
2
100
AcDbSymbolTableRecord
100
AcDbLayerTableRecord
  2
LAYER-136
 70
     0
 62
    -3
  6
Continuous
370
    -3
390
F
  0
LAYER
  5
D8
330
2
100
AcDbSymbolTableRecord
100
AcDbLayerTableRecord
  2
LAYER-137
 70
     0
 62
    -1
  6
Continuous
370
    -3
390
F
  0
LAYER
  5
D9
330
2
100
AcDbSymbolTableRecord
100
AcDbLayerTableRecord
  2
LAYER-138
 70
     0
 62
     7
  6
Continuous
370
    -3
390
F
  0
LAYER
  5
DA
330
2
100
AcDbSymbolTableRecord
100
AcDbLayerTableRecord
  2
LAYER-139
 70
     0
 62
     7
  6
Continuous
370
    -3
390
F
  0
LAYER
  5
DB
330
2
100
AcDbSymbolTableRecord
100
AcDbLayerTableRecord
  2
LAYER-140
 70
     0
 62
     7
  6
Continuous
370
    -3
390
F
  0
LAYER
  5
DC
330
2
100
AcDbSymbolTableRecord
100
AcDbLayerTableRecord
  2
LAYER-141
 70
     0
 62
     7
  6
Continuous
370
    -3
390
F
  0
LAYER
  5
DD
330
2
100
AcDbSymbolTableRecord
100
AcDbLayerTableRecord
  2
LAYER-142
 70
     0
 62
     3
  6
Continuous
370
    -3
390
F
  0
LAYER
  5
DE
330
2
100
AcDbSymbolTableRecord
100
AcDbLayerTableRecord
  2
LAYER-143
 70
     0
 62
     7
  6
Continuous
370
    -3
390
F
  0
LAYER
  5
DF
330
2
100
AcDbSymbolTableRecord
100
AcDbLayerTableRecord
  2
LAYER-144
 70
     0
 62
     7
  6
Continuous
370
    -3
390
F
  0
LAYER
  5
E0
330
2
100
AcDbSymbolTableRecord
100
AcDbLayerTableRecord
  2
LAYER-145
 70
     0
 62
     3
  6
Continuous
370
    -3
390
F
  0
LAYER
  5
E1
330
2
100
AcDbSymbolTableRecord
100
AcDbLayerTableRecord
  2
LAYER-146
 70
     0
 62
     7
  6
Continuous
370
    -3
390
F
  0
LAYER
  5
E2
330
2
100
AcDbSymbolTableRecord
100
AcDbLayerTableRecord
  2
LAYER-147
 70
     0
 62
     7
  6
Continuous
370
    -3
390
F
  0
LAYER
  5
E3
330
2
100
AcDbSymbolTableRecord
100
AcDbLayerTableRecord
  2
LAYER-148
 70
     0
 62
     7
  6
Continuous
370
    -3
390
F
  0
LAYER
  5
E4
330
2
100
AcDbSymbolTableRecord
100
AcDbLayerTableRecord
  2
LAYER-149
 70
     0
 62
     7
  6
Continuous
370
    -3
390
F
  0
LAYER
  5
E5
330
2
100
AcDbSymbolTableRecord
100
AcDbLayerTableRecord
  2
LAYER-150
 70
     0
 62
     7
  6
Continuous
370
    -3
390
F
  0
LAYER
  5
E6
330
2
100
AcDbSymbolTableRecord
100
AcDbLayerTableRecord
  2
LAYER-151
 70
     0
 62
     7
  6
Continuous
370
    -3
390
F
  0
LAYER
  5
E7
330
2
100
AcDbSymbolTableRecord
100
AcDbLayerTableRecord
  2
LAYER-152
 70
     0
 62
     7
  6
Continuous
370
    -3
390
F
  0
LAYER
  5
E8
330
2
100
AcDbSymbolTableRecord
100
AcDbLayerTableRecord
  2
LAYER-153
 70
     0
 62
     7
  6
Continuous
370
    -3
390
F
  0
LAYER
  5
E9
330
2
100
AcDbSymbolTableRecord
100
AcDbLayerTableRecord
  2
LAYER-154
 70
     0
 62
     7
  6
Continuous
370
    -3
390
F
  0
LAYER
  5
EA
330
2
100
AcDbSymbolTableRecord
100
AcDbLayerTableRecord
  2
LAYER-155
 70
     0
 62
     7
  6
Continuous
370
    -3
390
F
  0
LAYER
  5
EB
330
2
100
AcDbSymbolTableRecord
100
AcDbLayerTableRecord
  2
LAYER-156
 70
     0
 62
     7
  6
Continuous
370
    -3
390
F
  0
LAYER
  5
EC
330
2
100
AcDbSymbolTableRecord
100
AcDbLayerTableRecord
  2
LAYER-157
 70
     0
 62
     7
  6
Continuous
370
    -3
390
F
  0
LAYER
  5
ED
330
2
100
AcDbSymbolTableRecord
100
AcDbLayerTableRecord
  2
LAYER-158
 70
     0
 62
     7
  6
Continuous
370
    -3
390
F
  0
LAYER
  5
EE
330
2
100
AcDbSymbolTableRecord
100
AcDbLayerTableRecord
  2
LAYER-159
 70
     0
 62
     7
  6
Continuous
370
    -3
390
F
  0
LAYER
  5
EF
330
2
100
AcDbSymbolTableRecord
100
AcDbLayerTableRecord
  2
LAYER-160
 70
     0
 62
     7
  6
Continuous
370
    -3
390
F
  0
LAYER
  5
F0
330
2
100
AcDbSymbolTableRecord
100
AcDbLayerTableRecord
  2
LAYER-161
 70
     0
 62
     7
  6
Continuous
370
    -3
390
F
  0
LAYER
  5
F1
330
2
100
AcDbSymbolTableRecord
100
AcDbLayerTableRecord
  2
LAYER-162
 70
     0
 62
     7
  6
Continuous
370
    -3
390
F
  0
LAYER
  5
F2
330
2
100
AcDbSymbolTableRecord
100
AcDbLayerTableRecord
  2
LAYER-163
 70
     0
 62
     7
  6
Continuous
370
    -3
390
F
  0
LAYER
  5
F3
330
2
100
AcDbSymbolTableRecord
100
AcDbLayerTableRecord
  2
LAYER-164
 70
     0
 62
     7
  6
Continuous
370
    -3
390
F
  0
LAYER
  5
F4
330
2
100
AcDbSymbolTableRecord
100
AcDbLayerTableRecord
  2
LAYER-165
 70
     0
 62
     7
  6
Continuous
370
    -3
390
F
  0
LAYER
  5
F5
330
2
100
AcDbSymbolTableRecord
100
AcDbLayerTableRecord
  2
LAYER-166
 70
     0
 62
     7
  6
Continuous
370
    -3
390
F
  0
LAYER
  5
F6
330
2
100
AcDbSymbolTableRecord
100
AcDbLayerTableRecord
  2
LAYER-167
 70
     0
 62
     7
  6
Continuous
370
    -3
390
F
  0
LAYER
  5
F7
330
2
100
AcDbSymbolTableRecord
100
AcDbLayerTableRecord
  2
LAYER-168
 70
     0
 62
     7
  6
Continuous
370
    -3
390
F
  0
LAYER
  5
F8
330
2
100
AcDbSymbolTableRecord
100
AcDbLayerTableRecord
  2
LAYER-169
 70
     0
 62
     7
  6
Continuous
370
    -3
390
F
  0
LAYER
  5
F9
330
2
100
AcDbSymbolTableRecord
100
AcDbLayerTableRecord
  2
LAYER-170
 70
     0
 62
     7
  6
Continuous
370
    -3
390
F
  0
LAYER
  5
FA
330
2
100
AcDbSymbolTableRecord
100
AcDbLayerTableRecord
  2
LAYER-171
 70
     0
 62
     7
  6
Continuous
370
    -3
390
F
  0
LAYER
  5
FB
330
2
100
AcDbSymbolTableRecord
100
AcDbLayerTableRecord
  2
LAYER-172
 70
     0
 62
     7
  6
Continuous
370
    -3
390
F
  0
LAYER
  5
FC
330
2
100
AcDbSymbolTableRecord
100
AcDbLayerTableRecord
  2
LAYER-173
 70
     0
 62
     7
  6
Continuous
370
    -3
390
F
  0
LAYER
  5
FD
330
2
100
AcDbSymbolTableRecord
100
AcDbLayerTableRecord
  2
LAYER-174
 70
     0
 62
     7
  6
Continuous
370
    -3
390
F
  0
LAYER
  5
FE
330
2
100
AcDbSymbolTableRecord
100
AcDbLayerTableRecord
  2
LAYER-175
 70
     0
 62
     7
  6
Continuous
370
    -3
390
F
  0
LAYER
  5
FF
330
2
100
AcDbSymbolTableRecord
100
AcDbLayerTableRecord
  2
LAYER-176
 70
     0
 62
     7
  6
Continuous
370
    -3
390
F
  0
LAYER
  5
100
330
2
100
AcDbSymbolTableRecord
100
AcDbLayerTableRecord
  2
LAYER-177
 70
     0
 62
     7
  6
Continuous
370
    -3
390
F
  0
LAYER
  5
101
330
2
100
AcDbSymbolTableRecord
100
AcDbLayerTableRecord
  2
LAYER-178
 70
     0
 62
     7
  6
Continuous
370
    -3
390
F
  0
LAYER
  5
102
330
2
100
AcDbSymbolTableRecord
100
AcDbLayerTableRecord
  2
LAYER-179
 70
     0
 62
     7
  6
Continuous
370
    -3
390
F
  0
LAYER
  5
103
330
2
100
AcDbSymbolTableRecord
100
AcDbLayerTableRecord
  2
LAYER-180
 70
     0
 62
     7
  6
Continuous
370
    -3
390
F
  0
LAYER
  5
104
330
2
100
AcDbSymbolTableRecord
100
AcDbLayerTableRecord
  2
LAYER-181
 70
     0
 62
     7
  6
Continuous
370
    -3
390
F
  0
LAYER
  5
105
330
2
100
AcDbSymbolTableRecord
100
AcDbLayerTableRecord
  2
LAYER-182
 70
     0
 62
     7
  6
Continuous
370
    -3
390
F
  0
LAYER
  5
106
330
2
100
AcDbSymbolTableRecord
100
AcDbLayerTableRecord
  2
LAYER-183
 70
     0
 62
     7
  6
Continuous
370
    -3
390
F
  0
LAYER
  5
107
330
2
100
AcDbSymbolTableRecord
100
AcDbLayerTableRecord
  2
LAYER-184
 70
     0
 62
     7
  6
Continuous
370
    -3
390
F
  0
LAYER
  5
108
330
2
100
AcDbSymbolTableRecord
100
AcDbLayerTableRecord
  2
LAYER-185
 70
     0
 62
     7
  6
Continuous
370
    -3
390
F
  0
LAYER
  5
109
330
2
100
AcDbSymbolTableRecord
100
AcDbLayerTableRecord
  2
LAYER-186
 70
     0
 62
     7
  6
Continuous
370
    -3
390
F
  0
LAYER
  5
10A
330
2
100
AcDbSymbolTableRecord
100
AcDbLayerTableRecord
  2
LAYER-187
 70
     0
 62
     7
  6
Continuous
370
    -3
390
F
  0
LAYER
  5
10B
330
2
100
AcDbSymbolTableRecord
100
AcDbLayerTableRecord
  2
LAYER-188
 70
     0
 62
     7
  6
Continuous
370
    -3
390
F
  0
LAYER
  5
10C
330
2
100
AcDbSymbolTableRecord
100
AcDbLayerTableRecord
  2
LAYER-189
 70
     0
 62
     7
  6
Continuous
370
    -3
390
F
  0
LAYER
  5
10D
330
2
100
AcDbSymbolTableRecord
100
AcDbLayerTableRecord
  2
LAYER-190
 70
     0
 62
     7
  6
Continuous
370
    -3
390
F
  0
LAYER
  5
10E
330
2
100
AcDbSymbolTableRecord
100
AcDbLayerTableRecord
  2
LAYER-191
 70
     0
 62
     7
  6
Continuous
370
    -3
390
F
  0
LAYER
  5
10F
330
2
100
AcDbSymbolTableRecord
100
AcDbLayerTableRecord
  2
LAYER-192
 70
     0
 62
     7
  6
Continuous
370
    -3
390
F
  0
LAYER
  5
110
330
2
100
AcDbSymbolTableRecord
100
AcDbLayerTableRecord
  2
LAYER-193
 70
     0
 62
     7
  6
Continuous
370
    -3
390
F
  0
LAYER
  5
111
330
2
100
AcDbSymbolTableRecord
100
AcDbLayerTableRecord
  2
LAYER-194
 70
     0
 62
     2
  6
Continuous
370
    -3
390
F
  0
LAYER
  5
112
330
2
100
AcDbSymbolTableRecord
100
AcDbLayerTableRecord
  2
LAYER-195
 70
     0
 62
     2
  6
Continuous
370
    -3
390
F
  0
LAYER
  5
113
330
2
100
AcDbSymbolTableRecord
100
AcDbLayerTableRecord
  2
LAYER-196
 70
     0
 62
     2
  6
Continuous
370
    -3
390
F
  0
LAYER
  5
114
330
2
100
AcDbSymbolTableRecord
100
AcDbLayerTableRecord
  2
LAYER-197
 70
     0
 62
     7
  6
Continuous
370
    -3
390
F
  0
LAYER
  5
115
330
2
100
AcDbSymbolTableRecord
100
AcDbLayerTableRecord
  2
LAYER-198
 70
     0
 62
     7
  6
Continuous
370
    -3
390
F
  0
LAYER
  5
116
330
2
100
AcDbSymbolTableRecord
100
AcDbLayerTableRecord
  2
LAYER-199
 70
     0
 62
     4
  6
Continuous
370
    -3
390
F
  0
LAYER
  5
117
330
2
100
AcDbSymbolTableRecord
100
AcDbLayerTableRecord
  2
LAYER-200
 70
     0
 62
     1
  6
Continuous
370
    -3
390
F
  0
LAYER
  5
118
330
2
100
AcDbSymbolTableRecord
100
AcDbLayerTableRecord
  2
LAYER-201
 70
     0
 62
     1
  6
Continuous
370
    -3
390
F
  0
LAYER
  5
119
330
2
100
AcDbSymbolTableRecord
100
AcDbLayerTableRecord
  2
LAYER-202
 70
     0
 62
     2
  6
Continuous
370
    -3
390
F
  0
LAYER
  5
11A
330
2
100
AcDbSymbolTableRecord
100
AcDbLayerTableRecord
  2
LAYER-203
 70
     0
 62
     2
  6
Continuous
370
    -3
390
F
  0
LAYER
  5
11B
330
2
100
AcDbSymbolTableRecord
100
AcDbLayerTableRecord
  2
LAYER-204
 70
     0
 62
     7
  6
Continuous
370
    -3
390
F
  0
LAYER
  5
11C
330
2
100
AcDbSymbolTableRecord
100
AcDbLayerTableRecord
  2
LAYER-205
 70
     0
 62
     7
  6
Continuous
370
    -3
390
F
  0
LAYER
  5
11D
330
2
100
AcDbSymbolTableRecord
100
AcDbLayerTableRecord
  2
LAYER-206
 70
     0
 62
     7
  6
Continuous
370
    -3
390
F
  0
LAYER
  5
11E
330
2
100
AcDbSymbolTableRecord
100
AcDbLayerTableRecord
  2
LAYER-207
 70
     0
 62
    -7
  6
Continuous
370
    -3
390
F
  0
LAYER
  5
11F
330
2
100
AcDbSymbolTableRecord
100
AcDbLayerTableRecord
  2
LAYER-208
 70
     0
 62
     2
  6
Continuous
370
    -3
390
F
  0
LAYER
  5
120
330
2
100
AcDbSymbolTableRecord
100
AcDbLayerTableRecord
  2
LAYER-209
 70
     0
 62
     7
  6
Continuous
370
    -3
390
F
  0
LAYER
  5
121
330
2
100
AcDbSymbolTableRecord
100
AcDbLayerTableRecord
  2
LAYER-210
 70
     0
 62
     2
  6
Continuous
290
     0
370
    -3
390
F
  0
LAYER
  5
122
330
2
100
AcDbSymbolTableRecord
100
AcDbLayerTableRecord
  2
LAYER-211
 70
     0
 62
     7
  6
Continuous
370
    -3
390
F
  0
LAYER
  5
123
330
2
100
AcDbSymbolTableRecord
100
AcDbLayerTableRecord
  2
LAYER-212
 70
     0
 62
     7
  6
Continuous
370
    -3
390
F
  0
LAYER
  5
124
330
2
100
AcDbSymbolTableRecord
100
AcDbLayerTableRecord
  2
LAYER-213
 70
     0
 62
     2
  6
Continuous
370
    -3
390
F
  0
LAYER
  5
125
330
2
100
AcDbSymbolTableRecord
100
AcDbLayerTableRecord
  2
LAYER-214
 70
     0
 62
     7
  6
Continuous
370
    -3
390
F
  0
LAYER
  5
126
330
2
100
AcDbSymbolTableRecord
100
AcDbLayerTableRecord
  2
LAYER-215
 70
     0
 62
     7
  6
Continuous
370
    -3
390
F
  0
LAYER
  5
127
330
2
100
AcDbSymbolTableRecord
100
AcDbLayerTableRecord
  2
LAYER-216
 70
     0
 62
     4
  6
Continuous
370
    -3
390
F
  0
LAYER
  5
128
330
2
100
AcDbSymbolTableRecord
100
AcDbLayerTableRecord
  2
LAYER-217
 70
     0
 62
     7
  6
Continuous
370
    -3
390
F
  0
LAYER
  5
129
330
2
100
AcDbSymbolTableRecord
100
AcDbLayerTableRecord
  2
LAYER-218
 70
     0
 62
     7
  6
Continuous
370
    -3
390
F
  0
LAYER
  5
12A
330
2
100
AcDbSymbolTableRecord
100
AcDbLayerTableRecord
  2
LAYER-219
 70
     0
 62
     7
  6
Continuous
370
    -3
390
F
  0
LAYER
  5
12B
330
2
100
AcDbSymbolTableRecord
100
AcDbLayerTableRecord
  2
LAYER-220
 70
     0
 62
     4
  6
Continuous
370
    -3
390
F
  0
LAYER
  5
12C
330
2
100
AcDbSymbolTableRecord
100
AcDbLayerTableRecord
  2
LAYER-221
 70
     0
 62
    -7
  6
Continuous
290
     0
370
    -3
390
F
  0
LAYER
  5
12D
330
2
100
AcDbSymbolTableRecord
100
AcDbLayerTableRecord
  2
LAYER-222
 70
     0
 62
    -4
  6
Continuous
290
     0
370
    -3
390
F
  0
LAYER
  5
12E
330
2
100
AcDbSymbolTableRecord
100
AcDbLayerTableRecord
  2
LAYER-223
 70
     0
 62
    -1
  6
Continuous
290
     0
370
    -3
390
F
  0
LAYER
  5
12F
330
2
100
AcDbSymbolTableRecord
100
AcDbLayerTableRecord
  2
LAYER-224
 70
     0
 62
    -1
  6
Continuous
290
     0
370
    -3
390
F
  0
LAYER
  5
130
330
2
100
AcDbSymbolTableRecord
100
AcDbLayerTableRecord
  2
LAYER-225
 70
     0
 62
     7
  6
Continuous
370
    -3
390
F
  0
LAYER
  5
131
330
2
100
AcDbSymbolTableRecord
100
AcDbLayerTableRecord
  2
LAYER-226
 70
     0
 62
     2
  6
Continuous
370
    -3
390
F
  0
LAYER
  5
132
330
2
100
AcDbSymbolTableRecord
100
AcDbLayerTableRecord
  2
LAYER-227
 70
     0
 62
     7
  6
Continuous
370
    -3
390
F
  0
LAYER
  5
133
330
2
100
AcDbSymbolTableRecord
100
AcDbLayerTableRecord
  2
LAYER-228
 70
     0
 62
     7
  6
Continuous
370
    -3
390
F
  0
LAYER
  5
134
330
2
100
AcDbSymbolTableRecord
100
AcDbLayerTableRecord
  2
LAYER-229
 70
     0
 62
     7
  6
Continuous
370
    -3
390
F
  0
LAYER
  5
135
330
2
100
AcDbSymbolTableRecord
100
AcDbLayerTableRecord
  2
LAYER-230
 70
     0
 62
     7
  6
Continuous
370
    -3
390
F
  0
LAYER
  5
136
330
2
100
AcDbSymbolTableRecord
100
AcDbLayerTableRecord
  2
LAYER-231
 70
     0
 62
     7
  6
Continuous
370
    -3
390
F
  0
LAYER
  5
137
330
2
100
AcDbSymbolTableRecord
100
AcDbLayerTableRecord
  2
LAYER-232
 70
     0
 62
     7
  6
Continuous
370
    -3
390
F
  0
LAYER
  5
138
330
2
100
AcDbSymbolTableRecord
100
AcDbLayerTableRecord
  2
LAYER-233
 70
     0
 62
     7
  6
Continuous
370
    -3
390
F
  0
LAYER
  5
139
330
2
100
AcDbSymbolTableRecord
100
AcDbLayerTableRecord
  2
LAYER-234
 70
     0
 62
     7
  6
Continuous
370
    -3
390
F
  0
LAYER
  5
13A
330
2
100
AcDbSymbolTableRecord
100
AcDbLayerTableRecord
  2
LAYER-235
 70
     0
 62
     7
  6
Continuous
370
    -3
390
F
  0
LAYER
  5
13B
330
2
100
AcDbSymbolTableRecord
100
AcDbLayerTableRecord
  2
LAYER-236
 70
     0
 62
     7
  6
Continuous
370
    -3
390
F
  0
LAYER
  5
13C
330
2
100
AcDbSymbolTableRecord
100
AcDbLayerTableRecord
  2
LAYER-237
 70
     0
 62
     7
  6
Continuous
370
    -3
390
F
  0
LAYER
  5
13D
330
2
100
AcDbSymbolTableRecord
100
AcDbLayerTableRecord
  2
LAYER-238
 70
     0
 62
     7
  6
Continuous
370
    -3
390
F
  0
LAYER
  5
13E
330
2
100
AcDbSymbolTableRecord
100
AcDbLayerTableRecord
  2
LAYER-239
 70
     0
 62
     7
  6
Continuous
370
    -3
390
F
  0
LAYER
  5
13F
330
2
100
AcDbSymbolTableRecord
100
AcDbLayerTableRecord
  2
LAYER-240
 70
     0
 62
     7
  6
Continuous
370
    -3
390
F
  0
LAYER
  5
140
330
2
100
AcDbSymbolTableRecord
100
AcDbLayerTableRecord
  2
LAYER-241
 70
     0
 62
     7
  6
Continuous
370
    -3
390
F
  0
LAYER
  5
141
330
2
100
AcDbSymbolTableRecord
100
AcDbLayerTableRecord
  2
LAYER-242
 70
     0
 62
     7
  6
Continuous
370
    -3
390
F
  0
LAYER
  5
142
330
2
100
AcDbSymbolTableRecord
100
AcDbLayerTableRecord
  2
LAYER-243
 70
     0
 62
     7
  6
Continuous
370
    -3
390
F
  0
LAYER
  5
143
330
2
100
AcDbSymbolTableRecord
100
AcDbLayerTableRecord
  2
LAYER-244
 70
     0
 62
     7
  6
Continuous
370
    -3
390
F
  0
LAYER
  5
144
330
2
100
AcDbSymbolTableRecord
100
AcDbLayerTableRecord
  2
LAYER-245
 70
     0
 62
     7
  6
Continuous
370
    -3
390
F
  0
LAYER
  5
145
330
2
100
AcDbSymbolTableRecord
100
AcDbLayerTableRecord
  2
LAYER-246
 70
     0
 62
     7
  6
Continuous
370
    -3
390
F
  0
LAYER
  5
146
330
2
100
AcDbSymbolTableRecord
100
AcDbLayerTableRecord
  2
LAYER-247
 70
     0
 62
     7
  6
Continuous
370
    -3
390
F
  0
LAYER
  5
147
330
2
100
AcDbSymbolTableRecord
100
AcDbLayerTableRecord
  2
LAYER-248
 70
     0
 62
     7
  6
Continuous
370
    -3
390
F
  0
LAYER
  5
148
330
2
100
AcDbSymbolTableRecord
100
AcDbLayerTableRecord
  2
LAYER-249
 70
     0
 62
     7
  6
Continuous
370
    -3
390
F
  0
LAYER
  5
149
330
2
100
AcDbSymbolTableRecord
100
AcDbLayerTableRecord
  2
LAYER-250
 70
     0
 62
     7
  6
Continuous
370
    -3
390
F
  0
LAYER
  5
14A
330
2
100
AcDbSymbolTableRecord
100
AcDbLayerTableRecord
  2
LAYER-251
 70
     0
 62
     7
  6
Continuous
370
    -3
390
F
  0
LAYER
  5
14B
330
2
100
AcDbSymbolTableRecord
100
AcDbLayerTableRecord
  2
LAYER-252
 70
     0
 62
     7
  6
Continuous
370
    -3
390
F
  0
LAYER
  5
14C
330
2
100
AcDbSymbolTableRecord
100
AcDbLayerTableRecord
  2
LAYER-253
 70
     0
 62
     7
  6
Continuous
370
    -3
390
F
  0
LAYER
  5
14D
330
2
100
AcDbSymbolTableRecord
100
AcDbLayerTableRecord
  2
LAYER-254
 70
     0
 62
     7
  6
Continuous
370
    -3
390
F
  0
LAYER
  5
14E
330
2
100
AcDbSymbolTableRecord
100
AcDbLayerTableRecord
  2
LAYER-255
 70
     0
 62
     7
  6
Continuous
370
    -3
390
F
  0
LAYER
  5
14F
330
2
100
AcDbSymbolTableRecord
100
AcDbLayerTableRecord
  2
LAYER-256
 70
     0
 62
     7
  6
Continuous
370
    -3
390
F
  0
LAYER
  5
150
330
2
100
AcDbSymbolTableRecord
100
AcDbLayerTableRecord
  2
SUPLINE
 70
     0
 62
    -7
  6
Continuous
290
     0
370
    -3
390
F
  0
LAYER
  5
151
330
2
100
AcDbSymbolTableRecord
100
AcDbLayerTableRecord
  2
FRAMELAYER-001
 70
     0
 62
     7
  6
Continuous
370
    -3
390
F
  0
LAYER
  5
152
330
2
100
AcDbSymbolTableRecord
100
AcDbLayerTableRecord
  2
FRAMELAYER-002
 70
     0
 62
     7
  6
Continuous
370
    -3
390
F
  0
LAYER
  5
153
330
2
100
AcDbSymbolTableRecord
100
AcDbLayerTableRecord
  2
FRAMELAYER-003
 70
     0
 62
     7
  6
Continuous
370
    -3
390
F
  0
LAYER
  5
154
330
2
100
AcDbSymbolTableRecord
100
AcDbLayerTableRecord
  2
FRAMELAYER-004
 70
     0
 62
     7
  6
Continuous
370
    -3
390
F
  0
LAYER
  5
155
330
2
100
AcDbSymbolTableRecord
100
AcDbLayerTableRecord
  2
FRAMELAYER-005
 70
     0
 62
     7
  6
Continuous
370
    -3
390
F
  0
LAYER
  5
156
330
2
100
AcDbSymbolTableRecord
100
AcDbLayerTableRecord
  2
FRAMELAYER-006
 70
     0
 62
     7
  6
Continuous
370
    -3
390
F
  0
LAYER
  5
157
330
2
100
AcDbSymbolTableRecord
100
AcDbLayerTableRecord
  2
FRAMELAYER-007
 70
     0
 62
     7
  6
Continuous
370
    -3
390
F
  0
LAYER
  5
158
330
2
100
AcDbSymbolTableRecord
100
AcDbLayerTableRecord
  2
FRAMELAYER-008
 70
     0
 62
     7
  6
Continuous
370
    -3
390
F
  0
LAYER
  5
159
330
2
100
AcDbSymbolTableRecord
100
AcDbLayerTableRecord
  2
FRAMELAYER-009
 70
     0
 62
     7
  6
Continuous
370
    -3
390
F
  0
LAYER
  5
15A
330
2
100
AcDbSymbolTableRecord
100
AcDbLayerTableRecord
  2
FRAMELAYER-010
 70
     0
 62
     7
  6
Continuous
370
    -3
390
F
  0
LAYER
  5
15B
330
2
100
AcDbSymbolTableRecord
100
AcDbLayerTableRecord
  2
FRAMELAYER-011
 70
     0
 62
     7
  6
Continuous
370
    -3
390
F
  0
LAYER
  5
15C
330
2
100
AcDbSymbolTableRecord
100
AcDbLayerTableRecord
  2
FRAMELAYER-012
 70
     0
 62
     7
  6
Continuous
370
    -3
390
F
  0
LAYER
  5
15D
330
2
100
AcDbSymbolTableRecord
100
AcDbLayerTableRecord
  2
FRAMELAYER-013
 70
     0
 62
     7
  6
Continuous
370
    -3
390
F
  0
LAYER
  5
15E
330
2
100
AcDbSymbolTableRecord
100
AcDbLayerTableRecord
  2
FRAMELAYER-014
 70
     0
 62
     7
  6
Continuous
370
    -3
390
F
  0
LAYER
  5
15F
330
2
100
AcDbSymbolTableRecord
100
AcDbLayerTableRecord
  2
FRAMELAYER-015
 70
     0
 62
    -7
  6
Continuous
370
    -3
390
F
  0
LAYER
  5
160
330
2
100
AcDbSymbolTableRecord
100
AcDbLayerTableRecord
  2
FRAMELAYER-016
 70
     0
 62
     4
  6
Continuous
370
    -3
390
F
  0
LAYER
  5
161
330
2
100
AcDbSymbolTableRecord
100
AcDbLayerTableRecord
  2
FRAMELAYER-017
 70
     0
 62
     7
  6
Continuous
370
    -3
390
F
  0
LAYER
  5
162
330
2
100
AcDbSymbolTableRecord
100
AcDbLayerTableRecord
  2
FRAMELAYER-018
 70
     0
 62
     2
  6
Continuous
370
    -3
390
F
  0
LAYER
  5
163
330
2
100
AcDbSymbolTableRecord
100
AcDbLayerTableRecord
  2
FRAMELAYER-019
 70
     0
 62
     3
  6
Continuous
370
    -3
390
F
  0
LAYER
  5
164
330
2
100
AcDbSymbolTableRecord
100
AcDbLayerTableRecord
  2
FRAMELAYER-020
 70
     0
 62
     2
  6
Continuous
370
    -3
390
F
  0
LAYER
  5
165
330
2
100
AcDbSymbolTableRecord
100
AcDbLayerTableRecord
  2
FRAMELAYER-021
 70
     0
 62
     7
  6
Continuous
370
    -3
390
F
  0
LAYER
  5
166
330
2
100
AcDbSymbolTableRecord
100
AcDbLayerTableRecord
  2
FRAMELAYER-022
 70
     0
 62
     4
  6
Continuous
370
    -3
390
F
  0
LAYER
  5
167
330
2
100
AcDbSymbolTableRecord
100
AcDbLayerTableRecord
  2
FRAMELAYER-023
 70
     0
 62
     4
  6
Continuous
370
    -3
390
F
  0
LAYER
  5
168
330
2
100
AcDbSymbolTableRecord
100
AcDbLayerTableRecord
  2
FRAMELAYER-024
 70
     0
 62
     7
  6
Continuous
370
    -3
390
F
  0
LAYER
  5
169
330
2
100
AcDbSymbolTableRecord
100
AcDbLayerTableRecord
  2
FRAMELAYER-025
 70
     0
 62
     7
  6
Continuous
370
    -3
390
F
  0
LAYER
  5
16A
330
2
100
AcDbSymbolTableRecord
100
AcDbLayerTableRecord
  2
FRAMELAYER-026
 70
     0
 62
    -7
  6
Continuous
370
    -3
390
F
  0
LAYER
  5
16B
330
2
100
AcDbSymbolTableRecord
100
AcDbLayerTableRecord
  2
FRAMELAYER-027
 70
     0
 62
     7
  6
Continuous
370
    -3
390
F
  0
LAYER
  5
16C
330
2
100
AcDbSymbolTableRecord
100
AcDbLayerTableRecord
  2
FRAMELAYER-028
 70
     0
 62
     7
  6
Continuous
370
    -3
390
F
  0
LAYER
  5
16D
330
2
100
AcDbSymbolTableRecord
100
AcDbLayerTableRecord
  2
FRAMELAYER-029
 70
     0
 62
     7
  6
Continuous
370
    -3
390
F
  0
LAYER
  5
16E
330
2
100
AcDbSymbolTableRecord
100
AcDbLayerTableRecord
  2
FRAMELAYER-030
 70
     0
 62
     2
  6
Continuous
370
    -3
390
F
  0
LAYER
  5
16F
330
2
100
AcDbSymbolTableRecord
100
AcDbLayerTableRecord
  2
FRAMELAYER-031
 70
     0
 62
     7
  6
Continuous
370
    -3
390
F
  0
LAYER
  5
170
330
2
100
AcDbSymbolTableRecord
100
AcDbLayerTableRecord
  2
FRAMELAYER-032
 70
     0
 62
     2
  6
Continuous
370
    -3
390
F
  0
LAYER
  5
171
330
2
100
AcDbSymbolTableRecord
100
AcDbLayerTableRecord
  2
FRAMELAYER-033
 70
     0
 62
     7
  6
Continuous
370
    -3
390
F
  0
LAYER
  5
172
330
2
100
AcDbSymbolTableRecord
100
AcDbLayerTableRecord
  2
FRAMELAYER-034
 70
     0
 62
     7
  6
Continuous
370
    -3
390
F
  0
LAYER
  5
173
330
2
100
AcDbSymbolTableRecord
100
AcDbLayerTableRecord
  2
FRAMELAYER-035
 70
     0
 62
     3
  6
Continuous
370
    -3
390
F
  0
LAYER
  5
174
330
2
100
AcDbSymbolTableRecord
100
AcDbLayerTableRecord
  2
FRAMELAYER-036
 70
     0
 62
     2
  6
Continuous
370
    -3
390
F
  0
LAYER
  5
175
330
2
100
AcDbSymbolTableRecord
100
AcDbLayerTableRecord
  2
FRAMELAYER-037
 70
     0
 62
     7
  6
Continuous
370
    -3
390
F
  0
LAYER
  5
176
330
2
100
AcDbSymbolTableRecord
100
AcDbLayerTableRecord
  2
FRAMELAYER-038
 70
     0
 62
     7
  6
Continuous
370
    -3
390
F
  0
LAYER
  5
177
330
2
100
AcDbSymbolTableRecord
100
AcDbLayerTableRecord
  2
FRAMELAYER-039
 70
     0
 62
     7
  6
Continuous
370
    -3
390
F
  0
LAYER
  5
178
330
2
100
AcDbSymbolTableRecord
100
AcDbLayerTableRecord
  2
FRAMELAYER-040
 70
     0
 62
     7
  6
Continuous
370
    -3
390
F
  0
LAYER
  5
179
330
2
100
AcDbSymbolTableRecord
100
AcDbLayerTableRecord
  2
FRAMELAYER-041
 70
     0
 62
     7
  6
Continuous
370
    -3
390
F
  0
LAYER
  5
17A
330
2
100
AcDbSymbolTableRecord
100
AcDbLayerTableRecord
  2
FRAMELAYER-042
 70
     0
 62
     7
  6
Continuous
370
    -3
390
F
  0
LAYER
  5
17B
330
2
100
AcDbSymbolTableRecord
100
AcDbLayerTableRecord
  2
FRAMELAYER-043
 70
     0
 62
     7
  6
Continuous
370
    -3
390
F
  0
LAYER
  5
17C
330
2
100
AcDbSymbolTableRecord
100
AcDbLayerTableRecord
  2
FRAMELAYER-044
 70
     0
 62
     7
  6
Continuous
370
    -3
390
F
  0
LAYER
  5
17D
330
2
100
AcDbSymbolTableRecord
100
AcDbLayerTableRecord
  2
FRAMELAYER-045
 70
     0
 62
     7
  6
Continuous
370
    -3
390
F
  0
LAYER
  5
17E
330
2
100
AcDbSymbolTableRecord
100
AcDbLayerTableRecord
  2
FRAMELAYER-046
 70
     0
 62
     7
  6
Continuous
370
    -3
390
F
  0
LAYER
  5
17F
330
2
100
AcDbSymbolTableRecord
100
AcDbLayerTableRecord
  2
FRAMELAYER-047
 70
     0
 62
     7
  6
Continuous
370
    -3
390
F
  0
LAYER
  5
180
330
2
100
AcDbSymbolTableRecord
100
AcDbLayerTableRecord
  2
FRAMELAYER-048
 70
     0
 62
     2
  6
Continuous
370
    -3
390
F
  0
LAYER
  5
181
330
2
100
AcDbSymbolTableRecord
100
AcDbLayerTableRecord
  2
FRAMELAYER-049
 70
     0
 62
     3
  6
Continuous
370
    -3
390
F
  0
LAYER
  5
182
330
2
100
AcDbSymbolTableRecord
100
AcDbLayerTableRecord
  2
FRAMELAYER-050
 70
     0
 62
     7
  6
Continuous
370
    -3
390
F
  0
LAYER
  5
183
330
2
100
AcDbSymbolTableRecord
100
AcDbLayerTableRecord
  2
FRAMELAYER-051
 70
     0
 62
     2
  6
Continuous
370
    -3
390
F
  0
LAYER
  5
184
330
2
100
AcDbSymbolTableRecord
100
AcDbLayerTableRecord
  2
FRAMELAYER-052
 70
     0
 62
     7
  6
Continuous
370
    -3
390
F
  0
LAYER
  5
185
330
2
100
AcDbSymbolTableRecord
100
AcDbLayerTableRecord
  2
FRAMELAYER-053
 70
     0
 62
     7
  6
Continuous
370
    -3
390
F
  0
LAYER
  5
186
330
2
100
AcDbSymbolTableRecord
100
AcDbLayerTableRecord
  2
FRAMELAYER-054
 70
     0
 62
     7
  6
Continuous
370
    -3
390
F
  0
LAYER
  5
187
330
2
100
AcDbSymbolTableRecord
100
AcDbLayerTableRecord
  2
FRAMELAYER-055
 70
     0
 62
     7
  6
Continuous
370
    -3
390
F
  0
LAYER
  5
188
330
2
100
AcDbSymbolTableRecord
100
AcDbLayerTableRecord
  2
FRAMELAYER-056
 70
     0
 62
     7
  6
Continuous
370
    -3
390
F
  0
LAYER
  5
189
330
2
100
AcDbSymbolTableRecord
100
AcDbLayerTableRecord
  2
FRAMELAYER-057
 70
     0
 62
     7
  6
Continuous
370
    -3
390
F
  0
LAYER
  5
18A
330
2
100
AcDbSymbolTableRecord
100
AcDbLayerTableRecord
  2
FRAMELAYER-058
 70
     0
 62
     7
  6
Continuous
370
    -3
390
F
  0
LAYER
  5
18B
330
2
100
AcDbSymbolTableRecord
100
AcDbLayerTableRecord
  2
FRAMELAYER-059
 70
     0
 62
     7
  6
Continuous
370
    -3
390
F
  0
LAYER
  5
18C
330
2
100
AcDbSymbolTableRecord
100
AcDbLayerTableRecord
  2
FRAMELAYER-060
 70
     0
 62
     7
  6
Continuous
370
    -3
390
F
  0
LAYER
  5
18D
330
2
100
AcDbSymbolTableRecord
100
AcDbLayerTableRecord
  2
FRAMELAYER-061
 70
     0
 62
     7
  6
Continuous
370
    -3
390
F
  0
LAYER
  5
18E
330
2
100
AcDbSymbolTableRecord
100
AcDbLayerTableRecord
  2
FRAMELAYER-062
 70
     0
 62
     7
  6
Continuous
370
    -3
390
F
  0
LAYER
  5
18F
330
2
100
AcDbSymbolTableRecord
100
AcDbLayerTableRecord
  2
FRAMELAYER-063
 70
     0
 62
     7
  6
Continuous
370
    -3
390
F
  0
LAYER
  5
190
330
2
100
AcDbSymbolTableRecord
100
AcDbLayerTableRecord
  2
FRAMELAYER-064
 70
     0
 62
     2
  6
Continuous
370
    -3
390
F
  0
LAYER
  5
191
330
2
100
AcDbSymbolTableRecord
100
AcDbLayerTableRecord
  2
FRAMELAYER-065
 70
     0
 62
     7
  6
Continuous
370
    -3
390
F
  0
LAYER
  5
192
330
2
100
AcDbSymbolTableRecord
100
AcDbLayerTableRecord
  2
FRAMELAYER-066
 70
     0
 62
     2
  6
Continuous
370
    -3
390
F
  0
LAYER
  5
193
330
2
100
AcDbSymbolTableRecord
100
AcDbLayerTableRecord
  2
FRAMELAYER-067
 70
     0
 62
     2
  6
Continuous
370
    -3
390
F
  0
LAYER
  5
194
330
2
100
AcDbSymbolTableRecord
100
AcDbLayerTableRecord
  2
FRAMELAYER-068
 70
     0
 62
     7
  6
Continuous
370
    -3
390
F
  0
LAYER
  5
195
330
2
100
AcDbSymbolTableRecord
100
AcDbLayerTableRecord
  2
FRAMELAYER-069
 70
     0
 62
     7
  6
Continuous
370
    -3
390
F
  0
LAYER
  5
196
330
2
100
AcDbSymbolTableRecord
100
AcDbLayerTableRecord
  2
FRAMELAYER-070
 70
     0
 62
     7
  6
Continuous
370
    -3
390
F
  0
LAYER
  5
197
330
2
100
AcDbSymbolTableRecord
100
AcDbLayerTableRecord
  2
FRAMELAYER-071
 70
     0
 62
     7
  6
Continuous
370
    -3
390
F
  0
LAYER
  5
198
330
2
100
AcDbSymbolTableRecord
100
AcDbLayerTableRecord
  2
FRAMELAYER-072
 70
     0
 62
     7
  6
Continuous
370
    -3
390
F
  0
LAYER
  5
199
330
2
100
AcDbSymbolTableRecord
100
AcDbLayerTableRecord
  2
FRAMELAYER-073
 70
     0
 62
     7
  6
Continuous
370
    -3
390
F
  0
LAYER
  5
19A
330
2
100
AcDbSymbolTableRecord
100
AcDbLayerTableRecord
  2
FRAMELAYER-074
 70
     0
 62
     7
  6
Continuous
370
    -3
390
F
  0
LAYER
  5
19B
330
2
100
AcDbSymbolTableRecord
100
AcDbLayerTableRecord
  2
FRAMELAYER-075
 70
     0
 62
     7
  6
Continuous
370
    -3
390
F
  0
LAYER
  5
19C
330
2
100
AcDbSymbolTableRecord
100
AcDbLayerTableRecord
  2
FRAMELAYER-076
 70
     0
 62
     7
  6
Continuous
370
    -3
390
F
  0
LAYER
  5
19D
330
2
100
AcDbSymbolTableRecord
100
AcDbLayerTableRecord
  2
FRAMELAYER-077
 70
     0
 62
     7
  6
Continuous
370
    -3
390
F
  0
LAYER
  5
19E
330
2
100
AcDbSymbolTableRecord
100
AcDbLayerTableRecord
  2
FRAMELAYER-078
 70
     0
 62
     7
  6
Continuous
370
    -3
390
F
  0
LAYER
  5
19F
330
2
100
AcDbSymbolTableRecord
100
AcDbLayerTableRecord
  2
FRAMELAYER-079
 70
     0
 62
     7
  6
Continuous
370
    -3
390
F
  0
LAYER
  5
1A0
330
2
100
AcDbSymbolTableRecord
100
AcDbLayerTableRecord
  2
FRAMELAYER-080
 70
     0
 62
     2
  6
Continuous
370
    -3
390
F
  0
LAYER
  5
1A1
330
2
100
AcDbSymbolTableRecord
100
AcDbLayerTableRecord
  2
FRAMELAYER-081
 70
     0
 62
     7
  6
Continuous
370
    -3
390
F
  0
LAYER
  5
1A2
330
2
100
AcDbSymbolTableRecord
100
AcDbLayerTableRecord
  2
FRAMELAYER-082
 70
     0
 62
     7
  6
Continuous
370
    -3
390
F
  0
LAYER
  5
1A3
330
2
100
AcDbSymbolTableRecord
100
AcDbLayerTableRecord
  2
FRAMELAYER-083
 70
     0
 62
     7
  6
Continuous
370
    -3
390
F
  0
LAYER
  5
1A4
330
2
100
AcDbSymbolTableRecord
100
AcDbLayerTableRecord
  2
FRAMELAYER-084
 70
     0
 62
     7
  6
Continuous
370
    -3
390
F
  0
LAYER
  5
1A5
330
2
100
AcDbSymbolTableRecord
100
AcDbLayerTableRecord
  2
FRAMELAYER-085
 70
     0
 62
     7
  6
Continuous
370
    -3
390
F
  0
LAYER
  5
1A6
330
2
100
AcDbSymbolTableRecord
100
AcDbLayerTableRecord
  2
FRAMELAYER-086
 70
     0
 62
     7
  6
Continuous
370
    -3
390
F
  0
LAYER
  5
1A7
330
2
100
AcDbSymbolTableRecord
100
AcDbLayerTableRecord
  2
FRAMELAYER-087
 70
     0
 62
     7
  6
Continuous
370
    -3
390
F
  0
LAYER
  5
1A8
330
2
100
AcDbSymbolTableRecord
100
AcDbLayerTableRecord
  2
FRAMELAYER-088
 70
     0
 62
     7
  6
Continuous
370
    -3
390
F
  0
LAYER
  5
1A9
330
2
100
AcDbSymbolTableRecord
100
AcDbLayerTableRecord
  2
FRAMELAYER-089
 70
     0
 62
     7
  6
Continuous
370
    -3
390
F
  0
LAYER
  5
1AA
330
2
100
AcDbSymbolTableRecord
100
AcDbLayerTableRecord
  2
FRAMELAYER-090
 70
     0
 62
     7
  6
Continuous
370
    -3
390
F
  0
LAYER
  5
1AB
330
2
100
AcDbSymbolTableRecord
100
AcDbLayerTableRecord
  2
FRAMELAYER-091
 70
     0
 62
     7
  6
Continuous
370
    -3
390
F
  0
LAYER
  5
1AC
330
2
100
AcDbSymbolTableRecord
100
AcDbLayerTableRecord
  2
FRAMELAYER-092
 70
     0
 62
     7
  6
Continuous
370
    -3
390
F
  0
LAYER
  5
1AD
330
2
100
AcDbSymbolTableRecord
100
AcDbLayerTableRecord
  2
FRAMELAYER-093
 70
     0
 62
     7
  6
Continuous
370
    -3
390
F
  0
LAYER
  5
1AE
330
2
100
AcDbSymbolTableRecord
100
AcDbLayerTableRecord
  2
FRAMELAYER-094
 70
     0
 62
     7
  6
Continuous
370
    -3
390
F
  0
LAYER
  5
1AF
330
2
100
AcDbSymbolTableRecord
100
AcDbLayerTableRecord
  2
FRAMELAYER-095
 70
     0
 62
     7
  6
Continuous
370
    -3
390
F
  0
LAYER
  5
1B0
330
2
100
AcDbSymbolTableRecord
100
AcDbLayerTableRecord
  2
FRAMELAYER-096
 70
     0
 62
     7
  6
Continuous
370
    -3
390
F
  0
LAYER
  5
1B1
330
2
100
AcDbSymbolTableRecord
100
AcDbLayerTableRecord
  2
FRAMELAYER-097
 70
     0
 62
     7
  6
Continuous
370
    -3
390
F
  0
LAYER
  5
1B2
330
2
100
AcDbSymbolTableRecord
100
AcDbLayerTableRecord
  2
FRAMELAYER-098
 70
     0
 62
     7
  6
Continuous
370
    -3
390
F
  0
LAYER
  5
1B3
330
2
100
AcDbSymbolTableRecord
100
AcDbLayerTableRecord
  2
FRAMELAYER-099
 70
     0
 62
     7
  6
Continuous
370
    -3
390
F
  0
LAYER
  5
1B4
330
2
100
AcDbSymbolTableRecord
100
AcDbLayerTableRecord
  2
FRAMELAYER-100
 70
     0
 62
     7
  6
Continuous
370
    -3
390
F
  0
LAYER
  5
1B5
330
2
100
AcDbSymbolTableRecord
100
AcDbLayerTableRecord
  2
FRAMELAYER-101
 70
     0
 62
     7
  6
Continuous
370
    -3
390
F
  0
LAYER
  5
1B6
330
2
100
AcDbSymbolTableRecord
100
AcDbLayerTableRecord
  2
FRAMELAYER-102
 70
     0
 62
     7
  6
Continuous
370
    -3
390
F
  0
LAYER
  5
1B7
330
2
100
AcDbSymbolTableRecord
100
AcDbLayerTableRecord
  2
FRAMELAYER-103
 70
     0
 62
     7
  6
Continuous
370
    -3
390
F
  0
LAYER
  5
1B8
330
2
100
AcDbSymbolTableRecord
100
AcDbLayerTableRecord
  2
FRAMELAYER-104
 70
     0
 62
     7
  6
Continuous
370
    -3
390
F
  0
LAYER
  5
1B9
330
2
100
AcDbSymbolTableRecord
100
AcDbLayerTableRecord
  2
FRAMELAYER-105
 70
     0
 62
     7
  6
Continuous
370
    -3
390
F
  0
LAYER
  5
1BA
330
2
100
AcDbSymbolTableRecord
100
AcDbLayerTableRecord
  2
FRAMELAYER-106
 70
     0
 62
     7
  6
Continuous
370
    -3
390
F
  0
LAYER
  5
1BB
330
2
100
AcDbSymbolTableRecord
100
AcDbLayerTableRecord
  2
FRAMELAYER-107
 70
     0
 62
     7
  6
Continuous
370
    -3
390
F
  0
LAYER
  5
1BC
330
2
100
AcDbSymbolTableRecord
100
AcDbLayerTableRecord
  2
FRAMELAYER-108
 70
     0
 62
     7
  6
Continuous
370
    -3
390
F
  0
LAYER
  5
1BD
330
2
100
AcDbSymbolTableRecord
100
AcDbLayerTableRecord
  2
FRAMELAYER-109
 70
     0
 62
     7
  6
Continuous
370
    -3
390
F
  0
LAYER
  5
1BE
330
2
100
AcDbSymbolTableRecord
100
AcDbLayerTableRecord
  2
FRAMELAYER-110
 70
     0
 62
     7
  6
Continuous
370
    -3
390
F
  0
LAYER
  5
1BF
330
2
100
AcDbSymbolTableRecord
100
AcDbLayerTableRecord
  2
FRAMELAYER-111
 70
     0
 62
     7
  6
Continuous
370
    -3
390
F
  0
LAYER
  5
1C0
330
2
100
AcDbSymbolTableRecord
100
AcDbLayerTableRecord
  2
FRAMELAYER-112
 70
     0
 62
     7
  6
Continuous
370
    -3
390
F
  0
LAYER
  5
1C1
330
2
100
AcDbSymbolTableRecord
100
AcDbLayerTableRecord
  2
FRAMELAYER-113
 70
     0
 62
     7
  6
Continuous
370
    -3
390
F
  0
LAYER
  5
1C2
330
2
100
AcDbSymbolTableRecord
100
AcDbLayerTableRecord
  2
FRAMELAYER-114
 70
     0
 62
     7
  6
Continuous
370
    -3
390
F
  0
LAYER
  5
1C3
330
2
100
AcDbSymbolTableRecord
100
AcDbLayerTableRecord
  2
FRAMELAYER-115
 70
     0
 62
     7
  6
Continuous
370
    -3
390
F
  0
LAYER
  5
1C4
330
2
100
AcDbSymbolTableRecord
100
AcDbLayerTableRecord
  2
FRAMELAYER-116
 70
     0
 62
     7
  6
Continuous
370
    -3
390
F
  0
LAYER
  5
1C5
330
2
100
AcDbSymbolTableRecord
100
AcDbLayerTableRecord
  2
FRAMELAYER-117
 70
     0
 62
     7
  6
Continuous
370
    -3
390
F
  0
LAYER
  5
1C6
330
2
100
AcDbSymbolTableRecord
100
AcDbLayerTableRecord
  2
FRAMELAYER-118
 70
     0
 62
     7
  6
Continuous
370
    -3
390
F
  0
LAYER
  5
1C7
330
2
100
AcDbSymbolTableRecord
100
AcDbLayerTableRecord
  2
FRAMELAYER-119
 70
     0
 62
     7
  6
Continuous
370
    -3
390
F
  0
LAYER
  5
1C8
330
2
100
AcDbSymbolTableRecord
100
AcDbLayerTableRecord
  2
FRAMELAYER-120
 70
     0
 62
     7
  6
Continuous
370
    -3
390
F
  0
LAYER
  5
1C9
330
2
100
AcDbSymbolTableRecord
100
AcDbLayerTableRecord
  2
FRAMELAYER-121
 70
     0
 62
     7
  6
Continuous
370
    -3
390
F
  0
LAYER
  5
1CA
330
2
100
AcDbSymbolTableRecord
100
AcDbLayerTableRecord
  2
FRAMELAYER-122
 70
     0
 62
     7
  6
Continuous
370
    -3
390
F
  0
LAYER
  5
1CB
330
2
100
AcDbSymbolTableRecord
100
AcDbLayerTableRecord
  2
FRAMELAYER-123
 70
     0
 62
     7
  6
Continuous
370
    -3
390
F
  0
LAYER
  5
1CC
330
2
100
AcDbSymbolTableRecord
100
AcDbLayerTableRecord
  2
FRAMELAYER-124
 70
     0
 62
     7
  6
Continuous
370
    -3
390
F
  0
LAYER
  5
1CD
330
2
100
AcDbSymbolTableRecord
100
AcDbLayerTableRecord
  2
FRAMELAYER-125
 70
     0
 62
     7
  6
Continuous
370
    -3
390
F
  0
LAYER
  5
1CE
330
2
100
AcDbSymbolTableRecord
100
AcDbLayerTableRecord
  2
FRAMELAYER-126
 70
     0
 62
     7
  6
Continuous
370
    -3
390
F
  0
LAYER
  5
1CF
330
2
100
AcDbSymbolTableRecord
100
AcDbLayerTableRecord
  2
FRAMELAYER-127
 70
     0
 62
     7
  6
Continuous
370
    -3
390
F
  0
LAYER
  5
1D0
330
2
100
AcDbSymbolTableRecord
100
AcDbLayerTableRecord
  2
FRAMELAYER-128
 70
     0
 62
     7
  6
Continuous
370
    -3
390
F
  0
LAYER
  5
1D1
330
2
100
AcDbSymbolTableRecord
100
AcDbLayerTableRecord
  2
FRAMELAYER-129
 70
     0
 62
     7
  6
Continuous
370
    -3
390
F
  0
LAYER
  5
1D2
330
2
100
AcDbSymbolTableRecord
100
AcDbLayerTableRecord
  2
FRAMELAYER-130
 70
     0
 62
     7
  6
Continuous
370
    -3
390
F
  0
LAYER
  5
1D3
330
2
100
AcDbSymbolTableRecord
100
AcDbLayerTableRecord
  2
FRAMELAYER-131
 70
     0
 62
     7
  6
Continuous
370
    -3
390
F
  0
LAYER
  5
1D4
330
2
100
AcDbSymbolTableRecord
100
AcDbLayerTableRecord
  2
FRAMELAYER-132
 70
     0
 62
     7
  6
Continuous
370
    -3
390
F
  0
LAYER
  5
1D5
330
2
100
AcDbSymbolTableRecord
100
AcDbLayerTableRecord
  2
FRAMELAYER-133
 70
     0
 62
     7
  6
Continuous
370
    -3
390
F
  0
LAYER
  5
1D6
330
2
100
AcDbSymbolTableRecord
100
AcDbLayerTableRecord
  2
FRAMELAYER-134
 70
     0
 62
     7
  6
Continuous
370
    -3
390
F
  0
LAYER
  5
1D7
330
2
100
AcDbSymbolTableRecord
100
AcDbLayerTableRecord
  2
FRAMELAYER-135
 70
     0
 62
    -4
  6
Continuous
370
    -3
390
F
  0
LAYER
  5
1D8
330
2
100
AcDbSymbolTableRecord
100
AcDbLayerTableRecord
  2
FRAMELAYER-136
 70
     0
 62
    -3
  6
Continuous
370
    -3
390
F
  0
LAYER
  5
1D9
330
2
100
AcDbSymbolTableRecord
100
AcDbLayerTableRecord
  2
FRAMELAYER-137
 70
     0
 62
    -1
  6
Continuous
370
    -3
390
F
  0
LAYER
  5
1DA
330
2
100
AcDbSymbolTableRecord
100
AcDbLayerTableRecord
  2
FRAMELAYER-138
 70
     0
 62
     7
  6
Continuous
370
    -3
390
F
  0
LAYER
  5
1DB
330
2
100
AcDbSymbolTableRecord
100
AcDbLayerTableRecord
  2
FRAMELAYER-139
 70
     0
 62
     7
  6
Continuous
370
    -3
390
F
  0
LAYER
  5
1DC
330
2
100
AcDbSymbolTableRecord
100
AcDbLayerTableRecord
  2
FRAMELAYER-140
 70
     0
 62
     7
  6
Continuous
370
    -3
390
F
  0
LAYER
  5
1DD
330
2
100
AcDbSymbolTableRecord
100
AcDbLayerTableRecord
  2
FRAMELAYER-141
 70
     0
 62
     7
  6
Continuous
370
    -3
390
F
  0
LAYER
  5
1DE
330
2
100
AcDbSymbolTableRecord
100
AcDbLayerTableRecord
  2
FRAMELAYER-142
 70
     0
 62
     3
  6
Continuous
370
    -3
390
F
  0
LAYER
  5
1DF
330
2
100
AcDbSymbolTableRecord
100
AcDbLayerTableRecord
  2
FRAMELAYER-143
 70
     0
 62
     7
  6
Continuous
370
    -3
390
F
  0
LAYER
  5
1E0
330
2
100
AcDbSymbolTableRecord
100
AcDbLayerTableRecord
  2
FRAMELAYER-144
 70
     0
 62
     7
  6
Continuous
370
    -3
390
F
  0
LAYER
  5
1E1
330
2
100
AcDbSymbolTableRecord
100
AcDbLayerTableRecord
  2
FRAMELAYER-145
 70
     0
 62
     3
  6
Continuous
370
    -3
390
F
  0
LAYER
  5
1E2
330
2
100
AcDbSymbolTableRecord
100
AcDbLayerTableRecord
  2
FRAMELAYER-146
 70
     0
 62
     7
  6
Continuous
370
    -3
390
F
  0
LAYER
  5
1E3
330
2
100
AcDbSymbolTableRecord
100
AcDbLayerTableRecord
  2
FRAMELAYER-147
 70
     0
 62
     7
  6
Continuous
370
    -3
390
F
  0
LAYER
  5
1E4
330
2
100
AcDbSymbolTableRecord
100
AcDbLayerTableRecord
  2
FRAMELAYER-148
 70
     0
 62
     7
  6
Continuous
370
    -3
390
F
  0
LAYER
  5
1E5
330
2
100
AcDbSymbolTableRecord
100
AcDbLayerTableRecord
  2
FRAMELAYER-149
 70
     0
 62
     7
  6
Continuous
370
    -3
390
F
  0
LAYER
  5
1E6
330
2
100
AcDbSymbolTableRecord
100
AcDbLayerTableRecord
  2
FRAMELAYER-150
 70
     0
 62
     7
  6
Continuous
370
    -3
390
F
  0
LAYER
  5
1E7
330
2
100
AcDbSymbolTableRecord
100
AcDbLayerTableRecord
  2
FRAMELAYER-151
 70
     0
 62
     7
  6
Continuous
370
    -3
390
F
  0
LAYER
  5
1E8
330
2
100
AcDbSymbolTableRecord
100
AcDbLayerTableRecord
  2
FRAMELAYER-152
 70
     0
 62
     7
  6
Continuous
370
    -3
390
F
  0
LAYER
  5
1E9
330
2
100
AcDbSymbolTableRecord
100
AcDbLayerTableRecord
  2
FRAMELAYER-153
 70
     0
 62
     7
  6
Continuous
370
    -3
390
F
  0
LAYER
  5
1EA
330
2
100
AcDbSymbolTableRecord
100
AcDbLayerTableRecord
  2
FRAMELAYER-154
 70
     0
 62
     7
  6
Continuous
370
    -3
390
F
  0
LAYER
  5
1EB
330
2
100
AcDbSymbolTableRecord
100
AcDbLayerTableRecord
  2
FRAMELAYER-155
 70
     0
 62
     7
  6
Continuous
370
    -3
390
F
  0
LAYER
  5
1EC
330
2
100
AcDbSymbolTableRecord
100
AcDbLayerTableRecord
  2
FRAMELAYER-156
 70
     0
 62
     7
  6
Continuous
370
    -3
390
F
  0
LAYER
  5
1ED
330
2
100
AcDbSymbolTableRecord
100
AcDbLayerTableRecord
  2
FRAMELAYER-157
 70
     0
 62
     7
  6
Continuous
370
    -3
390
F
  0
LAYER
  5
1EE
330
2
100
AcDbSymbolTableRecord
100
AcDbLayerTableRecord
  2
FRAMELAYER-158
 70
     0
 62
     7
  6
Continuous
370
    -3
390
F
  0
LAYER
  5
1EF
330
2
100
AcDbSymbolTableRecord
100
AcDbLayerTableRecord
  2
FRAMELAYER-159
 70
     0
 62
     7
  6
Continuous
370
    -3
390
F
  0
LAYER
  5
1F0
330
2
100
AcDbSymbolTableRecord
100
AcDbLayerTableRecord
  2
FRAMELAYER-160
 70
     0
 62
     7
  6
Continuous
370
    -3
390
F
  0
LAYER
  5
1F1
330
2
100
AcDbSymbolTableRecord
100
AcDbLayerTableRecord
  2
FRAMELAYER-161
 70
     0
 62
     7
  6
Continuous
370
    -3
390
F
  0
LAYER
  5
1F2
330
2
100
AcDbSymbolTableRecord
100
AcDbLayerTableRecord
  2
FRAMELAYER-162
 70
     0
 62
     7
  6
Continuous
370
    -3
390
F
  0
LAYER
  5
1F3
330
2
100
AcDbSymbolTableRecord
100
AcDbLayerTableRecord
  2
FRAMELAYER-163
 70
     0
 62
     7
  6
Continuous
370
    -3
390
F
  0
LAYER
  5
1F4
330
2
100
AcDbSymbolTableRecord
100
AcDbLayerTableRecord
  2
FRAMELAYER-164
 70
     0
 62
     7
  6
Continuous
370
    -3
390
F
  0
LAYER
  5
1F5
330
2
100
AcDbSymbolTableRecord
100
AcDbLayerTableRecord
  2
FRAMELAYER-165
 70
     0
 62
     7
  6
Continuous
370
    -3
390
F
  0
LAYER
  5
1F6
330
2
100
AcDbSymbolTableRecord
100
AcDbLayerTableRecord
  2
FRAMELAYER-166
 70
     0
 62
     7
  6
Continuous
370
    -3
390
F
  0
LAYER
  5
1F7
330
2
100
AcDbSymbolTableRecord
100
AcDbLayerTableRecord
  2
FRAMELAYER-167
 70
     0
 62
     7
  6
Continuous
370
    -3
390
F
  0
LAYER
  5
1F8
330
2
100
AcDbSymbolTableRecord
100
AcDbLayerTableRecord
  2
FRAMELAYER-168
 70
     0
 62
     7
  6
Continuous
370
    -3
390
F
  0
LAYER
  5
1F9
330
2
100
AcDbSymbolTableRecord
100
AcDbLayerTableRecord
  2
FRAMELAYER-169
 70
     0
 62
     7
  6
Continuous
370
    -3
390
F
  0
LAYER
  5
1FA
330
2
100
AcDbSymbolTableRecord
100
AcDbLayerTableRecord
  2
FRAMELAYER-170
 70
     0
 62
     7
  6
Continuous
370
    -3
390
F
  0
LAYER
  5
1FB
330
2
100
AcDbSymbolTableRecord
100
AcDbLayerTableRecord
  2
FRAMELAYER-171
 70
     0
 62
     7
  6
Continuous
370
    -3
390
F
  0
LAYER
  5
1FC
330
2
100
AcDbSymbolTableRecord
100
AcDbLayerTableRecord
  2
FRAMELAYER-172
 70
     0
 62
     7
  6
Continuous
370
    -3
390
F
  0
LAYER
  5
1FD
330
2
100
AcDbSymbolTableRecord
100
AcDbLayerTableRecord
  2
FRAMELAYER-173
 70
     0
 62
     7
  6
Continuous
370
    -3
390
F
  0
LAYER
  5
1FE
330
2
100
AcDbSymbolTableRecord
100
AcDbLayerTableRecord
  2
FRAMELAYER-174
 70
     0
 62
     7
  6
Continuous
370
    -3
390
F
  0
LAYER
  5
1FF
330
2
100
AcDbSymbolTableRecord
100
AcDbLayerTableRecord
  2
FRAMELAYER-175
 70
     0
 62
     7
  6
Continuous
370
    -3
390
F
  0
LAYER
  5
200
330
2
100
AcDbSymbolTableRecord
100
AcDbLayerTableRecord
  2
FRAMELAYER-176
 70
     0
 62
     7
  6
Continuous
370
    -3
390
F
  0
LAYER
  5
201
330
2
100
AcDbSymbolTableRecord
100
AcDbLayerTableRecord
  2
FRAMELAYER-177
 70
     0
 62
     7
  6
Continuous
370
    -3
390
F
  0
LAYER
  5
202
330
2
100
AcDbSymbolTableRecord
100
AcDbLayerTableRecord
  2
FRAMELAYER-178
 70
     0
 62
     7
  6
Continuous
370
    -3
390
F
  0
LAYER
  5
203
330
2
100
AcDbSymbolTableRecord
100
AcDbLayerTableRecord
  2
FRAMELAYER-179
 70
     0
 62
     7
  6
Continuous
370
    -3
390
F
  0
LAYER
  5
204
330
2
100
AcDbSymbolTableRecord
100
AcDbLayerTableRecord
  2
FRAMELAYER-180
 70
     0
 62
     7
  6
Continuous
370
    -3
390
F
  0
LAYER
  5
205
330
2
100
AcDbSymbolTableRecord
100
AcDbLayerTableRecord
  2
FRAMELAYER-181
 70
     0
 62
     7
  6
Continuous
370
    -3
390
F
  0
LAYER
  5
206
330
2
100
AcDbSymbolTableRecord
100
AcDbLayerTableRecord
  2
FRAMELAYER-182
 70
     0
 62
     7
  6
Continuous
370
    -3
390
F
  0
LAYER
  5
207
330
2
100
AcDbSymbolTableRecord
100
AcDbLayerTableRecord
  2
FRAMELAYER-183
 70
     0
 62
     7
  6
Continuous
370
    -3
390
F
  0
LAYER
  5
208
330
2
100
AcDbSymbolTableRecord
100
AcDbLayerTableRecord
  2
FRAMELAYER-184
 70
     0
 62
     7
  6
Continuous
370
    -3
390
F
  0
LAYER
  5
209
330
2
100
AcDbSymbolTableRecord
100
AcDbLayerTableRecord
  2
FRAMELAYER-185
 70
     0
 62
     7
  6
Continuous
370
    -3
390
F
  0
LAYER
  5
20A
330
2
100
AcDbSymbolTableRecord
100
AcDbLayerTableRecord
  2
FRAMELAYER-186
 70
     0
 62
     7
  6
Continuous
370
    -3
390
F
  0
LAYER
  5
20B
330
2
100
AcDbSymbolTableRecord
100
AcDbLayerTableRecord
  2
FRAMELAYER-187
 70
     0
 62
     7
  6
Continuous
370
    -3
390
F
  0
LAYER
  5
20C
330
2
100
AcDbSymbolTableRecord
100
AcDbLayerTableRecord
  2
FRAMELAYER-188
 70
     0
 62
     7
  6
Continuous
370
    -3
390
F
  0
LAYER
  5
20D
330
2
100
AcDbSymbolTableRecord
100
AcDbLayerTableRecord
  2
FRAMELAYER-189
 70
     0
 62
     7
  6
Continuous
370
    -3
390
F
  0
LAYER
  5
20E
330
2
100
AcDbSymbolTableRecord
100
AcDbLayerTableRecord
  2
FRAMELAYER-190
 70
     0
 62
     7
  6
Continuous
370
    -3
390
F
  0
LAYER
  5
20F
330
2
100
AcDbSymbolTableRecord
100
AcDbLayerTableRecord
  2
FRAMELAYER-191
 70
     0
 62
     7
  6
Continuous
370
    -3
390
F
  0
LAYER
  5
210
330
2
100
AcDbSymbolTableRecord
100
AcDbLayerTableRecord
  2
FRAMELAYER-192
 70
     0
 62
     7
  6
Continuous
370
    -3
390
F
  0
LAYER
  5
211
330
2
100
AcDbSymbolTableRecord
100
AcDbLayerTableRecord
  2
FRAMELAYER-193
 70
     0
 62
     7
  6
Continuous
370
    -3
390
F
  0
LAYER
  5
212
330
2
100
AcDbSymbolTableRecord
100
AcDbLayerTableRecord
  2
FRAMELAYER-194
 70
     0
 62
     2
  6
Continuous
370
    -3
390
F
  0
LAYER
  5
213
330
2
100
AcDbSymbolTableRecord
100
AcDbLayerTableRecord
  2
FRAMELAYER-195
 70
     0
 62
     2
  6
Continuous
370
    -3
390
F
  0
LAYER
  5
214
330
2
100
AcDbSymbolTableRecord
100
AcDbLayerTableRecord
  2
FRAMELAYER-196
 70
     0
 62
     2
  6
Continuous
370
    -3
390
F
  0
LAYER
  5
215
330
2
100
AcDbSymbolTableRecord
100
AcDbLayerTableRecord
  2
FRAMELAYER-197
 70
     0
 62
     7
  6
Continuous
370
    -3
390
F
  0
LAYER
  5
216
330
2
100
AcDbSymbolTableRecord
100
AcDbLayerTableRecord
  2
FRAMELAYER-198
 70
     0
 62
     7
  6
Continuous
370
    -3
390
F
  0
LAYER
  5
217
330
2
100
AcDbSymbolTableRecord
100
AcDbLayerTableRecord
  2
FRAMELAYER-199
 70
     0
 62
     4
  6
Continuous
370
    -3
390
F
  0
LAYER
  5
218
330
2
100
AcDbSymbolTableRecord
100
AcDbLayerTableRecord
  2
FRAMELAYER-200
 70
     0
 62
     1
  6
Continuous
370
    -3
390
F
  0
LAYER
  5
219
330
2
100
AcDbSymbolTableRecord
100
AcDbLayerTableRecord
  2
FRAMELAYER-201
 70
     0
 62
     1
  6
Continuous
370
    -3
390
F
  0
LAYER
  5
21A
330
2
100
AcDbSymbolTableRecord
100
AcDbLayerTableRecord
  2
FRAMELAYER-202
 70
     0
 62
     2
  6
Continuous
370
    -3
390
F
  0
LAYER
  5
21B
330
2
100
AcDbSymbolTableRecord
100
AcDbLayerTableRecord
  2
FRAMELAYER-203
 70
     0
 62
     2
  6
Continuous
370
    -3
390
F
  0
LAYER
  5
21C
330
2
100
AcDbSymbolTableRecord
100
AcDbLayerTableRecord
  2
FRAMELAYER-204
 70
     0
 62
     7
  6
Continuous
370
    -3
390
F
  0
LAYER
  5
21D
330
2
100
AcDbSymbolTableRecord
100
AcDbLayerTableRecord
  2
FRAMELAYER-205
 70
     0
 62
     7
  6
Continuous
370
    -3
390
F
  0
LAYER
  5
21E
330
2
100
AcDbSymbolTableRecord
100
AcDbLayerTableRecord
  2
FRAMELAYER-206
 70
     0
 62
     7
  6
Continuous
370
    -3
390
F
  0
LAYER
  5
21F
330
2
100
AcDbSymbolTableRecord
100
AcDbLayerTableRecord
  2
FRAMELAYER-207
 70
     0
 62
    -7
  6
Continuous
370
    -3
390
F
  0
LAYER
  5
220
330
2
100
AcDbSymbolTableRecord
100
AcDbLayerTableRecord
  2
FRAMELAYER-208
 70
     0
 62
     2
  6
Continuous
370
    -3
390
F
  0
LAYER
  5
221
330
2
100
AcDbSymbolTableRecord
100
AcDbLayerTableRecord
  2
FRAMELAYER-209
 70
     0
 62
     7
  6
Continuous
370
    -3
390
F
  0
LAYER
  5
222
330
2
100
AcDbSymbolTableRecord
100
AcDbLayerTableRecord
  2
FRAMELAYER-210
 70
     0
 62
     2
  6
Continuous
290
     0
370
    -3
390
F
  0
LAYER
  5
223
330
2
100
AcDbSymbolTableRecord
100
AcDbLayerTableRecord
  2
FRAMELAYER-211
 70
     0
 62
     7
  6
Continuous
370
    -3
390
F
  0
LAYER
  5
224
330
2
100
AcDbSymbolTableRecord
100
AcDbLayerTableRecord
  2
FRAMELAYER-212
 70
     0
 62
     7
  6
Continuous
370
    -3
390
F
  0
LAYER
  5
225
330
2
100
AcDbSymbolTableRecord
100
AcDbLayerTableRecord
  2
FRAMELAYER-213
 70
     0
 62
     2
  6
Continuous
370
    -3
390
F
  0
LAYER
  5
226
330
2
100
AcDbSymbolTableRecord
100
AcDbLayerTableRecord
  2
FRAMELAYER-214
 70
     0
 62
     7
  6
Continuous
370
    -3
390
F
  0
LAYER
  5
227
330
2
100
AcDbSymbolTableRecord
100
AcDbLayerTableRecord
  2
FRAMELAYER-215
 70
     0
 62
     7
  6
Continuous
370
    -3
390
F
  0
LAYER
  5
228
330
2
100
AcDbSymbolTableRecord
100
AcDbLayerTableRecord
  2
FRAMELAYER-216
 70
     0
 62
     4
  6
Continuous
370
    -3
390
F
  0
LAYER
  5
229
330
2
100
AcDbSymbolTableRecord
100
AcDbLayerTableRecord
  2
FRAMELAYER-217
 70
     0
 62
     7
  6
Continuous
370
    -3
390
F
  0
LAYER
  5
22A
330
2
100
AcDbSymbolTableRecord
100
AcDbLayerTableRecord
  2
FRAMELAYER-218
 70
     0
 62
     7
  6
Continuous
370
    -3
390
F
  0
LAYER
  5
22B
330
2
100
AcDbSymbolTableRecord
100
AcDbLayerTableRecord
  2
FRAMELAYER-219
 70
     0
 62
     7
  6
Continuous
370
    -3
390
F
  0
LAYER
  5
22C
330
2
100
AcDbSymbolTableRecord
100
AcDbLayerTableRecord
  2
FRAMELAYER-220
 70
     0
 62
     4
  6
Continuous
370
    -3
390
F
  0
LAYER
  5
22D
330
2
100
AcDbSymbolTableRecord
100
AcDbLayerTableRecord
  2
FRAMELAYER-221
 70
     0
 62
    -7
  6
Continuous
290
     0
370
    -3
390
F
  0
LAYER
  5
22E
330
2
100
AcDbSymbolTableRecord
100
AcDbLayerTableRecord
  2
FRAMELAYER-222
 70
     0
 62
    -4
  6
Continuous
290
     0
370
    -3
390
F
  0
LAYER
  5
22F
330
2
100
AcDbSymbolTableRecord
100
AcDbLayerTableRecord
  2
FRAMELAYER-223
 70
     0
 62
    -1
  6
Continuous
290
     0
370
    -3
390
F
  0
LAYER
  5
230
330
2
100
AcDbSymbolTableRecord
100
AcDbLayerTableRecord
  2
FRAMELAYER-224
 70
     0
 62
    -1
  6
Continuous
290
     0
370
    -3
390
F
  0
LAYER
  5
231
330
2
100
AcDbSymbolTableRecord
100
AcDbLayerTableRecord
  2
FRAMELAYER-225
 70
     0
 62
     7
  6
Continuous
370
    -3
390
F
  0
LAYER
  5
232
330
2
100
AcDbSymbolTableRecord
100
AcDbLayerTableRecord
  2
FRAMELAYER-226
 70
     0
 62
     2
  6
Continuous
370
    -3
390
F
  0
LAYER
  5
233
330
2
100
AcDbSymbolTableRecord
100
AcDbLayerTableRecord
  2
FRAMELAYER-227
 70
     0
 62
     7
  6
Continuous
370
    -3
390
F
  0
LAYER
  5
234
330
2
100
AcDbSymbolTableRecord
100
AcDbLayerTableRecord
  2
FRAMELAYER-228
 70
     0
 62
     7
  6
Continuous
370
    -3
390
F
  0
LAYER
  5
235
330
2
100
AcDbSymbolTableRecord
100
AcDbLayerTableRecord
  2
FRAMELAYER-229
 70
     0
 62
     7
  6
Continuous
370
    -3
390
F
  0
LAYER
  5
236
330
2
100
AcDbSymbolTableRecord
100
AcDbLayerTableRecord
  2
FRAMELAYER-230
 70
     0
 62
     7
  6
Continuous
370
    -3
390
F
  0
LAYER
  5
237
330
2
100
AcDbSymbolTableRecord
100
AcDbLayerTableRecord
  2
FRAMELAYER-231
 70
     0
 62
     7
  6
Continuous
370
    -3
390
F
  0
LAYER
  5
238
330
2
100
AcDbSymbolTableRecord
100
AcDbLayerTableRecord
  2
FRAMELAYER-232
 70
     0
 62
     7
  6
Continuous
370
    -3
390
F
  0
LAYER
  5
239
330
2
100
AcDbSymbolTableRecord
100
AcDbLayerTableRecord
  2
FRAMELAYER-233
 70
     0
 62
     7
  6
Continuous
370
    -3
390
F
  0
LAYER
  5
23A
330
2
100
AcDbSymbolTableRecord
100
AcDbLayerTableRecord
  2
FRAMELAYER-234
 70
     0
 62
     7
  6
Continuous
370
    -3
390
F
  0
LAYER
  5
23B
330
2
100
AcDbSymbolTableRecord
100
AcDbLayerTableRecord
  2
FRAMELAYER-235
 70
     0
 62
     7
  6
Continuous
370
    -3
390
F
  0
LAYER
  5
23C
330
2
100
AcDbSymbolTableRecord
100
AcDbLayerTableRecord
  2
FRAMELAYER-236
 70
     0
 62
     7
  6
Continuous
370
    -3
390
F
  0
LAYER
  5
23D
330
2
100
AcDbSymbolTableRecord
100
AcDbLayerTableRecord
  2
FRAMELAYER-237
 70
     0
 62
     7
  6
Continuous
370
    -3
390
F
  0
LAYER
  5
23E
330
2
100
AcDbSymbolTableRecord
100
AcDbLayerTableRecord
  2
FRAMELAYER-238
 70
     0
 62
     7
  6
Continuous
370
    -3
390
F
  0
LAYER
  5
23F
330
2
100
AcDbSymbolTableRecord
100
AcDbLayerTableRecord
  2
FRAMELAYER-239
 70
     0
 62
     7
  6
Continuous
370
    -3
390
F
  0
LAYER
  5
240
330
2
100
AcDbSymbolTableRecord
100
AcDbLayerTableRecord
  2
FRAMELAYER-240
 70
     0
 62
     7
  6
Continuous
370
    -3
390
F
  0
LAYER
  5
241
330
2
100
AcDbSymbolTableRecord
100
AcDbLayerTableRecord
  2
FRAMELAYER-241
 70
     0
 62
     7
  6
Continuous
370
    -3
390
F
  0
LAYER
  5
242
330
2
100
AcDbSymbolTableRecord
100
AcDbLayerTableRecord
  2
FRAMELAYER-242
 70
     0
 62
     7
  6
Continuous
370
    -3
390
F
  0
LAYER
  5
243
330
2
100
AcDbSymbolTableRecord
100
AcDbLayerTableRecord
  2
FRAMELAYER-243
 70
     0
 62
     7
  6
Continuous
370
    -3
390
F
  0
LAYER
  5
244
330
2
100
AcDbSymbolTableRecord
100
AcDbLayerTableRecord
  2
FRAMELAYER-244
 70
     0
 62
     7
  6
Continuous
370
    -3
390
F
  0
LAYER
  5
245
330
2
100
AcDbSymbolTableRecord
100
AcDbLayerTableRecord
  2
FRAMELAYER-245
 70
     0
 62
     7
  6
Continuous
370
    -3
390
F
  0
LAYER
  5
246
330
2
100
AcDbSymbolTableRecord
100
AcDbLayerTableRecord
  2
FRAMELAYER-246
 70
     0
 62
     7
  6
Continuous
370
    -3
390
F
  0
LAYER
  5
247
330
2
100
AcDbSymbolTableRecord
100
AcDbLayerTableRecord
  2
FRAMELAYER-247
 70
     0
 62
     7
  6
Continuous
370
    -3
390
F
  0
LAYER
  5
248
330
2
100
AcDbSymbolTableRecord
100
AcDbLayerTableRecord
  2
FRAMELAYER-248
 70
     0
 62
     7
  6
Continuous
370
    -3
390
F
  0
LAYER
  5
249
330
2
100
AcDbSymbolTableRecord
100
AcDbLayerTableRecord
  2
FRAMELAYER-249
 70
     0
 62
     7
  6
Continuous
370
    -3
390
F
  0
LAYER
  5
24A
330
2
100
AcDbSymbolTableRecord
100
AcDbLayerTableRecord
  2
FRAMELAYER-250
 70
     0
 62
     7
  6
Continuous
370
    -3
390
F
  0
LAYER
  5
24B
330
2
100
AcDbSymbolTableRecord
100
AcDbLayerTableRecord
  2
FRAMELAYER-251
 70
     0
 62
     7
  6
Continuous
370
    -3
390
F
  0
LAYER
  5
24C
330
2
100
AcDbSymbolTableRecord
100
AcDbLayerTableRecord
  2
FRAMELAYER-252
 70
     0
 62
     7
  6
Continuous
370
    -3
390
F
  0
LAYER
  5
24D
330
2
100
AcDbSymbolTableRecord
100
AcDbLayerTableRecord
  2
FRAMELAYER-253
 70
     0
 62
     7
  6
Continuous
370
    -3
390
F
  0
LAYER
  5
24E
330
2
100
AcDbSymbolTableRecord
100
AcDbLayerTableRecord
  2
FRAMELAYER-254
 70
     0
 62
     7
  6
Continuous
370
    -3
390
F
  0
LAYER
  5
24F
330
2
100
AcDbSymbolTableRecord
100
AcDbLayerTableRecord
  2
FRAMELAYER-255
 70
     0
 62
     7
  6
Continuous
370
    -3
390
F
  0
LAYER
  5
250
330
2
100
AcDbSymbolTableRecord
100
AcDbLayerTableRecord
  2
FRAMELAYER-256
 70
     0
 62
     7
  6
Continuous
370
    -3
390
F
  0
ENDTAB
  0
TABLE
  2
STYLE
  5
3
330
0
100
AcDbSymbolTable
 70
     7
  0
STYLE
  5
11
330
3
100
AcDbSymbolTableRecord
100
AcDbTextStyleTableRecord
  2
Standard
 70
     0
 40
0.0
 41
1.0
 50
0.0
 71
     0
 42
2.5
  3
txt
  4

  0
STYLE
  5
31
330
3
100
AcDbSymbolTableRecord
100
AcDbTextStyleTableRecord
  2
STANDARD2
 70
     0
 40
0.0
 41
1.0
 50
0.0
 71
     0
 42
4.0
  3
MS Mincho.ttf
  4

1001
ACAD
1000
MS Mincho
1071
    32785
  0
STYLE
  5
32
330
3
100
AcDbSymbolTableRecord
100
AcDbTextStyleTableRecord
  2
STRING_H
 70
     0
 40
0.0
 41
1.0
 50
0.0
 71
     0
 42
4.0
  3
MS Mincho.ttf
  4

1001
ACAD
1000
MS Mincho
1071
    32785
  0
STYLE
  5
33
330
3
100
AcDbSymbolTableRecord
100
AcDbTextStyleTableRecord
  2
STRING_H_ITALIC
 70
     0
 40
0.0
 41
1.0
 50
15.0
 71
     0
 42
4.0
  3
MS Mincho.ttf
  4

1001
ACAD
1000
MS Mincho
1071
    32785
  0
STYLE
  5
34
330
3
100
AcDbSymbolTableRecord
100
AcDbTextStyleTableRecord
  2
STRING_V
 70
     0
 40
0.0
 41
1.0
 50
0.0
 71
     0
 42
4.0
  3
@MS Mincho.ttf
  4

1001
ACAD
1000
@MS Mincho
1071
    32785
  0
STYLE
  5
35
330
3
100
AcDbSymbolTableRecord
100
AcDbTextStyleTableRecord
  2
STRING_V_ITALIC
 70
     0
 40
0.0
 41
1.0
 50
15.0
 71
     0
 42
4.0
  3
@MS Mincho.ttf
  4

1001
ACAD
1000
@MS Mincho
1071
    32785
  0
STYLE
  5
36
330
3
100
AcDbSymbolTableRecord
100
AcDbTextStyleTableRecord
  2

 70
     1
 40
0.0
 41
1.0
 50
0.0
 71
     0
 42
0.2
  3
ltypeshp.shx
  4

  0
ENDTAB
  0
TABLE
  2
VIEW
  5
6
330
0
100
AcDbSymbolTable
 70
     0
  0
ENDTAB
  0
TABLE
  2
UCS
  5
7
330
0
100
AcDbSymbolTable
 70
     0
  0
ENDTAB
  0
TABLE
  2
APPID
  5
9
330
0
100
AcDbSymbolTable
 70
     1
  0
APPID
  5
12
330
9
100
AcDbSymbolTableRecord
100
AcDbRegAppTableRecord
  2
ACAD
 70
     0
  0
ENDTAB
  0
TABLE
  2
DIMSTYLE
  5
A
330
0
100
AcDbSymbolTable
 70
     2
100
AcDbDimStyleTable
  0
DIMSTYLE
105
27
330
A
100
AcDbSymbolTableRecord
100
AcDbDimStyleTableRecord
  2
ISO-25
 70
     0
 41
2.5
 42
0.625
 43
3.75
 44
1.25
 73
     0
 74
     0
 77
     1
 78
     8
140
2.5
141
2.5
143
0.03937007874016
147
0.625
171
     3
172
     1
271
     2
272
     2
274
     3
283
     0
284
     8
340
11
  0
DIMSTYLE
105
251
102
{ACAD_REACTORS
330
56B
330
575
330
57F
330
589
330
593
330
59D
102
}
330
A
100
AcDbSymbolTableRecord
100
AcDbDimStyleTableRecord
  2
DIO_DIMSTYLE
 70
     0
 41
4.0
 42
1.0
 43
3.75
 44
1.0
 45
0.1
 73
     0
 74
     0
 77
     1
 78
     8
 79
     2
140
3.0
141
2.5
143
0.03937007874016
147
0.5
171
     3
172
     1
173
     1
179
     1
271
     1
272
     1
274
     3
283
     0
284
     8
288
     1
289
     0
340
31
  0
ENDTAB
  0
TABLE
  2
BLOCK_RECORD
  5
1
330
0
100
AcDbSymbolTable
 70
     8
  0
BLOCK_RECORD
  5
1F
330
1
100
AcDbSymbolTableRecord
100
AcDbBlockTableRecord
  2
*Model_Space
340
22
  0
BLOCK_RECORD
  5
1B
330
1
100
AcDbSymbolTableRecord
100
AcDbBlockTableRecord
  2
*Paper_Space
340
1E
  0
BLOCK_RECORD
  5
23
330
1
100
AcDbSymbolTableRecord
100
AcDbBlockTableRecord
  2
*Paper_Space0
340
26
  0
BLOCK_RECORD
  5
55C
330
1
100
AcDbSymbolTableRecord
100
AcDbBlockTableRecord
  2
_OPEN
340
0
102
{BLKREFS
331
565
331
566
331
56F
331
570
331
579
331
57A
331
583
331
584
331
58D
331
58E
331
597
331
598
102
}
  0
BLOCK_RECORD
  5
562
330
1
100
AcDbSymbolTableRecord
100
AcDbBlockTableRecord
  2
*D02
340
0
  0
BLOCK_RECORD
  5
56C
330
1
100
AcDbSymbolTableRecord
100
AcDbBlockTableRecord
  2
*D13
340
0
  0
BLOCK_RECORD
  5
576
330
1
100
AcDbSymbolTableRecord
100
AcDbBlockTableRecord
  2
*D24
340
0
  0
BLOCK_RECORD
  5
580
330
1
100
AcDbSymbolTableRecord
100
AcDbBlockTableRecord
  2
*D35
340
0
  0
BLOCK_RECORD
  5
58A
330
1
100
AcDbSymbolTableRecord
100
AcDbBlockTableRecord
  2
*D46
340
0
  0
BLOCK_RECORD
  5
594
330
1
100
AcDbSymbolTableRecord
100
AcDbBlockTableRecord
  2
*D57
340
0
  0
ENDTAB
  0
ENDSEC
  0
SECTION
  2
BLOCKS
  0
BLOCK
  5
20
330
1F
100
AcDbEntity
  8
0
100
AcDbBlockBegin
  2
*Model_Space
 70
     0
 71
     0
 10
0.0
 20
0.0
 30
0.0
  3
*Model_Space
  1

  0
ENDBLK
  5
21
330
1F
100
AcDbEntity
  8
0
100
AcDbBlockEnd
  0
BLOCK
  5
1C
330
1B
100
AcDbEntity
 67
     1
  8
0
100
AcDbBlockBegin
  2
*Paper_Space
 70
     0
 71
     0
 10
0.0
 20
0.0
 30
0.0
  3
*Paper_Space
  1

  0
ENDBLK
  5
1D
330
1B
100
AcDbEntity
 67
     1
  8
0
100
AcDbBlockEnd
  0
BLOCK
  5
24
330
23
100
AcDbEntity
  8
0
100
AcDbBlockBegin
  2
*Paper_Space0
 70
     0
 71
     0
 10
0.0
 20
0.0
 30
0.0
  3
*Paper_Space0
  1

  0
ENDBLK
  5
25
330
23
100
AcDbEntity
  8
0
100
AcDbBlockEnd
  0
BLOCK
  5
55D
330
55C
100
AcDbEntity
  8
0
100
AcDbBlockBegin
  2
_OPEN
 70
     0
 71
     0
 10
0.0
 20
0.0
 30
0.0
  3
_OPEN
  1

  0
LINE
  5
55F
330
55C
100
AcDbEntity
  8
LAYER-035
  6
Continuous
 62
     0
100
AcDbLine
 10
0.0
 20
0.0
 30
0.0
 11
-1.0
 21
0.0
 31
0.0
  0
LINE
  5
560
330
55C
100
AcDbEntity
  8
LAYER-035
  6
Continuous
 62
     0
100
AcDbLine
 10
0.0
 20
0.0
 30
0.0
 11
-1.0
 21
0.1666250109338451
 31
0.0
  0
LINE
  5
561
330
55C
100
AcDbEntity
  8
LAYER-035
  6
Continuous
 62
     0
100
AcDbLine
 10
0.0
 20
0.0
 30
0.0
 11
-1.0
 21
-0.1666250109338451
 31
0.0
  0
ENDBLK
  5
55E
330
55C
100
AcDbEntity
  8
0
100
AcDbBlockEnd
  0
BLOCK
  5
563
330
562
100
AcDbEntity
  8
0
100
AcDbBlockBegin
  2
*D02
 70
     1
 71
     0
 10
0.0
 20
0.0
 30
0.0
  3
*D02
  1

  0
INSERT
  5
565
330
562
100
AcDbEntity
  8
LAYER-035
  6
Continuous
 62
     5
100
AcDbBlockReference
  2
_OPEN
 10
-530.1180925717639
 20
317.4302240426343
 30
0.0
 41
4.0
 42
4.0
 43
4.0
 50
90.0
  0
INSERT
  5
566
330
562
100
AcDbEntity
  8
LAYER-035
  6
Continuous
 62
     5
100
AcDbBlockReference
  2
_OPEN
 10
-530.1180925717639
 20
-122.5697759573657
 30
0.0
 41
4.0
 42
4.0
 43
4.0
 50
-90.0
  0
LINE
  5
567
330
562
100
AcDbEntity
  8
LAYER-035
  6
Continuous
 62
     5
100
AcDbLine
 10
-448.3405599973008
 20
317.4302240426343
 30
0.0
 11
-531.1180925717639
 21
317.4302240426343
 31
0.0
  0
LINE
  5
568
330
562
100
AcDbEntity
  8
LAYER-035
  6
Continuous
 62
     5
100
AcDbLine
 10
-477.2796774395232
 20
-122.5697759573657
 30
0.0
 11
-531.1180925717639
 21
-122.5697759573657
 31
0.0
  0
LINE
  5
569
330
562
100
AcDbEntity
  8
LAYER-035
  6
Continuous
 62
     5
100
AcDbLine
 10
-530.1180925717639
 20
317.4302240426343
 30
0.0
 11
-530.1180925717639
 21
-122.5697759573657
 31
0.0
  0
MTEXT
  5
56A
330
562
100
AcDbEntity
  8
LAYER-036
  6
Continuous
 62
     5
100
AcDbMText
 10
-530.6180925717639
 20
97.43022404263428
 30
0.0
 40
4.0
 41
0.0
 71
     8
 72
     1
  1
440
  7
STRING_H
 11
6.123031769111886E-17
 21
1.0
 31
0.0
 73
     1
 44
1.0
  0
ENDBLK
  5
564
330
562
100
AcDbEntity
  8
0
100
AcDbBlockEnd
  0
BLOCK
  5
56D
330
56C
100
AcDbEntity
  8
0
100
AcDbBlockBegin
  2
*D13
 70
     1
 71
     0
 10
0.0
 20
0.0
 30
0.0
  3
*D13
  1

  0
INSERT
  5
56F
330
56C
100
AcDbEntity
  8
LAYER-035
  6
Continuous
 62
     5
100
AcDbBlockReference
  2
_OPEN
 10
-476.2796774395232
 20
-213.7928308244629
 30
0.0
 41
4.0
 42
4.0
 43
4.0
 50
180.0
  0
INSERT
  5
570
330
56C
100
AcDbEntity
  8
LAYER-035
  6
Continuous
 62
     5
100
AcDbBlockReference
  2
_OPEN
 10
-21.2796774395232
 20
-213.7928308244629
 30
0.0
 41
4.0
 42
4.0
 43
4.0
  0
LINE
  5
571
330
56C
100
AcDbEntity
  8
LAYER-035
  6
Continuous
 62
     5
100
AcDbLine
 10
-476.2796774395232
 20
-123.5697759573657
 30
0.0
 11
-476.2796774395232
 21
-214.7928308244629
 31
0.0
  0
LINE
  5
572
330
56C
100
AcDbEntity
  8
LAYER-035
  6
Continuous
 62
     5
100
AcDbLine
 10
-21.2796774395232
 20
-123.5697759573657
 30
0.0
 11
-21.2796774395232
 21
-214.7928308244629
 31
0.0
  0
LINE
  5
573
330
56C
100
AcDbEntity
  8
LAYER-035
  6
Continuous
 62
     5
100
AcDbLine
 10
-476.2796774395232
 20
-213.7928308244629
 30
0.0
 11
-21.2796774395232
 21
-213.7928308244629
 31
0.0
  0
MTEXT
  5
574
330
56C
100
AcDbEntity
  8
LAYER-036
  6
Continuous
 62
     5
100
AcDbMText
 10
-248.7796774395232
 20
-213.2928308244629
 30
0.0
 40
4.0
 41
0.0
 71
     8
 72
     1
  1
455
  7
STRING_H
 73
     1
 44
1.0
  0
ENDBLK
  5
56E
330
56C
100
AcDbEntity
  8
0
100
AcDbBlockEnd
  0
BLOCK
  5
577
330
576
100
AcDbEntity
  8
0
100
AcDbBlockBegin
  2
*D24
 70
     1
 71
     0
 10
0.0
 20
0.0
 30
0.0
  3
*D24
  1

  0
INSERT
  5
579
330
576
100
AcDbEntity
  8
LAYER-035
  6
Continuous
 62
     5
100
AcDbBlockReference
  2
_OPEN
 10
-73.7796774395232
 20
-175.74159430843
 30
0.0
 41
4.0
 42
4.0
 43
4.0
  0
INSERT
  5
57A
330
576
100
AcDbEntity
  8
LAYER-035
  6
Continuous
 62
     5
100
AcDbBlockReference
  2
_OPEN
 10
-423.7796774395232
 20
-175.74159430843
 30
0.0
 41
4.0
 42
4.0
 43
4.0
 50
180.0
  0
LINE
  5
57B
330
576
100
AcDbEntity
  8
LAYER-035
  6
Continuous
 62
     5
100
AcDbLine
 10
-73.7796774395232
 20
-107.3933255418977
 30
0.0
 11
-73.7796774395232
 21
-176.74159430843
 31
0.0
  0
LINE
  5
57C
330
576
100
AcDbEntity
  8
LAYER-035
  6
Continuous
 62
     5
100
AcDbLine
 10
-423.7796774395232
 20
-107.3933255418977
 30
0.0
 11
-423.7796774395232
 21
-176.74159430843
 31
0.0
  0
LINE
  5
57D
330
576
100
AcDbEntity
  8
LAYER-035
  6
Continuous
 62
     5
100
AcDbLine
 10
-73.7796774395232
 20
-175.74159430843
 30
0.0
 11
-423.7796774395232
 21
-175.74159430843
 31
0.0
  0
MTEXT
  5
57E
330
576
100
AcDbEntity
  8
LAYER-036
  6
Continuous
 62
     5
100
AcDbMText
 10
-248.7796774395232
 20
-175.24159430843
 30
0.0
 40
4.0
 41
0.0
 71
     8
 72
     1
  1
350
  7
STRING_H
 73
     1
 44
1.0
  0
ENDBLK
  5
578
330
576
100
AcDbEntity
  8
0
100
AcDbBlockEnd
  0
BLOCK
  5
581
330
580
100
AcDbEntity
  8
0
100
AcDbBlockBegin
  2
*D35
 70
     1
 71
     0
 10
0.0
 20
0.0
 30
0.0
  3
*D35
  1

  0
INSERT
  5
583
330
580
100
AcDbEntity
  8
LAYER-035
  6
Continuous
 62
     5
100
AcDbBlockReference
  2
_OPEN
 10
178.8559875820905
 20
-175.74159430843
 30
0.0
 41
4.0
 42
4.0
 43
4.0
 50
180.0
  0
INSERT
  5
584
330
580
100
AcDbEntity
  8
LAYER-035
  6
Continuous
 62
     5
100
AcDbBlockReference
  2
_OPEN
 10
408.8559875820905
 20
-175.74159430843
 30
0.0
 41
4.0
 42
4.0
 43
4.0
  0
LINE
  5
585
330
580
100
AcDbEntity
  8
LAYER-035
  6
Continuous
 62
     5
100
AcDbLine
 10
178.8559875820905
 20
-134.6889669340776
 30
0.0
 11
178.8559875820905
 21
-176.74159430843
 31
0.0
  0
LINE
  5
586
330
580
100
AcDbEntity
  8
LAYER-035
  6
Continuous
 62
     5
100
AcDbLine
 10
408.8559875820905
 20
-133.0242824472278
 30
0.0
 11
408.8559875820905
 21
-176.74159430843
 31
0.0
  0
LINE
  5
587
330
580
100
AcDbEntity
  8
LAYER-035
  6
Continuous
 62
     5
100
AcDbLine
 10
178.8559875820905
 20
-175.74159430843
 30
0.0
 11
408.8559875820905
 21
-175.74159430843
 31
0.0
  0
MTEXT
  5
588
330
580
100
AcDbEntity
  8
LAYER-036
  6
Continuous
 62
     5
100
AcDbMText
 10
293.8559875820905
 20
-175.24159430843
 30
0.0
 40
4.0
 41
0.0
 71
     8
 72
     1
  1
230
  7
STRING_H
 73
     1
 44
1.0
  0
ENDBLK
  5
582
330
580
100
AcDbEntity
  8
0
100
AcDbBlockEnd
  0
BLOCK
  5
58B
330
58A
100
AcDbEntity
  8
0
100
AcDbBlockBegin
  2
*D46
 70
     1
 71
     0
 10
0.0
 20
0.0
 30
0.0
  3
*D46
  1

  0
INSERT
  5
58D
330
58A
100
AcDbEntity
  8
LAYER-035
  6
Continuous
 62
     5
100
AcDbBlockReference
  2
_OPEN
 10
158.8559875820905
 20
-213.7928308244629
 30
0.0
 41
4.0
 42
4.0
 43
4.0
 50
180.0
  0
INSERT
  5
58E
330
58A
100
AcDbEntity
  8
LAYER-035
  6
Continuous
 62
     5
100
AcDbBlockReference
  2
_OPEN
 10
428.8559876358122
 20
-213.7928308244629
 30
0.0
 41
4.0
 42
4.0
 43
4.0
  0
LINE
  5
58F
330
58A
100
AcDbEntity
  8
LAYER-035
  6
Continuous
 62
     5
100
AcDbLine
 10
158.8559875820905
 20
-123.5697759573657
 30
0.0
 11
158.8559875820905
 21
-214.7928308244629
 31
0.0
  0
LINE
  5
590
330
58A
100
AcDbEntity
  8
LAYER-035
  6
Continuous
 62
     5
100
AcDbLine
 10
428.8559875820905
 20
-123.5697759573657
 30
0.0
 11
428.8559876358122
 21
-214.7928308244629
 31
0.0
  0
LINE
  5
591
330
58A
100
AcDbEntity
  8
LAYER-035
  6
Continuous
 62
     5
100
AcDbLine
 10
158.8559875820905
 20
-213.7928308244629
 30
0.0
 11
428.8559876358122
 21
-213.7928308244629
 31
0.0
  0
MTEXT
  5
592
330
58A
100
AcDbEntity
  8
LAYER-036
  6
Continuous
 62
     5
100
AcDbMText
 10
293.8559876089514
 20
-213.2928308244629
 30
0.0
 40
4.0
 41
0.0
 71
     8
 72
     1
  1
270
  7
STRING_H
 73
     1
 44
1.0
  0
ENDBLK
  5
58C
330
58A
100
AcDbEntity
  8
0
100
AcDbBlockEnd
  0
BLOCK
  5
595
330
594
100
AcDbEntity
  8
0
100
AcDbBlockBegin
  2
*D57
 70
     1
 71
     0
 10
0.0
 20
0.0
 30
0.0
  3
*D57
  1

  0
INSERT
  5
597
330
594
100
AcDbEntity
  8
LAYER-035
  6
Continuous
 62
     5
100
AcDbBlockReference
  2
_OPEN
 10
156.3559880820904
 20
34.89726126716094
 30
0.0
 41
4.0
 42
4.0
 43
4.0
 50
180.0
  0
INSERT
  5
598
330
594
100
AcDbEntity
  8
LAYER-035
  6
Continuous
 62
     5
100
AcDbBlockReference
  2
_OPEN
 10
431.3559880820904
 20
34.89726126716094
 30
0.0
 41
4.0
 42
4.0
 43
4.0
  0
LINE
  5
599
330
594
100
AcDbEntity
  8
LAYER-035
  6
Continuous
 62
     5
100
AcDbLine
 10
156.3559880820904
 20
96.67008847538097
 30
0.0
 11
156.3559880820904
 21
33.89726126716094
 31
0.0
  0
LINE
  5
59A
330
594
100
AcDbEntity
  8
LAYER-035
  6
Continuous
 62
     5
100
AcDbLine
 10
431.3559880820904
 20
96.67008847538097
 30
0.0
 11
431.3559880820904
 21
33.89726126716094
 31
0.0
  0
LINE
  5
59B
330
594
100
AcDbEntity
  8
LAYER-035
  6
Continuous
 62
     5
100
AcDbLine
 10
156.3559880820904
 20
34.89726126716094
 30
0.0
 11
431.3559880820904
 21
34.89726126716094
 31
0.0
  0
MTEXT
  5
59C
330
594
100
AcDbEntity
  8
LAYER-036
  6
Continuous
 62
     5
100
AcDbMText
 10
282.5128972212339
 20
35.39726126716094
 30
0.0
 40
4.0
 41
0.0
 71
     8
 72
     1
  1
275
  7
STRING_H
 73
     1
 44
1.0
  0
ENDBLK
  5
596
330
594
100
AcDbEntity
  8
0
100
AcDbBlockEnd
  0
ENDSEC
  0
SECTION
  2
ENTITIES
  0
LINE
  5
252
330
1F
100
AcDbEntity
  8
LAYER-033
  6
Continuous
 62
     1
100
AcDbLine
 10
-80.71560684896083
 20
-331.3597434338237
 30
0.0
 11
37.0295179814872
 21
-331.3597434338237
 31
0.0
  0
LINE
  5
253
330
1F
100
AcDbEntity
  8
LAYER-033
  6
Continuous
 62
     1
100
AcDbLine
 10
-80.71560684896083
 20
-339.4451935351281
 30
0.0
 11
-22.64859653968249
 21
-339.4451935351281
 31
0.0
  0
LINE
  5
254
330
1F
100
AcDbEntity
  8
LAYER-033
  6
Continuous
 62
     1
100
AcDbLine
 10
-80.71560684896083
 20
-323.2742933325193
 30
0.0
 11
-22.64859653968249
 21
-323.2742933325193
 31
0.0
  0
LINE
  5
255
330
1F
100
AcDbEntity
  8
LAYER-007
  6
Continuous
 62
     1
100
AcDbLine
 10
353.9981320223029
 20
317.4302240426343
 30
0.0
 11
381.9834091907604
 21
317.4302240426343
 31
0.0
  0
LINE
  5
256
330
1F
100
AcDbEntity
  8
LAYER-033
  6
Continuous
 62
     1
100
AcDbLine
 10
353.9981320223029
 20
317.4302240426343
 30
0.0
 11
353.9981320223029
 21
270.7880954285385
 31
0.0
  0
LINE
  5
257
330
1F
100
AcDbEntity
  8
LAYER-007
  6
Continuous
 62
     1
100
AcDbLine
 10
377.3191963282754
 20
317.4302240426343
 30
0.0
 11
377.3191963282754
 21
191.8871976042801
 31
0.0
  0
LINE
  5
258
330
1F
100
AcDbEntity
  8
LAYER-007
  6
Continuous
 62
     1
100
AcDbLine
 10
381.9834091907604
 20
317.4302240426343
 30
0.0
 11
381.9834091907604
 21
168.5661146403805
 31
0.0
  0
LINE
  5
259
330
1F
100
AcDbEntity
  8
LAYER-007
  6
Continuous
 62
     1
100
AcDbLine
 10
-428.6701462895668
 20
317.4302240426343
 30
0.0
 11
-428.6701462895668
 21
192.4302240426343
 31
0.0
  0
LINE
  5
25A
330
1F
100
AcDbEntity
  8
LAYER-007
  6
Continuous
 62
     1
100
AcDbLine
 10
-67.02215881702495
 20
317.4302240426343
 30
0.0
 11
-67.02215881702495
 21
192.4302240426343
 31
0.0
  0
LINE
  5
25B
330
1F
100
AcDbEntity
  8
LAYER-008
  6
CENTER
 62
     4
100
AcDbLine
 10
-400.6645397307681
 20
313.6961338329256
 30
0.0
 11
-400.6645397307681
 21
275.421814204437
 31
0.0
  0
LINE
  5
25C
330
1F
100
AcDbEntity
  8
LAYER-008
  6
CENTER
 62
     4
100
AcDbLine
 10
-339.5371848597791
 20
313.6961338329256
 30
0.0
 11
-339.5371848597791
 21
275.421814204437
 31
0.0
  0
LINE
  5
25D
330
1F
100
AcDbEntity
  8
LAYER-008
  6
CENTER
 62
     4
100
AcDbLine
 10
-278.4098299887903
 20
313.6961338329256
 30
0.0
 11
-278.4098299887903
 21
275.421814204437
 31
0.0
  0
LINE
  5
25E
330
1F
100
AcDbEntity
  8
LAYER-008
  6
CENTER
 62
     4
100
AcDbLine
 10
-217.2824751178014
 20
313.6961338329256
 30
0.0
 11
-217.2824751178014
 21
275.421814204437
 31
0.0
  0
LINE
  5
25F
330
1F
100
AcDbEntity
  8
LAYER-008
  6
CENTER
 62
     4
100
AcDbLine
 10
-156.1551202468125
 20
313.6961338329256
 30
0.0
 11
-156.1551202468125
 21
275.421814204437
 31
0.0
  0
LINE
  5
260
330
1F
100
AcDbEntity
  8
LAYER-008
  6
CENTER
 62
     4
100
AcDbLine
 10
-95.02776537582355
 20
313.6961338329256
 30
0.0
 11
-95.02776537582355
 21
275.421814204437
 31
0.0
  0
LINE
  5
261
330
1F
100
AcDbEntity
  8
LAYER-007
  6
Continuous
 62
     1
100
AcDbLine
 10
405.304473496733
 20
312.7660111812247
 30
0.0
 11
409.9686863592179
 21
312.7660111812247
 31
0.0
  0
LINE
  5
262
330
1F
100
AcDbEntity
  8
LAYER-007
  6
Continuous
 62
     1
100
AcDbLine
 10
405.304473496733
 20
312.7660111812247
 30
0.0
 11
405.304473496733
 21
242.802818260081
 31
0.0
  0
LINE
  5
263
330
1F
100
AcDbEntity
  8
LAYER-007
  6
Continuous
 62
     1
100
AcDbLine
 10
409.9686863592179
 20
312.7660111812247
 30
0.0
 11
409.9686863592179
 21
270.7880954285385
 31
0.0
  0
LINE
  5
264
330
1F
100
AcDbEntity
  8
LAYER-006
  6
Continuous
 62
     1
100
AcDbLine
 10
381.9834091907604
 20
310.4339047506223
 30
0.0
 11
386.64762205217
 21
310.4339047506223
 31
0.0
  0
LINE
  5
265
330
1F
100
AcDbEntity
  8
LAYER-006
  6
Continuous
 62
     1
100
AcDbLine
 10
386.64762205217
 20
310.4339047506223
 30
0.0
 11
386.64762205217
 21
277.7844147206531
 31
0.0
  0
LINE
  5
266
330
1F
100
AcDbEntity
  8
LAYER-006
  6
Continuous
 62
     1
100
AcDbLine
 10
386.64762205217
 20
306.7025391282082
 30
0.0
 11
405.3044734978083
 21
306.7025391282082
 31
0.0
  0
LINE
  5
267
330
1F
100
AcDbEntity
  8
LAYER-007
  6
Continuous
 62
     1
100
AcDbLine
 10
414.6328992206275
 20
306.7025391282082
 30
0.0
 11
423.9613249434466
 21
306.7025391282082
 31
0.0
  0
LINE
  5
268
330
1F
100
AcDbEntity
  8
LAYER-007
  6
Continuous
 62
     1
100
AcDbLine
 10
423.9613249434466
 20
306.7025391282082
 30
0.0
 11
423.9613249434466
 21
281.5157803455675
 31
0.0
  0
LINE
  5
269
330
1F
100
AcDbEntity
  8
LAYER-007
  6
Continuous
 62
     4
100
AcDbLine
 10
-438.0053484758329
 20
303.4274207632352
 30
0.0
 11
-438.0053484758329
 21
282.8899666182478
 31
0.0
  0
LINE
  5
26A
330
1F
100
AcDbEntity
  8
LAYER-007
  6
Continuous
 62
     1
100
AcDbLine
 10
-400.6645397307681
 20
303.4274207632352
 30
0.0
 11
-409.0662216985339
 21
298.7598196701022
 31
0.0
  0
LINE
  5
26B
330
1F
100
AcDbEntity
  8
LAYER-007
  6
Continuous
 62
     1
100
AcDbLine
 10
-339.5371848597791
 20
303.4274207632352
 30
0.0
 11
-347.9388761626207
 21
298.7598196701022
 31
0.0
  0
LINE
  5
26C
330
1F
100
AcDbEntity
  8
LAYER-007
  6
Continuous
 62
     1
100
AcDbLine
 10
-278.4098299887903
 20
303.4274207632352
 30
0.0
 11
-286.8115026212271
 21
298.7598196701022
 31
0.0
  0
LINE
  5
26D
330
1F
100
AcDbEntity
  8
LAYER-007
  6
Continuous
 62
     1
100
AcDbLine
 10
-217.2824751178014
 20
303.4274207632352
 30
0.0
 11
-225.6841570850212
 21
298.7598196701022
 31
0.0
  0
LINE
  5
26E
330
1F
100
AcDbEntity
  8
LAYER-007
  6
Continuous
 62
     1
100
AcDbLine
 10
-156.1551202468125
 20
303.4274207632352
 30
0.0
 11
-164.5568022144515
 21
298.7598196701022
 31
0.0
  0
LINE
  5
26F
330
1F
100
AcDbEntity
  8
LAYER-007
  6
Continuous
 62
     1
100
AcDbLine
 10
-95.02776537582355
 20
303.4274207632352
 30
0.0
 11
-103.4294473434628
 21
298.7598196701022
 31
0.0
  0
LINE
  5
270
330
1F
100
AcDbEntity
  8
LAYER-007
  6
Continuous
 62
     4
100
AcDbLine
 10
-57.68695663075874
 20
303.4274207632352
 30
0.0
 11
-57.68695663075874
 21
282.8899666182478
 31
0.0
  0
LINE
  5
271
330
1F
100
AcDbEntity
  8
LAYER-006
  6
Continuous
 62
     1
100
AcDbLine
 10
386.64762205217
 20
300.1726317912058
 30
0.0
 11
405.3044734978083
 21
300.1726317912058
 31
0.0
  0
LINE
  5
272
330
1F
100
AcDbEntity
  8
LAYER-007
  6
Continuous
 62
     1
100
AcDbLine
 10
414.6328992206275
 20
300.1726317912058
 30
0.0
 11
433.2897506662658
 21
300.1726317912058
 31
0.0
  0
LINE
  5
273
330
1F
100
AcDbEntity
  8
LAYER-007
  6
Continuous
 62
     1
100
AcDbLine
 10
433.2897506662658
 20
300.1726317912058
 30
0.0
 11
433.2897506662658
 21
288.0456876825699
 31
0.0
  0
LINE
  5
274
330
1F
100
AcDbEntity
  8
LAYER-007
  6
Continuous
 62
     1
100
AcDbLine
 10
-409.0662216985339
 20
298.7598196701022
 30
0.0
 11
-409.0662216985339
 21
289.4246174838361
 31
0.0
  0
LINE
  5
275
330
1F
100
AcDbEntity
  8
LAYER-007
  6
Continuous
 62
     1
100
AcDbLine
 10
-392.2628577631286
 20
298.7598196701022
 30
0.0
 11
-400.6645397307681
 21
303.4274207632352
 31
0.0
  0
LINE
  5
276
330
1F
100
AcDbEntity
  8
LAYER-007
  6
Continuous
 62
     1
100
AcDbLine
 10
-347.9388761626207
 20
298.7598196701022
 30
0.0
 11
-347.9388761626207
 21
289.4246174838361
 31
0.0
  0
LINE
  5
277
330
1F
100
AcDbEntity
  8
LAYER-007
  6
Continuous
 62
     1
100
AcDbLine
 10
-331.1355028921395
 20
298.7598196701022
 30
0.0
 11
-339.5371848597791
 21
303.4274207632352
 31
0.0
  0
LINE
  5
278
330
1F
100
AcDbEntity
  8
LAYER-007
  6
Continuous
 62
     1
100
AcDbLine
 10
-286.8115026212271
 20
298.7598196701022
 30
0.0
 11
-286.8115026212271
 21
289.4246174838361
 31
0.0
  0
LINE
  5
279
330
1F
100
AcDbEntity
  8
LAYER-007
  6
Continuous
 62
     1
100
AcDbLine
 10
-270.0081480211505
 20
298.7598196701022
 30
0.0
 11
-278.4098299887903
 21
303.4274207632352
 31
0.0
  0
LINE
  5
27A
330
1F
100
AcDbEntity
  8
LAYER-007
  6
Continuous
 62
     1
100
AcDbLine
 10
-225.6841570850212
 20
298.7598196701022
 30
0.0
 11
-225.6841570850212
 21
289.4246174838361
 31
0.0
  0
LINE
  5
27B
330
1F
100
AcDbEntity
  8
LAYER-007
  6
Continuous
 62
     1
100
AcDbLine
 10
-208.8807838145027
 20
298.7598196701022
 30
0.0
 11
-217.2824751178014
 21
303.4274207632352
 31
0.0
  0
LINE
  5
27C
330
1F
100
AcDbEntity
  8
LAYER-007
  6
Continuous
 62
     1
100
AcDbLine
 10
-164.5568022144515
 20
298.7598196701022
 30
0.0
 11
-164.5568022144515
 21
289.4246174838361
 31
0.0
  0
LINE
  5
27D
330
1F
100
AcDbEntity
  8
LAYER-007
  6
Continuous
 62
     1
100
AcDbLine
 10
-147.7534382791727
 20
298.7598196701022
 30
0.0
 11
-156.1551202468125
 21
303.4274207632352
 31
0.0
  0
LINE
  5
27E
330
1F
100
AcDbEntity
  8
LAYER-007
  6
Continuous
 62
     1
100
AcDbLine
 10
-103.4294473434628
 20
298.7598196701022
 30
0.0
 11
-103.4294473434628
 21
289.4246174838361
 31
0.0
  0
LINE
  5
27F
330
1F
100
AcDbEntity
  8
LAYER-007
  6
Continuous
 62
     1
100
AcDbLine
 10
-86.62609274375535
 20
298.7598196701022
 30
0.0
 11
-95.02776537582355
 21
303.4274207632352
 31
0.0
  0
LINE
  5
280
330
1F
100
AcDbEntity
  8
LAYER-008
  6
CENTER
 62
     4
100
AcDbLine
 10
357.7295116387807
 20
294.1091597355864
 30
0.0
 11
442.6181763880096
 21
294.1091597355864
 31
0.0
  0
LINE
  5
281
330
1F
100
AcDbEntity
  8
LAYER-008
  6
CENTER
 62
     4
100
AcDbLine
 10
357.7295116398561
 20
294.1091597355864
 30
0.0
 11
442.6181763890849
 21
294.1091597355864
 31
0.0
  0
LINE
  5
282
330
1F
100
AcDbEntity
  8
LAYER-007
  6
Continuous
 62
     4
100
AcDbLine
 10
-442.672958904168
 20
294.0922185769691
 30
0.0
 11
-433.3377473826996
 21
294.0922185769691
 31
0.0
  0
LINE
  5
283
330
1F
100
AcDbEntity
  8
LAYER-008
  6
CENTER
 62
     4
100
AcDbLine
 10
-419.3349441033005
 20
294.0922185769691
 30
0.0
 11
-381.9941353582366
 21
294.0922185769691
 31
0.0
  0
LINE
  5
284
330
1F
100
AcDbEntity
  8
LAYER-008
  6
CENTER
 62
     4
100
AcDbLine
 10
-358.2075892323115
 20
294.0922185769691
 30
0.0
 11
-320.866780487697
 21
294.0922185769691
 31
0.0
  0
LINE
  5
285
330
1F
100
AcDbEntity
  8
LAYER-008
  6
CENTER
 62
     4
100
AcDbLine
 10
-297.0802343614932
 20
294.0922185769691
 30
0.0
 11
-259.7394069458534
 21
294.0922185769691
 31
0.0
  0
LINE
  5
286
330
1F
100
AcDbEntity
  8
LAYER-008
  6
CENTER
 62
     4
100
AcDbLine
 10
-235.9528794907535
 20
294.0922185769691
 30
0.0
 11
-198.6120707452695
 21
294.0922185769691
 31
0.0
  0
LINE
  5
287
330
1F
100
AcDbEntity
  8
LAYER-008
  6
CENTER
 62
     4
100
AcDbLine
 10
-174.8255246196421
 20
294.0922185769691
 30
0.0
 11
-137.4847158742801
 21
294.0922185769691
 31
0.0
  0
LINE
  5
288
330
1F
100
AcDbEntity
  8
LAYER-008
  6
CENTER
 62
     4
100
AcDbLine
 10
-113.6981697483554
 20
294.0922185769691
 30
0.0
 11
-76.35736100329115
 21
294.0922185769691
 31
0.0
  0
LINE
  5
289
330
1F
100
AcDbEntity
  8
LAYER-007
  6
Continuous
 62
     4
100
AcDbLine
 10
-53.01935553762598
 20
294.0922185769691
 30
0.0
 11
-62.35455772353402
 21
294.0922185769691
 31
0.0
  0
LINE
  5
28A
330
1F
100
AcDbEntity
  8
LAYER-007
  6
Continuous
 62
     1
100
AcDbLine
 10
-409.0662216985339
 20
289.4246174838361
 30
0.0
 11
-400.6645397307681
 21
284.7570163907031
 31
0.0
  0
LINE
  5
28B
330
1F
100
AcDbEntity
  8
LAYER-007
  6
Continuous
 62
     1
100
AcDbLine
 10
-392.2628577631286
 20
289.4246174838361
 30
0.0
 11
-392.2628577631286
 21
298.7598196701022
 31
0.0
  0
LINE
  5
28C
330
1F
100
AcDbEntity
  8
LAYER-007
  6
Continuous
 62
     1
100
AcDbLine
 10
-347.9388761626207
 20
289.4246174838361
 30
0.0
 11
-339.5371848597791
 21
284.7570163907031
 31
0.0
  0
LINE
  5
28D
330
1F
100
AcDbEntity
  8
LAYER-007
  6
Continuous
 62
     1
100
AcDbLine
 10
-331.1355028921395
 20
289.4246174838361
 30
0.0
 11
-331.1355028921395
 21
298.7598196701022
 31
0.0
  0
LINE
  5
28E
330
1F
100
AcDbEntity
  8
LAYER-007
  6
Continuous
 62
     1
100
AcDbLine
 10
-286.8115026212271
 20
289.4246174838361
 30
0.0
 11
-278.4098299887903
 21
284.7570163907031
 31
0.0
  0
LINE
  5
28F
330
1F
100
AcDbEntity
  8
LAYER-007
  6
Continuous
 62
     1
100
AcDbLine
 10
-270.0081480211505
 20
289.4246174838361
 30
0.0
 11
-270.0081480211505
 21
298.7598196701022
 31
0.0
  0
LINE
  5
290
330
1F
100
AcDbEntity
  8
LAYER-007
  6
Continuous
 62
     1
100
AcDbLine
 10
-225.6841570850212
 20
289.4246174838361
 30
0.0
 11
-217.2824751178014
 21
284.7570163907031
 31
0.0
  0
LINE
  5
291
330
1F
100
AcDbEntity
  8
LAYER-007
  6
Continuous
 62
     1
100
AcDbLine
 10
-208.8807838145027
 20
289.4246174838361
 30
0.0
 11
-208.8807838145027
 21
298.7598196701022
 31
0.0
  0
LINE
  5
292
330
1F
100
AcDbEntity
  8
LAYER-007
  6
Continuous
 62
     1
100
AcDbLine
 10
-164.5568022144515
 20
289.4246174838361
 30
0.0
 11
-156.1551202468125
 21
284.7570163907031
 31
0.0
  0
LINE
  5
293
330
1F
100
AcDbEntity
  8
LAYER-007
  6
Continuous
 62
     1
100
AcDbLine
 10
-147.7534382791727
 20
289.4246174838361
 30
0.0
 11
-147.7534382791727
 21
298.7598196701022
 31
0.0
  0
LINE
  5
294
330
1F
100
AcDbEntity
  8
LAYER-007
  6
Continuous
 62
     1
100
AcDbLine
 10
-103.4294473434628
 20
289.4246174838361
 30
0.0
 11
-95.02776537582355
 21
284.7570163907031
 31
0.0
  0
LINE
  5
295
330
1F
100
AcDbEntity
  8
LAYER-007
  6
Continuous
 62
     1
100
AcDbLine
 10
-86.62609274375535
 20
289.4246174838361
 30
0.0
 11
-86.62609274375535
 21
298.7598196701022
 31
0.0
  0
LINE
  5
296
330
1F
100
AcDbEntity
  8
LAYER-006
  6
Continuous
 62
     1
100
AcDbLine
 10
405.3044734978083
 20
288.0456876825699
 30
0.0
 11
386.64762205217
 21
288.0456876825699
 31
0.0
  0
LINE
  5
297
330
1F
100
AcDbEntity
  8
LAYER-007
  6
Continuous
 62
     1
100
AcDbLine
 10
414.6328992206275
 20
288.0456876825699
 30
0.0
 11
433.2897506662658
 21
288.0456876825699
 31
0.0
  0
LINE
  5
298
330
1F
100
AcDbEntity
  8
LAYER-007
  6
Continuous
 62
     1
100
AcDbLine
 10
-400.6645397307681
 20
284.7570163907031
 30
0.0
 11
-392.2628577631286
 21
289.4246174838361
 31
0.0
  0
LINE
  5
299
330
1F
100
AcDbEntity
  8
LAYER-007
  6
Continuous
 62
     1
100
AcDbLine
 10
-339.5371848597791
 20
284.7570163907031
 30
0.0
 11
-331.1355028921395
 21
289.4246174838361
 31
0.0
  0
LINE
  5
29A
330
1F
100
AcDbEntity
  8
LAYER-007
  6
Continuous
 62
     1
100
AcDbLine
 10
-278.4098299887903
 20
284.7570163907031
 30
0.0
 11
-270.0081480211505
 21
289.4246174838361
 31
0.0
  0
LINE
  5
29B
330
1F
100
AcDbEntity
  8
LAYER-007
  6
Continuous
 62
     1
100
AcDbLine
 10
-217.2824751178014
 20
284.7570163907031
 30
0.0
 11
-208.8807838145027
 21
289.4246174838361
 31
0.0
  0
LINE
  5
29C
330
1F
100
AcDbEntity
  8
LAYER-007
  6
Continuous
 62
     1
100
AcDbLine
 10
-156.1551202468125
 20
284.7570163907031
 30
0.0
 11
-147.7534382791727
 21
289.4246174838361
 31
0.0
  0
LINE
  5
29D
330
1F
100
AcDbEntity
  8
LAYER-007
  6
Continuous
 62
     1
100
AcDbLine
 10
-95.02776537582355
 20
284.7570163907031
 30
0.0
 11
-86.62609274375535
 21
289.4246174838361
 31
0.0
  0
LINE
  5
29E
330
1F
100
AcDbEntity
  8
LAYER-006
  6
Continuous
 62
     1
100
AcDbLine
 10
386.64762205217
 20
281.5157803455675
 30
0.0
 11
405.3044734978083
 21
281.5157803455675
 31
0.0
  0
LINE
  5
29F
330
1F
100
AcDbEntity
  8
LAYER-007
  6
Continuous
 62
     1
100
AcDbLine
 10
414.6328992206275
 20
281.5157803455675
 30
0.0
 11
423.9613249434466
 21
281.5157803455675
 31
0.0
  0
LINE
  5
2A0
330
1F
100
AcDbEntity
  8
LAYER-006
  6
Continuous
 62
     1
100
AcDbLine
 10
381.9834091907604
 20
277.7844147206531
 30
0.0
 11
386.64762205217
 21
277.7844147206531
 31
0.0
  0
LINE
  5
2A1
330
1F
100
AcDbEntity
  8
LAYER-007
  6
Continuous
 62
     1
100
AcDbLine
 10
353.9981320223029
 20
270.7880954285385
 30
0.0
 11
377.3191963282754
 21
270.7880954285385
 31
0.0
  0
LINE
  5
2A2
330
1F
100
AcDbEntity
  8
LAYER-008
  6
HIDDEN
 62
     4
100
AcDbLine
 10
409.9686863592179
 20
270.7880954285385
 30
0.0
 11
409.9686863592179
 21
242.802818260081
 31
0.0
  0
LINE
  5
2A3
330
1F
100
AcDbEntity
  8
LAYER-007
  6
Continuous
 62
     1
100
AcDbLine
 10
409.9686863592179
 20
270.7880954285385
 30
0.0
 11
423.9613249423713
 21
266.1238825671289
 31
0.0
  0
LINE
  5
2A4
330
1F
100
AcDbEntity
  8
LAYER-007
  6
Continuous
 62
     1
100
AcDbLine
 10
-407.1991905963567
 20
270.754213111304
 30
0.0
 11
-407.1991905963567
 21
252.0838087389607
 31
0.0
  0
LINE
  5
2A5
330
1F
100
AcDbEntity
  8
LAYER-008
  6
HIDDEN
 62
     4
100
AcDbLine
 10
-405.3321408239017
 20
270.754213111304
 30
0.0
 11
-405.3321408239017
 21
252.0838087389607
 31
0.0
  0
LINE
  5
2A6
330
1F
100
AcDbEntity
  8
LAYER-008
  6
HIDDEN
 62
     4
100
AcDbLine
 10
-395.9969386376354
 20
270.754213111304
 30
0.0
 11
-395.9969386376354
 21
252.0838087389607
 31
0.0
  0
LINE
  5
2A7
330
1F
100
AcDbEntity
  8
LAYER-007
  6
Continuous
 62
     1
100
AcDbLine
 10
-394.1299075355842
 20
270.754213111304
 30
0.0
 11
-394.1299075355842
 21
252.0838087389607
 31
0.0
  0
LINE
  5
2A8
330
1F
100
AcDbEntity
  8
LAYER-007
  6
Continuous
 62
     1
100
AcDbLine
 10
-346.0718357253678
 20
270.754213111304
 30
0.0
 11
-346.0718357253678
 21
252.0838087389607
 31
0.0
  0
LINE
  5
2A9
330
1F
100
AcDbEntity
  8
LAYER-008
  6
HIDDEN
 62
     4
100
AcDbLine
 10
-344.2047859529129
 20
270.754213111304
 30
0.0
 11
-344.2047859529129
 21
252.0838087389607
 31
0.0
  0
LINE
  5
2AA
330
1F
100
AcDbEntity
  8
LAYER-008
  6
HIDDEN
 62
     4
100
AcDbLine
 10
-334.8695837666465
 20
270.754213111304
 30
0.0
 11
-334.8695837666465
 21
252.0838087389607
 31
0.0
  0
LINE
  5
2AB
330
1F
100
AcDbEntity
  8
LAYER-007
  6
Continuous
 62
     1
100
AcDbLine
 10
-333.0025526645953
 20
270.754213111304
 30
0.0
 11
-333.0025526645953
 21
252.0838087389607
 31
0.0
  0
LINE
  5
2AC
330
1F
100
AcDbEntity
  8
LAYER-007
  6
Continuous
 62
     1
100
AcDbLine
 10
-284.9444808543789
 20
270.754213111304
 30
0.0
 11
-284.9444808543789
 21
252.0838087389607
 31
0.0
  0
LINE
  5
2AD
330
1F
100
AcDbEntity
  8
LAYER-008
  6
HIDDEN
 62
     4
100
AcDbLine
 10
-283.0774310819237
 20
270.754213111304
 30
0.0
 11
-283.0774310819237
 21
252.0838087389607
 31
0.0
  0
LINE
  5
2AE
330
1F
100
AcDbEntity
  8
LAYER-008
  6
HIDDEN
 62
     4
100
AcDbLine
 10
-273.7422288956576
 20
270.754213111304
 30
0.0
 11
-273.7422288956576
 21
252.0838087389607
 31
0.0
  0
LINE
  5
2AF
330
1F
100
AcDbEntity
  8
LAYER-007
  6
Continuous
 62
     1
100
AcDbLine
 10
-271.8751977936064
 20
270.754213111304
 30
0.0
 11
-271.8751977936064
 21
252.0838087389607
 31
0.0
  0
LINE
  5
2B0
330
1F
100
AcDbEntity
  8
LAYER-007
  6
Continuous
 62
     1
100
AcDbLine
 10
-223.8171259833899
 20
270.754213111304
 30
0.0
 11
-223.8171259833899
 21
252.0838087389607
 31
0.0
  0
LINE
  5
2B1
330
1F
100
AcDbEntity
  8
LAYER-008
  6
HIDDEN
 62
     4
100
AcDbLine
 10
-221.9500762109348
 20
270.754213111304
 30
0.0
 11
-221.9500762109348
 21
252.0838087389607
 31
0.0
  0
LINE
  5
2B2
330
1F
100
AcDbEntity
  8
LAYER-008
  6
HIDDEN
 62
     4
100
AcDbLine
 10
-212.6148740246687
 20
270.754213111304
 30
0.0
 11
-212.6148740246687
 21
252.0838087389607
 31
0.0
  0
LINE
  5
2B3
330
1F
100
AcDbEntity
  8
LAYER-007
  6
Continuous
 62
     1
100
AcDbLine
 10
-210.7478429226175
 20
270.754213111304
 30
0.0
 11
-210.7478429226175
 21
252.0838087389607
 31
0.0
  0
LINE
  5
2B4
330
1F
100
AcDbEntity
  8
LAYER-007
  6
Continuous
 62
     1
100
AcDbLine
 10
-162.689771112401
 20
270.754213111304
 30
0.0
 11
-162.689771112401
 21
252.0838087389607
 31
0.0
  0
LINE
  5
2B5
330
1F
100
AcDbEntity
  8
LAYER-008
  6
HIDDEN
 62
     4
100
AcDbLine
 10
-160.8227213399458
 20
270.754213111304
 30
0.0
 11
-160.8227213399458
 21
252.0838087389607
 31
0.0
  0
LINE
  5
2B6
330
1F
100
AcDbEntity
  8
LAYER-008
  6
HIDDEN
 62
     4
100
AcDbLine
 10
-151.4875191536797
 20
270.754213111304
 30
0.0
 11
-151.4875191536797
 21
252.0838087389607
 31
0.0
  0
LINE
  5
2B7
330
1F
100
AcDbEntity
  8
LAYER-007
  6
Continuous
 62
     1
100
AcDbLine
 10
-149.6204880516285
 20
270.754213111304
 30
0.0
 11
-149.6204880516285
 21
252.0838087389607
 31
0.0
  0
LINE
  5
2B8
330
1F
100
AcDbEntity
  8
LAYER-007
  6
Continuous
 62
     1
100
AcDbLine
 10
-101.5624162414121
 20
270.754213111304
 30
0.0
 11
-101.5624162414121
 21
252.0838087389607
 31
0.0
  0
LINE
  5
2B9
330
1F
100
AcDbEntity
  8
LAYER-008
  6
HIDDEN
 62
     4
100
AcDbLine
 10
-99.6953664689571
 20
270.754213111304
 30
0.0
 11
-99.6953664689571
 21
252.0838087389607
 31
0.0
  0
LINE
  5
2BA
330
1F
100
AcDbEntity
  8
LAYER-008
  6
HIDDEN
 62
     4
100
AcDbLine
 10
-90.36016428269073
 20
270.754213111304
 30
0.0
 11
-90.36016428269073
 21
252.0838087389607
 31
0.0
  0
LINE
  5
2BB
330
1F
100
AcDbEntity
  8
LAYER-007
  6
Continuous
 62
     1
100
AcDbLine
 10
-88.49313318063952
 20
270.754213111304
 30
0.0
 11
-88.49313318063952
 21
252.0838087389607
 31
0.0
  0
LINE
  5
2BC
330
1F
100
AcDbEntity
  8
LAYER-008
  6
HIDDEN
 62
     4
100
AcDbLine
 10
419.297112082037
 20
267.0567251394107
 30
0.0
 11
419.297112082037
 21
242.802818260081
 31
0.0
  0
LINE
  5
2BD
330
1F
100
AcDbEntity
  8
LAYER-007
  6
Continuous
 62
     1
100
AcDbLine
 10
423.9613249423713
 20
266.1238825671289
 30
0.0
 11
423.9613249423713
 21
242.802818260081
 31
0.0
  0
LINE
  5
2BE
330
1F
100
AcDbEntity
  8
LAYER-007
  6
Continuous
 62
     1
100
AcDbLine
 10
-407.1991905963567
 20
252.0838087389607
 30
0.0
 11
-394.1299075355842
 21
252.0838087389607
 31
0.0
  0
LINE
  5
2BF
330
1F
100
AcDbEntity
  8
LAYER-007
  6
Continuous
 62
     1
100
AcDbLine
 10
-405.3321408239017
 20
252.0838087389607
 30
0.0
 11
-405.3321408239017
 21
192.4302240426343
 31
0.0
  0
LINE
  5
2C0
330
1F
100
AcDbEntity
  8
LAYER-007
  6
Continuous
 62
     1
100
AcDbLine
 10
-395.9969386376354
 20
252.0838087389607
 30
0.0
 11
-395.9969386376354
 21
192.4302240426343
 31
0.0
  0
LINE
  5
2C1
330
1F
100
AcDbEntity
  8
LAYER-007
  6
Continuous
 62
     1
100
AcDbLine
 10
-346.0718357253678
 20
252.0838087389607
 30
0.0
 11
-333.0025526645953
 21
252.0838087389607
 31
0.0
  0
LINE
  5
2C2
330
1F
100
AcDbEntity
  8
LAYER-007
  6
Continuous
 62
     1
100
AcDbLine
 10
-344.2047859529129
 20
252.0838087389607
 30
0.0
 11
-344.2047859529129
 21
192.4302240426343
 31
0.0
  0
LINE
  5
2C3
330
1F
100
AcDbEntity
  8
LAYER-007
  6
Continuous
 62
     1
100
AcDbLine
 10
-334.8695837666465
 20
252.0838087389607
 30
0.0
 11
-334.8695837666465
 21
192.4302240426343
 31
0.0
  0
LINE
  5
2C4
330
1F
100
AcDbEntity
  8
LAYER-007
  6
Continuous
 62
     1
100
AcDbLine
 10
-284.9444808543789
 20
252.0838087389607
 30
0.0
 11
-271.8751977936064
 21
252.0838087389607
 31
0.0
  0
LINE
  5
2C5
330
1F
100
AcDbEntity
  8
LAYER-007
  6
Continuous
 62
     1
100
AcDbLine
 10
-283.0774310819237
 20
252.0838087389607
 30
0.0
 11
-283.0774310819237
 21
192.4302240426343
 31
0.0
  0
LINE
  5
2C6
330
1F
100
AcDbEntity
  8
LAYER-007
  6
Continuous
 62
     1
100
AcDbLine
 10
-273.7422288956576
 20
252.0838087389607
 30
0.0
 11
-273.7422288956576
 21
192.4302240426343
 31
0.0
  0
LINE
  5
2C7
330
1F
100
AcDbEntity
  8
LAYER-007
  6
Continuous
 62
     1
100
AcDbLine
 10
-223.8171259833899
 20
252.0838087389607
 30
0.0
 11
-210.7478429226175
 21
252.0838087389607
 31
0.0
  0
LINE
  5
2C8
330
1F
100
AcDbEntity
  8
LAYER-007
  6
Continuous
 62
     1
100
AcDbLine
 10
-221.9500762109348
 20
252.0838087389607
 30
0.0
 11
-221.9500762109348
 21
192.4302240426343
 31
0.0
  0
LINE
  5
2C9
330
1F
100
AcDbEntity
  8
LAYER-007
  6
Continuous
 62
     1
100
AcDbLine
 10
-212.6148740246687
 20
252.0838087389607
 30
0.0
 11
-212.6148740246687
 21
192.4302240426343
 31
0.0
  0
LINE
  5
2CA
330
1F
100
AcDbEntity
  8
LAYER-007
  6
Continuous
 62
     1
100
AcDbLine
 10
-162.689771112401
 20
252.0838087389607
 30
0.0
 11
-149.6204880516285
 21
252.0838087389607
 31
0.0
  0
LINE
  5
2CB
330
1F
100
AcDbEntity
  8
LAYER-007
  6
Continuous
 62
     1
100
AcDbLine
 10
-160.8227213399458
 20
252.0838087389607
 30
0.0
 11
-160.8227213399458
 21
192.4302240426343
 31
0.0
  0
LINE
  5
2CC
330
1F
100
AcDbEntity
  8
LAYER-007
  6
Continuous
 62
     1
100
AcDbLine
 10
-151.4875191536797
 20
252.0838087389607
 30
0.0
 11
-151.4875191536797
 21
192.4302240426343
 31
0.0
  0
LINE
  5
2CD
330
1F
100
AcDbEntity
  8
LAYER-007
  6
Continuous
 62
     1
100
AcDbLine
 10
-101.5624162414121
 20
252.0838087389607
 30
0.0
 11
-88.49313318063952
 21
252.0838087389607
 31
0.0
  0
LINE
  5
2CE
330
1F
100
AcDbEntity
  8
LAYER-007
  6
Continuous
 62
     1
100
AcDbLine
 10
-99.6953664689571
 20
252.0838087389607
 30
0.0
 11
-99.6953664689571
 21
192.4302240426343
 31
0.0
  0
LINE
  5
2CF
330
1F
100
AcDbEntity
  8
LAYER-007
  6
Continuous
 62
     1
100
AcDbLine
 10
-90.36016428269073
 20
252.0838087389607
 30
0.0
 11
-90.36016428269073
 21
192.4302240426343
 31
0.0
  0
LINE
  5
2D0
330
1F
100
AcDbEntity
  8
LAYER-001
  6
CENTER
 62
     5
100
AcDbLine
 10
-457.609273066991
 20
244.7073562857243
 30
0.0
 11
-457.609273066991
 21
167.2251781397159
 31
0.0
  0
LINE
  5
2D1
330
1F
100
AcDbEntity
  8
LAYER-001
  6
CENTER
 62
     5
100
AcDbLine
 10
-466.9444752532571
 20
235.3721540994583
 30
0.0
 11
-448.2740708807249
 21
235.3721540994583
 31
0.0
  0
LINE
  5
2D2
330
1F
100
AcDbEntity
  8
LAYER-003
  6
Continuous
 62
     1
100
AcDbLine
 10
-462.2768741601248
 20
235.3721540994583
 30
0.0
 11
-462.2768741601248
 21
196.2719920800957
 31
0.0
  0
ARC
  5
2D3
330
1F
100
AcDbEntity
  8
LAYER-003
  6
Continuous
 62
     1
100
AcDbCircle
 10
-457.609273066991
 20
235.3721540994583
 30
0.0
 40
4.667601093133031
100
AcDbArc
 50
0.0
 51
180.0000050000008
  0
LINE
  5
2D4
330
1F
100
AcDbEntity
  8
LAYER-003
  6
Continuous
 62
     1
100
AcDbLine
 10
-452.9416719738587
 20
235.3721540994583
 30
0.0
 11
-452.9416719738587
 21
196.2719920800957
 31
0.0
  0
LINE
  5
2D5
330
1F
100
AcDbEntity
  8
LAYER-001
  6
CENTER
 62
     5
100
AcDbLine
 10
-466.9444752532571
 20
216.7017497269262
 30
0.0
 11
-448.2740708807249
 21
216.7017497269262
 31
0.0
  0
LINE
  5
2D6
330
1F
100
AcDbEntity
  8
LAYER-003
  6
Continuous
 62
     1
100
AcDbLine
 10
-452.9416719738587
 20
201.9019302228691
 30
0.0
 11
-448.0954464544924
 21
201.0744028233855
 31
0.0
  0
LINE
  5
2D7
330
1F
100
AcDbEntity
  8
LAYER-003
  6
Continuous
 62
     1
100
AcDbLine
 10
-467.1230996794908
 20
201.0744028233855
 30
0.0
 11
-462.2768741601248
 21
201.9019302228691
 31
0.0
  0
LINE
  5
2D8
330
1F
100
AcDbEntity
  8
LAYER-003
  6
Continuous
 62
     1
100
AcDbLine
 10
-466.6761675395341
 20
200.8319060102738
 30
0.0
 11
-462.2768741601248
 21
200.8319060102738
 31
0.0
  0
LINE
  5
2D9
330
1F
100
AcDbEntity
  8
LAYER-003
  6
Continuous
 62
     1
100
AcDbLine
 10
-452.9416719738587
 20
200.8319060102738
 30
0.0
 11
-448.5423785943621
 21
200.8319060102738
 31
0.0
  0
LINE
  5
2DA
330
1F
100
AcDbEntity
  8
LAYER-003
  6
Continuous
 62
     1
100
AcDbLine
 10
-468.6687869837243
 20
199.3967269624807
 30
0.0
 11
-469.2782757998242
 21
192.4302240426343
 31
0.0
  0
ARC
  5
2DB
330
1F
100
AcDbEntity
  8
LAYER-003
  6
Continuous
 62
     1
100
AcDbCircle
 10
-466.8088683722189
 20
199.2339994520506
 30
0.0
 40
1.867040437253213
100
AcDbArc
 50
99.69015599819595
 51
175.0000059999991
  0
ARC
  5
2DC
330
1F
100
AcDbEntity
  8
LAYER-003
  6
Continuous
 62
     1
100
AcDbCircle
 10
-448.4096777617641
 20
199.2339994520506
 30
0.0
 40
1.867040437253213
100
AcDbArc
 50
5.000000023412483
 51
80.30984900000067
  0
ARC
  5
2DD
330
1F
100
AcDbEntity
  8
LAYER-003
  6
Continuous
 62
     1
100
AcDbCircle
 10
-463.6771544879938
 20
196.2719920800957
 30
0.0
 40
1.40028032793991
100
AcDbArc
 50
269.9999970070912
 51
0.0
  0
ARC
  5
2DE
330
1F
100
AcDbEntity
  8
LAYER-003
  6
Continuous
 62
     1
100
AcDbCircle
 10
-451.5413916459187
 20
196.2719920800957
 30
0.0
 40
1.40028032793991
100
AcDbArc
 50
180.0000051888353
 51
270.0000010000086
  0
LINE
  5
2DF
330
1F
100
AcDbEntity
  8
LAYER-003
  6
Continuous
 62
     1
100
AcDbLine
 10
-469.2782757998242
 20
192.4302240426343
 30
0.0
 11
-445.9402703345339
 21
192.4302240426343
 31
0.0
  0
LINE
  5
2E0
330
1F
100
AcDbEntity
  8
LAYER-003
  6
Continuous
 62
     1
100
AcDbLine
 10
-445.9402703345339
 20
192.4302240426343
 30
0.0
 11
-446.5497591505185
 21
199.3967269624807
 31
0.0
  0
LINE
  5
2E1
330
1F
100
AcDbEntity
  8
LAYER-001
  6
CENTER
 62
     5
100
AcDbLine
 10
-39.950081812056
 20
244.7073562857243
 30
0.0
 11
-39.950081812056
 21
167.2251781397159
 31
0.0
  0
LINE
  5
2E2
330
1F
100
AcDbEntity
  8
LAYER-001
  6
CENTER
 62
     5
100
AcDbLine
 10
-49.28528399832209
 20
235.3721540994583
 30
0.0
 11
-30.61487962578991
 21
235.3721540994583
 31
0.0
  0
LINE
  5
2E3
330
1F
100
AcDbEntity
  8
LAYER-003
  6
Continuous
 62
     1
100
AcDbLine
 10
-44.61768290475351
 20
235.3721540994583
 30
0.0
 11
-44.61768290475351
 21
196.2719920800957
 31
0.0
  0
ARC
  5
2E4
330
1F
100
AcDbEntity
  8
LAYER-003
  6
Continuous
 62
     1
100
AcDbCircle
 10
-39.950081812056
 20
235.3721540994583
 30
0.0
 40
4.667601093133031
100
AcDbArc
 50
0.0
 51
180.0000050000008
  0
LINE
  5
2E5
330
1F
100
AcDbEntity
  8
LAYER-003
  6
Continuous
 62
     1
100
AcDbLine
 10
-35.28248071892296
 20
235.3721540994583
 30
0.0
 11
-35.28248071892296
 21
196.2719920800957
 31
0.0
  0
LINE
  5
2E6
330
1F
100
AcDbEntity
  8
LAYER-001
  6
CENTER
 62
     5
100
AcDbLine
 10
-49.28528399832209
 20
216.7017497269262
 30
0.0
 11
-30.61487962578991
 21
216.7017497269262
 31
0.0
  0
LINE
  5
2E7
330
1F
100
AcDbEntity
  8
LAYER-003
  6
Continuous
 62
     1
100
AcDbLine
 10
-35.28248071892296
 20
201.9019302228691
 30
0.0
 11
-30.4362551995568
 21
201.0744028233855
 31
0.0
  0
LINE
  5
2E8
330
1F
100
AcDbEntity
  8
LAYER-003
  6
Continuous
 62
     1
100
AcDbLine
 10
-49.4639084245552
 20
201.0744028233855
 30
0.0
 11
-44.61768290475351
 21
201.9019302228691
 31
0.0
  0
LINE
  5
2E9
330
1F
100
AcDbEntity
  8
LAYER-003
  6
Continuous
 62
     1
100
AcDbLine
 10
-49.01697628468531
 20
200.8319060102738
 30
0.0
 11
-44.61768290475351
 21
200.8319060102738
 31
0.0
  0
LINE
  5
2EA
330
1F
100
AcDbEntity
  8
LAYER-003
  6
Continuous
 62
     1
100
AcDbLine
 10
-35.28248071892296
 20
200.8319060102738
 30
0.0
 11
-30.88318733942646
 21
200.8319060102738
 31
0.0
  0
LINE
  5
2EB
330
1F
100
AcDbEntity
  8
LAYER-003
  6
Continuous
 62
     1
100
AcDbLine
 10
-51.00959572878861
 20
199.3967269624807
 30
0.0
 11
-51.61908454488861
 21
192.4302240426343
 31
0.0
  0
ARC
  5
2EC
330
1F
100
AcDbEntity
  8
LAYER-003
  6
Continuous
 62
     1
100
AcDbCircle
 10
-49.14967711728326
 20
199.2339994520506
 30
0.0
 40
1.867040437253213
100
AcDbArc
 50
99.69015599819423
 51
175.0000059999989
  0
ARC
  5
2ED
330
1F
100
AcDbEntity
  8
LAYER-003
  6
Continuous
 62
     1
100
AcDbCircle
 10
-30.75048650682845
 20
199.2339994520506
 30
0.0
 40
1.867040437253213
100
AcDbArc
 50
5.00000002420398
 51
80.30984900000067
  0
ARC
  5
2EE
330
1F
100
AcDbEntity
  8
LAYER-003
  6
Continuous
 62
     1
100
AcDbCircle
 10
-46.01796323312874
 20
196.2719920800957
 30
0.0
 40
1.40028032793991
100
AcDbArc
 50
269.9999969968922
 51
0.0
  0
ARC
  5
2EF
330
1F
100
AcDbEntity
  8
LAYER-003
  6
Continuous
 62
     1
100
AcDbCircle
 10
-33.88220039098297
 20
196.2719920800957
 30
0.0
 40
1.40028032793991
100
AcDbArc
 50
180.0000051544704
 51
270.0000010000039
  0
LINE
  5
2F0
330
1F
100
AcDbEntity
  8
LAYER-003
  6
Continuous
 62
     1
100
AcDbLine
 10
-51.61908454488861
 20
192.4302240426343
 30
0.0
 11
-28.28107907922339
 21
192.4302240426343
 31
0.0
  0
LINE
  5
2F1
330
1F
100
AcDbEntity
  8
LAYER-003
  6
Continuous
 62
     1
100
AcDbLine
 10
-28.28107907922339
 20
192.4302240426343
 30
0.0
 11
-28.89056789558282
 21
199.3967269624807
 31
0.0
  0
LINE
  5
2F2
330
1F
100
AcDbEntity
  8
LAYER-001
  6
CENTER
 62
     5
100
AcDbLine
 10
247.4760324488735
 20
244.1263816520674
 30
0.0
 11
247.4760324488735
 21
166.7004481522834
 31
0.0
  0
LINE
  5
2F3
330
1F
100
AcDbEntity
  8
LAYER-001
  6
CENTER
 62
     5
100
AcDbLine
 10
219.490755280416
 20
216.1411044836099
 30
0.0
 11
275.461309617331
 21
216.1411044836099
 31
0.0
  0
ARC
  5
2F4
330
1F
100
AcDbEntity
  8
LAYER-003
  6
Continuous
 62
     1
100
AcDbCircle
 10
247.4760324488735
 20
216.1411044836099
 30
0.0
 40
23.3210643070479
100
AcDbArc
 50
306.4760049930262
 51
233.5240039998286
  0
CIRCLE
  5
2F5
330
1F
100
AcDbEntity
  8
LAYER-003
  6
Continuous
 62
     1
100
AcDbCircle
 10
247.4760324488735
 20
216.1411044836099
 30
0.0
 40
13.99263858422874
  0
LINE
  5
2F6
330
1F
100
AcDbEntity
  8
LAYER-003
  6
Continuous
 62
     1
100
AcDbLine
 10
247.4760324488735
 20
202.148465898929
 30
0.0
 11
256.9829529343944
 21
200.5251015384487
 31
0.0
  0
LINE
  5
2F7
330
1F
100
AcDbEntity
  8
LAYER-003
  6
Continuous
 62
     1
100
AcDbLine
 10
237.9691119642465
 20
200.5251015384487
 30
0.0
 11
247.4760324488735
 21
202.148465898929
 31
0.0
  0
LINE
  5
2F8
330
1F
100
AcDbEntity
  8
LAYER-003
  6
Continuous
 62
     1
100
AcDbLine
 10
238.4157196739659
 20
200.2827807548174
 30
0.0
 11
256.5363452237795
 21
200.2827807548174
 31
0.0
  0
LINE
  5
2F9
330
1F
100
AcDbEntity
  8
LAYER-003
  6
Continuous
 62
     1
100
AcDbLine
 10
236.4245466808935
 20
198.8486435096723
 30
0.0
 11
235.815500295349
 21
191.8871976042801
 31
0.0
  0
ARC
  5
2FA
330
1F
100
AcDbEntity
  8
LAYER-003
  6
Continuous
 62
     1
100
AcDbCircle
 10
238.2831151694734
 20
198.6860341238424
 30
0.0
 40
1.865685144563832
100
AcDbArc
 50
99.6901559999952
 51
175.0000060000015
  0
ARC
  5
2FB
330
1F
100
AcDbEntity
  8
LAYER-003
  6
Continuous
 62
     1
100
AcDbCircle
 10
256.6689497282719
 20
198.6860341238424
 30
0.0
 40
1.865685144563832
100
AcDbArc
 50
5.000000000000608
 51
80.30984900000836
  0
ARC
  5
2FC
330
1F
100
AcDbEntity
  8
LAYER-003
  6
Continuous
 62
     1
100
AcDbCircle
 10
230.2846048554113
 20
192.887879286929
 30
0.0
 40
5.597055433691497
100
AcDbArc
 50
355.0000000025526
 51
53.52399497074219
  0
ARC
  5
2FD
330
1F
100
AcDbEntity
  8
LAYER-003
  6
Continuous
 62
     1
100
AcDbCircle
 10
264.6674600443008
 20
192.887879286929
 30
0.0
 40
5.597055433691497
100
AcDbArc
 50
126.4760060160836
 51
185.0000039980722
  0
LINE
  5
2FE
330
1F
100
AcDbEntity
  8
LAYER-003
  6
Continuous
 62
     1
100
AcDbLine
 10
235.815500295349
 20
191.8871976042801
 30
0.0
 11
259.1365646023969
 21
191.8871976042801
 31
0.0
  0
LINE
  5
2FF
330
1F
100
AcDbEntity
  8
LAYER-003
  6
Continuous
 62
     1
100
AcDbLine
 10
259.1365646023969
 20
191.8871976042801
 30
0.0
 11
258.5275182168519
 21
198.8486435096723
 31
0.0
  0
LINE
  5
300
330
1F
100
AcDbEntity
  8
LAYER-001
  6
CENTER
 62
     5
100
AcDbLine
 10
340.2359343868827
 20
244.1263816520674
 30
0.0
 11
340.2359343868827
 21
166.7004481522834
 31
0.0
  0
LINE
  5
301
330
1F
100
AcDbEntity
  8
LAYER-001
  6
CENTER
 62
     5
100
AcDbLine
 10
312.2506572184252
 20
216.1411044836099
 30
0.0
 11
368.2212115553402
 21
216.1411044836099
 31
0.0
  0
ARC
  5
302
330
1F
100
AcDbEntity
  8
LAYER-003
  6
Continuous
 62
     1
100
AcDbCircle
 10
340.2359343868827
 20
216.1411044836099
 30
0.0
 40
23.3210643070479
100
AcDbArc
 50
306.4760049930274
 51
233.5240039998296
  0
CIRCLE
  5
303
330
1F
100
AcDbEntity
  8
LAYER-003
  6
Continuous
 62
     1
100
AcDbCircle
 10
340.2359343868827
 20
216.1411044836099
 30
0.0
 40
13.99263858422874
  0
LINE
  5
304
330
1F
100
AcDbEntity
  8
LAYER-003
  6
Continuous
 62
     1
100
AcDbLine
 10
340.2359343868827
 20
202.148465898929
 30
0.0
 11
349.7428548719683
 21
200.5251015384487
 31
0.0
  0
LINE
  5
305
330
1F
100
AcDbEntity
  8
LAYER-003
  6
Continuous
 62
     1
100
AcDbLine
 10
330.7290139020702
 20
200.5251015384487
 30
0.0
 11
340.2359343868827
 21
202.148465898929
 31
0.0
  0
LINE
  5
306
330
1F
100
AcDbEntity
  8
LAYER-003
  6
Continuous
 62
     1
100
AcDbLine
 10
331.1756216120062
 20
200.2827807548174
 30
0.0
 11
349.2962471617892
 21
200.2827807548174
 31
0.0
  0
LINE
  5
307
330
1F
100
AcDbEntity
  8
LAYER-003
  6
Continuous
 62
     1
100
AcDbLine
 10
329.1844486189032
 20
198.8486435096723
 30
0.0
 11
328.5754022333587
 21
191.8871976042801
 31
0.0
  0
ARC
  5
308
330
1F
100
AcDbEntity
  8
LAYER-003
  6
Continuous
 62
     1
100
AcDbCircle
 10
331.0430171074832
 20
198.6860341238424
 30
0.0
 40
1.865685144563832
100
AcDbArc
 50
99.6901559999952
 51
175.0000060000017
  0
ARC
  5
309
330
1F
100
AcDbEntity
  8
LAYER-003
  6
Continuous
 62
     1
100
AcDbCircle
 10
349.4288516662817
 20
198.6860341238424
 30
0.0
 40
1.865685144563832
100
AcDbArc
 50
5.000000000000608
 51
80.30984899999113
  0
ARC
  5
30A
330
1F
100
AcDbEntity
  8
LAYER-003
  6
Continuous
 62
     1
100
AcDbCircle
 10
323.0445067934211
 20
192.887879286929
 30
0.0
 40
5.597055433691497
100
AcDbArc
 50
355.0000000025524
 51
53.52399497074266
  0
ARC
  5
30B
330
1F
100
AcDbEntity
  8
LAYER-003
  6
Continuous
 62
     1
100
AcDbCircle
 10
357.4273619823105
 20
192.887879286929
 30
0.0
 40
5.597055433691497
100
AcDbArc
 50
126.4760060160836
 51
185.0000039980722
  0
LINE
  5
30C
330
1F
100
AcDbEntity
  8
LAYER-003
  6
Continuous
 62
     1
100
AcDbLine
 10
328.5754022333587
 20
191.8871976042801
 30
0.0
 11
351.8964665404066
 21
191.8871976042801
 31
0.0
  0
LINE
  5
30D
330
1F
100
AcDbEntity
  8
LAYER-003
  6
Continuous
 62
     1
100
AcDbLine
 10
351.8964665404066
 20
191.8871976042801
 30
0.0
 11
351.2874201548617
 21
198.8486435096723
 31
0.0
  0
LINE
  5
30E
330
1F
100
AcDbEntity
  8
LAYER-007
  6
Continuous
 62
     1
100
AcDbLine
 10
405.304473496733
 20
242.802818260081
 30
0.0
 11
423.9613249423713
 21
242.802818260081
 31
0.0
  0
LINE
  5
30F
330
1F
100
AcDbEntity
  8
LAYER-007
  6
Continuous
 62
     1
100
AcDbLine
 10
409.9686863592179
 20
242.802818260081
 30
0.0
 11
409.9686863592179
 21
97.67008847538097
 31
0.0
  0
LINE
  5
310
330
1F
100
AcDbEntity
  8
LAYER-007
  6
Continuous
 62
     1
100
AcDbLine
 10
419.297112082037
 20
242.802818260081
 30
0.0
 11
419.297112082037
 21
97.67008847538097
 31
0.0
  0
LINE
  5
311
330
1F
100
AcDbEntity
  8
LAYER-007
  6
Continuous
 62
     1
100
AcDbLine
 10
-48.35175444449322
 20
201.2643110080683
 30
0.0
 11
-48.35175444449322
 21
317.4302240426343
 31
0.0
  0
LINE
  5
312
330
1F
100
AcDbEntity
  8
LAYER-007
  6
Continuous
 62
     1
100
AcDbLine
 10
-447.3405599973008
 20
200.7646291264159
 30
0.0
 11
-447.3405599973008
 21
317.4302240426343
 31
0.0
  0
LINE
  5
313
330
1F
100
AcDbEntity
  8
LAYER-006
  6
Continuous
 62
     1
100
AcDbLine
 10
-21.2796774395232
 20
192.4302240426343
 30
0.0
 11
-21.2796774395232
 21
-122.5697759573657
 31
0.0
  0
LINE
  5
314
330
1F
100
AcDbEntity
  8
LAYER-006
  6
Continuous
 62
     1
100
AcDbLine
 10
210.1623202291701
 20
191.8871976042801
 30
0.0
 11
210.1623202291701
 21
117.259773164381
 31
0.0
  0
LINE
  5
315
330
1F
100
AcDbEntity
  8
LAYER-006
  6
Continuous
 62
     1
100
AcDbLine
 10
210.1623202291701
 20
191.8871976042801
 30
0.0
 11
280.1255318071657
 21
191.8871976042801
 31
0.0
  0
LINE
  5
316
330
1F
100
AcDbEntity
  8
LAYER-006
  6
Continuous
 62
     1
100
AcDbLine
 10
280.1255318071657
 20
191.8871976042801
 30
0.0
 11
280.1255318071657
 21
187.2229847428708
 31
0.0
  0
LINE
  5
317
330
1F
100
AcDbEntity
  8
LAYER-006
  6
Continuous
 62
     1
100
AcDbLine
 10
307.5864443570162
 20
191.8871976042801
 30
0.0
 11
377.5496372781599
 21
191.8871976042801
 31
0.0
  0
LINE
  5
318
330
1F
100
AcDbEntity
  8
LAYER-006
  6
Continuous
 62
     1
100
AcDbLine
 10
307.5864443570162
 20
191.8871976042801
 30
0.0
 11
307.5864443570162
 21
187.2229847428708
 31
0.0
  0
LINE
  5
319
330
1F
100
AcDbEntity
  8
LAYER-006
  6
Continuous
 62
     1
100
AcDbLine
 10
377.5496372781599
 20
191.8871976042801
 30
0.0
 11
377.5496372781599
 21
117.259773164381
 31
0.0
  0
LINE
  5
31A
330
1F
100
AcDbEntity
  8
LAYER-006
  6
Continuous
 62
     1
100
AcDbLine
 10
214.8265330905797
 20
187.2229847428708
 30
0.0
 11
214.8265330905797
 21
-117.905563098
 31
0.0
  0
LINE
  5
31B
330
1F
100
AcDbEntity
  8
LAYER-006
  6
Continuous
 62
     1
100
AcDbLine
 10
214.8265330905797
 20
187.2229847428708
 30
0.0
 11
372.8854244167492
 21
187.2229847428708
 31
0.0
  0
LINE
  5
31C
330
1F
100
AcDbEntity
  8
LAYER-006
  6
Continuous
 62
     1
100
AcDbLine
 10
219.4907459519903
 20
187.2229847428708
 30
0.0
 11
219.4907459519903
 21
-117.905563098
 31
0.0
  0
LINE
  5
31D
330
1F
100
AcDbEntity
  8
LAYER-006
  6
Continuous
 62
     1
100
AcDbLine
 10
372.8854244167492
 20
187.2229847428708
 30
0.0
 11
372.8854244167492
 21
-117.905563098
 31
0.0
  0
LINE
  5
31E
330
1F
100
AcDbEntity
  8
LAYER-007
  6
CENTER
 62
     4
100
AcDbLine
 10
-459.3648796261243
 20
170.0257294603933
 30
0.0
 11
-459.3648796261243
 21
139.2195622457154
 31
0.0
  0
LINE
  5
31F
330
1F
100
AcDbEntity
  8
LAYER-007
  6
CENTER
 62
     4
100
AcDbLine
 10
-38.19447525292284
 20
170.0257294603933
 30
0.0
 11
-38.19447525292284
 21
139.2195622457154
 31
0.0
  0
LINE
  5
320
330
1F
100
AcDbEntity
  8
LAYER-006
  6
Continuous
 62
     1
100
AcDbLine
 10
196.1696909733676
 20
168.5661146403805
 30
0.0
 11
196.1696909733676
 21
140.5808374719233
 31
0.0
  0
LINE
  5
321
330
1F
100
AcDbEntity
  8
LAYER-006
  6
Continuous
 62
     1
100
AcDbLine
 10
210.1623202291701
 20
168.5661146403805
 30
0.0
 11
196.1696909733676
 21
168.5661146403805
 31
0.0
  0
LINE
  5
322
330
1F
100
AcDbEntity
  8
LAYER-006
  6
Continuous
 62
     1
100
AcDbLine
 10
377.5496372781599
 20
168.5661146403805
 30
0.0
 11
391.5422758623881
 21
168.5661146403805
 31
0.0
  0
LINE
  5
323
330
1F
100
AcDbEntity
  8
LAYER-006
  6
Continuous
 62
     1
100
AcDbLine
 10
391.5422758623881
 20
168.5661146403805
 30
0.0
 11
391.5422758623881
 21
140.5808374719233
 31
0.0
  0
LINE
  5
324
330
1F
100
AcDbEntity
  8
LAYER-006
  6
Continuous
 62
     1
100
AcDbLine
 10
186.8412652505489
 20
162.0362259628329
 30
0.0
 11
186.8412652505489
 21
148.0435873740368
 31
0.0
  0
LINE
  5
325
330
1F
100
AcDbEntity
  8
LAYER-006
  6
Continuous
 62
     1
100
AcDbLine
 10
210.1623202291701
 20
162.0362259628329
 30
0.0
 11
186.8412652505489
 21
162.0362259628329
 31
0.0
  0
LINE
  5
326
330
1F
100
AcDbEntity
  8
LAYER-006
  6
Continuous
 62
     1
100
AcDbLine
 10
214.8265330905797
 20
162.0362259628329
 30
0.0
 11
372.8854244167492
 21
162.0362259628329
 31
0.0
  0
LINE
  5
327
330
1F
100
AcDbEntity
  8
LAYER-006
  6
Continuous
 62
     1
100
AcDbLine
 10
377.5496372781599
 20
162.0362259628329
 30
0.0
 11
400.8707015852078
 21
162.0362259628329
 31
0.0
  0
LINE
  5
328
330
1F
100
AcDbEntity
  8
LAYER-006
  6
Continuous
 62
     1
100
AcDbLine
 10
400.8707015852078
 20
162.0362259628329
 30
0.0
 11
400.8707015852078
 21
148.0435873740368
 31
0.0
  0
LINE
  5
329
330
1F
100
AcDbEntity
  8
LAYER-007
  6
CENTER
 62
     4
100
AcDbLine
 10
174.1145561840621
 20
155.5063279568595
 30
0.0
 11
407.2323224742035
 21
155.5063279568595
 31
0.0
  0
LINE
  5
32A
330
1F
100
AcDbEntity
  8
LAYER-007
  6
CENTER
 62
     4
100
AcDbLine
 10
-468.7000818123897
 20
155.0893966271656
 30
0.0
 11
-450.0296774398589
 21
155.0893966271656
 31
0.0
  0
LINE
  5
32B
330
1F
100
AcDbEntity
  8
LAYER-007
  6
CENTER
 62
     4
100
AcDbLine
 10
-47.52967743875351
 20
155.0893966271656
 30
0.0
 11
-28.85927306698378
 21
155.0893966271656
 31
0.0
  0
LINE
  5
32C
330
1F
100
AcDbEntity
  8
LAYER-006
  6
Continuous
 62
     1
100
AcDbLine
 10
210.1623202291701
 20
148.0435873740368
 30
0.0
 11
186.8412652505489
 21
148.0435873740368
 31
0.0
  0
LINE
  5
32D
330
1F
100
AcDbEntity
  8
LAYER-006
  6
Continuous
 62
     1
100
AcDbLine
 10
214.8265330905797
 20
148.0435873740368
 30
0.0
 11
372.8854244167492
 21
148.0435873740368
 31
0.0
  0
LINE
  5
32E
330
1F
100
AcDbEntity
  8
LAYER-006
  6
Continuous
 62
     1
100
AcDbLine
 10
377.5496372781599
 20
148.0435873740368
 30
0.0
 11
400.8707015852078
 21
148.0435873740368
 31
0.0
  0
LINE
  5
32F
330
1F
100
AcDbEntity
  8
LAYER-006
  6
Continuous
 62
     1
100
AcDbLine
 10
158.8559880820904
 20
145.2450503332954
 30
0.0
 11
158.8559880820904
 21
106.998514198
 31
0.0
  0
LINE
  5
330
330
1F
100
AcDbEntity
  8
LAYER-006
  6
Continuous
 62
     1
100
AcDbLine
 10
158.8559880820904
 20
145.2450503332954
 30
0.0
 11
160.7216638982284
 21
145.2450503332954
 31
0.0
  0
LINE
  5
331
330
1F
100
AcDbEntity
  8
LAYER-006
  6
Continuous
 62
     1
100
AcDbLine
 10
160.7216638982284
 20
145.2450503332954
 30
0.0
 11
160.7216638982284
 21
130.3195785052482
 31
0.0
  0
LINE
  5
332
330
1F
100
AcDbEntity
  8
LAYER-006
  6
Continuous
 62
     1
100
AcDbLine
 10
210.1623202291701
 20
140.5808374719233
 30
0.0
 11
196.1696909733676
 21
140.5808374719233
 31
0.0
  0
LINE
  5
333
330
1F
100
AcDbEntity
  8
LAYER-006
  6
Continuous
 62
     1
100
AcDbLine
 10
377.5496372781599
 20
140.5808374719233
 30
0.0
 11
391.5422758623881
 21
140.5808374719233
 31
0.0
  0
LINE
  5
334
330
1F
100
AcDbEntity
  8
LAYER-006
  6
Continuous
 62
     1
100
AcDbLine
 10
-400.7852886659213
 20
135.1735323499472
 30
0.0
 11
-400.7852886659213
 21
107.4798748124112
 31
0.0
  0
ARC
  5
335
330
1F
100
AcDbEntity
  8
LAYER-006
  6
Continuous
 62
     1
100
AcDbCircle
 10
-388.6495164885743
 20
135.1735323499472
 30
0.0
 40
12.13577217734807
100
AcDbArc
 50
337.3575500000003
 51
180.0127219999992
  0
CIRCLE
  5
336
330
1F
100
AcDbEntity
  8
LAYER-006
  6
Continuous
 62
     1
100
AcDbCircle
 10
-388.6495164885743
 20
135.1735323499472
 30
0.0
 40
6.534632195184059
  0
LINE
  5
337
330
1F
100
AcDbEntity
  8
LAYER-006
  6
Continuous
 62
     1
100
AcDbLine
 10
-377.4472738650544
 20
135.1735323499472
 30
0.0
 11
-377.4472738650544
 21
107.4798748124112
 31
0.0
  0
LINE
  5
338
330
1F
100
AcDbEntity
  8
LAYER-006
  6
Continuous
 62
     1
100
AcDbLine
 10
-368.112081013992
 20
135.1735230147452
 30
0.0
 11
-368.112081013992
 21
107.4798654772089
 31
0.0
  0
ARC
  5
339
330
1F
100
AcDbEntity
  8
LAYER-006
  6
Continuous
 62
     1
100
AcDbCircle
 10
-355.9763088369938
 20
135.1735230147452
 30
0.0
 40
12.13577217734807
100
AcDbArc
 50
337.3575500006387
 51
180.0127220148628
  0
CIRCLE
  5
33A
330
1F
100
AcDbEntity
  8
LAYER-006
  6
Continuous
 62
     1
100
AcDbCircle
 10
-355.9763088369938
 20
135.1735230147452
 30
0.0
 40
6.534632195184059
  0
LINE
  5
33B
330
1F
100
AcDbEntity
  8
LAYER-006
  6
Continuous
 62
     1
100
AcDbLine
 10
-344.7740662131238
 20
135.1735230147452
 30
0.0
 11
-344.7740662131238
 21
107.4798654772089
 31
0.0
  0
LINE
  5
33C
330
1F
100
AcDbEntity
  8
LAYER-006
  6
Continuous
 62
     1
100
AcDbLine
 10
-275.6486114375604
 20
135.1735323499472
 30
0.0
 11
-275.6486114375604
 21
107.4798748124112
 31
0.0
  0
ARC
  5
33D
330
1F
100
AcDbEntity
  8
LAYER-006
  6
Continuous
 62
     1
100
AcDbCircle
 10
-263.5128392602132
 20
135.1735323499472
 30
0.0
 40
12.13577217734807
100
AcDbArc
 50
337.3575500000003
 51
180.0127219999992
  0
CIRCLE
  5
33E
330
1F
100
AcDbEntity
  8
LAYER-006
  6
Continuous
 62
     1
100
AcDbCircle
 10
-263.5128392602132
 20
135.1735323499472
 30
0.0
 40
6.534632195184059
  0
LINE
  5
33F
330
1F
100
AcDbEntity
  8
LAYER-006
  6
Continuous
 62
     1
100
AcDbLine
 10
-252.3105966366935
 20
135.1735323499472
 30
0.0
 11
-252.3105966366935
 21
107.4798748124112
 31
0.0
  0
LINE
  5
340
330
1F
100
AcDbEntity
  8
LAYER-006
  6
Continuous
 62
     1
100
AcDbLine
 10
-242.9754037852717
 20
135.1735230147452
 30
0.0
 11
-242.9754037852717
 21
107.4798654772089
 31
0.0
  0
ARC
  5
341
330
1F
100
AcDbEntity
  8
LAYER-006
  6
Continuous
 62
     1
100
AcDbCircle
 10
-230.8396316087535
 20
135.1735230147452
 30
0.0
 40
12.13577217734807
100
AcDbArc
 50
337.3575500008579
 51
180.0127220148629
  0
CIRCLE
  5
342
330
1F
100
AcDbEntity
  8
LAYER-006
  6
Continuous
 62
     1
100
AcDbCircle
 10
-230.8396316087535
 20
135.1735230147452
 30
0.0
 40
6.534632195184059
  0
LINE
  5
343
330
1F
100
AcDbEntity
  8
LAYER-006
  6
Continuous
 62
     1
100
AcDbLine
 10
-219.6373889892906
 20
135.1735230147452
 30
0.0
 11
-219.6373889892906
 21
107.4798654772089
 31
0.0
  0
LINE
  5
344
330
1F
100
AcDbEntity
  8
LAYER-006
  6
Continuous
 62
     1
100
AcDbLine
 10
-152.7852886658492
 20
135.1735323499472
 30
0.0
 11
-152.7852886658492
 21
107.4798748124112
 31
0.0
  0
ARC
  5
345
330
1F
100
AcDbEntity
  8
LAYER-006
  6
Continuous
 62
     1
100
AcDbCircle
 10
-140.6495164885021
 20
135.1735323499472
 30
0.0
 40
12.13577217734807
100
AcDbArc
 50
337.3575499946508
 51
180.0127219999992
  0
CIRCLE
  5
346
330
1F
100
AcDbEntity
  8
LAYER-006
  6
Continuous
 62
     1
100
AcDbCircle
 10
-140.6495164885021
 20
135.1735323499472
 30
0.0
 40
6.534632195184059
  0
LINE
  5
347
330
1F
100
AcDbEntity
  8
LAYER-006
  6
Continuous
 62
     1
100
AcDbLine
 10
-129.4472738649824
 20
135.1735323499472
 30
0.0
 11
-129.4472738649824
 21
107.4798748124112
 31
0.0
  0
LINE
  5
348
330
1F
100
AcDbEntity
  8
LAYER-006
  6
Continuous
 62
     1
100
AcDbLine
 10
-120.1120810139198
 20
135.1735230147452
 30
0.0
 11
-120.1120810139198
 21
107.4798654772089
 31
0.0
  0
ARC
  5
349
330
1F
100
AcDbEntity
  8
LAYER-006
  6
Continuous
 62
     1
100
AcDbCircle
 10
-107.9763088369938
 20
135.1735230147452
 30
0.0
 40
12.13577217734807
100
AcDbArc
 50
337.3575500007697
 51
180.0127220148629
  0
CIRCLE
  5
34A
330
1F
100
AcDbEntity
  8
LAYER-006
  6
Continuous
 62
     1
100
AcDbCircle
 10
-107.9763088369938
 20
135.1735230147452
 30
0.0
 40
6.534632195184059
  0
LINE
  5
34B
330
1F
100
AcDbEntity
  8
LAYER-006
  6
Continuous
 62
     1
100
AcDbLine
 10
-96.7740662130517
 20
135.1735230147452
 30
0.0
 11
-96.7740662130517
 21
107.4798654772089
 31
0.0
  0
LINE
  5
34C
330
1F
100
AcDbEntity
  8
LAYER-006
  6
Continuous
 62
     1
100
AcDbLine
 10
160.7216638982284
 20
130.3195785052482
 30
0.0
 11
172.8486266663202
 21
125.6553656442954
 31
0.0
  0
LINE
  5
34D
330
1F
100
AcDbEntity
  8
LAYER-007
  6
HIDDEN
 62
     4
100
AcDbLine
 10
160.7216638982284
 20
130.3195785052482
 30
0.0
 11
160.7216638982284
 21
106.998514198
 31
0.0
  0
LINE
  5
34E
330
1F
100
AcDbEntity
  8
LAYER-007
  6
HIDDEN
 62
     4
100
AcDbLine
 10
170.982941521756
 20
126.5881988876947
 30
0.0
 11
170.982941521756
 21
106.998514198
 31
0.0
  0
LINE
  5
34F
330
1F
100
AcDbEntity
  8
LAYER-007
  6
HIDDEN
 62
     4
100
AcDbLine
 10
-396.1176875727884
 20
125.838330163681
 30
0.0
 11
-396.1176875727884
 21
107.4798748124112
 31
0.0
  0
LINE
  5
350
330
1F
100
AcDbEntity
  8
LAYER-007
  6
HIDDEN
 62
     4
100
AcDbLine
 10
-382.1148749581872
 20
125.838330163681
 30
0.0
 11
-382.1148749581872
 21
107.4798748124112
 31
0.0
  0
LINE
  5
351
330
1F
100
AcDbEntity
  8
LAYER-007
  6
HIDDEN
 62
     4
100
AcDbLine
 10
-363.4444799211107
 20
125.8383208284791
 30
0.0
 11
-363.4444799211107
 21
107.4798654772089
 31
0.0
  0
LINE
  5
352
330
1F
100
AcDbEntity
  8
LAYER-007
  6
HIDDEN
 62
     4
100
AcDbLine
 10
-349.441657971055
 20
125.8383208284791
 30
0.0
 11
-349.441657971055
 21
107.4798654772089
 31
0.0
  0
LINE
  5
353
330
1F
100
AcDbEntity
  8
LAYER-007
  6
HIDDEN
 62
     4
100
AcDbLine
 10
-270.9810103440699
 20
125.838330163681
 30
0.0
 11
-270.9810103440699
 21
107.4798748124112
 31
0.0
  0
LINE
  5
354
330
1F
100
AcDbEntity
  8
LAYER-007
  6
HIDDEN
 62
     4
100
AcDbLine
 10
-256.9781977343548
 20
125.838330163681
 30
0.0
 11
-256.9781977343548
 21
107.4798748124112
 31
0.0
  0
LINE
  5
355
330
1F
100
AcDbEntity
  8
LAYER-007
  6
HIDDEN
 62
     4
100
AcDbLine
 10
-238.3078026924982
 20
125.8383208284791
 30
0.0
 11
-238.3078026924982
 21
107.4798654772089
 31
0.0
  0
LINE
  5
356
330
1F
100
AcDbEntity
  8
LAYER-007
  6
HIDDEN
 62
     4
100
AcDbLine
 10
-224.3049807426939
 20
125.8383208284791
 30
0.0
 11
-224.3049807426939
 21
107.4798654772089
 31
0.0
  0
LINE
  5
357
330
1F
100
AcDbEntity
  8
LAYER-007
  6
HIDDEN
 62
     4
100
AcDbLine
 10
-148.1176875727164
 20
125.838330163681
 30
0.0
 11
-148.1176875727164
 21
107.4798748124112
 31
0.0
  0
LINE
  5
358
330
1F
100
AcDbEntity
  8
LAYER-007
  6
HIDDEN
 62
     4
100
AcDbLine
 10
-134.1148749581151
 20
125.838330163681
 30
0.0
 11
-134.1148749581151
 21
107.4798748124112
 31
0.0
  0
LINE
  5
359
330
1F
100
AcDbEntity
  8
LAYER-007
  6
HIDDEN
 62
     4
100
AcDbLine
 10
-115.4444799207871
 20
125.8383208284791
 30
0.0
 11
-115.4444799207871
 21
107.4798654772089
 31
0.0
  0
LINE
  5
35A
330
1F
100
AcDbEntity
  8
LAYER-007
  6
HIDDEN
 62
     4
100
AcDbLine
 10
-101.4416579709828
 20
125.8383208284791
 30
0.0
 11
-101.4416579709828
 21
107.4798654772089
 31
0.0
  0
LINE
  5
35B
330
1F
100
AcDbEntity
  8
LAYER-006
  6
Continuous
 62
     1
100
AcDbLine
 10
172.8486266663202
 20
125.6553656442954
 30
0.0
 11
172.8486266663202
 21
106.998514198
 31
0.0
  0
LINE
  5
35C
330
1F
100
AcDbEntity
  8
LAYER-006
  6
Continuous
 62
     1
100
AcDbLine
 10
-457.609273066991
 20
117.7485878821015
 30
0.0
 11
-457.609273066991
 21
-47.88813979683289
 31
0.0
  0
LINE
  5
35D
330
1F
100
AcDbEntity
  8
LAYER-006
  6
Continuous
 62
     1
100
AcDbLine
 10
-377.4472738650544
 20
117.7485878821015
 30
0.0
 11
-368.112081013992
 21
117.7485878821015
 31
0.0
  0
LINE
  5
35E
330
1F
100
AcDbEntity
  8
LAYER-006
  6
Continuous
 62
     1
100
AcDbLine
 10
-252.3105966366935
 20
117.7485878821015
 30
0.0
 11
-242.9754037852717
 21
117.7485878821015
 31
0.0
  0
LINE
  5
35F
330
1F
100
AcDbEntity
  8
LAYER-006
  6
Continuous
 62
     1
100
AcDbLine
 10
-129.4472738649824
 20
117.7485878821015
 30
0.0
 11
-120.1120810139198
 21
117.7485878821015
 31
0.0
  0
LINE
  5
360
330
1F
100
AcDbEntity
  8
LAYER-006
  6
Continuous
 62
     1
100
AcDbLine
 10
-39.9500818120556
 20
117.7485878821015
 30
0.0
 11
-39.9500818120556
 21
-47.88813979683289
 31
0.0
  0
LINE
  5
361
330
1F
100
AcDbEntity
  8
LAYER-006
  6
Continuous
 62
     1
100
AcDbLine
 10
210.1623202291701
 20
117.259773164381
 30
0.0
 11
214.8265330905797
 21
117.259773164381
 31
0.0
  0
LINE
  5
362
330
1F
100
AcDbEntity
  8
LAYER-006
  6
Continuous
 62
     1
100
AcDbLine
 10
372.8854244167492
 20
117.259773164381
 30
0.0
 11
377.5496372781599
 21
117.259773164381
 31
0.0
  0
LINE
  5
363
330
1F
100
AcDbEntity
  8
LAYER-006
  6
Continuous
 62
     1
100
AcDbLine
 10
-400.7852886659213
 20
107.4798748124112
 30
0.0
 11
-377.4472738650544
 21
107.4798748124112
 31
0.0
  0
LINE
  5
364
330
1F
100
AcDbEntity
  8
LAYER-006
  6
Continuous
 62
     1
100
AcDbLine
 10
-396.1176875727884
 20
107.4798748124112
 30
0.0
 11
-396.1176875727884
 21
97.83272360488309
 31
0.0
  0
LINE
  5
365
330
1F
100
AcDbEntity
  8
LAYER-006
  6
Continuous
 62
     4
100
AcDbLine
 10
-392.6955557213772
 20
107.4798748124112
 30
0.0
 11
-383.0484045116971
 21
97.83272360488309
 31
0.0
  0
LINE
  5
366
330
1F
100
AcDbEntity
  8
LAYER-006
  6
Continuous
 62
     4
100
AcDbLine
 10
-386.1609048539561
 20
107.4798748124112
 30
0.0
 11
-382.1148749581872
 21
103.433844916643
 31
0.0
  0
LINE
  5
367
330
1F
100
AcDbEntity
  8
LAYER-006
  6
Continuous
 62
     1
100
AcDbLine
 10
-382.1148749581872
 20
107.4798748124112
 30
0.0
 11
-382.1148749581872
 21
97.83272360488309
 31
0.0
  0
LINE
  5
368
330
1F
100
AcDbEntity
  8
LAYER-006
  6
Continuous
 62
     1
100
AcDbLine
 10
-368.112081013992
 20
107.4798654772089
 30
0.0
 11
-344.7740662131238
 21
107.4798654772089
 31
0.0
  0
LINE
  5
369
330
1F
100
AcDbEntity
  8
LAYER-006
  6
Continuous
 62
     1
100
AcDbLine
 10
-363.4444799211107
 20
107.4798654772089
 30
0.0
 11
-363.4444799211107
 21
97.83272360488309
 31
0.0
  0
LINE
  5
36A
330
1F
100
AcDbEntity
  8
LAYER-006
  6
Continuous
 62
     4
100
AcDbLine
 10
-360.0223483795634
 20
107.4798654772089
 30
0.0
 11
-350.3751968600866
 21
97.83272360488309
 31
0.0
  0
LINE
  5
36B
330
1F
100
AcDbEntity
  8
LAYER-006
  6
Continuous
 62
     4
100
AcDbLine
 10
-353.4876979818981
 20
107.4798654772089
 30
0.0
 11
-349.441657971055
 21
103.4338355814407
 31
0.0
  0
LINE
  5
36C
330
1F
100
AcDbEntity
  8
LAYER-006
  6
Continuous
 62
     1
100
AcDbLine
 10
-349.441657971055
 20
107.4798654772089
 30
0.0
 11
-349.441657971055
 21
97.83272360488309
 31
0.0
  0
LINE
  5
36D
330
1F
100
AcDbEntity
  8
LAYER-006
  6
Continuous
 62
     1
100
AcDbLine
 10
-275.6486114375604
 20
107.4798748124112
 30
0.0
 11
-252.3105966366935
 21
107.4798748124112
 31
0.0
  0
LINE
  5
36E
330
1F
100
AcDbEntity
  8
LAYER-006
  6
Continuous
 62
     1
100
AcDbLine
 10
-270.9810103440699
 20
107.4798748124112
 30
0.0
 11
-270.9810103440699
 21
97.83272360488309
 31
0.0
  0
LINE
  5
36F
330
1F
100
AcDbEntity
  8
LAYER-006
  6
Continuous
 62
     4
100
AcDbLine
 10
-267.5588784911824
 20
107.4798748124112
 30
0.0
 11
-257.9117272836551
 21
97.83272360488309
 31
0.0
  0
LINE
  5
370
330
1F
100
AcDbEntity
  8
LAYER-006
  6
Continuous
 62
     4
100
AcDbLine
 10
-261.0242276255952
 20
107.4798748124112
 30
0.0
 11
-256.9781977343548
 21
103.433844916643
 31
0.0
  0
LINE
  5
371
330
1F
100
AcDbEntity
  8
LAYER-006
  6
Continuous
 62
     1
100
AcDbLine
 10
-256.9781977343548
 20
107.4798748124112
 30
0.0
 11
-256.9781977343548
 21
97.83272360488309
 31
0.0
  0
LINE
  5
372
330
1F
100
AcDbEntity
  8
LAYER-006
  6
Continuous
 62
     1
100
AcDbLine
 10
-242.9754037852717
 20
107.4798654772089
 30
0.0
 11
-219.6373889892906
 21
107.4798654772089
 31
0.0
  0
LINE
  5
373
330
1F
100
AcDbEntity
  8
LAYER-006
  6
Continuous
 62
     1
100
AcDbLine
 10
-238.3078026924982
 20
107.4798654772089
 30
0.0
 11
-238.3078026924982
 21
97.83272360488309
 31
0.0
  0
LINE
  5
374
330
1F
100
AcDbEntity
  8
LAYER-006
  6
Continuous
 62
     4
100
AcDbLine
 10
-234.8856711512025
 20
107.4798654772089
 30
0.0
 11
-225.2385196317256
 21
97.83272360488309
 31
0.0
  0
LINE
  5
375
330
1F
100
AcDbEntity
  8
LAYER-006
  6
Continuous
 62
     4
100
AcDbLine
 10
-228.3510207535371
 20
107.4798654772089
 30
0.0
 11
-224.3049807426939
 21
103.4338355814407
 31
0.0
  0
LINE
  5
376
330
1F
100
AcDbEntity
  8
LAYER-006
  6
Continuous
 62
     1
100
AcDbLine
 10
-224.3049807426939
 20
107.4798654772089
 30
0.0
 11
-224.3049807426939
 21
97.83272360488309
 31
0.0
  0
LINE
  5
377
330
1F
100
AcDbEntity
  8
LAYER-006
  6
Continuous
 62
     1
100
AcDbLine
 10
-152.7852886658492
 20
107.4798748124112
 30
0.0
 11
-129.4472738649824
 21
107.4798748124112
 31
0.0
  0
LINE
  5
378
330
1F
100
AcDbEntity
  8
LAYER-006
  6
Continuous
 62
     1
100
AcDbLine
 10
-148.1176875727164
 20
107.4798748124112
 30
0.0
 11
-148.1176875727164
 21
97.83272360488309
 31
0.0
  0
LINE
  5
379
330
1F
100
AcDbEntity
  8
LAYER-006
  6
Continuous
 62
     4
100
AcDbLine
 10
-144.6955557194713
 20
107.4798748124112
 30
0.0
 11
-135.0484045116971
 21
97.83272360488309
 31
0.0
  0
LINE
  5
37A
330
1F
100
AcDbEntity
  8
LAYER-006
  6
Continuous
 62
     4
100
AcDbLine
 10
-138.1609048538841
 20
107.4798748124112
 30
0.0
 11
-134.1148749581151
 21
103.433844916643
 31
0.0
  0
LINE
  5
37B
330
1F
100
AcDbEntity
  8
LAYER-006
  6
Continuous
 62
     1
100
AcDbLine
 10
-134.1148749581151
 20
107.4798748124112
 30
0.0
 11
-134.1148749581151
 21
97.83272360488309
 31
0.0
  0
LINE
  5
37C
330
1F
100
AcDbEntity
  8
LAYER-006
  6
Continuous
 62
     1
100
AcDbLine
 10
-120.1120810139198
 20
107.4798654772089
 30
0.0
 11
-96.7740662130517
 21
107.4798654772089
 31
0.0
  0
LINE
  5
37D
330
1F
100
AcDbEntity
  8
LAYER-006
  6
Continuous
 62
     1
100
AcDbLine
 10
-115.4444799207871
 20
107.4798654772089
 30
0.0
 11
-115.4444799207871
 21
97.83272360488309
 31
0.0
  0
LINE
  5
37E
330
1F
100
AcDbEntity
  8
LAYER-006
  6
Continuous
 62
     4
100
AcDbLine
 10
-112.0223483794913
 20
107.4798654772089
 30
0.0
 11
-102.3751968600145
 21
97.83272360488309
 31
0.0
  0
LINE
  5
37F
330
1F
100
AcDbEntity
  8
LAYER-006
  6
Continuous
 62
     4
100
AcDbLine
 10
-105.487697981826
 20
107.4798654772089
 30
0.0
 11
-101.4416579709828
 21
103.4338355814407
 31
0.0
  0
LINE
  5
380
330
1F
100
AcDbEntity
  8
LAYER-006
  6
Continuous
 62
     1
100
AcDbLine
 10
-101.4416579709828
 20
107.4798654772089
 30
0.0
 11
-101.4416579709828
 21
97.83272360488309
 31
0.0
  0
LINE
  5
381
330
1F
100
AcDbEntity
  8
LAYER-006
  6
Continuous
 62
     1
100
AcDbLine
 10
158.8559880820904
 20
106.998514198
 30
0.0
 11
172.8486266663202
 21
106.998514198
 31
0.0
  0
LINE
  5
382
330
1F
100
AcDbEntity
  8
LAYER-006
  6
Continuous
 62
     1
100
AcDbLine
 10
160.7216638982284
 20
106.998514198
 30
0.0
 11
160.7216638982284
 21
97.67008847538097
 31
0.0
  0
LINE
  5
383
330
1F
100
AcDbEntity
  8
LAYER-006
  6
Continuous
 62
     4
100
AcDbLine
 10
164.4530341873569
 20
106.998514198
 30
0.0
 11
170.0501082779001
 21
101.4014587602954
 31
0.0
  0
LINE
  5
384
330
1F
100
AcDbEntity
  8
LAYER-006
  6
Continuous
 62
     1
100
AcDbLine
 10
170.0501082779001
 20
106.998514198
 30
0.0
 11
170.0501082779001
 21
97.67008847538097
 31
0.0
  0
LINE
  5
385
330
1F
100
AcDbEntity
  8
LAYER-006
  6
Continuous
 62
     4
100
AcDbLine
 10
-396.1176875727884
 20
104.367355799929
 30
0.0
 11
-389.5830367072
 21
97.83272360488309
 31
0.0
  0
LINE
  5
386
330
1F
100
AcDbEntity
  8
LAYER-006
  6
Continuous
 62
     4
100
AcDbLine
 10
-363.4444799211107
 20
104.3673651352694
 30
0.0
 11
-356.9098290552705
 21
97.83272360488309
 31
0.0
  0
LINE
  5
387
330
1F
100
AcDbEntity
  8
LAYER-006
  6
Continuous
 62
     4
100
AcDbLine
 10
-270.9810103440699
 20
104.367355799929
 30
0.0
 11
-264.446359478839
 21
97.83272360488309
 31
0.0
  0
LINE
  5
388
330
1F
100
AcDbEntity
  8
LAYER-006
  6
Continuous
 62
     4
100
AcDbLine
 10
-238.3078026924982
 20
104.3673651352694
 30
0.0
 11
-231.7731518269096
 21
97.83272360488309
 31
0.0
  0
LINE
  5
389
330
1F
100
AcDbEntity
  8
LAYER-006
  6
Continuous
 62
     4
100
AcDbLine
 10
-148.1176875727164
 20
104.367355799929
 30
0.0
 11
-141.5830367071279
 21
97.83272360488309
 31
0.0
  0
LINE
  5
38A
330
1F
100
AcDbEntity
  8
LAYER-006
  6
Continuous
 62
     4
100
AcDbLine
 10
-115.4444799207871
 20
104.3673651352694
 30
0.0
 11
-108.9098290553515
 21
97.83272360488309
 31
0.0
  0
LINE
  5
38B
330
1F
100
AcDbEntity
  8
LAYER-006
  6
Continuous
 62
     4
100
AcDbLine
 10
160.7216638982284
 20
104.1999771529286
 30
0.0
 11
167.251571232628
 21
97.67008847538097
 31
0.0
  0
LINE
  5
38C
330
1F
100
AcDbEntity
  8
LAYER-006
  6
Continuous
 62
     4
100
AcDbLine
 10
-396.1176875727884
 20
100.633284260763
 30
0.0
 11
-389.2710872402967
 21
107.4798748124112
 31
0.0
  0
LINE
  5
38D
330
1F
100
AcDbEntity
  8
LAYER-006
  6
Continuous
 62
     4
100
AcDbLine
 10
-363.4444799211107
 20
100.633284260763
 30
0.0
 11
-356.5978791427534
 21
107.4798654772089
 31
0.0
  0
LINE
  5
38E
330
1F
100
AcDbEntity
  8
LAYER-006
  6
Continuous
 62
     4
100
AcDbLine
 10
-270.9810103440699
 20
100.633284260763
 30
0.0
 11
-264.1344100119356
 21
107.4798748124112
 31
0.0
  0
LINE
  5
38F
330
1F
100
AcDbEntity
  8
LAYER-006
  6
Continuous
 62
     4
100
AcDbLine
 10
-238.3078026924982
 20
100.633284260763
 30
0.0
 11
-231.4612019143636
 21
107.4798654772089
 31
0.0
  0
LINE
  5
390
330
1F
100
AcDbEntity
  8
LAYER-006
  6
Continuous
 62
     4
100
AcDbLine
 10
-148.1176875727164
 20
100.633284260763
 30
0.0
 11
-141.2710872402245
 21
107.4798748124112
 31
0.0
  0
LINE
  5
391
330
1F
100
AcDbEntity
  8
LAYER-006
  6
Continuous
 62
     4
100
AcDbLine
 10
-115.4444799207871
 20
100.633284260763
 30
0.0
 11
-108.5978791427535
 21
107.4798654772089
 31
0.0
  0
LINE
  5
392
330
1F
100
AcDbEntity
  8
LAYER-006
  6
Continuous
 62
     4
100
AcDbLine
 10
160.7216638982284
 20
100.4686161922954
 30
0.0
 11
167.251571232628
 21
106.998514198
 31
0.0
  0
LINE
  5
393
330
1F
100
AcDbEntity
  8
LAYER-006
  6
Continuous
 62
     4
100
AcDbLine
 10
-392.3836066982815
 20
97.83272360488309
 30
0.0
 11
-382.7364554907534
 21
107.4798748124112
 31
0.0
  0
LINE
  5
394
330
1F
100
AcDbEntity
  8
LAYER-006
  6
Continuous
 62
     4
100
AcDbLine
 10
-385.8489558328485
 20
97.83272360488309
 30
0.0
 11
-382.1148749581872
 21
101.5668044748186
 31
0.0
  0
LINE
  5
395
330
1F
100
AcDbEntity
  8
LAYER-006
  6
Continuous
 62
     4
100
AcDbLine
 10
-359.7103990463521
 20
97.83272360488309
 30
0.0
 11
-350.0632475336539
 21
107.4798654772089
 31
0.0
  0
LINE
  5
396
330
1F
100
AcDbEntity
  8
LAYER-006
  6
Continuous
 62
     4
100
AcDbLine
 10
-354.1092707331906
 20
97.83272360488309
 30
0.0
 11
-349.441657971055
 21
102.5003246980159
 31
0.0
  0
LINE
  5
397
330
1F
100
AcDbEntity
  8
LAYER-006
  6
Continuous
 62
     1
100
AcDbLine
 10
-315.7796774395232
 20
97.83272360488309
 30
0.0
 11
-315.7796774395232
 21
-29.21774475950343
 31
0.0
  0
LINE
  5
398
330
1F
100
AcDbEntity
  8
LAYER-006
  6
Continuous
 62
     1
100
AcDbLine
 10
-305.7796774395232
 20
97.83272360488309
 30
0.0
 11
-305.7796774395232
 21
-29.21774475950343
 31
0.0
  0
LINE
  5
399
330
1F
100
AcDbEntity
  8
LAYER-006
  6
Continuous
 62
     4
100
AcDbLine
 10
-267.2469294699205
 20
97.83272360488309
 30
0.0
 11
-257.5997782623925
 21
107.4798748124112
 31
0.0
  0
LINE
  5
39A
330
1F
100
AcDbEntity
  8
LAYER-006
  6
Continuous
 62
     4
100
AcDbLine
 10
-260.7122786043334
 20
97.83272360488309
 30
0.0
 11
-256.9781977343548
 21
101.5668044748186
 31
0.0
  0
LINE
  5
39B
330
1F
100
AcDbEntity
  8
LAYER-006
  6
Continuous
 62
     4
100
AcDbLine
 10
-234.5737218179912
 20
97.83272360488309
 30
0.0
 11
-224.926570305293
 21
107.4798654772089
 31
0.0
  0
LINE
  5
39C
330
1F
100
AcDbEntity
  8
LAYER-006
  6
Continuous
 62
     4
100
AcDbLine
 10
-228.9725935048297
 20
97.83272360488309
 30
0.0
 11
-224.3049807426939
 21
102.5003246980159
 31
0.0
  0
LINE
  5
39D
330
1F
100
AcDbEntity
  8
LAYER-006
  6
Continuous
 62
     1
100
AcDbLine
 10
-191.7796774395232
 20
97.83272360488309
 30
0.0
 11
-191.7796774395232
 21
-29.21774475950343
 31
0.0
  0
LINE
  5
39E
330
1F
100
AcDbEntity
  8
LAYER-006
  6
Continuous
 62
     1
100
AcDbLine
 10
-181.7796774395232
 20
97.83272360488309
 30
0.0
 11
-181.7796774395232
 21
-29.21774475950343
 31
0.0
  0
LINE
  5
39F
330
1F
100
AcDbEntity
  8
LAYER-006
  6
Continuous
 62
     4
100
AcDbLine
 10
-144.3836066977553
 20
97.83272360488309
 30
0.0
 11
-134.7364554906814
 21
107.4798748124112
 31
0.0
  0
LINE
  5
3A0
330
1F
100
AcDbEntity
  8
LAYER-006
  6
Continuous
 62
     4
100
AcDbLine
 10
-137.8489558326222
 20
97.83272360488309
 30
0.0
 11
-134.1148749581151
 21
101.5668044748186
 31
0.0
  0
LINE
  5
3A1
330
1F
100
AcDbEntity
  8
LAYER-006
  6
Continuous
 62
     4
100
AcDbLine
 10
-111.71039904628
 20
97.83272360488309
 30
0.0
 11
-102.0632475335818
 21
107.4798654772089
 31
0.0
  0
LINE
  5
3A2
330
1F
100
AcDbEntity
  8
LAYER-006
  6
Continuous
 62
     4
100
AcDbLine
 10
-106.1092707309561
 20
97.83272360488309
 30
0.0
 11
-101.4416579709828
 21
102.5003246977452
 31
0.0
  0
LINE
  5
3A3
330
1F
100
AcDbEntity
  8
LAYER-006
  6
Continuous
 62
     1
100
AcDbLine
 10
-67.7796774395232
 20
97.83272360488309
 30
0.0
 11
-67.7796774395232
 21
-29.21774475950343
 31
0.0
  0
LINE
  5
3A4
330
1F
100
AcDbEntity
  8
LAYER-006
  6
Continuous
 62
     1
100
AcDbLine
 10
156.3559880820904
 20
97.67008847538097
 30
0.0
 11
431.3559880820904
 21
97.67008847538097
 31
0.0
  0
LINE
  5
3A5
330
1F
100
AcDbEntity
  8
LAYER-006
  6
Continuous
 62
     4
100
AcDbLine
 10
164.4530341873569
 20
97.67008847538097
 30
0.0
 11
170.0501082779001
 21
103.2671439090727
 31
0.0
  0
LINE
  5
3A6
330
1F
100
AcDbEntity
  8
LAYER-006
  6
Continuous
 62
     1
100
AcDbLine
 10
431.3559880820904
 20
97.67008847538097
 30
0.0
 11
431.3559880820904
 21
-29.28550940074894
 31
0.0
  0
LINE
  5
3A7
330
1F
100
AcDbEntity
  8
LAYER-007
  6
Continuous
 62
     4
100
AcDbLine
 10
-392.9290439351106
 20
79.16231923235071
 30
0.0
 11
-396.6631341448193
 21
70.76063726471159
 31
0.0
  0
LINE
  5
3A8
330
1F
100
AcDbEntity
  8
LAYER-007
  6
Continuous
 62
     4
100
AcDbLine
 10
-381.726810646794
 20
79.16231923235071
 30
0.0
 11
-385.4608821860979
 21
70.76063726471159
 31
0.0
  0
LINE
  5
3A9
330
1F
100
AcDbEntity
  8
LAYER-007
  6
Continuous
 62
     4
100
AcDbLine
 10
-362.4962387405661
 20
79.16231923235071
 30
0.0
 11
-361.5627185219404
 21
79.16231923235071
 31
0.0
  0
LINE
  5
3AA
330
1F
100
AcDbEntity
  8
LAYER-007
  6
Continuous
 62
     4
100
AcDbLine
 10
-361.5627185219404
 20
79.16231923235071
 30
0.0
 11
-359.6956874198892
 21
79.16231923235071
 31
0.0
  0
LINE
  5
3AB
330
1F
100
AcDbEntity
  8
LAYER-007
  6
Continuous
 62
     4
100
AcDbLine
 10
-359.6956874198892
 20
79.16231923235071
 30
0.0
 11
-359.6956874198892
 21
72.62766836662183
 31
0.0
  0
LINE
  5
3AC
330
1F
100
AcDbEntity
  8
LAYER-007
  6
Continuous
 62
     4
100
AcDbLine
 10
-350.3604665593308
 20
79.16231923235071
 30
0.0
 11
-366.2303196150732
 21
60.49191485981899
 31
0.0
  0
LINE
  5
3AD
330
1F
100
AcDbEntity
  8
LAYER-007
  6
Continuous
 62
     4
100
AcDbLine
 10
-269.5192810064517
 20
79.16231923235071
 30
0.0
 11
-268.58574211742
 21
79.16231923235071
 31
0.0
  0
LINE
  5
3AE
330
1F
100
AcDbEntity
  8
LAYER-007
  6
Continuous
 62
     4
100
AcDbLine
 10
-268.58574211742
 20
79.16231923235071
 30
0.0
 11
-268.58574211742
 21
77.29526945989557
 31
0.0
  0
LINE
  5
3AF
330
1F
100
AcDbEntity
  8
LAYER-007
  6
Continuous
 62
     4
100
AcDbLine
 10
-259.2505399311546
 20
79.16231923235071
 30
0.0
 11
-257.3835088291033
 21
77.29526945989557
 31
0.0
  0
LINE
  5
3B0
330
1F
100
AcDbEntity
  8
LAYER-007
  6
Continuous
 62
     4
100
AcDbLine
 10
-234.0868510927353
 20
79.16231923235071
 30
0.0
 11
-236.8874024134136
 21
72.62766836662183
 31
0.0
  0
LINE
  5
3B1
330
1F
100
AcDbEntity
  8
LAYER-007
  6
Continuous
 62
     4
100
AcDbLine
 10
-148.3371115841802
 20
79.16231923235071
 30
0.0
 11
-148.3371115841802
 21
77.29526945989557
 31
0.0
  0
LINE
  5
3B2
330
1F
100
AcDbEntity
  8
LAYER-007
  6
Continuous
 62
     4
100
AcDbLine
 10
-134.3343083025606
 20
79.16231923235071
 30
0.0
 11
-133.4007880861548
 21
78.22879901372428
 31
0.0
  0
LINE
  5
3B3
330
1F
100
AcDbEntity
  8
LAYER-007
  6
Continuous
 62
     4
100
AcDbLine
 10
-104.2699607665446
 20
79.16231923235071
 30
0.0
 11
-101.4694001107535
 21
79.16231923235071
 31
0.0
  0
LINE
  5
3B4
330
1F
100
AcDbEntity
  8
LAYER-007
  6
Continuous
 62
     4
100
AcDbLine
 10
-101.4694001107535
 20
79.16231923235071
 30
0.0
 11
-100.5358798894418
 21
77.29526945989557
 31
0.0
  0
LINE
  5
3B5
330
1F
100
AcDbEntity
  8
LAYER-007
  6
Continuous
 62
     4
100
AcDbLine
 10
-223.8181380230443
 20
78.22879901372428
 30
0.0
 11
-228.4857391161784
 21
69.82711704608516
 31
0.0
  0
LINE
  5
3B6
330
1F
100
AcDbEntity
  8
LAYER-007
  6
Continuous
 62
     4
100
AcDbLine
 10
-141.8024607185917
 20
78.22879901372428
 30
0.0
 11
-143.6695104888266
 21
66.09303617157818
 31
0.0
  0
LINE
  5
3B7
330
1F
100
AcDbEntity
  8
LAYER-007
  6
Continuous
 62
     4
100
AcDbLine
 10
-133.4007880861548
 20
78.22879901372428
 30
0.0
 11
-131.533738313699
 21
78.22879901372428
 31
0.0
  0
LINE
  5
3B8
330
1F
100
AcDbEntity
  8
LAYER-007
  6
Continuous
 62
     4
100
AcDbLine
 10
-107.0705120872216
 20
78.22879901372428
 30
0.0
 11
-104.2699607665446
 21
79.16231923235071
 31
0.0
  0
LINE
  5
3B9
330
1F
100
AcDbEntity
  8
LAYER-007
  6
Continuous
 62
     4
100
AcDbLine
 10
-268.58574211742
 20
77.29526945989557
 30
0.0
 11
-269.5192810064517
 21
72.62766836662183
 31
0.0
  0
LINE
  5
3BA
330
1F
100
AcDbEntity
  8
LAYER-007
  6
Continuous
 62
     4
100
AcDbLine
 10
-257.3835088291033
 20
77.29526945989557
 30
0.0
 11
-256.4499886104762
 21
76.36174924126914
 31
0.0
  0
LINE
  5
3BB
330
1F
100
AcDbEntity
  8
LAYER-007
  6
Continuous
 62
     4
100
AcDbLine
 10
-148.3371115841802
 20
77.29526945989557
 30
0.0
 11
-149.2706318062261
 21
65.15951595295175
 31
0.0
  0
LINE
  5
3BC
330
1F
100
AcDbEntity
  8
LAYER-007
  6
Continuous
 62
     4
100
AcDbLine
 10
-100.5358798894418
 20
77.29526945989557
 30
0.0
 11
-101.4694001107535
 21
74.49471813921795
 31
0.0
  0
LINE
  5
3BD
330
1F
100
AcDbEntity
  8
LAYER-007
  6
Continuous
 62
     4
100
AcDbLine
 10
-256.4499886104762
 20
76.36174924126914
 30
0.0
 11
-255.5164777270521
 21
76.36174924126914
 31
0.0
  0
LINE
  5
3BE
330
1F
100
AcDbEntity
  8
LAYER-007
  6
Continuous
 62
     4
100
AcDbLine
 10
-108.9375618596774
 20
76.36174924126914
 30
0.0
 11
-107.0705120872216
 21
78.22879901372428
 31
0.0
  0
LINE
  5
3BF
330
1F
100
AcDbEntity
  8
LAYER-007
  6
Continuous
 62
     4
100
AcDbLine
 10
-101.4694001107535
 20
74.49471813921795
 30
0.0
 11
-104.2699607665446
 21
71.69414814813572
 31
0.0
  0
LINE
  5
3C0
330
1F
100
AcDbEntity
  8
LAYER-007
  6
Continuous
 62
     4
100
AcDbLine
 10
-228.4857391161784
 20
73.5611979160204
 30
0.0
 11
-223.8181380230443
 21
78.22879901372428
 31
0.0
  0
LINE
  5
3C1
330
1F
100
AcDbEntity
  8
LAYER-007
  6
Continuous
 62
     4
100
AcDbLine
 10
-359.6956874198892
 20
72.62766836662183
 30
0.0
 11
-357.8286376474333
 21
65.15951595295175
 31
0.0
  0
LINE
  5
3C2
330
1F
100
AcDbEntity
  8
LAYER-007
  6
Continuous
 62
     4
100
AcDbLine
 10
-269.5192810064517
 20
72.62766836662183
 30
0.0
 11
-271.3863121085016
 21
67.02654705500297
 31
0.0
  0
LINE
  5
3C3
330
1F
100
AcDbEntity
  8
LAYER-007
  6
Continuous
 62
     4
100
AcDbLine
 10
-260.1840788201848
 20
72.62766836662183
 30
0.0
 11
-259.2505399311546
 21
79.16231923235071
 31
0.0
  0
LINE
  5
3C4
330
1F
100
AcDbEntity
  8
LAYER-007
  6
Continuous
 62
     4
100
AcDbLine
 10
-236.8874024134136
 20
72.62766836662183
 30
0.0
 11
-236.8874024134136
 21
70.76063726471159
 31
0.0
  0
LINE
  5
3C5
330
1F
100
AcDbEntity
  8
LAYER-007
  6
Continuous
 62
     4
100
AcDbLine
 10
-135.2678285234077
 20
71.69414814813572
 30
0.0
 11
-134.3343083025606
 21
79.16231923235071
 31
0.0
  0
LINE
  5
3C6
330
1F
100
AcDbEntity
  8
LAYER-007
  6
Continuous
 62
     4
100
AcDbLine
 10
-104.2699607665446
 20
71.69414814813572
 30
0.0
 11
-108.0040323058486
 21
70.76063726471159
 31
0.0
  0
LINE
  5
3C7
330
1F
100
AcDbEntity
  8
LAYER-007
  6
Continuous
 62
     4
100
AcDbLine
 10
-104.2699607665446
 20
71.69414814813572
 30
0.0
 11
-102.4029109940888
 21
71.69414814813572
 31
0.0
  0
LINE
  5
3C8
330
1F
100
AcDbEntity
  8
LAYER-007
  6
Continuous
 62
     4
100
AcDbLine
 10
-102.4029109940888
 20
71.69414814813572
 30
0.0
 11
-102.4029109940888
 21
69.82711704608516
 31
0.0
  0
LINE
  5
3C9
330
1F
100
AcDbEntity
  8
LAYER-007
  6
Continuous
 62
     4
100
AcDbLine
 10
-396.6631341448193
 20
70.76063726471159
 30
0.0
 11
-397.5966450286971
 21
64.22599572975435
 31
0.0
  0
LINE
  5
3CA
330
1F
100
AcDbEntity
  8
LAYER-007
  6
Continuous
 62
     4
100
AcDbLine
 10
-385.4608821860979
 20
70.76063726471159
 30
0.0
 11
-387.3279319585537
 21
62.35894596186952
 31
0.0
  0
LINE
  5
3CB
330
1F
100
AcDbEntity
  8
LAYER-007
  6
Continuous
 62
     4
100
AcDbLine
 10
-236.8874024134136
 20
70.76063726471159
 30
0.0
 11
-235.9538915299881
 21
68.89359682745808
 31
0.0
  0
LINE
  5
3CC
330
1F
100
AcDbEntity
  8
LAYER-007
  6
Continuous
 62
     4
100
AcDbLine
 10
-230.3527702182283
 20
70.76063726471159
 30
0.0
 11
-228.4857391161784
 21
73.5611979160204
 31
0.0
  0
LINE
  5
3CD
330
1F
100
AcDbEntity
  8
LAYER-007
  6
Continuous
 62
     4
100
AcDbLine
 10
-225.6851691250955
 20
70.76063726471159
 30
0.0
 11
-223.8181380230443
 21
71.69414814813572
 31
0.0
  0
LINE
  5
3CE
330
1F
100
AcDbEntity
  8
LAYER-007
  6
Continuous
 62
     4
100
AcDbLine
 10
-108.0040323058486
 20
70.76063726471159
 30
0.0
 11
-104.2699607665446
 21
71.69414814813572
 31
0.0
  0
LINE
  5
3CF
330
1F
100
AcDbEntity
  8
LAYER-007
  6
Continuous
 62
     4
100
AcDbLine
 10
-228.4857391161784
 20
69.82711704608516
 30
0.0
 11
-235.0203713113624
 21
60.49191485981899
 31
0.0
  0
LINE
  5
3D0
330
1F
100
AcDbEntity
  8
LAYER-007
  6
Continuous
 62
     4
100
AcDbLine
 10
-102.4029109940888
 20
69.82711704608516
 30
0.0
 11
-105.2034809851704
 21
64.22599572975435
 31
0.0
  0
LINE
  5
3D1
330
1F
100
AcDbEntity
  8
LAYER-007
  6
Continuous
 62
     4
100
AcDbLine
 10
-235.9538915299881
 20
68.89359682745808
 30
0.0
 11
-232.2198013202795
 21
68.89359682745808
 31
0.0
  0
LINE
  5
3D2
330
1F
100
AcDbEntity
  8
LAYER-007
  6
Continuous
 62
     4
100
AcDbLine
 10
-232.2198013202795
 20
68.89359682745808
 30
0.0
 11
-230.3527702182283
 21
70.76063726471159
 31
0.0
  0
LINE
  5
3D3
330
1F
100
AcDbEntity
  8
LAYER-007
  6
Continuous
 62
     4
100
AcDbLine
 10
-229.4192499996026
 20
68.89359682745808
 30
0.0
 11
-225.6851691250955
 21
70.76063726471159
 31
0.0
  0
LINE
  5
3D4
330
1F
100
AcDbEntity
  8
LAYER-007
  6
Continuous
 62
     4
100
AcDbLine
 10
-102.4029109940888
 20
68.89359682745808
 30
0.0
 11
-100.5358798894418
 21
70.76063726471159
 31
0.0
  0
LINE
  5
3D5
330
1F
100
AcDbEntity
  8
LAYER-007
  6
Continuous
 62
     4
100
AcDbLine
 10
-386.3944117399266
 20
67.96006727362936
 30
0.0
 11
-381.726810646794
 21
79.16231923235071
 31
0.0
  0
LINE
  5
3D6
330
1F
100
AcDbEntity
  8
LAYER-007
  6
Continuous
 62
     4
100
AcDbLine
 10
-232.2198013202795
 20
67.96006727362936
 30
0.0
 11
-229.4192499996026
 21
68.89359682745808
 31
0.0
  0
LINE
  5
3D7
330
1F
100
AcDbEntity
  8
LAYER-007
  6
Continuous
 62
     4
100
AcDbLine
 10
-271.3863121085016
 20
67.02654705500297
 30
0.0
 11
-272.3198323271287
 21
63.2924661804966
 31
0.0
  0
LINE
  5
3D8
330
1F
100
AcDbEntity
  8
LAYER-007
  6
Continuous
 62
     4
100
AcDbLine
 10
-262.984630141
 20
67.02654705500297
 30
0.0
 11
-260.1840788201848
 21
72.62766836662183
 31
0.0
  0
LINE
  5
3D9
330
1F
100
AcDbEntity
  8
LAYER-007
  6
Continuous
 62
     4
100
AcDbLine
 10
-143.6695104888266
 20
67.02654705500297
 30
0.0
 11
-141.8024607185917
 21
78.22879901372428
 31
0.0
  0
LINE
  5
3DA
330
1F
100
AcDbEntity
  8
LAYER-007
  6
Continuous
 62
     4
100
AcDbLine
 10
-105.2034809851704
 20
67.02654705500297
 30
0.0
 11
-102.4029109940888
 21
68.89359682745808
 31
0.0
  0
LINE
  5
3DB
330
1F
100
AcDbEntity
  8
LAYER-007
  6
Continuous
 62
     4
100
AcDbLine
 10
-143.6695104888266
 20
66.09303617157818
 30
0.0
 11
-143.6695104888266
 21
61.42543507844539
 31
0.0
  0
LINE
  5
3DC
330
1F
100
AcDbEntity
  8
LAYER-007
  6
Continuous
 62
     4
100
AcDbLine
 10
-357.8286376474333
 20
65.15951595295175
 30
0.0
 11
-356.8951174288063
 21
62.35894596186952
 31
0.0
  0
LINE
  5
3DD
330
1F
100
AcDbEntity
  8
LAYER-007
  6
Continuous
 62
     4
100
AcDbLine
 10
-235.9538915299881
 20
65.15951595295175
 30
0.0
 11
-232.2198013202795
 21
67.96006727362936
 31
0.0
  0
LINE
  5
3DE
330
1F
100
AcDbEntity
  8
LAYER-007
  6
Continuous
 62
     4
100
AcDbLine
 10
-149.2706318062261
 20
65.15951595295175
 30
0.0
 11
-149.2706318062261
 21
61.42543507844539
 31
0.0
  0
LINE
  5
3DF
330
1F
100
AcDbEntity
  8
LAYER-007
  6
Continuous
 62
     4
100
AcDbLine
 10
-397.5966450286971
 20
64.22599572975435
 30
0.0
 11
-397.5966450286971
 21
61.42543507844539
 31
0.0
  0
LINE
  5
3E0
330
1F
100
AcDbEntity
  8
LAYER-007
  6
Continuous
 62
     4
100
AcDbLine
 10
-389.1949630639457
 20
64.22599572975435
 30
0.0
 11
-386.3944117399266
 21
67.96006727362936
 31
0.0
  0
LINE
  5
3E1
330
1F
100
AcDbEntity
  8
LAYER-007
  6
Continuous
 62
     4
100
AcDbLine
 10
-111.7381131804511
 20
64.22599572975435
 30
0.0
 11
-105.2034809851704
 21
67.02654705500297
 31
0.0
  0
LINE
  5
3E2
330
1F
100
AcDbEntity
  8
LAYER-007
  6
Continuous
 62
     4
100
AcDbLine
 10
-105.2034809851704
 20
64.22599572975435
 30
0.0
 11
-109.8710820757078
 21
61.42543507844539
 31
0.0
  0
LINE
  5
3E3
330
1F
100
AcDbEntity
  8
LAYER-007
  6
Continuous
 62
     4
100
AcDbLine
 10
-272.3198323271287
 20
63.2924661804966
 30
0.0
 11
-272.3198323271287
 21
62.35894596186952
 31
0.0
  0
LINE
  5
3E4
330
1F
100
AcDbEntity
  8
LAYER-007
  6
Continuous
 62
     4
100
AcDbLine
 10
-236.8874024134136
 20
63.2924661804966
 30
0.0
 11
-235.9538915299881
 21
65.15951595295175
 31
0.0
  0
LINE
  5
3E5
330
1F
100
AcDbEntity
  8
LAYER-007
  6
Continuous
 62
     4
100
AcDbLine
 10
-387.3279319585537
 20
62.35894596186952
 30
0.0
 11
-386.3944117399266
 21
61.42543507844539
 31
0.0
  0
LINE
  5
3E6
330
1F
100
AcDbEntity
  8
LAYER-007
  6
Continuous
 62
     4
100
AcDbLine
 10
-356.8951174288063
 20
62.35894596186952
 30
0.0
 11
-353.1610365543007
 21
60.49191485981899
 31
0.0
  0
LINE
  5
3E7
330
1F
100
AcDbEntity
  8
LAYER-007
  6
Continuous
 62
     4
100
AcDbLine
 10
-272.3198323271287
 20
62.35894596186952
 30
0.0
 11
-270.4527918898758
 21
61.42543507844539
 31
0.0
  0
LINE
  5
3E8
330
1F
100
AcDbEntity
  8
LAYER-007
  6
Continuous
 62
     4
100
AcDbLine
 10
-266.7187110153687
 20
62.35894596186952
 30
0.0
 11
-262.984630141
 21
67.02654705500297
 31
0.0
  0
LINE
  5
3E9
330
1F
100
AcDbEntity
  8
LAYER-007
  6
Continuous
 62
     4
100
AcDbLine
 10
-397.5966450286971
 20
61.42543507844539
 30
0.0
 11
-394.7960843721511
 21
61.42543507844539
 31
0.0
  0
LINE
  5
3EA
330
1F
100
AcDbEntity
  8
LAYER-007
  6
Continuous
 62
     4
100
AcDbLine
 10
-394.7960843721511
 20
61.42543507844539
 30
0.0
 11
-391.9955330516865
 21
61.42543507844539
 31
0.0
  0
LINE
  5
3EB
330
1F
100
AcDbEntity
  8
LAYER-007
  6
Continuous
 62
     4
100
AcDbLine
 10
-391.9955330516865
 20
61.42543507844539
 30
0.0
 11
-389.1949630639457
 21
64.22599572975435
 31
0.0
  0
LINE
  5
3EC
330
1F
100
AcDbEntity
  8
LAYER-007
  6
Continuous
 62
     4
100
AcDbLine
 10
-386.3944117399266
 20
61.42543507844539
 30
0.0
 11
-383.5938417488452
 21
61.42543507844539
 31
0.0
  0
LINE
  5
3ED
330
1F
100
AcDbEntity
  8
LAYER-007
  6
Continuous
 62
     4
100
AcDbLine
 10
-383.5938417488452
 20
61.42543507844539
 30
0.0
 11
-380.7932810929652
 21
63.2924661804966
 31
0.0
  0
LINE
  5
3EE
330
1F
100
AcDbEntity
  8
LAYER-007
  6
Continuous
 62
     4
100
AcDbLine
 10
-350.3604665593308
 20
61.42543507844539
 30
0.0
 11
-348.4934354611679
 21
64.22599572975435
 31
0.0
  0
LINE
  5
3EF
330
1F
100
AcDbEntity
  8
LAYER-007
  6
Continuous
 62
     4
100
AcDbLine
 10
-270.4527918898758
 20
61.42543507844539
 30
0.0
 11
-268.58574211742
 21
61.42543507844539
 31
0.0
  0
LINE
  5
3F0
330
1F
100
AcDbEntity
  8
LAYER-007
  6
Continuous
 62
     4
100
AcDbLine
 10
-268.58574211742
 20
61.42543507844539
 30
0.0
 11
-266.7187110153687
 21
62.35894596186952
 31
0.0
  0
LINE
  5
3F1
330
1F
100
AcDbEntity
  8
LAYER-007
  6
Continuous
 62
     4
100
AcDbLine
 10
-236.8874024134136
 20
61.42543507844539
 30
0.0
 11
-236.8874024134136
 21
63.2924661804966
 31
0.0
  0
LINE
  5
3F2
330
1F
100
AcDbEntity
  8
LAYER-007
  6
Continuous
 62
     4
100
AcDbLine
 10
-149.2706318062261
 20
61.42543507844539
 30
0.0
 11
-148.3371115841802
 21
60.49191485981899
 31
0.0
  0
LINE
  5
3F3
330
1F
100
AcDbEntity
  8
LAYER-007
  6
Continuous
 62
     4
100
AcDbLine
 10
-146.470080482129
 20
61.42543507844539
 30
0.0
 11
-143.6695104888266
 21
67.02654705500297
 31
0.0
  0
LINE
  5
3F4
330
1F
100
AcDbEntity
  8
LAYER-007
  6
Continuous
 62
     4
100
AcDbLine
 10
-143.6695104888266
 20
61.42543507844539
 30
0.0
 11
-142.7359902724204
 21
60.49191485981899
 31
0.0
  0
LINE
  5
3F5
330
1F
100
AcDbEntity
  8
LAYER-007
  6
Continuous
 62
     4
100
AcDbLine
 10
-139.0019093979147
 20
61.42543507844539
 30
0.0
 11
-135.2678285234077
 21
71.69414814813572
 31
0.0
  0
LINE
  5
3F6
330
1F
100
AcDbEntity
  8
LAYER-007
  6
Continuous
 62
     4
100
AcDbLine
 10
-113.6051629528101
 20
61.42543507844539
 30
0.0
 11
-111.7381131804511
 21
64.22599572975435
 31
0.0
  0
LINE
  5
3F7
330
1F
100
AcDbEntity
  8
LAYER-007
  6
Continuous
 62
     4
100
AcDbLine
 10
-109.8710820757078
 20
61.42543507844539
 30
0.0
 11
-111.7381131804511
 21
60.49191485981899
 31
0.0
  0
LINE
  5
3F8
330
1F
100
AcDbEntity
  8
LAYER-007
  6
Continuous
 62
     4
100
AcDbLine
 10
-353.1610365543007
 20
60.49191485981899
 30
0.0
 11
-350.3604665593308
 21
61.42543507844539
 31
0.0
  0
LINE
  5
3F9
330
1F
100
AcDbEntity
  8
LAYER-007
  6
Continuous
 62
     4
100
AcDbLine
 10
-235.0203713113624
 20
60.49191485981899
 30
0.0
 11
-236.8874024134136
 21
61.42543507844539
 31
0.0
  0
LINE
  5
3FA
330
1F
100
AcDbEntity
  8
LAYER-007
  6
Continuous
 62
     4
100
AcDbLine
 10
-148.3371115841802
 20
60.49191485981899
 30
0.0
 11
-146.470080482129
 21
61.42543507844539
 31
0.0
  0
LINE
  5
3FB
330
1F
100
AcDbEntity
  8
LAYER-007
  6
Continuous
 62
     4
100
AcDbLine
 10
-142.7359902724204
 20
60.49191485981899
 30
0.0
 11
-139.0019093979147
 21
61.42543507844539
 31
0.0
  0
LINE
  5
3FC
330
1F
100
AcDbEntity
  8
LAYER-007
  6
Continuous
 62
     4
100
AcDbLine
 10
-111.7381131804511
 20
60.49191485981899
 30
0.0
 11
-113.6051629528101
 21
61.42543507844539
 31
0.0
  0
LINE
  5
3FD
330
1F
100
AcDbEntity
  8
LAYER-033
  6
Continuous
 62
     5
100
AcDbLine
 10
-39.95008181205532
 20
13.81591326369068
 30
0.0
 11
-21.2796774395232
 21
13.81591326369068
 31
0.0
  0
LINE
  5
3FE
330
1F
100
AcDbEntity
  8
LAYER-033
  6
CENTER
 62
     5
100
AcDbLine
 10
-30.61487962578929
 20
13.87729449450615
 30
0.0
 11
-30.61487962578929
 21
-2.298748946112198
 31
0.0
  0
LINE
  5
3FF
330
1F
100
AcDbEntity
  8
LAYER-033
  6
HIDDEN
 62
     5
100
AcDbLine
 10
214.8265330905797
 20
10.23021479208131
 30
0.0
 11
219.4907459519903
 21
10.23021479208131
 31
0.0
  0
LINE
  5
400
330
1F
100
AcDbEntity
  8
LAYER-033
  6
CENTER
 62
     5
100
AcDbLine
 10
-38.70290134609837
 20
5.789272774622305
 30
0.0
 11
-22.526857903
 21
5.789272774622305
 31
0.0
  0
CIRCLE
  5
401
330
1F
100
AcDbEntity
  8
LAYER-033
  6
Continuous
 62
     5
100
AcDbCircle
 10
-30.61487962578929
 20
5.789272774622305
 30
0.0
 40
4.537412130827525
  0
LINE
  5
402
330
1F
100
AcDbEntity
  8
LAYER-033
  6
HIDDEN
 62
     5
100
AcDbLine
 10
214.8265330905797
 20
1.161977984417035
 30
0.0
 11
219.4907459519903
 21
1.161977984417035
 31
0.0
  0
LINE
  5
403
330
1F
100
AcDbEntity
  8
LAYER-033
  6
Continuous
 62
     5
100
AcDbLine
 10
-39.95008181205532
 20
-5.879729958635551
 30
0.0
 11
-21.2796774395232
 21
-5.879729958635551
 31
0.0
  0
LINE
  5
404
330
1F
100
AcDbEntity
  8
LAYER-006
  6
Continuous
 62
     1
100
AcDbLine
 10
-429.7796774395232
 20
-29.21774475950343
 30
0.0
 11
-429.7796774395232
 21
97.83272360488309
 31
0.0
  0
LINE
  5
405
330
1F
100
AcDbEntity
  8
LAYER-006
  6
Continuous
 62
     1
100
AcDbLine
 10
-403.1092730669911
 20
-29.21774475950343
 30
0.0
 11
-403.1092730669911
 21
-47.88813979683289
 31
0.0
  0
LINE
  5
406
330
1F
100
AcDbEntity
  8
LAYER-006
  6
Continuous
 62
     1
100
AcDbLine
 10
-94.45008181242503
 20
-29.21774475950343
 30
0.0
 11
-94.45008181242503
 21
-47.88813979683289
 31
0.0
  0
LINE
  5
407
330
1F
100
AcDbEntity
  8
LAYER-006
  6
Continuous
 62
     1
100
AcDbLine
 10
156.3559880820904
 20
-29.28550940074894
 30
0.0
 11
156.3559880820904
 21
97.67008847538097
 31
0.0
  0
LINE
  5
408
330
1F
100
AcDbEntity
  8
LAYER-006
  6
Continuous
 62
     1
100
AcDbLine
 10
431.3559880820904
 20
-29.28550940074894
 30
0.0
 11
156.3559880820904
 21
-29.28550940074894
 31
0.0
  0
LINE
  5
409
330
1F
100
AcDbEntity
  8
LAYER-006
  6
Continuous
 62
     1
100
AcDbLine
 10
-442.450081812055
 20
-47.88813979683289
 30
0.0
 11
-442.450081812055
 21
-122.5697759573657
 31
0.0
  0
LINE
  5
40A
330
1F
100
AcDbEntity
  8
LAYER-006
  6
Continuous
 62
     1
100
AcDbLine
 10
-405.1092730669911
 20
-47.88813979683289
 30
0.0
 11
-405.1092730669911
 21
-122.5697759573657
 31
0.0
  0
LINE
  5
40B
330
1F
100
AcDbEntity
  8
LAYER-006
  6
Continuous
 62
     1
100
AcDbLine
 10
-92.45008181242503
 20
-47.88813979683289
 30
0.0
 11
-92.45008181242503
 21
-122.5697759573657
 31
0.0
  0
LINE
  5
40C
330
1F
100
AcDbEntity
  8
LAYER-006
  6
Continuous
 62
     1
100
AcDbLine
 10
-55.10927306699108
 20
-47.88813979683289
 30
0.0
 11
-55.10927306699108
 21
-122.5697759573657
 31
0.0
  0
LINE
  5
40D
330
1F
100
AcDbEntity
  8
LAYER-006
  6
Continuous
 62
     1
100
AcDbLine
 10
205.498107367761
 20
-47.94235151796102
 30
0.0
 11
205.498107367761
 21
-117.905563098
 31
0.0
  0
LINE
  5
40E
330
1F
100
AcDbEntity
  8
LAYER-006
  6
Continuous
 62
     1
100
AcDbLine
 10
205.498107367761
 20
-47.94235151796102
 30
0.0
 11
214.8265330905797
 21
-47.94235151796102
 31
0.0
  0
LINE
  5
40F
330
1F
100
AcDbEntity
  8
LAYER-006
  6
Continuous
 62
     1
100
AcDbLine
 10
210.1623202291701
 20
-47.94235151796102
 30
0.0
 11
210.1623202291701
 21
-122.5697759573657
 31
0.0
  0
LINE
  5
410
330
1F
100
AcDbEntity
  8
LAYER-006
  6
Continuous
 62
     1
100
AcDbLine
 10
372.8854244167492
 20
-47.94235151796102
 30
0.0
 11
382.2138501395689
 21
-47.94235151796102
 31
0.0
  0
LINE
  5
411
330
1F
100
AcDbEntity
  8
LAYER-006
  6
Continuous
 62
     1
100
AcDbLine
 10
377.5496372781599
 20
-47.94235151796102
 30
0.0
 11
377.5496372781599
 21
-122.5697759573657
 31
0.0
  0
LINE
  5
412
330
1F
100
AcDbEntity
  8
LAYER-006
  6
Continuous
 62
     1
100
AcDbLine
 10
382.2138501395689
 20
-47.94235151796102
 30
0.0
 11
382.2138501395689
 21
-117.905563098
 31
0.0
  0
LINE
  5
413
330
1F
100
AcDbEntity
  8
LAYER-007
  6
CENTER
 62
     4
100
AcDbLine
 10
-459.3648796261243
 20
-70.29263437907389
 30
0.0
 11
-459.3648796261243
 21
-101.0988015937518
 31
0.0
  0
LINE
  5
414
330
1F
100
AcDbEntity
  8
LAYER-007
  6
CENTER
 62
     4
100
AcDbLine
 10
-38.19447525292284
 20
-70.29263437907389
 30
0.0
 11
-38.19447525292284
 21
-101.0988015937518
 31
0.0
  0
LINE
  5
415
330
1F
100
AcDbEntity
  8
LAYER-006
  6
Continuous
 62
     1
100
AcDbLine
 10
191.5054781119585
 20
-72.19625839729127
 30
0.0
 11
191.5054781119585
 21
-100.1815448987416
 31
0.0
  0
LINE
  5
416
330
1F
100
AcDbEntity
  8
LAYER-006
  6
Continuous
 62
     1
100
AcDbLine
 10
205.498107367761
 20
-72.19625839729127
 30
0.0
 11
191.5054781119585
 21
-72.19625839729127
 31
0.0
  0
LINE
  5
417
330
1F
100
AcDbEntity
  8
LAYER-006
  6
Continuous
 62
     1
100
AcDbLine
 10
382.2138501395689
 20
-72.19625839729127
 30
0.0
 11
396.2064887237971
 21
-72.19625839729127
 31
0.0
  0
LINE
  5
418
330
1F
100
AcDbEntity
  8
LAYER-006
  6
Continuous
 62
     1
100
AcDbLine
 10
396.2064887237971
 20
-72.19625839729127
 30
0.0
 11
396.2064887237971
 21
-100.1815448987416
 31
0.0
  0
LINE
  5
419
330
1F
100
AcDbEntity
  8
LAYER-006
  6
Continuous
 62
     1
100
AcDbLine
 10
182.1770523891394
 20
-78.72616573168995
 30
0.0
 11
182.1770523891394
 21
-92.71880431591916
 31
0.0
  0
LINE
  5
41A
330
1F
100
AcDbEntity
  8
LAYER-006
  6
Continuous
 62
     1
100
AcDbLine
 10
205.498107367761
 20
-78.72616573168995
 30
0.0
 11
182.1770523891394
 21
-78.72616573168995
 31
0.0
  0
LINE
  5
41B
330
1F
100
AcDbEntity
  8
LAYER-006
  6
Continuous
 62
     1
100
AcDbLine
 10
214.8265330905797
 20
-78.72616573168995
 30
0.0
 11
372.8854244167492
 21
-78.72616573168995
 31
0.0
  0
LINE
  5
41C
330
1F
100
AcDbEntity
  8
LAYER-006
  6
Continuous
 62
     1
100
AcDbLine
 10
382.2138501395689
 20
-78.72616573168995
 30
0.0
 11
405.5349144466168
 21
-78.72616573168995
 31
0.0
  0
LINE
  5
41D
330
1F
100
AcDbEntity
  8
LAYER-006
  6
Continuous
 62
     1
100
AcDbLine
 10
405.5349144466168
 20
-78.72616573168995
 30
0.0
 11
405.5349144466168
 21
-92.71880431591916
 31
0.0
  0
LINE
  5
41E
330
1F
100
AcDbEntity
  8
LAYER-007
  6
CENTER
 62
     4
100
AcDbLine
 10
-468.7000818123897
 20
-85.22894854189764
 30
0.0
 11
-450.0296774398589
 21
-85.22894854189764
 31
0.0
  0
LINE
  5
41F
330
1F
100
AcDbEntity
  8
LAYER-007
  6
CENTER
 62
     4
100
AcDbLine
 10
-47.52967743875351
 20
-85.22894854189764
 30
0.0
 11
-28.85927306698378
 21
-85.22894854189764
 31
0.0
  0
LINE
  5
420
330
1F
100
AcDbEntity
  8
LAYER-007
  6
CENTER
 62
     4
100
AcDbLine
 10
148.5947197869891
 20
-85.25605440923818
 30
0.0
 11
438.1844138049101
 21
-85.25605440923818
 31
0.0
  0
LINE
  5
421
330
1F
100
AcDbEntity
  8
LAYER-006
  6
Continuous
 62
     1
100
AcDbLine
 10
205.498107367761
 20
-92.71880431591916
 30
0.0
 11
182.1770523891394
 21
-92.71880431591916
 31
0.0
  0
LINE
  5
422
330
1F
100
AcDbEntity
  8
LAYER-006
  6
Continuous
 62
     1
100
AcDbLine
 10
214.8265330905797
 20
-92.71880431591916
 30
0.0
 11
372.8854244167492
 21
-92.71880431591916
 31
0.0
  0
LINE
  5
423
330
1F
100
AcDbEntity
  8
LAYER-006
  6
Continuous
 62
     1
100
AcDbLine
 10
382.2138501395689
 20
-92.71880431591916
 30
0.0
 11
405.5349144466168
 21
-92.71880431591916
 31
0.0
  0
LINE
  5
424
330
1F
100
AcDbEntity
  8
LAYER-006
  6
Continuous
 62
     1
100
AcDbLine
 10
205.498107367761
 20
-100.1815448987416
 30
0.0
 11
191.5054781119585
 21
-100.1815448987416
 31
0.0
  0
LINE
  5
425
330
1F
100
AcDbEntity
  8
LAYER-006
  6
Continuous
 62
     1
100
AcDbLine
 10
382.2138501395689
 20
-100.1815448987416
 30
0.0
 11
396.2064887237971
 21
-100.1815448987416
 31
0.0
  0
LINE
  5
426
330
1F
100
AcDbEntity
  8
LAYER-007
  6
HIDDEN
 62
     1
100
AcDbLine
 10
-430.3143283051113
 20
-117.9021748660618
 30
0.0
 11
-430.3143283051113
 21
-122.5697759573657
 31
0.0
  0
LINE
  5
427
330
1F
100
AcDbEntity
  8
LAYER-007
  6
HIDDEN
 62
     1
100
AcDbLine
 10
-417.24504524434
 20
-117.9021748660618
 30
0.0
 11
-417.24504524434
 21
-122.5697759573657
 31
0.0
  0
LINE
  5
428
330
1F
100
AcDbEntity
  8
LAYER-007
  6
HIDDEN
 62
     1
100
AcDbLine
 10
-80.31430963470717
 20
-117.9021748655928
 30
0.0
 11
-80.31430963470717
 21
-122.5697759573657
 31
0.0
  0
LINE
  5
429
330
1F
100
AcDbEntity
  8
LAYER-007
  6
HIDDEN
 62
     1
100
AcDbLine
 10
-67.24503590913628
 20
-117.9021748655928
 30
0.0
 11
-67.24503590913628
 21
-122.5697759573657
 31
0.0
  0
LINE
  5
42A
330
1F
100
AcDbEntity
  8
LAYER-006
  6
Continuous
 62
     1
100
AcDbLine
 10
171.6059875820905
 20
-117.905563098
 30
0.0
 11
171.6059875820905
 21
-122.5697759573657
 31
0.0
  0
LINE
  5
42B
330
1F
100
AcDbEntity
  8
LAYER-006
  6
Continuous
 62
     1
100
AcDbLine
 10
186.1059875820905
 20
-117.905563098
 30
0.0
 11
186.1059875820905
 21
-122.5697759573657
 31
0.0
  0
LINE
  5
42C
330
1F
100
AcDbEntity
  8
LAYER-006
  6
Continuous
 62
     1
100
AcDbLine
 10
214.8265330905797
 20
-117.905563098
 30
0.0
 11
372.8854244167492
 21
-117.905563098
 31
0.0
  0
LINE
  5
42D
330
1F
100
AcDbEntity
  8
LAYER-006
  6
Continuous
 62
     1
100
AcDbLine
 10
280.1255318071657
 20
-117.905563098
 30
0.0
 11
280.1255318071657
 21
-122.5697759573657
 31
0.0
  0
LINE
  5
42E
330
1F
100
AcDbEntity
  8
LAYER-006
  6
Continuous
 62
     1
100
AcDbLine
 10
307.5864443570162
 20
-117.905563098
 30
0.0
 11
307.5864443570162
 21
-122.5697759573657
 31
0.0
  0
LINE
  5
42F
330
1F
100
AcDbEntity
  8
LAYER-006
  6
Continuous
 62
     1
100
AcDbLine
 10
368.2212115553402
 20
-117.905563098
 30
0.0
 11
368.2212115553402
 21
187.2229847428708
 31
0.0
  0
LINE
  5
430
330
1F
100
AcDbEntity
  8
LAYER-006
  6
Continuous
 62
     1
100
AcDbLine
 10
401.6059875820905
 20
-117.905563098
 30
0.0
 11
401.6059875820905
 21
-122.5697759573657
 31
0.0
  0
LINE
  5
431
330
1F
100
AcDbEntity
  8
LAYER-006
  6
Continuous
 62
     1
100
AcDbLine
 10
416.1059875820905
 20
-117.905563098
 30
0.0
 11
416.1059875820905
 21
-122.5697759573657
 31
0.0
  0
LINE
  5
432
330
1F
100
AcDbEntity
  8
LAYER-006
  6
Continuous
 62
     1
100
AcDbLine
 10
428.8559875820905
 20
-117.905563098
 30
0.0
 11
428.8559875820905
 21
-122.5697759573657
 31
0.0
  0
LINE
  5
433
330
1F
100
AcDbEntity
  8
LAYER-006
  6
Continuous
 62
     1
100
AcDbLine
 10
-476.2796774395232
 20
-122.5697759573657
 30
0.0
 11
-476.2796774395232
 21
192.4302240426343
 31
0.0
  0
LINE
  5
434
330
1F
100
AcDbEntity
  8
LAYER-006
  6
Continuous
 62
     1
100
AcDbLine
 10
158.8559875820905
 20
-122.5697759573657
 30
0.0
 11
158.8559875820905
 21
-117.905563098
 31
0.0
  0
LINE
  5
435
330
1F
100
AcDbEntity
  8
LAYER-007
  6
PHANTOM
 62
     4
100
AcDbLine
 10
280.1255318071657
 20
-122.5697759573657
 30
0.0
 11
307.5864443570162
 21
-122.5697759573657
 31
0.0
  0
LINE
  5
436
330
1F
100
AcDbEntity
  8
LAYER-007
  6
CENTER
 62
     4
100
AcDbLine
 10
-248.7796774395232
 20
204.5659775495781
 30
0.0
 11
-248.7796774395232
 21
-122.5697759573657
 31
0.0
  0
LINE
  5
437
330
1F
100
AcDbEntity
  8
LAYER-006
  6
Continuous
 62
     1
100
AcDbLine
 10
-96.7740662130517
 20
117.7485878821015
 30
0.0
 11
-21.2796774395232
 21
117.7485878821015
 31
0.0
  0
LINE
  5
438
330
1F
100
AcDbEntity
  8
LAYER-007
  6
HIDDEN
 62
     1
100
AcDbLine
 10
-476.2796774395232
 20
-117.9021748660618
 30
0.0
 11
-21.2796774395232
 21
-117.9021748660618
 31
0.0
  0
LINE
  5
439
330
1F
100
AcDbEntity
  8
LAYER-006
  6
Continuous
 62
     1
100
AcDbLine
 10
-21.2796774395232
 20
-122.5697759573657
 30
0.0
 11
-476.2796774395232
 21
-122.5697759573657
 31
0.0
  0
LINE
  5
43A
330
1F
100
AcDbEntity
  8
LAYER-006
  6
Continuous
 62
     1
100
AcDbLine
 10
-476.2796774395232
 20
-47.88813979683289
 30
0.0
 11
-21.2796774395232
 21
-47.88813979683289
 31
0.0
  0
LINE
  5
43B
330
1F
100
AcDbEntity
  8
LAYER-006
  6
Continuous
 62
     1
100
AcDbLine
 10
-67.7796774395232
 20
-29.21774475950343
 30
0.0
 11
-429.7796774395232
 21
-29.21774475950343
 31
0.0
  0
LINE
  5
43C
330
1F
100
AcDbEntity
  8
LAYER-006
  6
Continuous
 62
     1
100
AcDbLine
 10
-429.7796774395232
 20
97.83272360488309
 30
0.0
 11
-67.7796774395232
 21
97.83272360488309
 31
0.0
  0
LINE
  5
43D
330
1F
100
AcDbEntity
  8
LAYER-006
  6
Continuous
 62
     1
100
AcDbLine
 10
-476.2796774395232
 20
117.7485878821015
 30
0.0
 11
-400.7852886659213
 21
117.7485878821015
 31
0.0
  0
LINE
  5
43E
330
1F
100
AcDbEntity
  8
LAYER-007
  6
HIDDEN
 62
     1
100
AcDbLine
 10
-476.2796774395232
 20
187.7626229495015
 30
0.0
 11
-21.2796774395232
 21
187.7626229495015
 31
0.0
  0
LINE
  5
43F
330
1F
100
AcDbEntity
  8
LAYER-006
  6
Continuous
 62
     1
100
AcDbLine
 10
-476.2796774395232
 20
192.4302240426343
 30
0.0
 11
-21.2796774395232
 21
192.4302240426343
 31
0.0
  0
LINE
  5
440
330
1F
100
AcDbEntity
  8
LAYER-007
  6
Continuous
 62
     1
100
AcDbLine
 10
-428.6701462895668
 20
270.754213111304
 30
0.0
 11
-67.02215881702495
 21
270.754213111304
 31
0.0
  0
LINE
  5
441
330
1F
100
AcDbEntity
  8
LAYER-007
  6
Continuous
 62
     1
100
AcDbLine
 10
-447.3405599973008
 20
317.4302240426343
 30
0.0
 11
-48.35175444449322
 21
317.4302240426343
 31
0.0
  0
LINE
  5
442
330
1F
100
AcDbEntity
  8
LAYER-006
  6
Continuous
 62
     1
100
AcDbLine
 10
-219.6373889892906
 20
117.7485878821015
 30
0.0
 11
-152.7852886658492
 21
117.7485878821015
 31
0.0
  0
LINE
  5
443
330
1F
100
AcDbEntity
  8
LAYER-006
  6
Continuous
 62
     1
100
AcDbLine
 10
-344.7740662131238
 20
117.7485878821015
 30
0.0
 11
-275.6486114375604
 21
117.7485878821015
 31
0.0
  0
LINE
  5
444
330
1F
100
AcDbEntity
  8
LAYER-256
  6
Continuous
 62
     1
100
AcDbLine
 10
-65.52967743942315
 20
159.8525366271656
 30
0.0
 11
-65.52967743942315
 21
150.3262576271641
 31
0.0
  0
LINE
  5
445
330
1F
100
AcDbEntity
  8
LAYER-256
  6
Continuous
 62
     1
100
AcDbLine
 10
-73.7796774395232
 20
164.6156766271656
 30
0.0
 11
-65.52967743942315
 21
159.8525366271656
 31
0.0
  0
LINE
  5
446
330
1F
100
AcDbEntity
  8
LAYER-256
  6
CENTER
 62
     4
100
AcDbLine
 10
-73.7796774395232
 20
133.9250196271655
 30
0.0
 11
-73.7796774395232
 21
176.4348396271657
 31
0.0
  0
LINE
  5
447
330
1F
100
AcDbEntity
  8
LAYER-256
  6
CENTER
 62
     4
100
AcDbLine
 10
-90.82391043963685
 20
155.0893966271656
 30
0.0
 11
-58.04675643640502
 21
155.0893966271656
 31
0.0
  0
CIRCLE
  5
448
330
1F
100
AcDbEntity
  8
LAYER-256
  6
Continuous
 62
     1
100
AcDbCircle
 10
-73.7796774395232
 20
155.0893966271656
 30
0.0
 40
4.0
  0
LINE
  5
449
330
1F
100
AcDbEntity
  8
LAYER-256
  6
Continuous
 62
     1
100
AcDbLine
 10
-65.52967743942315
 20
150.3262576271641
 30
0.0
 11
-73.7796774395232
 21
145.5631176271641
 31
0.0
  0
LINE
  5
44A
330
1F
100
AcDbEntity
  8
LAYER-256
  6
Continuous
 62
     1
100
AcDbLine
 10
-73.7796774395232
 20
145.5631176271641
 30
0.0
 11
-82.02967743952138
 21
150.3262576271641
 31
0.0
  0
LINE
  5
44B
330
1F
100
AcDbEntity
  8
LAYER-256
  6
Continuous
 62
     1
100
AcDbLine
 10
-82.02967743952138
 20
150.3262576271641
 30
0.0
 11
-82.02967743952138
 21
159.8525366271656
 31
0.0
  0
LINE
  5
44C
330
1F
100
AcDbEntity
  8
LAYER-256
  6
Continuous
 62
     1
100
AcDbLine
 10
-82.02967743952138
 20
159.8525366271656
 30
0.0
 11
-73.7796774395232
 21
164.6156766271656
 31
0.0
  0
CIRCLE
  5
44D
330
1F
100
AcDbEntity
  8
LAYER-256
  6
Continuous
 62
     1
100
AcDbCircle
 10
-73.7796774395232
 20
155.0893966271656
 30
0.0
 40
8.25
  0
LINE
  5
44E
330
1F
100
AcDbEntity
  8
LAYER-256
  6
Continuous
 62
     1
100
AcDbLine
 10
-423.7796774395232
 20
164.6156766271656
 30
0.0
 11
-415.529677439525
 21
159.8525366271656
 31
0.0
  0
LINE
  5
44F
330
1F
100
AcDbEntity
  8
LAYER-256
  6
Continuous
 62
     1
100
AcDbLine
 10
-432.0296774395214
 20
159.8525366271656
 30
0.0
 11
-423.7796774395232
 21
164.6156766271656
 31
0.0
  0
LINE
  5
450
330
1F
100
AcDbEntity
  8
LAYER-256
  6
Continuous
 62
     1
100
AcDbLine
 10
-415.529677439525
 20
159.8525366271656
 30
0.0
 11
-415.529677439525
 21
150.3262576271641
 31
0.0
  0
LINE
  5
451
330
1F
100
AcDbEntity
  8
LAYER-256
  6
CENTER
 62
     4
100
AcDbLine
 10
-440.8239104396369
 20
155.0893966271656
 30
0.0
 11
-408.0467564368644
 21
155.0893966271656
 31
0.0
  0
CIRCLE
  5
452
330
1F
100
AcDbEntity
  8
LAYER-256
  6
Continuous
 62
     1
100
AcDbCircle
 10
-423.7796774395232
 20
155.0893966271656
 30
0.0
 40
4.0
  0
CIRCLE
  5
453
330
1F
100
AcDbEntity
  8
LAYER-256
  6
Continuous
 62
     1
100
AcDbCircle
 10
-423.7796774395232
 20
155.0893966271656
 30
0.0
 40
8.25
  0
LINE
  5
454
330
1F
100
AcDbEntity
  8
LAYER-256
  6
Continuous
 62
     1
100
AcDbLine
 10
-432.0296774395214
 20
150.3262576271641
 30
0.0
 11
-432.0296774395214
 21
159.8525366271656
 31
0.0
  0
LINE
  5
455
330
1F
100
AcDbEntity
  8
LAYER-256
  6
Continuous
 62
     1
100
AcDbLine
 10
-415.529677439525
 20
150.3262576271641
 30
0.0
 11
-423.7796774395232
 21
145.5631176271641
 31
0.0
  0
LINE
  5
456
330
1F
100
AcDbEntity
  8
LAYER-256
  6
Continuous
 62
     1
100
AcDbLine
 10
-423.7796774395232
 20
145.5631176271641
 30
0.0
 11
-432.0296774395214
 21
150.3262576271641
 31
0.0
  0
LINE
  5
457
330
1F
100
AcDbEntity
  8
LAYER-256
  6
CENTER
 62
     4
100
AcDbLine
 10
-423.7796774395232
 20
133.9250196271655
 30
0.0
 11
-423.7796774395232
 21
176.4348396271657
 31
0.0
  0
LINE
  5
458
330
1F
100
AcDbEntity
  8
LAYER-256
  6
Continuous
 62
     1
100
AcDbLine
 10
-415.529677439525
 20
-89.99208754189914
 30
0.0
 11
-423.7796774395232
 21
-94.75522754189916
 31
0.0
  0
CIRCLE
  5
459
330
1F
100
AcDbEntity
  8
LAYER-256
  6
Continuous
 62
     1
100
AcDbCircle
 10
-423.7796774395232
 20
-85.22894854189764
 30
0.0
 40
8.25
  0
LINE
  5
45A
330
1F
100
AcDbEntity
  8
LAYER-256
  6
Continuous
 62
     1
100
AcDbLine
 10
-415.529677439525
 20
-80.46580854189762
 30
0.0
 11
-415.529677439525
 21
-89.99208754189914
 31
0.0
  0
LINE
  5
45B
330
1F
100
AcDbEntity
  8
LAYER-256
  6
Continuous
 62
     1
100
AcDbLine
 10
-423.7796774395232
 20
-75.70266854189765
 30
0.0
 11
-415.529677439525
 21
-80.46580854189762
 31
0.0
  0
LINE
  5
45C
330
1F
100
AcDbEntity
  8
LAYER-256
  6
Continuous
 62
     1
100
AcDbLine
 10
-432.0296774395214
 20
-80.46580854189762
 30
0.0
 11
-423.7796774395232
 21
-75.70266854189765
 31
0.0
  0
LINE
  5
45D
330
1F
100
AcDbEntity
  8
LAYER-256
  6
CENTER
 62
     4
100
AcDbLine
 10
-423.7796774395232
 20
-106.3933255418977
 30
0.0
 11
-423.7796774395232
 21
-63.88350554189753
 31
0.0
  0
CIRCLE
  5
45E
330
1F
100
AcDbEntity
  8
LAYER-256
  6
Continuous
 62
     1
100
AcDbCircle
 10
-423.7796774395232
 20
-85.22894854189764
 30
0.0
 40
4.0
  0
LINE
  5
45F
330
1F
100
AcDbEntity
  8
LAYER-256
  6
CENTER
 62
     4
100
AcDbLine
 10
-440.8239104396369
 20
-85.22894854189764
 30
0.0
 11
-408.0467564368644
 21
-85.22894854189764
 31
0.0
  0
LINE
  5
460
330
1F
100
AcDbEntity
  8
LAYER-256
  6
Continuous
 62
     1
100
AcDbLine
 10
-423.7796774395232
 20
-94.75522754189916
 30
0.0
 11
-432.0296774395214
 21
-89.99208754189914
 31
0.0
  0
LINE
  5
461
330
1F
100
AcDbEntity
  8
LAYER-256
  6
Continuous
 62
     1
100
AcDbLine
 10
-432.0296774395214
 20
-89.99208754189914
 30
0.0
 11
-432.0296774395214
 21
-80.46580854189762
 31
0.0
  0
LINE
  5
462
330
1F
100
AcDbEntity
  8
LAYER-256
  6
Continuous
 62
     1
100
AcDbLine
 10
-65.52967743942315
 20
-89.99208754189914
 30
0.0
 11
-73.7796774395232
 21
-94.75522754189916
 31
0.0
  0
CIRCLE
  5
463
330
1F
100
AcDbEntity
  8
LAYER-256
  6
Continuous
 62
     1
100
AcDbCircle
 10
-73.7796774395232
 20
-85.22894854189764
 30
0.0
 40
8.25
  0
LINE
  5
464
330
1F
100
AcDbEntity
  8
LAYER-256
  6
CENTER
 62
     4
100
AcDbLine
 10
-90.82391043963685
 20
-85.22894854189764
 30
0.0
 11
-58.04675643640502
 21
-85.22894854189764
 31
0.0
  0
LINE
  5
465
330
1F
100
AcDbEntity
  8
LAYER-256
  6
Continuous
 62
     1
100
AcDbLine
 10
-65.52967743942315
 20
-80.46580854189762
 30
0.0
 11
-65.52967743942315
 21
-89.99208754189914
 31
0.0
  0
LINE
  5
466
330
1F
100
AcDbEntity
  8
LAYER-256
  6
Continuous
 62
     1
100
AcDbLine
 10
-73.7796774395232
 20
-75.70266854189765
 30
0.0
 11
-65.52967743942315
 21
-80.46580854189762
 31
0.0
  0
LINE
  5
467
330
1F
100
AcDbEntity
  8
LAYER-256
  6
Continuous
 62
     1
100
AcDbLine
 10
-82.02967743952138
 20
-80.46580854189762
 30
0.0
 11
-73.7796774395232
 21
-75.70266854189765
 31
0.0
  0
LINE
  5
468
330
1F
100
AcDbEntity
  8
LAYER-256
  6
Continuous
 62
     1
100
AcDbLine
 10
-82.02967743952138
 20
-89.99208754189914
 30
0.0
 11
-82.02967743952138
 21
-80.46580854189762
 31
0.0
  0
LINE
  5
469
330
1F
100
AcDbEntity
  8
LAYER-256
  6
Continuous
 62
     1
100
AcDbLine
 10
-73.7796774395232
 20
-94.75522754189916
 30
0.0
 11
-82.02967743952138
 21
-89.99208754189914
 31
0.0
  0
CIRCLE
  5
46A
330
1F
100
AcDbEntity
  8
LAYER-256
  6
Continuous
 62
     1
100
AcDbCircle
 10
-73.7796774395232
 20
-85.22894854189764
 30
0.0
 40
4.0
  0
LINE
  5
46B
330
1F
100
AcDbEntity
  8
LAYER-256
  6
CENTER
 62
     4
100
AcDbLine
 10
-73.7796774395232
 20
-106.3933255418977
 30
0.0
 11
-73.7796774395232
 21
-63.88350554189753
 31
0.0
  0
LINE
  5
46C
330
1F
100
AcDbEntity
  8
LAYER-007
  6
CENTER
 62
     4
100
AcDbLine
 10
293.8559875820905
 20
227.3351966941415
 30
0.0
 11
293.8559875820905
 21
-122.5697759573657
 31
0.0
  0
LINE
  5
46D
330
1F
100
AcDbEntity
  8
LAYER-007
  6
HIDDEN
 62
     4
100
AcDbLine
 10
414.6328992217028
 20
317.4302240426343
 30
0.0
 11
428.6255378048562
 21
322.0944369040439
 31
0.0
  0
LINE
  5
46E
330
1F
100
AcDbEntity
  8
LAYER-007
  6
HIDDEN
 62
     4
100
AcDbLine
 10
428.6255378048562
 20
322.0944369040439
 30
0.0
 11
428.6255378048562
 21
345.4155012110918
 31
0.0
  0
LINE
  5
46F
330
1F
100
AcDbEntity
  8
LAYER-007
  6
HIDDEN
 62
     4
100
AcDbLine
 10
409.9686863592179
 20
345.4155012110918
 30
0.0
 11
428.6255378048562
 21
345.4155012110918
 31
0.0
  0
LINE
  5
470
330
1F
100
AcDbEntity
  8
LAYER-007
  6
HIDDEN
 62
     4
100
AcDbLine
 10
409.9686863592179
 20
275.4523082899481
 30
0.0
 11
409.9686863592179
 21
345.4155012110918
 31
0.0
  0
LINE
  5
471
330
1F
100
AcDbEntity
  8
LAYER-007
  6
HIDDEN
 62
     4
100
AcDbLine
 10
409.9686863592179
 20
275.4523082899481
 30
0.0
 11
414.6328992217028
 21
275.4523082899481
 31
0.0
  0
LINE
  5
472
330
1F
100
AcDbEntity
  8
LAYER-007
  6
HIDDEN
 62
     4
100
AcDbLine
 10
414.6328992217028
 20
275.4523082899481
 30
0.0
 11
414.6328992217028
 21
317.4302240426343
 31
0.0
  0
LINE
  5
473
330
1F
100
AcDbEntity
  8
LAYER-006
  6
Continuous
 62
     1
100
AcDbLine
 10
382.2138501395689
 20
-117.905563098
 30
0.0
 11
428.8559875820905
 21
-117.905563098
 31
0.0
  0
LINE
  5
474
330
1F
100
AcDbEntity
  8
LAYER-006
  6
Continuous
 62
     1
100
AcDbLine
 10
307.5864443570162
 20
-122.5697759573657
 30
0.0
 11
428.8559875820905
 21
-122.5697759573657
 31
0.0
  0
LINE
  5
475
330
1F
100
AcDbEntity
  8
LAYER-033
  6
CENTER
 62
     4
100
AcDbLine
 10
408.8559875820905
 20
-110.3218479537228
 30
0.0
 11
408.8559875820905
 21
-132.0242824472278
 31
0.0
  0
LINE
  5
476
330
1F
100
AcDbEntity
  8
LAYER-006
  6
Continuous
 62
     1
100
AcDbLine
 10
158.8559875820905
 20
-117.905563098
 30
0.0
 11
205.498107367761
 21
-117.905563098
 31
0.0
  0
LINE
  5
477
330
1F
100
AcDbEntity
  8
LAYER-006
  6
Continuous
 62
     1
100
AcDbLine
 10
158.8559875820905
 20
-122.5697759573657
 30
0.0
 11
280.1255318071657
 21
-122.5697759573657
 31
0.0
  0
LINE
  5
478
330
1F
100
AcDbEntity
  8
LAYER-033
  6
CENTER
 62
     4
100
AcDbLine
 10
178.8559875820905
 20
-111.9865324405725
 30
0.0
 11
178.8559875820905
 21
-133.6889669340776
 31
0.0
  0
LINE
  5
479
330
1F
100
AcDbEntity
  8
LAYER-033
  6
Continuous
 62
     4
100
AcDbLine
 10
409.9686863592179
 20
237.8530707917751
 30
0.0
 11
414.9184338275237
 21
242.802818260081
 31
0.0
  0
LINE
  5
47A
330
1F
100
AcDbEntity
  8
LAYER-033
  6
Continuous
 62
     4
100
AcDbLine
 10
409.9686863592179
 20
232.9033233234693
 30
0.0
 11
419.297112082037
 21
242.2317490462884
 31
0.0
  0
LINE
  5
47B
330
1F
100
AcDbEntity
  8
LAYER-033
  6
Continuous
 62
     4
100
AcDbLine
 10
409.9686863592179
 20
227.9535758551635
 30
0.0
 11
419.297112082037
 21
237.2820015779826
 31
0.0
  0
LINE
  5
47C
330
1F
100
AcDbEntity
  8
LAYER-033
  6
Continuous
 62
     4
100
AcDbLine
 10
409.9686863592179
 20
223.0038283868576
 30
0.0
 11
419.297112082037
 21
232.3322541096768
 31
0.0
  0
LINE
  5
47D
330
1F
100
AcDbEntity
  8
LAYER-033
  6
Continuous
 62
     4
100
AcDbLine
 10
409.9686863592179
 20
218.0540809185518
 30
0.0
 11
419.297112082037
 21
227.3825066413709
 31
0.0
  0
LINE
  5
47E
330
1F
100
AcDbEntity
  8
LAYER-033
  6
Continuous
 62
     4
100
AcDbLine
 10
409.9686863592179
 20
213.1043334502459
 30
0.0
 11
419.297112082037
 21
222.4327591730651
 31
0.0
  0
LINE
  5
47F
330
1F
100
AcDbEntity
  8
LAYER-033
  6
Continuous
 62
     4
100
AcDbLine
 10
409.9686863592179
 20
208.1545859819401
 30
0.0
 11
419.297112082037
 21
217.4830117047592
 31
0.0
  0
LINE
  5
480
330
1F
100
AcDbEntity
  8
LAYER-033
  6
Continuous
 62
     4
100
AcDbLine
 10
409.9686863592179
 20
203.2048385136342
 30
0.0
 11
419.297112082037
 21
212.5332642364534
 31
0.0
  0
LINE
  5
481
330
1F
100
AcDbEntity
  8
LAYER-033
  6
Continuous
 62
     4
100
AcDbLine
 10
409.9686863592179
 20
198.2550910453284
 30
0.0
 11
419.297112082037
 21
207.5835167681475
 31
0.0
  0
LINE
  5
482
330
1F
100
AcDbEntity
  8
LAYER-033
  6
Continuous
 62
     4
100
AcDbLine
 10
409.9686863592179
 20
193.3053435770225
 30
0.0
 11
419.297112082037
 21
202.6337692998417
 31
0.0
  0
LINE
  5
483
330
1F
100
AcDbEntity
  8
LAYER-033
  6
Continuous
 62
     4
100
AcDbLine
 10
409.9686863592179
 20
188.3555961087167
 30
0.0
 11
419.297112082037
 21
197.6840218315358
 31
0.0
  0
LINE
  5
484
330
1F
100
AcDbEntity
  8
LAYER-033
  6
Continuous
 62
     4
100
AcDbLine
 10
409.9686863592179
 20
183.4058486404109
 30
0.0
 11
419.297112082037
 21
192.73427436323
 31
0.0
  0
LINE
  5
485
330
1F
100
AcDbEntity
  8
LAYER-033
  6
Continuous
 62
     4
100
AcDbLine
 10
409.9686863592179
 20
178.4561011723084
 30
0.0
 11
419.297112082037
 21
187.7845268951302
 31
0.0
  0
LINE
  5
486
330
1F
100
AcDbEntity
  8
LAYER-033
  6
Continuous
 62
     4
100
AcDbLine
 10
409.9686863592179
 20
173.5063537040052
 30
0.0
 11
419.297112082037
 21
182.8347794268244
 31
0.0
  0
LINE
  5
487
330
1F
100
AcDbEntity
  8
LAYER-033
  6
Continuous
 62
     4
100
AcDbLine
 10
409.9686863592179
 20
168.5566062356994
 30
0.0
 11
419.297112082037
 21
177.8850319585185
 31
0.0
  0
LINE
  5
488
330
1F
100
AcDbEntity
  8
LAYER-033
  6
Continuous
 62
     4
100
AcDbLine
 10
409.9686863592179
 20
163.6068587673935
 30
0.0
 11
419.297112082037
 21
172.9352844902127
 31
0.0
  0
LINE
  5
489
330
1F
100
AcDbEntity
  8
LAYER-033
  6
Continuous
 62
     4
100
AcDbLine
 10
409.9686863592179
 20
158.6571112990877
 30
0.0
 11
419.297112082037
 21
167.9855370219069
 31
0.0
  0
LINE
  5
48A
330
1F
100
AcDbEntity
  8
LAYER-033
  6
Continuous
 62
     4
100
AcDbLine
 10
409.9686863592179
 20
153.7073638307818
 30
0.0
 11
419.297112082037
 21
163.035789553601
 31
0.0
  0
LINE
  5
48B
330
1F
100
AcDbEntity
  8
LAYER-033
  6
Continuous
 62
     4
100
AcDbLine
 10
409.9686863592179
 20
148.757616362476
 30
0.0
 11
419.297112082037
 21
158.0860420852951
 31
0.0
  0
LINE
  5
48C
330
1F
100
AcDbEntity
  8
LAYER-033
  6
Continuous
 62
     4
100
AcDbLine
 10
409.9686863592179
 20
143.8078688941702
 30
0.0
 11
419.297112082037
 21
153.1362946169893
 31
0.0
  0
LINE
  5
48D
330
1F
100
AcDbEntity
  8
LAYER-033
  6
Continuous
 62
     4
100
AcDbLine
 10
409.9686863592179
 20
138.8581214258615
 30
0.0
 11
419.297112082037
 21
148.1865471486835
 31
0.0
  0
LINE
  5
48E
330
1F
100
AcDbEntity
  8
LAYER-033
  6
Continuous
 62
     4
100
AcDbLine
 10
409.9686863592179
 20
133.9083739575585
 30
0.0
 11
419.297112082037
 21
143.2367996803776
 31
0.0
  0
LINE
  5
48F
330
1F
100
AcDbEntity
  8
LAYER-033
  6
Continuous
 62
     4
100
AcDbLine
 10
409.9686863592179
 20
128.9586264892527
 30
0.0
 11
419.297112082037
 21
138.2870522120718
 31
0.0
  0
LINE
  5
490
330
1F
100
AcDbEntity
  8
LAYER-033
  6
Continuous
 62
     4
100
AcDbLine
 10
409.9686863592179
 20
124.0088790209468
 30
0.0
 11
419.297112082037
 21
133.3373047437659
 31
0.0
  0
LINE
  5
491
330
1F
100
AcDbEntity
  8
LAYER-033
  6
Continuous
 62
     4
100
AcDbLine
 10
409.9686863592179
 20
119.059131552641
 30
0.0
 11
419.297112082037
 21
128.3875572754601
 31
0.0
  0
LINE
  5
492
330
1F
100
AcDbEntity
  8
LAYER-033
  6
Continuous
 62
     4
100
AcDbLine
 10
409.9686863592179
 20
114.1093840843328
 30
0.0
 11
419.297112082037
 21
123.4378098071542
 31
0.0
  0
LINE
  5
493
330
1F
100
AcDbEntity
  8
LAYER-033
  6
Continuous
 62
     4
100
AcDbLine
 10
409.9686863592179
 20
109.1596366160293
 30
0.0
 11
419.297112082037
 21
118.4880623388484
 31
0.0
  0
LINE
  5
494
330
1F
100
AcDbEntity
  8
LAYER-033
  6
Continuous
 62
     4
100
AcDbLine
 10
409.9686863592179
 20
104.2098891477234
 30
0.0
 11
419.297112082037
 21
113.5383148705425
 31
0.0
  0
LINE
  5
495
330
1F
100
AcDbEntity
  8
LAYER-033
  6
Continuous
 62
     4
100
AcDbLine
 10
409.9686863592179
 20
99.26014167941759
 30
0.0
 11
419.297112082037
 21
108.5885674022367
 31
0.0
  0
LINE
  5
496
330
1F
100
AcDbEntity
  8
LAYER-033
  6
Continuous
 62
     4
100
AcDbLine
 10
413.3283806234871
 20
97.67008847538091
 30
0.0
 11
419.297112082037
 21
103.6388199339309
 31
0.0
  0
LINE
  5
497
330
1F
100
AcDbEntity
  8
LAYER-033
  6
Continuous
 62
     4
100
AcDbLine
 10
418.2781280917929
 20
97.67008847538091
 30
0.0
 11
419.297112082037
 21
98.689072465625
 31
0.0
  0
LINE
  5
498
330
1F
100
AcDbEntity
  8
LAYER-033
  6
Continuous
 62
     4
100
AcDbLine
 10
409.9686863592179
 20
102.6198359436868
 30
0.0
 11
414.9184338275238
 21
97.67008847538091
 31
0.0
  0
LINE
  5
499
330
1F
100
AcDbEntity
  8
LAYER-033
  6
Continuous
 62
     4
100
AcDbLine
 10
409.9686863592179
 20
107.5695834119926
 30
0.0
 11
419.297112082037
 21
98.24115768917349
 31
0.0
  0
LINE
  5
49A
330
1F
100
AcDbEntity
  8
LAYER-033
  6
Continuous
 62
     4
100
AcDbLine
 10
409.9686863592179
 20
112.5193308802985
 30
0.0
 11
419.297112082037
 21
103.1909051574794
 31
0.0
  0
LINE
  5
49B
330
1F
100
AcDbEntity
  8
LAYER-033
  6
Continuous
 62
     4
100
AcDbLine
 10
409.9686863592179
 20
117.4690783486043
 30
0.0
 11
419.297112082037
 21
108.1406526257852
 31
0.0
  0
LINE
  5
49C
330
1F
100
AcDbEntity
  8
LAYER-033
  6
Continuous
 62
     4
100
AcDbLine
 10
409.9686863592179
 20
122.4188258169102
 30
0.0
 11
419.297112082037
 21
113.0904000940911
 31
0.0
  0
LINE
  5
49D
330
1F
100
AcDbEntity
  8
LAYER-033
  6
Continuous
 62
     4
100
AcDbLine
 10
409.9686863592179
 20
127.3685732852161
 30
0.0
 11
419.297112082037
 21
118.0401475623969
 31
0.0
  0
LINE
  5
49E
330
1F
100
AcDbEntity
  8
LAYER-033
  6
Continuous
 62
     4
100
AcDbLine
 10
409.9686863592179
 20
132.3183207535219
 30
0.0
 11
419.297112082037
 21
122.9898950307028
 31
0.0
  0
LINE
  5
49F
330
1F
100
AcDbEntity
  8
LAYER-033
  6
Continuous
 62
     4
100
AcDbLine
 10
409.9686863592179
 20
137.2680682218278
 30
0.0
 11
419.297112082037
 21
127.9396424990086
 31
0.0
  0
LINE
  5
4A0
330
1F
100
AcDbEntity
  8
LAYER-033
  6
Continuous
 62
     4
100
AcDbLine
 10
409.9686863592179
 20
142.2178156901337
 30
0.0
 11
419.297112082037
 21
132.8893899673145
 31
0.0
  0
LINE
  5
4A1
330
1F
100
AcDbEntity
  8
LAYER-033
  6
Continuous
 62
     4
100
AcDbLine
 10
409.9686863592179
 20
147.1675631584395
 30
0.0
 11
419.297112082037
 21
137.8391374356204
 31
0.0
  0
LINE
  5
4A2
330
1F
100
AcDbEntity
  8
LAYER-033
  6
Continuous
 62
     4
100
AcDbLine
 10
409.9686863592179
 20
152.1173106267453
 30
0.0
 11
419.297112082037
 21
142.7888849039262
 31
0.0
  0
LINE
  5
4A3
330
1F
100
AcDbEntity
  8
LAYER-033
  6
Continuous
 62
     4
100
AcDbLine
 10
409.9686863592179
 20
157.0670580950512
 30
0.0
 11
419.297112082037
 21
147.7386323722321
 31
0.0
  0
LINE
  5
4A4
330
1F
100
AcDbEntity
  8
LAYER-033
  6
Continuous
 62
     4
100
AcDbLine
 10
409.9686863592179
 20
162.016805563151
 30
0.0
 11
419.297112082037
 21
152.6883798403319
 31
0.0
  0
LINE
  5
4A5
330
1F
100
AcDbEntity
  8
LAYER-033
  6
Continuous
 62
     4
100
AcDbLine
 10
409.9686863592179
 20
166.9665530314568
 30
0.0
 11
419.297112082037
 21
157.6381273086377
 31
0.0
  0
LINE
  5
4A6
330
1F
100
AcDbEntity
  8
LAYER-033
  6
Continuous
 62
     4
100
AcDbLine
 10
409.9686863592179
 20
171.9163004997627
 30
0.0
 11
419.297112082037
 21
162.5878747769435
 31
0.0
  0
LINE
  5
4A7
330
1F
100
AcDbEntity
  8
LAYER-033
  6
Continuous
 62
     4
100
AcDbLine
 10
409.9686863592179
 20
176.8660479680685
 30
0.0
 11
419.297112082037
 21
167.5376222452494
 31
0.0
  0
LINE
  5
4A8
330
1F
100
AcDbEntity
  8
LAYER-033
  6
Continuous
 62
     4
100
AcDbLine
 10
409.9686863592179
 20
181.8157954363744
 30
0.0
 11
419.297112082037
 21
172.4873697135552
 31
0.0
  0
LINE
  5
4A9
330
1F
100
AcDbEntity
  8
LAYER-033
  6
Continuous
 62
     4
100
AcDbLine
 10
409.9686863592179
 20
186.7655429046802
 30
0.0
 11
419.297112082037
 21
177.4371171818611
 31
0.0
  0
LINE
  5
4AA
330
1F
100
AcDbEntity
  8
LAYER-033
  6
Continuous
 62
     4
100
AcDbLine
 10
409.9686863592179
 20
191.715290372986
 30
0.0
 11
419.297112082037
 21
182.3868646501669
 31
0.0
  0
LINE
  5
4AB
330
1F
100
AcDbEntity
  8
LAYER-033
  6
Continuous
 62
     4
100
AcDbLine
 10
409.9686863592179
 20
196.6650378412919
 30
0.0
 11
419.297112082037
 21
187.3366121184728
 31
0.0
  0
LINE
  5
4AC
330
1F
100
AcDbEntity
  8
LAYER-033
  6
Continuous
 62
     4
100
AcDbLine
 10
409.9686863592179
 20
201.6147853095978
 30
0.0
 11
419.297112082037
 21
192.2863595867814
 31
0.0
  0
LINE
  5
4AD
330
1F
100
AcDbEntity
  8
LAYER-033
  6
Continuous
 62
     4
100
AcDbLine
 10
409.9686863592179
 20
206.5645327779036
 30
0.0
 11
419.297112082037
 21
197.2361070550845
 31
0.0
  0
LINE
  5
4AE
330
1F
100
AcDbEntity
  8
LAYER-033
  6
Continuous
 62
     4
100
AcDbLine
 10
409.9686863592179
 20
211.5142802462094
 30
0.0
 11
419.297112082037
 21
202.1858545233903
 31
0.0
  0
LINE
  5
4AF
330
1F
100
AcDbEntity
  8
LAYER-033
  6
Continuous
 62
     4
100
AcDbLine
 10
409.9686863592179
 20
216.4640277145153
 30
0.0
 11
419.297112082037
 21
207.1356019916962
 31
0.0
  0
LINE
  5
4B0
330
1F
100
AcDbEntity
  8
LAYER-033
  6
Continuous
 62
     4
100
AcDbLine
 10
409.9686863592179
 20
221.4137751828211
 30
0.0
 11
419.297112082037
 21
212.085349460002
 31
0.0
  0
LINE
  5
4B1
330
1F
100
AcDbEntity
  8
LAYER-033
  6
Continuous
 62
     4
100
AcDbLine
 10
409.9686863592179
 20
226.3635226511293
 30
0.0
 11
419.297112082037
 21
217.0350969283078
 31
0.0
  0
LINE
  5
4B2
330
1F
100
AcDbEntity
  8
LAYER-033
  6
Continuous
 62
     4
100
AcDbLine
 10
409.9686863592179
 20
231.3132701194328
 30
0.0
 11
419.297112082037
 21
221.9848443966137
 31
0.0
  0
LINE
  5
4B3
330
1F
100
AcDbEntity
  8
LAYER-033
  6
Continuous
 62
     4
100
AcDbLine
 10
409.9686863592179
 20
236.2630175877387
 30
0.0
 11
419.297112082037
 21
226.9345918649195
 31
0.0
  0
LINE
  5
4B4
330
1F
100
AcDbEntity
  8
LAYER-033
  6
Continuous
 62
     4
100
AcDbLine
 10
409.9686863592179
 20
241.2127650560445
 30
0.0
 11
419.297112082037
 21
231.8843393332253
 31
0.0
  0
LINE
  5
4B5
330
1F
100
AcDbEntity
  8
LAYER-033
  6
Continuous
 62
     4
100
AcDbLine
 10
413.3283806234873
 20
242.802818260081
 30
0.0
 11
419.297112082037
 21
236.8340868015312
 31
0.0
  0
LINE
  5
4B6
330
1F
100
AcDbEntity
  8
LAYER-033
  6
Continuous
 62
     4
100
AcDbLine
 10
418.2781280917931
 20
242.802818260081
 30
0.0
 11
419.297112082037
 21
241.7838342698371
 31
0.0
  0
LINE
  5
4B7
330
1F
100
AcDbEntity
  8
LAYER-033
  6
Continuous
 62
     4
100
AcDbLine
 10
-405.3321408239017
 20
247.1340612706549
 30
0.0
 11
-400.3823933555958
 21
252.0838087389607
 31
0.0
  0
LINE
  5
4B8
330
1F
100
AcDbEntity
  8
LAYER-033
  6
Continuous
 62
     4
100
AcDbLine
 10
-405.3321408239017
 20
242.184313802349
 30
0.0
 11
-395.9969386376354
 21
251.5195159886549
 31
0.0
  0
LINE
  5
4B9
330
1F
100
AcDbEntity
  8
LAYER-033
  6
Continuous
 62
     4
100
AcDbLine
 10
-405.3321408239017
 20
237.2345663340432
 30
0.0
 11
-395.9969386376354
 21
246.5697685203095
 31
0.0
  0
LINE
  5
4BA
330
1F
100
AcDbEntity
  8
LAYER-033
  6
Continuous
 62
     4
100
AcDbLine
 10
-405.3321408239017
 20
232.2848188657374
 30
0.0
 11
-395.9969386376354
 21
241.6200210520037
 31
0.0
  0
LINE
  5
4BB
330
1F
100
AcDbEntity
  8
LAYER-033
  6
Continuous
 62
     4
100
AcDbLine
 10
-405.3321408239017
 20
227.3350713974315
 30
0.0
 11
-395.9969386376354
 21
236.6702735836978
 31
0.0
  0
LINE
  5
4BC
330
1F
100
AcDbEntity
  8
LAYER-033
  6
Continuous
 62
     4
100
AcDbLine
 10
-405.3321408239017
 20
222.3853239291257
 30
0.0
 11
-395.9969386376354
 21
231.720526115392
 31
0.0
  0
LINE
  5
4BD
330
1F
100
AcDbEntity
  8
LAYER-033
  6
Continuous
 62
     4
100
AcDbLine
 10
-405.3321408239017
 20
217.4355764608198
 30
0.0
 11
-395.9969386376354
 21
226.7707786470861
 31
0.0
  0
LINE
  5
4BE
330
1F
100
AcDbEntity
  8
LAYER-033
  6
Continuous
 62
     4
100
AcDbLine
 10
-405.3321408239017
 20
212.485828992514
 30
0.0
 11
-395.9969386376354
 21
221.8210311787803
 31
0.0
  0
LINE
  5
4BF
330
1F
100
AcDbEntity
  8
LAYER-033
  6
Continuous
 62
     4
100
AcDbLine
 10
-405.3321408239017
 20
207.5360815242081
 30
0.0
 11
-395.9969386376354
 21
216.8712837104744
 31
0.0
  0
LINE
  5
4C0
330
1F
100
AcDbEntity
  8
LAYER-033
  6
Continuous
 62
     4
100
AcDbLine
 10
-405.3321408239017
 20
202.5863340559023
 30
0.0
 11
-395.9969386376354
 21
211.9215362421686
 31
0.0
  0
LINE
  5
4C1
330
1F
100
AcDbEntity
  8
LAYER-033
  6
Continuous
 62
     4
100
AcDbLine
 10
-405.3321408239017
 20
197.6365865875964
 30
0.0
 11
-395.9969386376354
 21
206.9717887738628
 31
0.0
  0
LINE
  5
4C2
330
1F
100
AcDbEntity
  8
LAYER-033
  6
Continuous
 62
     4
100
AcDbLine
 10
-405.3321408239017
 20
192.6868391192906
 30
0.0
 11
-395.9969386376354
 21
202.0220413055569
 31
0.0
  0
LINE
  5
4C3
330
1F
100
AcDbEntity
  8
LAYER-033
  6
Continuous
 62
     4
100
AcDbLine
 10
-400.6390084322522
 20
192.4302240426343
 30
0.0
 11
-395.9969386376354
 21
197.0722938372511
 31
0.0
  0
LINE
  5
4C4
330
1F
100
AcDbEntity
  8
LAYER-033
  6
Continuous
 62
     4
100
AcDbLine
 10
-405.3321408239017
 20
197.3799715109401
 30
0.0
 11
-400.3823933556354
 21
192.4302240426343
 31
0.0
  0
LINE
  5
4C5
330
1F
100
AcDbEntity
  8
LAYER-033
  6
Continuous
 62
     4
100
AcDbLine
 10
-405.3321408239017
 20
202.329718979246
 30
0.0
 11
-395.9969386376354
 21
192.9945167929401
 31
0.0
  0
LINE
  5
4C6
330
1F
100
AcDbEntity
  8
LAYER-033
  6
Continuous
 62
     4
100
AcDbLine
 10
-405.3321408239017
 20
207.2794664475518
 30
0.0
 11
-395.9969386376354
 21
197.9442642612855
 31
0.0
  0
LINE
  5
4C7
330
1F
100
AcDbEntity
  8
LAYER-033
  6
Continuous
 62
     4
100
AcDbLine
 10
-405.3321408239017
 20
212.2292139158577
 30
0.0
 11
-395.9969386376354
 21
202.8940117295913
 31
0.0
  0
LINE
  5
4C8
330
1F
100
AcDbEntity
  8
LAYER-033
  6
Continuous
 62
     4
100
AcDbLine
 10
-405.3321408239017
 20
217.1789613841635
 30
0.0
 11
-395.9969386376354
 21
207.8437591978972
 31
0.0
  0
LINE
  5
4C9
330
1F
100
AcDbEntity
  8
LAYER-033
  6
Continuous
 62
     4
100
AcDbLine
 10
-405.3321408239017
 20
222.1287088524693
 30
0.0
 11
-395.9969386376354
 21
212.793506666203
 31
0.0
  0
LINE
  5
4CA
330
1F
100
AcDbEntity
  8
LAYER-033
  6
Continuous
 62
     4
100
AcDbLine
 10
-405.3321408239017
 20
227.0784563207752
 30
0.0
 11
-395.9969386376354
 21
217.7432541345089
 31
0.0
  0
LINE
  5
4CB
330
1F
100
AcDbEntity
  8
LAYER-033
  6
Continuous
 62
     4
100
AcDbLine
 10
-405.3321408239017
 20
232.028203789081
 30
0.0
 11
-395.9969386376354
 21
222.6930016028147
 31
0.0
  0
LINE
  5
4CC
330
1F
100
AcDbEntity
  8
LAYER-033
  6
Continuous
 62
     4
100
AcDbLine
 10
-405.3321408239017
 20
236.9779512573869
 30
0.0
 11
-395.9969386376354
 21
227.6427490711206
 31
0.0
  0
LINE
  5
4CD
330
1F
100
AcDbEntity
  8
LAYER-033
  6
Continuous
 62
     4
100
AcDbLine
 10
-405.3321408239017
 20
241.9276987256927
 30
0.0
 11
-395.9969386376354
 21
232.5924965394264
 31
0.0
  0
LINE
  5
4CE
330
1F
100
AcDbEntity
  8
LAYER-033
  6
Continuous
 62
     4
100
AcDbLine
 10
-405.3321408239017
 20
246.8774461939986
 30
0.0
 11
-395.9969386376354
 21
237.5422440077323
 31
0.0
  0
LINE
  5
4CF
330
1F
100
AcDbEntity
  8
LAYER-033
  6
Continuous
 62
     4
100
AcDbLine
 10
-405.3321408239017
 20
251.8271936623044
 30
0.0
 11
-395.9969386376354
 21
242.4919914760381
 31
0.0
  0
LINE
  5
4D0
330
1F
100
AcDbEntity
  8
LAYER-033
  6
Continuous
 62
     4
100
AcDbLine
 10
-400.6390084321856
 20
252.0838087389607
 30
0.0
 11
-395.9969386376354
 21
247.4417389443439
 31
0.0
  0
LINE
  5
4D1
330
1F
100
AcDbEntity
  8
LAYER-033
  6
Continuous
 62
     4
100
AcDbLine
 10
-344.2047859529129
 20
247.1340612706549
 30
0.0
 11
-339.255038484607
 21
252.0838087389607
 31
0.0
  0
LINE
  5
4D2
330
1F
100
AcDbEntity
  8
LAYER-033
  6
Continuous
 62
     4
100
AcDbLine
 10
-344.2047859529129
 20
242.184313802349
 30
0.0
 11
-334.8695837666465
 21
251.5195159886549
 31
0.0
  0
LINE
  5
4D3
330
1F
100
AcDbEntity
  8
LAYER-033
  6
Continuous
 62
     4
100
AcDbLine
 10
-344.2047859529129
 20
237.2345663340432
 30
0.0
 11
-334.8695837666465
 21
246.5697685203095
 31
0.0
  0
LINE
  5
4D4
330
1F
100
AcDbEntity
  8
LAYER-033
  6
Continuous
 62
     4
100
AcDbLine
 10
-344.2047859529129
 20
232.2848188657374
 30
0.0
 11
-334.8695837666465
 21
241.6200210520037
 31
0.0
  0
LINE
  5
4D5
330
1F
100
AcDbEntity
  8
LAYER-033
  6
Continuous
 62
     4
100
AcDbLine
 10
-344.2047859529129
 20
227.3350713974315
 30
0.0
 11
-334.8695837666465
 21
236.6702735836978
 31
0.0
  0
LINE
  5
4D6
330
1F
100
AcDbEntity
  8
LAYER-033
  6
Continuous
 62
     4
100
AcDbLine
 10
-344.2047859529129
 20
222.3853239291257
 30
0.0
 11
-334.8695837666465
 21
231.720526115392
 31
0.0
  0
LINE
  5
4D7
330
1F
100
AcDbEntity
  8
LAYER-033
  6
Continuous
 62
     4
100
AcDbLine
 10
-344.2047859529129
 20
217.4355764608198
 30
0.0
 11
-334.8695837666465
 21
226.7707786470861
 31
0.0
  0
LINE
  5
4D8
330
1F
100
AcDbEntity
  8
LAYER-033
  6
Continuous
 62
     4
100
AcDbLine
 10
-344.2047859529129
 20
212.485828992514
 30
0.0
 11
-334.8695837666465
 21
221.8210311787803
 31
0.0
  0
LINE
  5
4D9
330
1F
100
AcDbEntity
  8
LAYER-033
  6
Continuous
 62
     4
100
AcDbLine
 10
-344.2047859529129
 20
207.5360815242081
 30
0.0
 11
-334.8695837666465
 21
216.8712837104744
 31
0.0
  0
LINE
  5
4DA
330
1F
100
AcDbEntity
  8
LAYER-033
  6
Continuous
 62
     4
100
AcDbLine
 10
-344.2047859529129
 20
202.5863340559023
 30
0.0
 11
-334.8695837666465
 21
211.9215362421686
 31
0.0
  0
LINE
  5
4DB
330
1F
100
AcDbEntity
  8
LAYER-033
  6
Continuous
 62
     4
100
AcDbLine
 10
-344.2047859529129
 20
197.6365865875964
 30
0.0
 11
-334.8695837666465
 21
206.9717887738628
 31
0.0
  0
LINE
  5
4DC
330
1F
100
AcDbEntity
  8
LAYER-033
  6
Continuous
 62
     4
100
AcDbLine
 10
-344.2047859529129
 20
192.6868391192906
 30
0.0
 11
-334.8695837666465
 21
202.0220413055569
 31
0.0
  0
LINE
  5
4DD
330
1F
100
AcDbEntity
  8
LAYER-033
  6
Continuous
 62
     4
100
AcDbLine
 10
-339.5116535612634
 20
192.4302240426343
 30
0.0
 11
-334.8695837666465
 21
197.0722938372511
 31
0.0
  0
LINE
  5
4DE
330
1F
100
AcDbEntity
  8
LAYER-033
  6
Continuous
 62
     4
100
AcDbLine
 10
-344.2047859529129
 20
197.3799715109401
 30
0.0
 11
-339.2550384846466
 21
192.4302240426343
 31
0.0
  0
LINE
  5
4DF
330
1F
100
AcDbEntity
  8
LAYER-033
  6
Continuous
 62
     4
100
AcDbLine
 10
-344.2047859529129
 20
202.329718979246
 30
0.0
 11
-334.8695837666465
 21
192.9945167929401
 31
0.0
  0
LINE
  5
4E0
330
1F
100
AcDbEntity
  8
LAYER-033
  6
Continuous
 62
     4
100
AcDbLine
 10
-344.2047859529129
 20
207.2794664475518
 30
0.0
 11
-334.8695837666465
 21
197.9442642612855
 31
0.0
  0
LINE
  5
4E1
330
1F
100
AcDbEntity
  8
LAYER-033
  6
Continuous
 62
     4
100
AcDbLine
 10
-344.2047859529129
 20
212.2292139158577
 30
0.0
 11
-334.8695837666465
 21
202.8940117295913
 31
0.0
  0
LINE
  5
4E2
330
1F
100
AcDbEntity
  8
LAYER-033
  6
Continuous
 62
     4
100
AcDbLine
 10
-344.2047859529129
 20
217.1789613841635
 30
0.0
 11
-334.8695837666465
 21
207.8437591978972
 31
0.0
  0
LINE
  5
4E3
330
1F
100
AcDbEntity
  8
LAYER-033
  6
Continuous
 62
     4
100
AcDbLine
 10
-344.2047859529129
 20
222.1287088524693
 30
0.0
 11
-334.8695837666465
 21
212.793506666203
 31
0.0
  0
LINE
  5
4E4
330
1F
100
AcDbEntity
  8
LAYER-033
  6
Continuous
 62
     4
100
AcDbLine
 10
-344.2047859529129
 20
227.0784563207752
 30
0.0
 11
-334.8695837666465
 21
217.7432541345089
 31
0.0
  0
LINE
  5
4E5
330
1F
100
AcDbEntity
  8
LAYER-033
  6
Continuous
 62
     4
100
AcDbLine
 10
-344.2047859529129
 20
232.028203789081
 30
0.0
 11
-334.8695837666465
 21
222.6930016028147
 31
0.0
  0
LINE
  5
4E6
330
1F
100
AcDbEntity
  8
LAYER-033
  6
Continuous
 62
     4
100
AcDbLine
 10
-344.2047859529129
 20
236.9779512573869
 30
0.0
 11
-334.8695837666465
 21
227.6427490711206
 31
0.0
  0
LINE
  5
4E7
330
1F
100
AcDbEntity
  8
LAYER-033
  6
Continuous
 62
     4
100
AcDbLine
 10
-344.2047859529129
 20
241.9276987256927
 30
0.0
 11
-334.8695837666465
 21
232.5924965394264
 31
0.0
  0
LINE
  5
4E8
330
1F
100
AcDbEntity
  8
LAYER-033
  6
Continuous
 62
     4
100
AcDbLine
 10
-344.2047859529129
 20
246.8774461939986
 30
0.0
 11
-334.8695837666465
 21
237.5422440077323
 31
0.0
  0
LINE
  5
4E9
330
1F
100
AcDbEntity
  8
LAYER-033
  6
Continuous
 62
     4
100
AcDbLine
 10
-344.2047859529129
 20
251.8271936623044
 30
0.0
 11
-334.8695837666465
 21
242.4919914760381
 31
0.0
  0
LINE
  5
4EA
330
1F
100
AcDbEntity
  8
LAYER-033
  6
Continuous
 62
     4
100
AcDbLine
 10
-339.5116535611967
 20
252.0838087389607
 30
0.0
 11
-334.8695837666465
 21
247.4417389443439
 31
0.0
  0
LINE
  5
4EB
330
1F
100
AcDbEntity
  8
LAYER-033
  6
Continuous
 62
     4
100
AcDbLine
 10
-283.0774310819237
 20
247.1340612706549
 30
0.0
 11
-278.1276836136178
 21
252.0838087389607
 31
0.0
  0
LINE
  5
4EC
330
1F
100
AcDbEntity
  8
LAYER-033
  6
Continuous
 62
     4
100
AcDbLine
 10
-283.0774310819237
 20
242.184313802349
 30
0.0
 11
-273.7422288956576
 21
251.5195159886549
 31
0.0
  0
LINE
  5
4ED
330
1F
100
AcDbEntity
  8
LAYER-033
  6
Continuous
 62
     4
100
AcDbLine
 10
-283.0774310819237
 20
237.2345663340432
 30
0.0
 11
-273.7422288956576
 21
246.5697685203093
 31
0.0
  0
LINE
  5
4EE
330
1F
100
AcDbEntity
  8
LAYER-033
  6
Continuous
 62
     4
100
AcDbLine
 10
-283.0774310819237
 20
232.2848188657374
 30
0.0
 11
-273.7422288956576
 21
241.6200210520034
 31
0.0
  0
LINE
  5
4EF
330
1F
100
AcDbEntity
  8
LAYER-033
  6
Continuous
 62
     4
100
AcDbLine
 10
-283.0774310819237
 20
227.3350713974315
 30
0.0
 11
-273.7422288956576
 21
236.6702735836976
 31
0.0
  0
LINE
  5
4F0
330
1F
100
AcDbEntity
  8
LAYER-033
  6
Continuous
 62
     4
100
AcDbLine
 10
-283.0774310819237
 20
222.3853239291257
 30
0.0
 11
-273.7422288956576
 21
231.7205261153918
 31
0.0
  0
LINE
  5
4F1
330
1F
100
AcDbEntity
  8
LAYER-033
  6
Continuous
 62
     4
100
AcDbLine
 10
-283.0774310819237
 20
217.4355764608198
 30
0.0
 11
-273.7422288956576
 21
226.7707786470859
 31
0.0
  0
LINE
  5
4F2
330
1F
100
AcDbEntity
  8
LAYER-033
  6
Continuous
 62
     4
100
AcDbLine
 10
-283.0774310819237
 20
212.485828992514
 30
0.0
 11
-273.7422288956576
 21
221.8210311787801
 31
0.0
  0
LINE
  5
4F3
330
1F
100
AcDbEntity
  8
LAYER-033
  6
Continuous
 62
     4
100
AcDbLine
 10
-283.0774310819237
 20
207.5360815242081
 30
0.0
 11
-273.7422288956576
 21
216.8712837104742
 31
0.0
  0
LINE
  5
4F4
330
1F
100
AcDbEntity
  8
LAYER-033
  6
Continuous
 62
     4
100
AcDbLine
 10
-283.0774310819237
 20
202.5863340559023
 30
0.0
 11
-273.7422288956576
 21
211.9215362421684
 31
0.0
  0
LINE
  5
4F5
330
1F
100
AcDbEntity
  8
LAYER-033
  6
Continuous
 62
     4
100
AcDbLine
 10
-283.0774310819237
 20
197.6365865875965
 30
0.0
 11
-273.7422288956576
 21
206.9717887738626
 31
0.0
  0
LINE
  5
4F6
330
1F
100
AcDbEntity
  8
LAYER-033
  6
Continuous
 62
     4
100
AcDbLine
 10
-283.0774310819237
 20
192.6868391192907
 30
0.0
 11
-273.7422288956576
 21
202.0220413055567
 31
0.0
  0
LINE
  5
4F7
330
1F
100
AcDbEntity
  8
LAYER-033
  6
Continuous
 62
     4
100
AcDbLine
 10
-278.3842986902743
 20
192.4302240426343
 30
0.0
 11
-273.7422288956576
 21
197.0722938372509
 31
0.0
  0
LINE
  5
4F8
330
1F
100
AcDbEntity
  8
LAYER-033
  6
Continuous
 62
     4
100
AcDbLine
 10
-283.0774310819237
 20
197.3799715109401
 30
0.0
 11
-278.1276836136576
 21
192.4302240426343
 31
0.0
  0
LINE
  5
4F9
330
1F
100
AcDbEntity
  8
LAYER-033
  6
Continuous
 62
     4
100
AcDbLine
 10
-283.0774310819237
 20
202.329718979246
 30
0.0
 11
-273.7422288956576
 21
192.9945167929401
 31
0.0
  0
LINE
  5
4FA
330
1F
100
AcDbEntity
  8
LAYER-033
  6
Continuous
 62
     4
100
AcDbLine
 10
-283.0774310819237
 20
207.2794664475518
 30
0.0
 11
-273.7422288956576
 21
197.9442642612857
 31
0.0
  0
LINE
  5
4FB
330
1F
100
AcDbEntity
  8
LAYER-033
  6
Continuous
 62
     4
100
AcDbLine
 10
-283.0774310819237
 20
212.2292139158577
 30
0.0
 11
-273.7422288956576
 21
202.8940117295916
 31
0.0
  0
LINE
  5
4FC
330
1F
100
AcDbEntity
  8
LAYER-033
  6
Continuous
 62
     4
100
AcDbLine
 10
-283.0774310819237
 20
217.1789613841635
 30
0.0
 11
-273.7422288956576
 21
207.8437591978974
 31
0.0
  0
LINE
  5
4FD
330
1F
100
AcDbEntity
  8
LAYER-033
  6
Continuous
 62
     4
100
AcDbLine
 10
-283.0774310819237
 20
222.1287088524693
 30
0.0
 11
-273.7422288956576
 21
212.7935066662033
 31
0.0
  0
LINE
  5
4FE
330
1F
100
AcDbEntity
  8
LAYER-033
  6
Continuous
 62
     4
100
AcDbLine
 10
-283.0774310819237
 20
227.0784563207752
 30
0.0
 11
-273.7422288956576
 21
217.7432541345091
 31
0.0
  0
LINE
  5
4FF
330
1F
100
AcDbEntity
  8
LAYER-033
  6
Continuous
 62
     4
100
AcDbLine
 10
-283.0774310819237
 20
232.028203789081
 30
0.0
 11
-273.7422288956576
 21
222.693001602815
 31
0.0
  0
LINE
  5
500
330
1F
100
AcDbEntity
  8
LAYER-033
  6
Continuous
 62
     4
100
AcDbLine
 10
-283.0774310819237
 20
236.9779512573869
 30
0.0
 11
-273.7422288956576
 21
227.6427490711208
 31
0.0
  0
LINE
  5
501
330
1F
100
AcDbEntity
  8
LAYER-033
  6
Continuous
 62
     4
100
AcDbLine
 10
-283.0774310819237
 20
241.9276987256927
 30
0.0
 11
-273.7422288956576
 21
232.5924965394266
 31
0.0
  0
LINE
  5
502
330
1F
100
AcDbEntity
  8
LAYER-033
  6
Continuous
 62
     4
100
AcDbLine
 10
-283.0774310819237
 20
246.8774461939985
 30
0.0
 11
-273.7422288956576
 21
237.5422440077325
 31
0.0
  0
LINE
  5
503
330
1F
100
AcDbEntity
  8
LAYER-033
  6
Continuous
 62
     4
100
AcDbLine
 10
-283.0774310819237
 20
251.8271936623044
 30
0.0
 11
-273.7422288956576
 21
242.4919914760383
 31
0.0
  0
LINE
  5
504
330
1F
100
AcDbEntity
  8
LAYER-033
  6
Continuous
 62
     4
100
AcDbLine
 10
-278.3842986902068
 20
252.0838087389607
 30
0.0
 11
-273.7422288956576
 21
247.4417389443441
 31
0.0
  0
LINE
  5
505
330
1F
100
AcDbEntity
  8
LAYER-033
  6
Continuous
 62
     4
100
AcDbLine
 10
-221.9500762109348
 20
247.1340612706549
 30
0.0
 11
-217.0003287426289
 21
252.0838087389607
 31
0.0
  0
LINE
  5
506
330
1F
100
AcDbEntity
  8
LAYER-033
  6
Continuous
 62
     4
100
AcDbLine
 10
-221.9500762109348
 20
242.1843138023491
 30
0.0
 11
-212.6148740246687
 21
251.5195159886549
 31
0.0
  0
LINE
  5
507
330
1F
100
AcDbEntity
  8
LAYER-033
  6
Continuous
 62
     4
100
AcDbLine
 10
-221.9500762109348
 20
237.2345663340433
 30
0.0
 11
-212.6148740246687
 21
246.5697685203094
 31
0.0
  0
LINE
  5
508
330
1F
100
AcDbEntity
  8
LAYER-033
  6
Continuous
 62
     4
100
AcDbLine
 10
-221.9500762109348
 20
232.2848188657375
 30
0.0
 11
-212.6148740246687
 21
241.6200210520036
 31
0.0
  0
LINE
  5
509
330
1F
100
AcDbEntity
  8
LAYER-033
  6
Continuous
 62
     4
100
AcDbLine
 10
-221.9500762109348
 20
227.3350713974317
 30
0.0
 11
-212.6148740246687
 21
236.6702735836977
 31
0.0
  0
LINE
  5
50A
330
1F
100
AcDbEntity
  8
LAYER-033
  6
Continuous
 62
     4
100
AcDbLine
 10
-221.9500762109348
 20
222.3853239291258
 30
0.0
 11
-212.6148740246687
 21
231.7205261153919
 31
0.0
  0
LINE
  5
50B
330
1F
100
AcDbEntity
  8
LAYER-033
  6
Continuous
 62
     4
100
AcDbLine
 10
-221.9500762109348
 20
217.43557646082
 30
0.0
 11
-212.6148740246687
 21
226.7707786470861
 31
0.0
  0
LINE
  5
50C
330
1F
100
AcDbEntity
  8
LAYER-033
  6
Continuous
 62
     4
100
AcDbLine
 10
-221.9500762109348
 20
212.4858289925142
 30
0.0
 11
-212.6148740246687
 21
221.8210311787803
 31
0.0
  0
LINE
  5
50D
330
1F
100
AcDbEntity
  8
LAYER-033
  6
Continuous
 62
     4
100
AcDbLine
 10
-221.9500762109348
 20
207.5360815242084
 30
0.0
 11
-212.6148740246687
 21
216.8712837104745
 31
0.0
  0
LINE
  5
50E
330
1F
100
AcDbEntity
  8
LAYER-033
  6
Continuous
 62
     4
100
AcDbLine
 10
-221.9500762109348
 20
202.5863340559026
 30
0.0
 11
-212.6148740246687
 21
211.9215362421687
 31
0.0
  0
LINE
  5
50F
330
1F
100
AcDbEntity
  8
LAYER-033
  6
Continuous
 62
     4
100
AcDbLine
 10
-221.9500762109348
 20
197.6365865875968
 30
0.0
 11
-212.6148740246687
 21
206.9717887738628
 31
0.0
  0
LINE
  5
510
330
1F
100
AcDbEntity
  8
LAYER-033
  6
Continuous
 62
     4
100
AcDbLine
 10
-221.9500762109348
 20
192.6868391192909
 30
0.0
 11
-212.6148740246687
 21
202.022041305557
 31
0.0
  0
LINE
  5
511
330
1F
100
AcDbEntity
  8
LAYER-033
  6
Continuous
 62
     4
100
AcDbLine
 10
-217.2569438193387
 20
192.4302240426343
 30
0.0
 11
-212.6148740246687
 21
197.0722938373043
 31
0.0
  0
LINE
  5
512
330
1F
100
AcDbEntity
  8
LAYER-033
  6
Continuous
 62
     4
100
AcDbLine
 10
-221.9500762109348
 20
197.3799715109401
 30
0.0
 11
-217.0003287426687
 21
192.4302240426343
 31
0.0
  0
LINE
  5
513
330
1F
100
AcDbEntity
  8
LAYER-033
  6
Continuous
 62
     4
100
AcDbLine
 10
-221.9500762109348
 20
202.3297189792459
 30
0.0
 11
-212.6148740246687
 21
192.9945167929401
 31
0.0
  0
LINE
  5
514
330
1F
100
AcDbEntity
  8
LAYER-033
  6
Continuous
 62
     4
100
AcDbLine
 10
-221.9500762109348
 20
207.2794664475517
 30
0.0
 11
-212.6148740246687
 21
197.9442642612856
 31
0.0
  0
LINE
  5
515
330
1F
100
AcDbEntity
  8
LAYER-033
  6
Continuous
 62
     4
100
AcDbLine
 10
-221.9500762109348
 20
212.2292139158575
 30
0.0
 11
-212.6148740246687
 21
202.8940117295915
 31
0.0
  0
LINE
  5
516
330
1F
100
AcDbEntity
  8
LAYER-033
  6
Continuous
 62
     4
100
AcDbLine
 10
-221.9500762109348
 20
217.1789613841634
 30
0.0
 11
-212.6148740246687
 21
207.8437591978973
 31
0.0
  0
LINE
  5
517
330
1F
100
AcDbEntity
  8
LAYER-033
  6
Continuous
 62
     4
100
AcDbLine
 10
-221.9500762109348
 20
222.1287088524692
 30
0.0
 11
-212.6148740246687
 21
212.7935066662031
 31
0.0
  0
LINE
  5
518
330
1F
100
AcDbEntity
  8
LAYER-033
  6
Continuous
 62
     4
100
AcDbLine
 10
-221.9500762109348
 20
227.078456320775
 30
0.0
 11
-212.6148740246687
 21
217.7432541345089
 31
0.0
  0
LINE
  5
519
330
1F
100
AcDbEntity
  8
LAYER-033
  6
Continuous
 62
     4
100
AcDbLine
 10
-221.9500762109348
 20
232.0282037890808
 30
0.0
 11
-212.6148740246687
 21
222.6930016028147
 31
0.0
  0
LINE
  5
51A
330
1F
100
AcDbEntity
  8
LAYER-033
  6
Continuous
 62
     4
100
AcDbLine
 10
-221.9500762109348
 20
236.9779512573866
 30
0.0
 11
-212.6148740246687
 21
227.6427490711205
 31
0.0
  0
LINE
  5
51B
330
1F
100
AcDbEntity
  8
LAYER-033
  6
Continuous
 62
     4
100
AcDbLine
 10
-221.9500762109348
 20
241.9276987256924
 30
0.0
 11
-212.6148740246687
 21
232.5924965394264
 31
0.0
  0
LINE
  5
51C
330
1F
100
AcDbEntity
  8
LAYER-033
  6
Continuous
 62
     4
100
AcDbLine
 10
-221.9500762109348
 20
246.8774461939983
 30
0.0
 11
-212.6148740246687
 21
237.5422440077322
 31
0.0
  0
LINE
  5
51D
330
1F
100
AcDbEntity
  8
LAYER-033
  6
Continuous
 62
     4
100
AcDbLine
 10
-221.9500762109348
 20
251.8271936623041
 30
0.0
 11
-212.6148740246687
 21
242.491991476038
 31
0.0
  0
LINE
  5
51E
330
1F
100
AcDbEntity
  8
LAYER-033
  6
Continuous
 62
     4
100
AcDbLine
 10
-217.2569438193387
 20
252.0838087389607
 30
0.0
 11
-212.6148740246687
 21
247.4417389442907
 31
0.0
  0
LINE
  5
51F
330
1F
100
AcDbEntity
  8
LAYER-033
  6
Continuous
 62
     4
100
AcDbLine
 10
-160.8227213399458
 20
247.1340612706549
 30
0.0
 11
-155.87297387164
 21
252.0838087389607
 31
0.0
  0
LINE
  5
520
330
1F
100
AcDbEntity
  8
LAYER-033
  6
Continuous
 62
     4
100
AcDbLine
 10
-160.8227213399458
 20
242.1843138023491
 30
0.0
 11
-151.4875191536797
 21
251.5195159886549
 31
0.0
  0
LINE
  5
521
330
1F
100
AcDbEntity
  8
LAYER-033
  6
Continuous
 62
     4
100
AcDbLine
 10
-160.8227213399458
 20
237.2345663340433
 30
0.0
 11
-151.4875191536797
 21
246.5697685203094
 31
0.0
  0
LINE
  5
522
330
1F
100
AcDbEntity
  8
LAYER-033
  6
Continuous
 62
     4
100
AcDbLine
 10
-160.8227213399458
 20
232.2848188657375
 30
0.0
 11
-151.4875191536797
 21
241.6200210520036
 31
0.0
  0
LINE
  5
523
330
1F
100
AcDbEntity
  8
LAYER-033
  6
Continuous
 62
     4
100
AcDbLine
 10
-160.8227213399458
 20
227.3350713974317
 30
0.0
 11
-151.4875191536797
 21
236.6702735836977
 31
0.0
  0
LINE
  5
524
330
1F
100
AcDbEntity
  8
LAYER-033
  6
Continuous
 62
     4
100
AcDbLine
 10
-160.8227213399458
 20
222.3853239291258
 30
0.0
 11
-151.4875191536797
 21
231.7205261153919
 31
0.0
  0
LINE
  5
525
330
1F
100
AcDbEntity
  8
LAYER-033
  6
Continuous
 62
     4
100
AcDbLine
 10
-160.8227213399458
 20
217.43557646082
 30
0.0
 11
-151.4875191536797
 21
226.7707786470861
 31
0.0
  0
LINE
  5
526
330
1F
100
AcDbEntity
  8
LAYER-033
  6
Continuous
 62
     4
100
AcDbLine
 10
-160.8227213399458
 20
212.4858289925142
 30
0.0
 11
-151.4875191536797
 21
221.8210311787803
 31
0.0
  0
LINE
  5
527
330
1F
100
AcDbEntity
  8
LAYER-033
  6
Continuous
 62
     4
100
AcDbLine
 10
-160.8227213399458
 20
207.5360815242084
 30
0.0
 11
-151.4875191536797
 21
216.8712837104745
 31
0.0
  0
LINE
  5
528
330
1F
100
AcDbEntity
  8
LAYER-033
  6
Continuous
 62
     4
100
AcDbLine
 10
-160.8227213399458
 20
202.5863340559026
 30
0.0
 11
-151.4875191536797
 21
211.9215362421687
 31
0.0
  0
LINE
  5
529
330
1F
100
AcDbEntity
  8
LAYER-033
  6
Continuous
 62
     4
100
AcDbLine
 10
-160.8227213399458
 20
197.6365865875968
 30
0.0
 11
-151.4875191536797
 21
206.9717887738628
 31
0.0
  0
LINE
  5
52A
330
1F
100
AcDbEntity
  8
LAYER-033
  6
Continuous
 62
     4
100
AcDbLine
 10
-160.8227213399458
 20
192.6868391192909
 30
0.0
 11
-151.4875191536797
 21
202.022041305557
 31
0.0
  0
LINE
  5
52B
330
1F
100
AcDbEntity
  8
LAYER-033
  6
Continuous
 62
     4
100
AcDbLine
 10
-156.1295889482967
 20
192.4302240426343
 30
0.0
 11
-151.4875191536797
 21
197.0722938372512
 31
0.0
  0
LINE
  5
52C
330
1F
100
AcDbEntity
  8
LAYER-033
  6
Continuous
 62
     4
100
AcDbLine
 10
-160.8227213399458
 20
197.3799715109401
 30
0.0
 11
-155.8729738716797
 21
192.4302240426343
 31
0.0
  0
LINE
  5
52D
330
1F
100
AcDbEntity
  8
LAYER-033
  6
Continuous
 62
     4
100
AcDbLine
 10
-160.8227213399458
 20
202.3297189792459
 30
0.0
 11
-151.4875191536797
 21
192.9945167929401
 31
0.0
  0
LINE
  5
52E
330
1F
100
AcDbEntity
  8
LAYER-033
  6
Continuous
 62
     4
100
AcDbLine
 10
-160.8227213399458
 20
207.2794664475517
 30
0.0
 11
-151.4875191536797
 21
197.9442642612856
 31
0.0
  0
LINE
  5
52F
330
1F
100
AcDbEntity
  8
LAYER-033
  6
Continuous
 62
     4
100
AcDbLine
 10
-160.8227213399458
 20
212.2292139158575
 30
0.0
 11
-151.4875191536797
 21
202.8940117295915
 31
0.0
  0
LINE
  5
530
330
1F
100
AcDbEntity
  8
LAYER-033
  6
Continuous
 62
     4
100
AcDbLine
 10
-160.8227213399458
 20
217.1789613841634
 30
0.0
 11
-151.4875191536797
 21
207.8437591978973
 31
0.0
  0
LINE
  5
531
330
1F
100
AcDbEntity
  8
LAYER-033
  6
Continuous
 62
     4
100
AcDbLine
 10
-160.8227213399458
 20
222.1287088524692
 30
0.0
 11
-151.4875191536797
 21
212.7935066662031
 31
0.0
  0
LINE
  5
532
330
1F
100
AcDbEntity
  8
LAYER-033
  6
Continuous
 62
     4
100
AcDbLine
 10
-160.8227213399458
 20
227.078456320775
 30
0.0
 11
-151.4875191536797
 21
217.7432541345089
 31
0.0
  0
LINE
  5
533
330
1F
100
AcDbEntity
  8
LAYER-033
  6
Continuous
 62
     4
100
AcDbLine
 10
-160.8227213399458
 20
232.0282037890808
 30
0.0
 11
-151.4875191536797
 21
222.6930016028147
 31
0.0
  0
LINE
  5
534
330
1F
100
AcDbEntity
  8
LAYER-033
  6
Continuous
 62
     4
100
AcDbLine
 10
-160.8227213399458
 20
236.9779512573866
 30
0.0
 11
-151.4875191536797
 21
227.6427490711205
 31
0.0
  0
LINE
  5
535
330
1F
100
AcDbEntity
  8
LAYER-033
  6
Continuous
 62
     4
100
AcDbLine
 10
-160.8227213399458
 20
241.9276987256924
 30
0.0
 11
-151.4875191536797
 21
232.5924965394264
 31
0.0
  0
LINE
  5
536
330
1F
100
AcDbEntity
  8
LAYER-033
  6
Continuous
 62
     4
100
AcDbLine
 10
-160.8227213399458
 20
246.8774461939983
 30
0.0
 11
-151.4875191536797
 21
237.5422440077322
 31
0.0
  0
LINE
  5
537
330
1F
100
AcDbEntity
  8
LAYER-033
  6
Continuous
 62
     4
100
AcDbLine
 10
-160.8227213399458
 20
251.8271936623041
 30
0.0
 11
-151.4875191536797
 21
242.491991476038
 31
0.0
  0
LINE
  5
538
330
1F
100
AcDbEntity
  8
LAYER-033
  6
Continuous
 62
     4
100
AcDbLine
 10
-156.1295889482289
 20
252.0838087389607
 30
0.0
 11
-151.4875191536797
 21
247.4417389443438
 31
0.0
  0
LINE
  5
539
330
1F
100
AcDbEntity
  8
LAYER-033
  6
Continuous
 62
     4
100
AcDbLine
 10
-99.6953664689571
 20
247.1340612706549
 30
0.0
 11
-94.74561900065127
 21
252.0838087389607
 31
0.0
  0
LINE
  5
53A
330
1F
100
AcDbEntity
  8
LAYER-033
  6
Continuous
 62
     4
100
AcDbLine
 10
-99.6953664689571
 20
242.1843138023491
 30
0.0
 11
-90.36016428269073
 21
251.5195159886549
 31
0.0
  0
LINE
  5
53B
330
1F
100
AcDbEntity
  8
LAYER-033
  6
Continuous
 62
     4
100
AcDbLine
 10
-99.6953664689571
 20
237.2345663340432
 30
0.0
 11
-90.36016428269073
 21
246.5697685203096
 31
0.0
  0
LINE
  5
53C
330
1F
100
AcDbEntity
  8
LAYER-033
  6
Continuous
 62
     4
100
AcDbLine
 10
-99.6953664689571
 20
232.2848188657374
 30
0.0
 11
-90.36016428269073
 21
241.6200210520038
 31
0.0
  0
LINE
  5
53D
330
1F
100
AcDbEntity
  8
LAYER-033
  6
Continuous
 62
     4
100
AcDbLine
 10
-99.6953664689571
 20
227.3350713972391
 30
0.0
 11
-90.36016428269073
 21
236.6702735835054
 31
0.0
  0
LINE
  5
53E
330
1F
100
AcDbEntity
  8
LAYER-033
  6
Continuous
 62
     4
100
AcDbLine
 10
-99.6953664689571
 20
222.3853239289333
 30
0.0
 11
-90.36016428269073
 21
231.7205261151996
 31
0.0
  0
LINE
  5
53F
330
1F
100
AcDbEntity
  8
LAYER-033
  6
Continuous
 62
     4
100
AcDbLine
 10
-99.6953664689571
 20
217.4355764606274
 30
0.0
 11
-90.36016428269073
 21
226.7707786468938
 31
0.0
  0
LINE
  5
540
330
1F
100
AcDbEntity
  8
LAYER-033
  6
Continuous
 62
     4
100
AcDbLine
 10
-99.6953664689571
 20
212.4858289923216
 30
0.0
 11
-90.36016428269073
 21
221.821031178588
 31
0.0
  0
LINE
  5
541
330
1F
100
AcDbEntity
  8
LAYER-033
  6
Continuous
 62
     4
100
AcDbLine
 10
-99.6953664689571
 20
207.5360815240158
 30
0.0
 11
-90.36016428269073
 21
216.8712837102821
 31
0.0
  0
LINE
  5
542
330
1F
100
AcDbEntity
  8
LAYER-033
  6
Continuous
 62
     4
100
AcDbLine
 10
-99.6953664689571
 20
202.5863340557099
 30
0.0
 11
-90.36016428269073
 21
211.9215362419763
 31
0.0
  0
LINE
  5
543
330
1F
100
AcDbEntity
  8
LAYER-033
  6
Continuous
 62
     4
100
AcDbLine
 10
-99.6953664689571
 20
197.6365865874041
 30
0.0
 11
-90.36016428269073
 21
206.9717887736705
 31
0.0
  0
LINE
  5
544
330
1F
100
AcDbEntity
  8
LAYER-033
  6
Continuous
 62
     4
100
AcDbLine
 10
-99.6953664689571
 20
192.6868391190983
 30
0.0
 11
-90.36016428269073
 21
202.0220413053646
 31
0.0
  0
LINE
  5
545
330
1F
100
AcDbEntity
  8
LAYER-033
  6
Continuous
 62
     4
100
AcDbLine
 10
-95.00223407711526
 20
192.4302240426343
 30
0.0
 11
-90.36016428269073
 21
197.0722938370588
 31
0.0
  0
LINE
  5
546
330
1F
100
AcDbEntity
  8
LAYER-033
  6
Continuous
 62
     4
100
AcDbLine
 10
-99.6953664689571
 20
197.3799715109401
 30
0.0
 11
-94.74561900069074
 21
192.4302240426343
 31
0.0
  0
LINE
  5
547
330
1F
100
AcDbEntity
  8
LAYER-033
  6
Continuous
 62
     4
100
AcDbLine
 10
-99.6953664689571
 20
202.3297189792459
 30
0.0
 11
-90.36016428269073
 21
192.9945167929401
 31
0.0
  0
LINE
  5
548
330
1F
100
AcDbEntity
  8
LAYER-033
  6
Continuous
 62
     4
100
AcDbLine
 10
-99.6953664689571
 20
207.2794664475518
 30
0.0
 11
-90.36016428269073
 21
197.9442642612854
 31
0.0
  0
LINE
  5
549
330
1F
100
AcDbEntity
  8
LAYER-033
  6
Continuous
 62
     4
100
AcDbLine
 10
-99.6953664689571
 20
212.2292139158576
 30
0.0
 11
-90.36016428269073
 21
202.8940117295912
 31
0.0
  0
LINE
  5
54A
330
1F
100
AcDbEntity
  8
LAYER-033
  6
Continuous
 62
     4
100
AcDbLine
 10
-99.6953664689571
 20
217.1789613843559
 30
0.0
 11
-90.36016428269073
 21
207.8437591980896
 31
0.0
  0
LINE
  5
54B
330
1F
100
AcDbEntity
  8
LAYER-033
  6
Continuous
 62
     4
100
AcDbLine
 10
-99.6953664689571
 20
222.1287088526618
 30
0.0
 11
-90.36016428269073
 21
212.7935066664008
 31
0.0
  0
LINE
  5
54C
330
1F
100
AcDbEntity
  8
LAYER-033
  6
Continuous
 62
     4
100
AcDbLine
 10
-99.6953664689571
 20
227.0784563209676
 30
0.0
 11
-90.36016428269073
 21
217.7432541347012
 31
0.0
  0
LINE
  5
54D
330
1F
100
AcDbEntity
  8
LAYER-033
  6
Continuous
 62
     4
100
AcDbLine
 10
-99.6953664689571
 20
232.0282037892734
 30
0.0
 11
-90.36016428269073
 21
222.6930016030071
 31
0.0
  0
LINE
  5
54E
330
1F
100
AcDbEntity
  8
LAYER-033
  6
Continuous
 62
     4
100
AcDbLine
 10
-99.6953664689571
 20
236.9779512575792
 30
0.0
 11
-90.36016428269073
 21
227.6427490713129
 31
0.0
  0
LINE
  5
54F
330
1F
100
AcDbEntity
  8
LAYER-033
  6
Continuous
 62
     4
100
AcDbLine
 10
-99.6953664689571
 20
241.9276987258851
 30
0.0
 11
-90.36016428269073
 21
232.5924965396187
 31
0.0
  0
LINE
  5
550
330
1F
100
AcDbEntity
  8
LAYER-033
  6
Continuous
 62
     4
100
AcDbLine
 10
-99.6953664689571
 20
246.8774461941909
 30
0.0
 11
-90.36016428269073
 21
237.5422440079245
 31
0.0
  0
LINE
  5
551
330
1F
100
AcDbEntity
  8
LAYER-033
  6
Continuous
 62
     4
100
AcDbLine
 10
-99.6953664689571
 20
251.8271936624967
 30
0.0
 11
-90.36016428269073
 21
242.4919914762304
 31
0.0
  0
LINE
  5
552
330
1F
100
AcDbEntity
  8
LAYER-033
  6
Continuous
 62
     4
100
AcDbLine
 10
-95.00223407711526
 20
252.0838087389607
 30
0.0
 11
-90.36016428269073
 21
247.4417389445362
 31
0.0
  0
TEXT
  5
553
330
1F
100
AcDbEntity
  8
LAYER-033
  6
Continuous
 62
     7
100
AcDbText
 10
-78.59006319201528
 20
-329.8597434338237
 30
0.0
 40
4.0
  1
２００／２２０Ｖ　５０／６０Ｈｚ　　１１０ｋＷ
  7
STRING_H
 11
-78.59006319201528
 21
-327.8597434338237
 31
0.0
100
AcDbText
 73
     2
  0
TEXT
  5
554
330
1F
100
AcDbEntity
  8
LAYER-033
  6
Continuous
 62
     7
100
AcDbText
 10
-78.59006319201528
 20
-337.9451935347909
 30
0.0
 40
4.0
  1
質　　量　１３０㎏
  7
STRING_H
 11
-78.59006319201528
 21
-335.9451935347909
 31
0.0
100
AcDbText
 73
     2
  0
TEXT
  5
555
330
1F
100
AcDbEntity
  8
LAYER-033
  6
Continuous
 62
     7
100
AcDbText
 10
-78.59006319201528
 20
-321.7742933325193
 30
0.0
 40
4.0
  1
ＫＲ－１Ｐ(低　圧)
  7
STRING_H
 11
-78.59006319201528
 21
-319.7742933325193
 31
0.0
100
AcDbText
 73
     2
  0
TEXT
  5
556
330
1F
100
AcDbEntity
  8
LAYER-008
  6
Continuous
 62
     4
100
AcDbText
 10
-270.1296774395233
 20
-132.2722829242464
 30
0.0
 40
2.0
  1
Ｕ
  7
STRING_H
 72
     1
 11
-268.6796774395233
 21
-132.2722829242464
 31
0.0
100
AcDbText
 73
     1
  0
TEXT
  5
557
330
1F
100
AcDbEntity
  8
LAYER-008
  6
Continuous
 62
     4
100
AcDbText
 10
-254.1296784395232
 20
-132.2722829242464
 30
0.0
 40
2.0
  1
Ｖ
  7
STRING_H
 72
     1
 11
-252.6796784395232
 21
-132.2722829242464
 31
0.0
100
AcDbText
 73
     1
  0
TEXT
  5
558
330
1F
100
AcDbEntity
  8
LAYER-008
  6
Continuous
 62
     4
100
AcDbText
 10
-238.1296774395233
 20
-132.2722829242464
 30
0.0
 40
2.0
  1
Ｗ
  7
STRING_H
 72
     1
 11
-236.6796774395233
 21
-132.2722829242464
 31
0.0
100
AcDbText
 73
     1
  0
TEXT
  5
559
330
1F
100
AcDbEntity
  8
LAYER-008
  6
Continuous
 62
     4
100
AcDbText
 10
-262.1296774395233
 20
-132.3722819242464
 30
0.0
 40
2.0
  1
Ｒ
  7
STRING_H
 72
     1
 11
-260.6796774395233
 21
-132.3722819242464
 31
0.0
100
AcDbText
 73
     1
  0
TEXT
  5
55A
330
1F
100
AcDbEntity
  8
LAYER-008
  6
Continuous
 62
     4
100
AcDbText
 10
-246.1296774395233
 20
-132.3722819242464
 30
0.0
 40
2.0
  1
Ｓ
  7
STRING_H
 72
     1
 11
-244.6796774395233
 21
-132.3722819242464
 31
0.0
100
AcDbText
 73
     1
  0
TEXT
  5
55B
330
1F
100
AcDbEntity
  8
LAYER-008
  6
Continuous
 62
     4
100
AcDbText
 10
-230.1296764395233
 20
-132.3722819242464
 30
0.0
 40
2.0
  1
Ｔ
  7
STRING_H
 72
     1
 11
-228.6796764395233
 21
-132.3722819242464
 31
0.0
100
AcDbText
 73
     1
  0
DIMENSION
  5
56B
330
1F
100
AcDbEntity
  8
LAYER-035
  6
Continuous
 62
     5
100
AcDbDimension
  2
*D02
 10
-530.1180925717639
 20
-122.5697759573657
 30
0.0
 11
-530.1180925717639
 21
97.43022404263428
 31
0.0
 70
   128
  1
<>
 71
     0
 42
0.0
  3
DIO_DIMSTYLE
100
AcDbAlignedDimension
 13
-447.3405599973008
 23
317.4302240426343
 33
0.0
 14
-476.2796774395232
 24
-122.5697759573657
 34
0.0
 50
90.0
100
AcDbRotatedDimension
1001
ACAD
1000
DSTYLE
1002
{
1070
    41
1040
4.0
1070
    44
1040
1.0
1070
    42
1040
1.0
1070
     6
1000
_OPEN
1070
     7
1000
_OPEN
1070
   173
1070
     1
1070
   140
1040
4.0
1070
   178
1070
     5
1070
   147
1040
0.5
1002
}
  0
DIMENSION
  5
575
330
1F
100
AcDbEntity
  8
LAYER-035
  6
Continuous
 62
     5
100
AcDbDimension
  2
*D13
 10
-21.2796774395232
 20
-213.7928308244629
 30
0.0
 11
-248.7796774395232
 21
-213.7928308244629
 31
0.0
 70
   129
  1
<>
 71
     0
 42
0.0
  3
DIO_DIMSTYLE
100
AcDbAlignedDimension
 13
-476.2796774395232
 23
-122.5697759573657
 33
0.0
 14
-21.2796774395232
 24
-122.5697759573657
 34
0.0
1001
ACAD
1000
DSTYLE
1002
{
1070
    41
1040
4.0
1070
    44
1040
1.0
1070
    42
1040
1.0
1070
     6
1000
_OPEN
1070
     7
1000
_OPEN
1070
   173
1070
     1
1070
   140
1040
4.0
1070
   178
1070
     5
1070
   147
1040
0.5
1002
}
  0
DIMENSION
  5
57F
330
1F
100
AcDbEntity
  8
LAYER-035
  6
Continuous
 62
     5
100
AcDbDimension
  2
*D24
 10
-423.7796774395232
 20
-175.74159430843
 30
0.0
 11
-248.7796774395232
 21
-175.74159430843
 31
0.0
 70
   129
  1
<>
 71
     0
 42
0.0
  3
DIO_DIMSTYLE
100
AcDbAlignedDimension
 13
-73.7796774395232
 23
-106.3933255418977
 33
0.0
 14
-423.7796774395232
 24
-106.3933255418977
 34
0.0
1001
ACAD
1000
DSTYLE
1002
{
1070
    41
1040
4.0
1070
    44
1040
1.0
1070
    42
1040
1.0
1070
     6
1000
_OPEN
1070
     7
1000
_OPEN
1070
   173
1070
     1
1070
   140
1040
4.0
1070
   178
1070
     5
1070
   147
1040
0.5
1002
}
  0
DIMENSION
  5
589
330
1F
100
AcDbEntity
  8
LAYER-035
  6
Continuous
 62
     5
100
AcDbDimension
  2
*D35
 10
408.8559875820905
 20
-175.74159430843
 30
0.0
 11
293.8559875820905
 21
-175.74159430843
 31
0.0
 70
   128
  1
<>
 71
     0
 42
0.0
  3
DIO_DIMSTYLE
100
AcDbAlignedDimension
 13
178.8559875820905
 23
-133.6889669340776
 33
0.0
 14
408.8559875820905
 24
-132.0242824472278
 34
0.0
 50
180.0
100
AcDbRotatedDimension
1001
ACAD
1000
DSTYLE
1002
{
1070
    41
1040
4.0
1070
    44
1040
1.0
1070
    42
1040
1.0
1070
     6
1000
_OPEN
1070
     7
1000
_OPEN
1070
   173
1070
     1
1070
   140
1040
4.0
1070
   178
1070
     5
1070
   147
1040
0.5
1002
}
  0
DIMENSION
  5
593
330
1F
100
AcDbEntity
  8
LAYER-035
  6
Continuous
 62
     5
100
AcDbDimension
  2
*D46
 10
428.8559876358122
 20
-213.7928308244629
 30
0.0
 11
293.8559876358122
 21
-213.7928308244629
 31
0.0
 70
   128
  1
<>
 71
     0
 42
0.0
  3
DIO_DIMSTYLE
100
AcDbAlignedDimension
 13
158.8559875820905
 23
-122.5697759573657
 33
0.0
 14
428.8559875820905
 24
-122.5697759573657
 34
0.0
 50
180.0
100
AcDbRotatedDimension
1001
ACAD
1000
DSTYLE
1002
{
1070
    41
1040
4.0
1070
    44
1040
1.0
1070
    42
1040
1.0
1070
     6
1000
_OPEN
1070
     7
1000
_OPEN
1070
   173
1070
     1
1070
   140
1040
4.0
1070
   178
1070
     5
1070
   147
1040
0.5
1002
}
  0
DIMENSION
  5
59D
330
1F
100
AcDbEntity
  8
LAYER-035
  6
Continuous
 62
     5
100
AcDbDimension
  2
*D57
 10
431.3559880820904
 20
34.89726126716094
 30
0.0
 11
282.5128972212339
 21
34.89726126716094
 31
0.0
 70
   129
  1
<>
 71
     0
 42
0.0
  3
DIO_DIMSTYLE
100
AcDbAlignedDimension
 13
156.3559880820904
 23
97.67008847538097
 33
0.0
 14
431.3559880820904
 24
97.67008847538097
 34
0.0
1001
ACAD
1000
DSTYLE
1002
{
1070
    41
1040
4.0
1070
    44
1040
1.0
1070
    42
1040
1.0
1070
     6
1000
_OPEN
1070
     7
1000
_OPEN
1070
   173
1070
     1
1070
   140
1040
4.0
1070
   178
1070
     5
1070
   147
1040
0.5
1002
}
  0
ENDSEC
  0
SECTION
  2
OBJECTS
  0
DICTIONARY
  5
C
330
0
100
AcDbDictionary
281
     1
  3
ACAD_GROUP
350
D
  3
ACAD_LAYOUT
350
1A
  3
ACAD_MLINESTYLE
350
17
  3
ACAD_PLOTSETTINGS
350
19
  3
ACAD_PLOTSTYLENAME
350
E
  0
DICTIONARY
  5
D
102
{ACAD_REACTORS
330
C
102
}
330
C
100
AcDbDictionary
281
     1
  0
DICTIONARY
  5
1A
102
{ACAD_REACTORS
330
C
102
}
330
C
100
AcDbDictionary
281
     1
  3
Model
350
22
  3
ﾚｲｱｳﾄ1
350
1E
  3
ﾚｲｱｳﾄ2
350
26
  0
DICTIONARY
  5
17
102
{ACAD_REACTORS
330
C
102
}
330
C
100
AcDbDictionary
281
     1
  3
Standard
350
18
  0
DICTIONARY
  5
19
102
{ACAD_REACTORS
330
C
102
}
330
C
100
AcDbDictionary
281
     1
  0
ACDBDICTIONARYWDFLT
  5
E
102
{ACAD_REACTORS
330
C
102
}
330
C
100
AcDbDictionary
281
     1
  3
Normal
350
F
100
AcDbDictionaryWithDefault
340
F
  0
LAYOUT
  5
22
102
{ACAD_REACTORS
330
1A
102
}
330
1A
100
AcDbPlotSettings
  1

  2
DWF ePlot.pc3
  4
ANSI_A_(8.50_x_11.00_Inches)
  6

 40
5.793749809265137
 41
17.79375076293945
 42
5.793746948242188
 43
17.79376220703125
 44
215.8999938964844
 45
279.3999938964844
 46
0.0
 47
0.0
 48
0.0
 49
0.0
140
0.0
141
0.0
142
1.0
143
39.26051453979704
 70
 11952
 72
     0
 73
     1
 74
     0
  7
acad.ctb
 75
     0
147
0.0254708837039396
148
-1793.922354682663
149
1.490346453088415
100
AcDbLayout
  1
Model
 70
     1
 71
     0
 10
-594.5
 20
-420.5
 11
594.5
 21
420.5
 12
0.0
 22
0.0
 32
0.0
 14
-594.5
 24
-420.5
 34
0.0
 15
594.5
 25
420.5
 35
0.0
146
0.0
 13
0.0
 23
0.0
 33
0.0
 16
1.0
 26
0.0
 36
0.0
 17
0.0
 27
1.0
 37
0.0
 76
     0
330
1F
  0
LAYOUT
  5
1E
102
{ACAD_REACTORS
330
1A
102
}
330
1A
100
AcDbPlotSettings
  1

  2
RICOH IPSiO NX700
  4

  6

 40
0.0
 41
0.0
 42
0.0
 43
0.0
 44
0.0
 45
0.0
 46
0.0
 47
0.0
 48
0.0
 49
0.0
140
0.0
141
0.0
142
1.0
143
1.0
 70
   688
 72
     0
 73
     0
 74
     5
  7
acad.ctb
 75
    16
147
1.0
148
0.0
149
0.0
100
AcDbLayout
  1
ﾚｲｱｳﾄ1
 70
     1
 71
     1
 10
-594.5
 20
-420.5
 11
594.5
 21
420.5
 12
0.0
 22
0.0
 32
0.0
 14
-594.5
 24
-420.5
 34
0.0
 15
594.5
 25
420.5
 35
0.0
146
0.0
 13
0.0
 23
0.0
 33
0.0
 16
1.0
 26
0.0
 36
0.0
 17
0.0
 27
1.0
 37
0.0
 76
     0
330
1B
  0
LAYOUT
  5
26
102
{ACAD_REACTORS
330
1A
102
}
330
1A
100
AcDbPlotSettings
  1

  2
RICOH IPSiO NX700
  4

  6

 40
0.0
 41
0.0
 42
0.0
 43
0.0
 44
0.0
 45
0.0
 46
0.0
 47
0.0
 48
0.0
 49
0.0
140
0.0
141
0.0
142
1.0
143
1.0
 70
   688
 72
     0
 73
     0
 74
     5
  7
acad.ctb
 75
    16
147
1.0
148
0.0
149
0.0
100
AcDbLayout
  1
ﾚｲｱｳﾄ2
 70
     1
 71
     2
 10
0.0
 20
0.0
 11
12.0
 21
9.0
 12
0.0
 22
0.0
 32
0.0
 14
0.0
 24
0.0
 34
0.0
 15
0.0
 25
0.0
 35
0.0
146
0.0
 13
0.0
 23
0.0
 33
0.0
 16
1.0
 26
0.0
 36
0.0
 17
0.0
 27
1.0
 37
0.0
 76
     0
330
23
  0
MLINESTYLE
  5
18
102
{ACAD_REACTORS
330
17
102
}
330
17
100
AcDbMlineStyle
  2
STANDARD
 70
     0
  3

 62
   256
 51
90.0
 52
90.0
 71
     2
 49
0.5
 62
   256
  6
BYLAYER
 49
-0.5
 62
   256
  6
BYLAYER
  0
ACDBPLACEHOLDER
  5
F
102
{ACAD_REACTORS
330
E
102
}
330
E
  0
ENDSEC
  0
EOF
