  0
SECTION
  2
HEADER
  9
$ACADVER
  1
AC1015
  9
$ACADMAINTVER
 70
     6
  9
$DWGCODEPAGE
  3
ANSI_932
  9
$INSBASE
 10
0.0
 20
0.0
 30
0.0
  9
$EXTMIN
 10
-594.5
 20
-420.5
 30
0.0
  9
$EXTMAX
 10
594.5
 20
420.5
 30
0.0
  9
$LIMMIN
 10
-594.5
 20
-420.5
  9
$LIMMAX
 10
594.5
 20
420.5
  9
$ORTHOMODE
 70
     0
  9
$REGENMODE
 70
     1
  9
$FILLMODE
 70
     1
  9
$QTEXTMODE
 70
     0
  9
$MIRRTEXT
 70
     1
  9
$LTSCALE
 40
4.0
  9
$ATTMODE
 70
     1
  9
$TEXTSIZE
 40
2.5
  9
$TRACEWID
 40
1.0
  9
$TEXTSTYLE
  7
Standard
  9
$CLAYER
  8
0
  9
$CELTYPE
  6
ByLayer
  9
$CECOLOR
 62
   256
  9
$CELTSCALE
 40
1.0
  9
$DISPSILH
 70
     0
  9
$DIMSCALE
 40
1.0
  9
$DIMASZ
 40
4.0
  9
$DIMEXO
 40
1.0
  9
$DIMDLI
 40
3.75
  9
$DIMRND
 40
0.1
  9
$DIMDLE
 40
0.0
  9
$DIMEXE
 40
1.0
  9
$DIMTP
 40
0.0
  9
$DIMTM
 40
0.0
  9
$DIMTXT
 40
2.5
  9
$DIMCEN
 40
2.5
  9
$DIMTSZ
 40
0.0
  9
$DIMTOL
 70
     0
  9
$DIMLIM
 70
     0
  9
$DIMTIH
 70
     0
  9
$DIMTOH
 70
     0
  9
$DIMSE1
 70
     0
  9
$DIMSE2
 70
     0
  9
$DIMTAD
 70
     1
  9
$DIMZIN
 70
     8
  9
$DIMBLK
  1

  9
$DIMASO
 70
     1
  9
$DIMSHO
 70
     1
  9
$DIMPOST
  1

  9
$DIMAPOST
  1

  9
$DIMALT
 70
     0
  9
$DIMALTD
 70
     3
  9
$DIMALTF
 40
0.03937007874016
  9
$DIMLFAC
 40
1.0
  9
$DIMTOFL
 70
     1
  9
$DIMTVP
 40
0.0
  9
$DIMTIX
 70
     0
  9
$DIMSOXD
 70
     0
  9
$DIMSAH
 70
     1
  9
$DIMBLK1
  1

  9
$DIMBLK2
  1

  9
$DIMSTYLE
  2
ISO-25
  9
$DIMCLRD
 70
     0
  9
$DIMCLRE
 70
     0
  9
$DIMCLRT
 70
     0
  9
$DIMTFAC
 40
1.0
  9
$DIMGAP
 40
0.5
  9
$DIMJUST
 70
     0
  9
$DIMSD1
 70
     0
  9
$DIMSD2
 70
     0
  9
$DIMTOLJ
 70
     0
  9
$DIMTZIN
 70
     8
  9
$DIMALTZ
 70
     0
  9
$DIMALTTZ
 70
     0
  9
$DIMUPT
 70
     1
  9
$DIMDEC
 70
     1
  9
$DIMTDEC
 70
     2
  9
$DIMALTU
 70
     2
  9
$DIMALTTD
 70
     3
  9
$DIMTXSTY
  7
Standard
  9
$DIMAUNIT
 70
     0
  9
$DIMADEC
 70
     1
  9
$DIMALTRND
 40
0.0
  9
$DIMAZIN
 70
     2
  9
$DIMDSEP
 70
    46
  9
$DIMATFIT
 70
     0
  9
$DIMFRAC
 70
     0
  9
$DIMLDRBLK
  1

  9
$DIMLUNIT
 70
     2
  9
$DIMLWD
 70
    -2
  9
$DIMLWE
 70
    -2
  9
$DIMTMOVE
 70
     0
  9
$LUNITS
 70
     2
  9
$LUPREC
 70
     4
  9
$SKETCHINC
 40
1.0
  9
$FILLETRAD
 40
10.0
  9
$AUNITS
 70
     0
  9
$AUPREC
 70
     0
  9
$MENU
  1
.
  9
$ELEVATION
 40
0.0
  9
$PELEVATION
 40
0.0
  9
$THICKNESS
 40
0.0
  9
$LIMCHECK
 70
     0
  9
$CHAMFERA
 40
10.0
  9
$CHAMFERB
 40
10.0
  9
$CHAMFERC
 40
20.0
  9
$CHAMFERD
 40
0.0
  9
$SKPOLY
 70
     0
  9
$TDCREATE
 40
2455091.0
  9
$TDUCREATE
 40
2451562.87528772
  9
$TDUPDATE
 40
2455120.0
  9
$TDUUPDATE
 40
2452026.917654526
  9
$TDINDWG
 40
0.0010008681
  9
$TDUSRTIMER
 40
0.0009680671
  9
$USRTIMER
 70
     1
  9
$ANGBASE
 50
0.0
  9
$ANGDIR
 70
     0
  9
$PDMODE
 70
     0
  9
$PDSIZE
 40
0.0
  9
$PLINEWID
 40
0.0
  9
$SPLFRAME
 70
     0
  9
$SPLINETYPE
 70
     6
  9
$SPLINESEGS
 70
     8
  9
$HANDSEED
  5
58D
  9
$SURFTAB1
 70
     6
  9
$SURFTAB2
 70
     6
  9
$SURFTYPE
 70
     6
  9
$SURFU
 70
     6
  9
$SURFV
 70
     6
  9
$UCSBASE
  2

  9
$UCSNAME
  2

  9
$UCSORG
 10
0.0
 20
0.0
 30
0.0
  9
$UCSXDIR
 10
1.0
 20
0.0
 30
0.0
  9
$UCSYDIR
 10
0.0
 20
1.0
 30
0.0
  9
$UCSORTHOREF
  2

  9
$UCSORTHOVIEW
 70
     0
  9
$UCSORGTOP
 10
0.0
 20
0.0
 30
0.0
  9
$UCSORGBOTTOM
 10
0.0
 20
0.0
 30
0.0
  9
$UCSORGLEFT
 10
0.0
 20
0.0
 30
0.0
  9
$UCSORGRIGHT
 10
0.0
 20
0.0
 30
0.0
  9
$UCSORGFRONT
 10
0.0
 20
0.0
 30
0.0
  9
$UCSORGBACK
 10
0.0
 20
0.0
 30
0.0
  9
$PUCSBASE
  2

  9
$PUCSNAME
  2

  9
$PUCSORG
 10
0.0
 20
0.0
 30
0.0
  9
$PUCSXDIR
 10
1.0
 20
0.0
 30
0.0
  9
$PUCSYDIR
 10
0.0
 20
1.0
 30
0.0
  9
$PUCSORTHOREF
  2

  9
$PUCSORTHOVIEW
 70
     0
  9
$PUCSORGTOP
 10
0.0
 20
0.0
 30
0.0
  9
$PUCSORGBOTTOM
 10
0.0
 20
0.0
 30
0.0
  9
$PUCSORGLEFT
 10
0.0
 20
0.0
 30
0.0
  9
$PUCSORGRIGHT
 10
0.0
 20
0.0
 30
0.0
  9
$PUCSORGFRONT
 10
0.0
 20
0.0
 30
0.0
  9
$PUCSORGBACK
 10
0.0
 20
0.0
 30
0.0
  9
$USERI1
 70
     0
  9
$USERI2
 70
     0
  9
$USERI3
 70
     0
  9
$USERI4
 70
     0
  9
$USERI5
 70
     0
  9
$USERR1
 40
0.0
  9
$USERR2
 40
0.0
  9
$USERR3
 40
0.0
  9
$USERR4
 40
0.0
  9
$USERR5
 40
0.0
  9
$WORLDVIEW
 70
     1
  9
$SHADEDGE
 70
     3
  9
$SHADEDIF
 70
    70
  9
$TILEMODE
 70
     1
  9
$MAXACTVP
 70
    64
  9
$PINSBASE
 10
0.0
 20
0.0
 30
0.0
  9
$PLIMCHECK
 70
     0
  9
$PEXTMIN
 10
-594.5
 20
-420.5
 30
0.0
  9
$PEXTMAX
 10
594.5
 20
420.5
 30
0.0
  9
$PLIMMIN
 10
-594.5
 20
-420.5
  9
$PLIMMAX
 10
594.5
 20
420.5
  9
$UNITMODE
 70
     0
  9
$VISRETAIN
 70
     1
  9
$PLINEGEN
 70
     0
  9
$PSLTSCALE
 70
     1
  9
$TREEDEPTH
 70
  3020
  9
$CMLSTYLE
  2
Standard
  9
$CMLJUST
 70
     0
  9
$CMLSCALE
 40
20.0
  9
$PROXYGRAPHICS
 70
     1
  9
$MEASUREMENT
 70
     1
  9
$CELWEIGHT
370
    -1
  9
$ENDCAPS
280
     0
  9
$JOINSTYLE
280
     0
  9
$LWDISPLAY
290
     0
  9
$INSUNITS
 70
     4
  9
$HYPERLINKBASE
  1

  9
$STYLESHEET
  1

  9
$XEDIT
290
     1
  9
$CEPSNTYPE
380
     0
  9
$PSTYLEMODE
290
     1
  9
$FINGERPRINTGUID
  2
{B6423330-CE35-11D3-AA43-00E0292263AD}
  9
$VERSIONGUID
  2
{EAA0F794-BAE8-4B09-85E0-65C527BE2B8E}
  9
$EXTNAMES
290
     1
  9
$PSVPSCALE
 40
0.0
  9
$OLESTARTUP
290
     0
  0
ENDSEC
  0
SECTION
  2
CLASSES
  0
CLASS
  1
ACDBDICTIONARYWDFLT
  2
AcDbDictionaryWithDefault
  3
ObjectDBX Classes
 90
        0
280
     0
281
     0
  0
CLASS
  1
ACDBPLACEHOLDER
  2
AcDbPlaceHolder
  3
ObjectDBX Classes
 90
        0
280
     0
281
     0
  0
CLASS
  1
LAYOUT
  2
AcDbLayout
  3
ObjectDBX Classes
 90
        0
280
     0
281
     0
  0
ENDSEC
  0
SECTION
  2
TABLES
  0
TABLE
  2
VPORT
  5
8
330
0
100
AcDbSymbolTable
 70
     3
  0
VPORT
  5
30
330
8
100
AcDbSymbolTableRecord
100
AcDbViewportTableRecord
  2
*Active
 70
     0
 10
0.0
 20
0.0
 11
1.0
 21
1.0
 12
259.0560661764706
 22
148.5
 13
0.0
 23
0.0
 14
10.0
 24
10.0
 15
10.0
 25
10.0
 16
0.0
 26
0.0
 36
1.0
 17
0.0
 27
0.0
 37
0.0
 40
297.1173501144164
 41
1.268382352941176
 42
50.0
 43
0.0
 44
0.0
 50
0.0
 51
0.0
 71
     0
 72
   100
 73
     1
 74
     3
 75
     0
 76
     0
 77
     0
 78
     0
281
     0
 65
     1
110
0.0
120
0.0
130
0.0
111
1.0
121
0.0
131
0.0
112
0.0
122
1.0
132
0.0
 79
     0
146
0.0
  0
ENDTAB
  0
TABLE
  2
LTYPE
  5
5
330
0
100
AcDbSymbolTable
 70
    26
  0
LTYPE
  5
14
330
5
100
AcDbSymbolTableRecord
100
AcDbLinetypeTableRecord
  2
ByBlock
 70
     0
  3

 72
    65
 73
     0
 40
0.0
  0
LTYPE
  5
15
330
5
100
AcDbSymbolTableRecord
100
AcDbLinetypeTableRecord
  2
ByLayer
 70
     0
  3

 72
    65
 73
     0
 40
0.0
  0
LTYPE
  5
16
330
5
100
AcDbSymbolTableRecord
100
AcDbLinetypeTableRecord
  2
Continuous
 70
     0
  3
Solid line
 72
    65
 73
     0
 40
0.0
  0
LTYPE
  5
37
330
5
100
AcDbSymbolTableRecord
100
AcDbLinetypeTableRecord
  2
BORDER
 70
     0
  3
 __ __ . __ __ . __ __ . __ __ . __ __ . __ __
 72
    65
 73
     6
 40
1.75
 49
0.5
 74
     0
 49
-0.25
 74
     0
 49
0.5
 74
     0
 49
-0.25
 74
     0
 49
0.0
 74
     0
 49
-0.25
 74
     0
  0
LTYPE
  5
38
330
5
100
AcDbSymbolTableRecord
100
AcDbLinetypeTableRecord
  2
BORDER2
 70
     0
  3
__.__.__.__.__.__.__.__.__.__.__.__.__.__.__
 72
    65
 73
     6
 40
0.875
 49
0.25
 74
     0
 49
-0.125
 74
     0
 49
0.25
 74
     0
 49
-0.125
 74
     0
 49
0.0
 74
     0
 49
-0.125
 74
     0
  0
LTYPE
  5
39
330
5
100
AcDbSymbolTableRecord
100
AcDbLinetypeTableRecord
  2
BORDERX2
 70
     0
  3
____  ____  .  ____  ____  .  ____  ____  .
 72
    65
 73
     6
 40
3.5
 49
1.0
 74
     0
 49
-0.5
 74
     0
 49
1.0
 74
     0
 49
-0.5
 74
     0
 49
0.0
 74
     0
 49
-0.5
 74
     0
  0
LTYPE
  5
3A
330
5
100
AcDbSymbolTableRecord
100
AcDbLinetypeTableRecord
  2
CENTER
 70
     0
  3
____ _ ____ _ ____ _ ____ _ ____ _ ____ _ ____
 72
    65
 73
     4
 40
2.0
 49
1.25
 74
     0
 49
-0.25
 74
     0
 49
0.25
 74
     0
 49
-0.25
 74
     0
  0
LTYPE
  5
3B
330
5
100
AcDbSymbolTableRecord
100
AcDbLinetypeTableRecord
  2
CENTER2
 70
     0
  3
___ _ ___ _ ___ _ ___ _ ___ _ ___ _ ___ _ ___ 
 72
    65
 73
     4
 40
1.125
 49
0.75
 74
     0
 49
-0.125
 74
     0
 49
0.125
 74
     0
 49
-0.125
 74
     0
  0
LTYPE
  5
3C
330
5
100
AcDbSymbolTableRecord
100
AcDbLinetypeTableRecord
  2
CENTERX2
 70
     0
  3
________  __  ________  __  ________  __
 72
    65
 73
     4
 40
4.0
 49
2.5
 74
     0
 49
-0.5
 74
     0
 49
0.5
 74
     0
 49
-0.5
 74
     0
  0
LTYPE
  5
3D
330
5
100
AcDbSymbolTableRecord
100
AcDbLinetypeTableRecord
  2
DASHDOT
 70
     0
  3
__ . __ . __ . __ . __ . __ . __ . __ . __ .
 72
    65
 73
     4
 40
1.0
 49
0.5
 74
     0
 49
-0.25
 74
     0
 49
0.0
 74
     0
 49
-0.25
 74
     0
  0
LTYPE
  5
3E
330
5
100
AcDbSymbolTableRecord
100
AcDbLinetypeTableRecord
  2
DASHDOT2
 70
     0
  3
_._._._._._._._._._._._._._._._._._._._._._._.
 72
    65
 73
     4
 40
0.5
 49
0.25
 74
     0
 49
-0.125
 74
     0
 49
0.0
 74
     0
 49
-0.125
 74
     0
  0
LTYPE
  5
3F
330
5
100
AcDbSymbolTableRecord
100
AcDbLinetypeTableRecord
  2
DASHDOTX2
 70
     0
  3
____  .  ____  .  ____  .  ____  .  ____  .
 72
    65
 73
     4
 40
2.0
 49
1.0
 74
     0
 49
-0.5
 74
     0
 49
0.0
 74
     0
 49
-0.5
 74
     0
  0
LTYPE
  5
40
330
5
100
AcDbSymbolTableRecord
100
AcDbLinetypeTableRecord
  2
DASHED
 70
     0
  3
__ __ __ __ __ __ __ __ __ __ __ __ __ __ __
 72
    65
 73
     2
 40
0.75
 49
0.5
 74
     0
 49
-0.25
 74
     0
  0
LTYPE
  5
41
330
5
100
AcDbSymbolTableRecord
100
AcDbLinetypeTableRecord
  2
DASHED2
 70
     0
  3
_ _ _ _ _ _ _ _ _ _ _ _ _ _ _ _ _ _ _ _ _ _ _
 72
    65
 73
     2
 40
0.375
 49
0.25
 74
     0
 49
-0.125
 74
     0
  0
LTYPE
  5
42
330
5
100
AcDbSymbolTableRecord
100
AcDbLinetypeTableRecord
  2
DASHEDX2
 70
     0
  3
____  ____  ____  ____  ____  ____  ____  ____
 72
    65
 73
     2
 40
1.5
 49
1.0
 74
     0
 49
-0.5
 74
     0
  0
LTYPE
  5
43
330
5
100
AcDbSymbolTableRecord
100
AcDbLinetypeTableRecord
  2
DIVIDE
 70
     0
  3
____ . . ____ . . ____ . . ____ . . ____ . .
 72
    65
 73
     6
 40
1.25
 49
0.5
 74
     0
 49
-0.25
 74
     0
 49
0.0
 74
     0
 49
-0.25
 74
     0
 49
0.0
 74
     0
 49
-0.25
 74
     0
  0
LTYPE
  5
44
330
5
100
AcDbSymbolTableRecord
100
AcDbLinetypeTableRecord
  2
DIVIDE2
 70
     0
  3
__..__..__..__..__..__..__..__..__..__..__..__
 72
    65
 73
     6
 40
0.625
 49
0.25
 74
     0
 49
-0.125
 74
     0
 49
0.0
 74
     0
 49
-0.125
 74
     0
 49
0.0
 74
     0
 49
-0.125
 74
     0
  0
LTYPE
  5
45
330
5
100
AcDbSymbolTableRecord
100
AcDbLinetypeTableRecord
  2
DIVIDEX2
 70
     0
  3
________  .  .  ________  .  .  ________  .  .
 72
    65
 73
     6
 40
2.5
 49
1.0
 74
     0
 49
-0.5
 74
     0
 49
0.0
 74
     0
 49
-0.5
 74
     0
 49
0.0
 74
     0
 49
-0.5
 74
     0
  0
LTYPE
  5
46
330
5
100
AcDbSymbolTableRecord
100
AcDbLinetypeTableRecord
  2
DOT
 70
     0
  3
. . . . . . . . . . . . . . . . . . . . . . .
 72
    65
 73
     2
 40
0.25
 49
0.0
 74
     0
 49
-0.25
 74
     0
  0
LTYPE
  5
47
330
5
100
AcDbSymbolTableRecord
100
AcDbLinetypeTableRecord
  2
DOT2
 70
     0
  3
..............................................
 72
    65
 73
     2
 40
0.125
 49
0.0
 74
     0
 49
-0.125
 74
     0
  0
LTYPE
  5
48
330
5
100
AcDbSymbolTableRecord
100
AcDbLinetypeTableRecord
  2
DOTX2
 70
     0
  3
.  .  .  .  .  .  .  .  .  .  .  .  .  .  .  .
 72
    65
 73
     2
 40
0.5
 49
0.0
 74
     0
 49
-0.5
 74
     0
  0
LTYPE
  5
49
330
5
100
AcDbSymbolTableRecord
100
AcDbLinetypeTableRecord
  2
HIDDEN
 70
     0
  3
__ __ __ __ __ __ __ __ __ __ __ __ __ __ __
 72
    65
 73
     2
 40
0.375
 49
0.25
 74
     0
 49
-0.125
 74
     0
  0
LTYPE
  5
4A
330
5
100
AcDbSymbolTableRecord
100
AcDbLinetypeTableRecord
  2
HIDDEN2
 70
     0
  3
_ _ _ _ _ _ _ _ _ _ _ _ _ _ _ _ _ _ _ _ _ _ _
 72
    65
 73
     2
 40
0.1875
 49
0.125
 74
     0
 49
-0.0625
 74
     0
  0
LTYPE
  5
4B
330
5
100
AcDbSymbolTableRecord
100
AcDbLinetypeTableRecord
  2
HIDDENX2
 70
     0
  3
____ ____ ____ ____ ____ ____ ____ ____ ____
 72
    65
 73
     2
 40
0.75
 49
0.5
 74
     0
 49
-0.25
 74
     0
  0
LTYPE
  5
4C
330
5
100
AcDbSymbolTableRecord
100
AcDbLinetypeTableRecord
  2
PHANTOM
 70
     0
  3
______  __  __  ______  __  __  ______  __
 72
    65
 73
     6
 40
2.5
 49
1.25
 74
     0
 49
-0.25
 74
     0
 49
0.25
 74
     0
 49
-0.25
 74
     0
 49
0.25
 74
     0
 49
-0.25
 74
     0
  0
LTYPE
  5
4D
330
5
100
AcDbSymbolTableRecord
100
AcDbLinetypeTableRecord
  2
PHANTOM2
 70
     0
  3
___ _ _ ___ _ _ ___ _ _ ___ _ _ ___ _ _ ___ _
 72
    65
 73
     6
 40
1.25
 49
0.625
 74
     0
 49
-0.125
 74
     0
 49
0.125
 74
     0
 49
-0.125
 74
     0
 49
0.125
 74
     0
 49
-0.125
 74
     0
  0
LTYPE
  5
4E
330
5
100
AcDbSymbolTableRecord
100
AcDbLinetypeTableRecord
  2
PHANTOMX2
 70
     0
  3
____________    ____    ____    ____________
 72
    65
 73
     6
 40
5.0
 49
2.5
 74
     0
 49
-0.5
 74
     0
 49
0.5
 74
     0
 49
-0.5
 74
     0
 49
0.5
 74
     0
 49
-0.5
 74
     0
  0
LTYPE
  5
4F
330
5
100
AcDbSymbolTableRecord
100
AcDbLinetypeTableRecord
  2
CONTINUOUS2
 70
     0
  3
Solid line
 72
    65
 73
     0
 40
0.0
  0
ENDTAB
  0
TABLE
  2
LAYER
  5
2
330
0
100
AcDbSymbolTable
 70
   514
  0
LAYER
  5
10
330
2
100
AcDbSymbolTableRecord
100
AcDbLayerTableRecord
  2
0
 70
     0
 62
     7
  6
Continuous
370
    -3
390
F
  0
LAYER
  5
50
330
2
100
AcDbSymbolTableRecord
100
AcDbLayerTableRecord
  2
LAYER-001
 70
     0
 62
     7
  6
Continuous
370
    -3
390
F
  0
LAYER
  5
51
330
2
100
AcDbSymbolTableRecord
100
AcDbLayerTableRecord
  2
LAYER-002
 70
     0
 62
     7
  6
Continuous
370
    -3
390
F
  0
LAYER
  5
52
330
2
100
AcDbSymbolTableRecord
100
AcDbLayerTableRecord
  2
LAYER-003
 70
     0
 62
     7
  6
Continuous
370
    -3
390
F
  0
LAYER
  5
53
330
2
100
AcDbSymbolTableRecord
100
AcDbLayerTableRecord
  2
LAYER-004
 70
     0
 62
     7
  6
Continuous
370
    -3
390
F
  0
LAYER
  5
54
330
2
100
AcDbSymbolTableRecord
100
AcDbLayerTableRecord
  2
LAYER-005
 70
     0
 62
     7
  6
Continuous
370
    -3
390
F
  0
LAYER
  5
55
330
2
100
AcDbSymbolTableRecord
100
AcDbLayerTableRecord
  2
LAYER-006
 70
     0
 62
     7
  6
Continuous
370
    -3
390
F
  0
LAYER
  5
56
330
2
100
AcDbSymbolTableRecord
100
AcDbLayerTableRecord
  2
LAYER-007
 70
     0
 62
     7
  6
Continuous
370
    -3
390
F
  0
LAYER
  5
57
330
2
100
AcDbSymbolTableRecord
100
AcDbLayerTableRecord
  2
LAYER-008
 70
     0
 62
     7
  6
Continuous
370
    -3
390
F
  0
LAYER
  5
58
330
2
100
AcDbSymbolTableRecord
100
AcDbLayerTableRecord
  2
LAYER-009
 70
     0
 62
     7
  6
Continuous
370
    -3
390
F
  0
LAYER
  5
59
330
2
100
AcDbSymbolTableRecord
100
AcDbLayerTableRecord
  2
LAYER-010
 70
     0
 62
     7
  6
Continuous
370
    -3
390
F
  0
LAYER
  5
5A
330
2
100
AcDbSymbolTableRecord
100
AcDbLayerTableRecord
  2
LAYER-011
 70
     0
 62
     7
  6
Continuous
370
    -3
390
F
  0
LAYER
  5
5B
330
2
100
AcDbSymbolTableRecord
100
AcDbLayerTableRecord
  2
LAYER-012
 70
     0
 62
     7
  6
Continuous
370
    -3
390
F
  0
LAYER
  5
5C
330
2
100
AcDbSymbolTableRecord
100
AcDbLayerTableRecord
  2
LAYER-013
 70
     0
 62
     7
  6
Continuous
370
    -3
390
F
  0
LAYER
  5
5D
330
2
100
AcDbSymbolTableRecord
100
AcDbLayerTableRecord
  2
LAYER-014
 70
     0
 62
     7
  6
Continuous
370
    -3
390
F
  0
LAYER
  5
5E
330
2
100
AcDbSymbolTableRecord
100
AcDbLayerTableRecord
  2
LAYER-015
 70
     0
 62
    -7
  6
Continuous
370
    -3
390
F
  0
LAYER
  5
5F
330
2
100
AcDbSymbolTableRecord
100
AcDbLayerTableRecord
  2
LAYER-016
 70
     0
 62
     4
  6
Continuous
370
    -3
390
F
  0
LAYER
  5
60
330
2
100
AcDbSymbolTableRecord
100
AcDbLayerTableRecord
  2
LAYER-017
 70
     0
 62
     7
  6
Continuous
370
    -3
390
F
  0
LAYER
  5
61
330
2
100
AcDbSymbolTableRecord
100
AcDbLayerTableRecord
  2
LAYER-018
 70
     0
 62
     2
  6
Continuous
370
    -3
390
F
  0
LAYER
  5
62
330
2
100
AcDbSymbolTableRecord
100
AcDbLayerTableRecord
  2
LAYER-019
 70
     0
 62
     3
  6
Continuous
370
    -3
390
F
  0
LAYER
  5
63
330
2
100
AcDbSymbolTableRecord
100
AcDbLayerTableRecord
  2
LAYER-020
 70
     0
 62
     2
  6
Continuous
370
    -3
390
F
  0
LAYER
  5
64
330
2
100
AcDbSymbolTableRecord
100
AcDbLayerTableRecord
  2
LAYER-021
 70
     0
 62
     7
  6
Continuous
370
    -3
390
F
  0
LAYER
  5
65
330
2
100
AcDbSymbolTableRecord
100
AcDbLayerTableRecord
  2
LAYER-022
 70
     0
 62
     4
  6
Continuous
370
    -3
390
F
  0
LAYER
  5
66
330
2
100
AcDbSymbolTableRecord
100
AcDbLayerTableRecord
  2
LAYER-023
 70
     0
 62
     4
  6
Continuous
370
    -3
390
F
  0
LAYER
  5
67
330
2
100
AcDbSymbolTableRecord
100
AcDbLayerTableRecord
  2
LAYER-024
 70
     0
 62
     7
  6
Continuous
370
    -3
390
F
  0
LAYER
  5
68
330
2
100
AcDbSymbolTableRecord
100
AcDbLayerTableRecord
  2
LAYER-025
 70
     0
 62
     7
  6
Continuous
370
    -3
390
F
  0
LAYER
  5
69
330
2
100
AcDbSymbolTableRecord
100
AcDbLayerTableRecord
  2
LAYER-026
 70
     0
 62
    -7
  6
Continuous
370
    -3
390
F
  0
LAYER
  5
6A
330
2
100
AcDbSymbolTableRecord
100
AcDbLayerTableRecord
  2
LAYER-027
 70
     0
 62
     7
  6
Continuous
370
    -3
390
F
  0
LAYER
  5
6B
330
2
100
AcDbSymbolTableRecord
100
AcDbLayerTableRecord
  2
LAYER-028
 70
     0
 62
     7
  6
Continuous
370
    -3
390
F
  0
LAYER
  5
6C
330
2
100
AcDbSymbolTableRecord
100
AcDbLayerTableRecord
  2
LAYER-029
 70
     0
 62
     7
  6
Continuous
370
    -3
390
F
  0
LAYER
  5
6D
330
2
100
AcDbSymbolTableRecord
100
AcDbLayerTableRecord
  2
LAYER-030
 70
     0
 62
     2
  6
Continuous
370
    -3
390
F
  0
LAYER
  5
6E
330
2
100
AcDbSymbolTableRecord
100
AcDbLayerTableRecord
  2
LAYER-031
 70
     0
 62
     7
  6
Continuous
370
    -3
390
F
  0
LAYER
  5
6F
330
2
100
AcDbSymbolTableRecord
100
AcDbLayerTableRecord
  2
LAYER-032
 70
     0
 62
     2
  6
Continuous
370
    -3
390
F
  0
LAYER
  5
70
330
2
100
AcDbSymbolTableRecord
100
AcDbLayerTableRecord
  2
LAYER-033
 70
     0
 62
     7
  6
Continuous
370
    -3
390
F
  0
LAYER
  5
71
330
2
100
AcDbSymbolTableRecord
100
AcDbLayerTableRecord
  2
LAYER-034
 70
     0
 62
     7
  6
Continuous
370
    -3
390
F
  0
LAYER
  5
72
330
2
100
AcDbSymbolTableRecord
100
AcDbLayerTableRecord
  2
LAYER-035
 70
     0
 62
     3
  6
Continuous
370
    -3
390
F
  0
LAYER
  5
73
330
2
100
AcDbSymbolTableRecord
100
AcDbLayerTableRecord
  2
LAYER-036
 70
     0
 62
     2
  6
Continuous
370
    -3
390
F
  0
LAYER
  5
74
330
2
100
AcDbSymbolTableRecord
100
AcDbLayerTableRecord
  2
LAYER-037
 70
     0
 62
     7
  6
Continuous
370
    -3
390
F
  0
LAYER
  5
75
330
2
100
AcDbSymbolTableRecord
100
AcDbLayerTableRecord
  2
LAYER-038
 70
     0
 62
     7
  6
Continuous
370
    -3
390
F
  0
LAYER
  5
76
330
2
100
AcDbSymbolTableRecord
100
AcDbLayerTableRecord
  2
LAYER-039
 70
     0
 62
     7
  6
Continuous
370
    -3
390
F
  0
LAYER
  5
77
330
2
100
AcDbSymbolTableRecord
100
AcDbLayerTableRecord
  2
LAYER-040
 70
     0
 62
     7
  6
Continuous
370
    -3
390
F
  0
LAYER
  5
78
330
2
100
AcDbSymbolTableRecord
100
AcDbLayerTableRecord
  2
LAYER-041
 70
     0
 62
     7
  6
Continuous
370
    -3
390
F
  0
LAYER
  5
79
330
2
100
AcDbSymbolTableRecord
100
AcDbLayerTableRecord
  2
LAYER-042
 70
     0
 62
     7
  6
Continuous
370
    -3
390
F
  0
LAYER
  5
7A
330
2
100
AcDbSymbolTableRecord
100
AcDbLayerTableRecord
  2
LAYER-043
 70
     0
 62
     7
  6
Continuous
370
    -3
390
F
  0
LAYER
  5
7B
330
2
100
AcDbSymbolTableRecord
100
AcDbLayerTableRecord
  2
LAYER-044
 70
     0
 62
     7
  6
Continuous
370
    -3
390
F
  0
LAYER
  5
7C
330
2
100
AcDbSymbolTableRecord
100
AcDbLayerTableRecord
  2
LAYER-045
 70
     0
 62
     7
  6
Continuous
370
    -3
390
F
  0
LAYER
  5
7D
330
2
100
AcDbSymbolTableRecord
100
AcDbLayerTableRecord
  2
LAYER-046
 70
     0
 62
     7
  6
Continuous
370
    -3
390
F
  0
LAYER
  5
7E
330
2
100
AcDbSymbolTableRecord
100
AcDbLayerTableRecord
  2
LAYER-047
 70
     0
 62
     7
  6
Continuous
370
    -3
390
F
  0
LAYER
  5
7F
330
2
100
AcDbSymbolTableRecord
100
AcDbLayerTableRecord
  2
LAYER-048
 70
     0
 62
     2
  6
Continuous
370
    -3
390
F
  0
LAYER
  5
80
330
2
100
AcDbSymbolTableRecord
100
AcDbLayerTableRecord
  2
LAYER-049
 70
     0
 62
     3
  6
Continuous
370
    -3
390
F
  0
LAYER
  5
81
330
2
100
AcDbSymbolTableRecord
100
AcDbLayerTableRecord
  2
LAYER-050
 70
     0
 62
     7
  6
Continuous
370
    -3
390
F
  0
LAYER
  5
82
330
2
100
AcDbSymbolTableRecord
100
AcDbLayerTableRecord
  2
LAYER-051
 70
     0
 62
     2
  6
Continuous
370
    -3
390
F
  0
LAYER
  5
83
330
2
100
AcDbSymbolTableRecord
100
AcDbLayerTableRecord
  2
LAYER-052
 70
     0
 62
     7
  6
Continuous
370
    -3
390
F
  0
LAYER
  5
84
330
2
100
AcDbSymbolTableRecord
100
AcDbLayerTableRecord
  2
LAYER-053
 70
     0
 62
     7
  6
Continuous
370
    -3
390
F
  0
LAYER
  5
85
330
2
100
AcDbSymbolTableRecord
100
AcDbLayerTableRecord
  2
LAYER-054
 70
     0
 62
     7
  6
Continuous
370
    -3
390
F
  0
LAYER
  5
86
330
2
100
AcDbSymbolTableRecord
100
AcDbLayerTableRecord
  2
LAYER-055
 70
     0
 62
     7
  6
Continuous
370
    -3
390
F
  0
LAYER
  5
87
330
2
100
AcDbSymbolTableRecord
100
AcDbLayerTableRecord
  2
LAYER-056
 70
     0
 62
     7
  6
Continuous
370
    -3
390
F
  0
LAYER
  5
88
330
2
100
AcDbSymbolTableRecord
100
AcDbLayerTableRecord
  2
LAYER-057
 70
     0
 62
     7
  6
Continuous
370
    -3
390
F
  0
LAYER
  5
89
330
2
100
AcDbSymbolTableRecord
100
AcDbLayerTableRecord
  2
LAYER-058
 70
     0
 62
     7
  6
Continuous
370
    -3
390
F
  0
LAYER
  5
8A
330
2
100
AcDbSymbolTableRecord
100
AcDbLayerTableRecord
  2
LAYER-059
 70
     0
 62
     7
  6
Continuous
370
    -3
390
F
  0
LAYER
  5
8B
330
2
100
AcDbSymbolTableRecord
100
AcDbLayerTableRecord
  2
LAYER-060
 70
     0
 62
     7
  6
Continuous
370
    -3
390
F
  0
LAYER
  5
8C
330
2
100
AcDbSymbolTableRecord
100
AcDbLayerTableRecord
  2
LAYER-061
 70
     0
 62
     7
  6
Continuous
370
    -3
390
F
  0
LAYER
  5
8D
330
2
100
AcDbSymbolTableRecord
100
AcDbLayerTableRecord
  2
LAYER-062
 70
     0
 62
     7
  6
Continuous
370
    -3
390
F
  0
LAYER
  5
8E
330
2
100
AcDbSymbolTableRecord
100
AcDbLayerTableRecord
  2
LAYER-063
 70
     0
 62
     7
  6
Continuous
370
    -3
390
F
  0
LAYER
  5
8F
330
2
100
AcDbSymbolTableRecord
100
AcDbLayerTableRecord
  2
LAYER-064
 70
     0
 62
     2
  6
Continuous
370
    -3
390
F
  0
LAYER
  5
90
330
2
100
AcDbSymbolTableRecord
100
AcDbLayerTableRecord
  2
LAYER-065
 70
     0
 62
     7
  6
Continuous
370
    -3
390
F
  0
LAYER
  5
91
330
2
100
AcDbSymbolTableRecord
100
AcDbLayerTableRecord
  2
LAYER-066
 70
     0
 62
     2
  6
Continuous
370
    -3
390
F
  0
LAYER
  5
92
330
2
100
AcDbSymbolTableRecord
100
AcDbLayerTableRecord
  2
LAYER-067
 70
     0
 62
     2
  6
Continuous
370
    -3
390
F
  0
LAYER
  5
93
330
2
100
AcDbSymbolTableRecord
100
AcDbLayerTableRecord
  2
LAYER-068
 70
     0
 62
     7
  6
Continuous
370
    -3
390
F
  0
LAYER
  5
94
330
2
100
AcDbSymbolTableRecord
100
AcDbLayerTableRecord
  2
LAYER-069
 70
     0
 62
     7
  6
Continuous
370
    -3
390
F
  0
LAYER
  5
95
330
2
100
AcDbSymbolTableRecord
100
AcDbLayerTableRecord
  2
LAYER-070
 70
     0
 62
     7
  6
Continuous
370
    -3
390
F
  0
LAYER
  5
96
330
2
100
AcDbSymbolTableRecord
100
AcDbLayerTableRecord
  2
LAYER-071
 70
     0
 62
     7
  6
Continuous
370
    -3
390
F
  0
LAYER
  5
97
330
2
100
AcDbSymbolTableRecord
100
AcDbLayerTableRecord
  2
LAYER-072
 70
     0
 62
     7
  6
Continuous
370
    -3
390
F
  0
LAYER
  5
98
330
2
100
AcDbSymbolTableRecord
100
AcDbLayerTableRecord
  2
LAYER-073
 70
     0
 62
     7
  6
Continuous
370
    -3
390
F
  0
LAYER
  5
99
330
2
100
AcDbSymbolTableRecord
100
AcDbLayerTableRecord
  2
LAYER-074
 70
     0
 62
     7
  6
Continuous
370
    -3
390
F
  0
LAYER
  5
9A
330
2
100
AcDbSymbolTableRecord
100
AcDbLayerTableRecord
  2
LAYER-075
 70
     0
 62
     7
  6
Continuous
370
    -3
390
F
  0
LAYER
  5
9B
330
2
100
AcDbSymbolTableRecord
100
AcDbLayerTableRecord
  2
LAYER-076
 70
     0
 62
     7
  6
Continuous
370
    -3
390
F
  0
LAYER
  5
9C
330
2
100
AcDbSymbolTableRecord
100
AcDbLayerTableRecord
  2
LAYER-077
 70
     0
 62
     7
  6
Continuous
370
    -3
390
F
  0
LAYER
  5
9D
330
2
100
AcDbSymbolTableRecord
100
AcDbLayerTableRecord
  2
LAYER-078
 70
     0
 62
     7
  6
Continuous
370
    -3
390
F
  0
LAYER
  5
9E
330
2
100
AcDbSymbolTableRecord
100
AcDbLayerTableRecord
  2
LAYER-079
 70
     0
 62
     7
  6
Continuous
370
    -3
390
F
  0
LAYER
  5
9F
330
2
100
AcDbSymbolTableRecord
100
AcDbLayerTableRecord
  2
LAYER-080
 70
     0
 62
     2
  6
Continuous
370
    -3
390
F
  0
LAYER
  5
A0
330
2
100
AcDbSymbolTableRecord
100
AcDbLayerTableRecord
  2
LAYER-081
 70
     0
 62
     7
  6
Continuous
370
    -3
390
F
  0
LAYER
  5
A1
330
2
100
AcDbSymbolTableRecord
100
AcDbLayerTableRecord
  2
LAYER-082
 70
     0
 62
     7
  6
Continuous
370
    -3
390
F
  0
LAYER
  5
A2
330
2
100
AcDbSymbolTableRecord
100
AcDbLayerTableRecord
  2
LAYER-083
 70
     0
 62
     7
  6
Continuous
370
    -3
390
F
  0
LAYER
  5
A3
330
2
100
AcDbSymbolTableRecord
100
AcDbLayerTableRecord
  2
LAYER-084
 70
     0
 62
     7
  6
Continuous
370
    -3
390
F
  0
LAYER
  5
A4
330
2
100
AcDbSymbolTableRecord
100
AcDbLayerTableRecord
  2
LAYER-085
 70
     0
 62
     7
  6
Continuous
370
    -3
390
F
  0
LAYER
  5
A5
330
2
100
AcDbSymbolTableRecord
100
AcDbLayerTableRecord
  2
LAYER-086
 70
     0
 62
     7
  6
Continuous
370
    -3
390
F
  0
LAYER
  5
A6
330
2
100
AcDbSymbolTableRecord
100
AcDbLayerTableRecord
  2
LAYER-087
 70
     0
 62
     7
  6
Continuous
370
    -3
390
F
  0
LAYER
  5
A7
330
2
100
AcDbSymbolTableRecord
100
AcDbLayerTableRecord
  2
LAYER-088
 70
     0
 62
     7
  6
Continuous
370
    -3
390
F
  0
LAYER
  5
A8
330
2
100
AcDbSymbolTableRecord
100
AcDbLayerTableRecord
  2
LAYER-089
 70
     0
 62
     7
  6
Continuous
370
    -3
390
F
  0
LAYER
  5
A9
330
2
100
AcDbSymbolTableRecord
100
AcDbLayerTableRecord
  2
LAYER-090
 70
     0
 62
     7
  6
Continuous
370
    -3
390
F
  0
LAYER
  5
AA
330
2
100
AcDbSymbolTableRecord
100
AcDbLayerTableRecord
  2
LAYER-091
 70
     0
 62
     7
  6
Continuous
370
    -3
390
F
  0
LAYER
  5
AB
330
2
100
AcDbSymbolTableRecord
100
AcDbLayerTableRecord
  2
LAYER-092
 70
     0
 62
     7
  6
Continuous
370
    -3
390
F
  0
LAYER
  5
AC
330
2
100
AcDbSymbolTableRecord
100
AcDbLayerTableRecord
  2
LAYER-093
 70
     0
 62
     7
  6
Continuous
370
    -3
390
F
  0
LAYER
  5
AD
330
2
100
AcDbSymbolTableRecord
100
AcDbLayerTableRecord
  2
LAYER-094
 70
     0
 62
     7
  6
Continuous
370
    -3
390
F
  0
LAYER
  5
AE
330
2
100
AcDbSymbolTableRecord
100
AcDbLayerTableRecord
  2
LAYER-095
 70
     0
 62
     7
  6
Continuous
370
    -3
390
F
  0
LAYER
  5
AF
330
2
100
AcDbSymbolTableRecord
100
AcDbLayerTableRecord
  2
LAYER-096
 70
     0
 62
     7
  6
Continuous
370
    -3
390
F
  0
LAYER
  5
B0
330
2
100
AcDbSymbolTableRecord
100
AcDbLayerTableRecord
  2
LAYER-097
 70
     0
 62
     7
  6
Continuous
370
    -3
390
F
  0
LAYER
  5
B1
330
2
100
AcDbSymbolTableRecord
100
AcDbLayerTableRecord
  2
LAYER-098
 70
     0
 62
     7
  6
Continuous
370
    -3
390
F
  0
LAYER
  5
B2
330
2
100
AcDbSymbolTableRecord
100
AcDbLayerTableRecord
  2
LAYER-099
 70
     0
 62
     7
  6
Continuous
370
    -3
390
F
  0
LAYER
  5
B3
330
2
100
AcDbSymbolTableRecord
100
AcDbLayerTableRecord
  2
LAYER-100
 70
     0
 62
     7
  6
Continuous
370
    -3
390
F
  0
LAYER
  5
B4
330
2
100
AcDbSymbolTableRecord
100
AcDbLayerTableRecord
  2
LAYER-101
 70
     0
 62
     7
  6
Continuous
370
    -3
390
F
  0
LAYER
  5
B5
330
2
100
AcDbSymbolTableRecord
100
AcDbLayerTableRecord
  2
LAYER-102
 70
     0
 62
     7
  6
Continuous
370
    -3
390
F
  0
LAYER
  5
B6
330
2
100
AcDbSymbolTableRecord
100
AcDbLayerTableRecord
  2
LAYER-103
 70
     0
 62
     7
  6
Continuous
370
    -3
390
F
  0
LAYER
  5
B7
330
2
100
AcDbSymbolTableRecord
100
AcDbLayerTableRecord
  2
LAYER-104
 70
     0
 62
     7
  6
Continuous
370
    -3
390
F
  0
LAYER
  5
B8
330
2
100
AcDbSymbolTableRecord
100
AcDbLayerTableRecord
  2
LAYER-105
 70
     0
 62
     7
  6
Continuous
370
    -3
390
F
  0
LAYER
  5
B9
330
2
100
AcDbSymbolTableRecord
100
AcDbLayerTableRecord
  2
LAYER-106
 70
     0
 62
     7
  6
Continuous
370
    -3
390
F
  0
LAYER
  5
BA
330
2
100
AcDbSymbolTableRecord
100
AcDbLayerTableRecord
  2
LAYER-107
 70
     0
 62
     7
  6
Continuous
370
    -3
390
F
  0
LAYER
  5
BB
330
2
100
AcDbSymbolTableRecord
100
AcDbLayerTableRecord
  2
LAYER-108
 70
     0
 62
     7
  6
Continuous
370
    -3
390
F
  0
LAYER
  5
BC
330
2
100
AcDbSymbolTableRecord
100
AcDbLayerTableRecord
  2
LAYER-109
 70
     0
 62
     7
  6
Continuous
370
    -3
390
F
  0
LAYER
  5
BD
330
2
100
AcDbSymbolTableRecord
100
AcDbLayerTableRecord
  2
LAYER-110
 70
     0
 62
     7
  6
Continuous
370
    -3
390
F
  0
LAYER
  5
BE
330
2
100
AcDbSymbolTableRecord
100
AcDbLayerTableRecord
  2
LAYER-111
 70
     0
 62
     7
  6
Continuous
370
    -3
390
F
  0
LAYER
  5
BF
330
2
100
AcDbSymbolTableRecord
100
AcDbLayerTableRecord
  2
LAYER-112
 70
     0
 62
     7
  6
Continuous
370
    -3
390
F
  0
LAYER
  5
C0
330
2
100
AcDbSymbolTableRecord
100
AcDbLayerTableRecord
  2
LAYER-113
 70
     0
 62
     7
  6
Continuous
370
    -3
390
F
  0
LAYER
  5
C1
330
2
100
AcDbSymbolTableRecord
100
AcDbLayerTableRecord
  2
LAYER-114
 70
     0
 62
     7
  6
Continuous
370
    -3
390
F
  0
LAYER
  5
C2
330
2
100
AcDbSymbolTableRecord
100
AcDbLayerTableRecord
  2
LAYER-115
 70
     0
 62
     7
  6
Continuous
370
    -3
390
F
  0
LAYER
  5
C3
330
2
100
AcDbSymbolTableRecord
100
AcDbLayerTableRecord
  2
LAYER-116
 70
     0
 62
     7
  6
Continuous
370
    -3
390
F
  0
LAYER
  5
C4
330
2
100
AcDbSymbolTableRecord
100
AcDbLayerTableRecord
  2
LAYER-117
 70
     0
 62
     7
  6
Continuous
370
    -3
390
F
  0
LAYER
  5
C5
330
2
100
AcDbSymbolTableRecord
100
AcDbLayerTableRecord
  2
LAYER-118
 70
     0
 62
     7
  6
Continuous
370
    -3
390
F
  0
LAYER
  5
C6
330
2
100
AcDbSymbolTableRecord
100
AcDbLayerTableRecord
  2
LAYER-119
 70
     0
 62
     7
  6
Continuous
370
    -3
390
F
  0
LAYER
  5
C7
330
2
100
AcDbSymbolTableRecord
100
AcDbLayerTableRecord
  2
LAYER-120
 70
     0
 62
     7
  6
Continuous
370
    -3
390
F
  0
LAYER
  5
C8
330
2
100
AcDbSymbolTableRecord
100
AcDbLayerTableRecord
  2
LAYER-121
 70
     0
 62
     7
  6
Continuous
370
    -3
390
F
  0
LAYER
  5
C9
330
2
100
AcDbSymbolTableRecord
100
AcDbLayerTableRecord
  2
LAYER-122
 70
     0
 62
     7
  6
Continuous
370
    -3
390
F
  0
LAYER
  5
CA
330
2
100
AcDbSymbolTableRecord
100
AcDbLayerTableRecord
  2
LAYER-123
 70
     0
 62
     7
  6
Continuous
370
    -3
390
F
  0
LAYER
  5
CB
330
2
100
AcDbSymbolTableRecord
100
AcDbLayerTableRecord
  2
LAYER-124
 70
     0
 62
     7
  6
Continuous
370
    -3
390
F
  0
LAYER
  5
CC
330
2
100
AcDbSymbolTableRecord
100
AcDbLayerTableRecord
  2
LAYER-125
 70
     0
 62
     7
  6
Continuous
370
    -3
390
F
  0
LAYER
  5
CD
330
2
100
AcDbSymbolTableRecord
100
AcDbLayerTableRecord
  2
LAYER-126
 70
     0
 62
     7
  6
Continuous
370
    -3
390
F
  0
LAYER
  5
CE
330
2
100
AcDbSymbolTableRecord
100
AcDbLayerTableRecord
  2
LAYER-127
 70
     0
 62
     7
  6
Continuous
370
    -3
390
F
  0
LAYER
  5
CF
330
2
100
AcDbSymbolTableRecord
100
AcDbLayerTableRecord
  2
LAYER-128
 70
     0
 62
     7
  6
Continuous
370
    -3
390
F
  0
LAYER
  5
D0
330
2
100
AcDbSymbolTableRecord
100
AcDbLayerTableRecord
  2
LAYER-129
 70
     0
 62
     7
  6
Continuous
370
    -3
390
F
  0
LAYER
  5
D1
330
2
100
AcDbSymbolTableRecord
100
AcDbLayerTableRecord
  2
LAYER-130
 70
     0
 62
     7
  6
Continuous
370
    -3
390
F
  0
LAYER
  5
D2
330
2
100
AcDbSymbolTableRecord
100
AcDbLayerTableRecord
  2
LAYER-131
 70
     0
 62
     7
  6
Continuous
370
    -3
390
F
  0
LAYER
  5
D3
330
2
100
AcDbSymbolTableRecord
100
AcDbLayerTableRecord
  2
LAYER-132
 70
     0
 62
     7
  6
Continuous
370
    -3
390
F
  0
LAYER
  5
D4
330
2
100
AcDbSymbolTableRecord
100
AcDbLayerTableRecord
  2
LAYER-133
 70
     0
 62
     7
  6
Continuous
370
    -3
390
F
  0
LAYER
  5
D5
330
2
100
AcDbSymbolTableRecord
100
AcDbLayerTableRecord
  2
LAYER-134
 70
     0
 62
     7
  6
Continuous
370
    -3
390
F
  0
LAYER
  5
D6
330
2
100
AcDbSymbolTableRecord
100
AcDbLayerTableRecord
  2
LAYER-135
 70
     0
 62
    -4
  6
Continuous
370
    -3
390
F
  0
LAYER
  5
D7
330
2
100
AcDbSymbolTableRecord
100
AcDbLayerTableRecord
  2
LAYER-136
 70
     0
 62
    -3
  6
Continuous
370
    -3
390
F
  0
LAYER
  5
D8
330
2
100
AcDbSymbolTableRecord
100
AcDbLayerTableRecord
  2
LAYER-137
 70
     0
 62
    -1
  6
Continuous
370
    -3
390
F
  0
LAYER
  5
D9
330
2
100
AcDbSymbolTableRecord
100
AcDbLayerTableRecord
  2
LAYER-138
 70
     0
 62
     7
  6
Continuous
370
    -3
390
F
  0
LAYER
  5
DA
330
2
100
AcDbSymbolTableRecord
100
AcDbLayerTableRecord
  2
LAYER-139
 70
     0
 62
     7
  6
Continuous
370
    -3
390
F
  0
LAYER
  5
DB
330
2
100
AcDbSymbolTableRecord
100
AcDbLayerTableRecord
  2
LAYER-140
 70
     0
 62
     7
  6
Continuous
370
    -3
390
F
  0
LAYER
  5
DC
330
2
100
AcDbSymbolTableRecord
100
AcDbLayerTableRecord
  2
LAYER-141
 70
     0
 62
     7
  6
Continuous
370
    -3
390
F
  0
LAYER
  5
DD
330
2
100
AcDbSymbolTableRecord
100
AcDbLayerTableRecord
  2
LAYER-142
 70
     0
 62
     3
  6
Continuous
370
    -3
390
F
  0
LAYER
  5
DE
330
2
100
AcDbSymbolTableRecord
100
AcDbLayerTableRecord
  2
LAYER-143
 70
     0
 62
     7
  6
Continuous
370
    -3
390
F
  0
LAYER
  5
DF
330
2
100
AcDbSymbolTableRecord
100
AcDbLayerTableRecord
  2
LAYER-144
 70
     0
 62
     7
  6
Continuous
370
    -3
390
F
  0
LAYER
  5
E0
330
2
100
AcDbSymbolTableRecord
100
AcDbLayerTableRecord
  2
LAYER-145
 70
     0
 62
     3
  6
Continuous
370
    -3
390
F
  0
LAYER
  5
E1
330
2
100
AcDbSymbolTableRecord
100
AcDbLayerTableRecord
  2
LAYER-146
 70
     0
 62
     7
  6
Continuous
370
    -3
390
F
  0
LAYER
  5
E2
330
2
100
AcDbSymbolTableRecord
100
AcDbLayerTableRecord
  2
LAYER-147
 70
     0
 62
     7
  6
Continuous
370
    -3
390
F
  0
LAYER
  5
E3
330
2
100
AcDbSymbolTableRecord
100
AcDbLayerTableRecord
  2
LAYER-148
 70
     0
 62
     7
  6
Continuous
370
    -3
390
F
  0
LAYER
  5
E4
330
2
100
AcDbSymbolTableRecord
100
AcDbLayerTableRecord
  2
LAYER-149
 70
     0
 62
     7
  6
Continuous
370
    -3
390
F
  0
LAYER
  5
E5
330
2
100
AcDbSymbolTableRecord
100
AcDbLayerTableRecord
  2
LAYER-150
 70
     0
 62
     7
  6
Continuous
370
    -3
390
F
  0
LAYER
  5
E6
330
2
100
AcDbSymbolTableRecord
100
AcDbLayerTableRecord
  2
LAYER-151
 70
     0
 62
     7
  6
Continuous
370
    -3
390
F
  0
LAYER
  5
E7
330
2
100
AcDbSymbolTableRecord
100
AcDbLayerTableRecord
  2
LAYER-152
 70
     0
 62
     7
  6
Continuous
370
    -3
390
F
  0
LAYER
  5
E8
330
2
100
AcDbSymbolTableRecord
100
AcDbLayerTableRecord
  2
LAYER-153
 70
     0
 62
     7
  6
Continuous
370
    -3
390
F
  0
LAYER
  5
E9
330
2
100
AcDbSymbolTableRecord
100
AcDbLayerTableRecord
  2
LAYER-154
 70
     0
 62
     7
  6
Continuous
370
    -3
390
F
  0
LAYER
  5
EA
330
2
100
AcDbSymbolTableRecord
100
AcDbLayerTableRecord
  2
LAYER-155
 70
     0
 62
     7
  6
Continuous
370
    -3
390
F
  0
LAYER
  5
EB
330
2
100
AcDbSymbolTableRecord
100
AcDbLayerTableRecord
  2
LAYER-156
 70
     0
 62
     7
  6
Continuous
370
    -3
390
F
  0
LAYER
  5
EC
330
2
100
AcDbSymbolTableRecord
100
AcDbLayerTableRecord
  2
LAYER-157
 70
     0
 62
     7
  6
Continuous
370
    -3
390
F
  0
LAYER
  5
ED
330
2
100
AcDbSymbolTableRecord
100
AcDbLayerTableRecord
  2
LAYER-158
 70
     0
 62
     7
  6
Continuous
370
    -3
390
F
  0
LAYER
  5
EE
330
2
100
AcDbSymbolTableRecord
100
AcDbLayerTableRecord
  2
LAYER-159
 70
     0
 62
     7
  6
Continuous
370
    -3
390
F
  0
LAYER
  5
EF
330
2
100
AcDbSymbolTableRecord
100
AcDbLayerTableRecord
  2
LAYER-160
 70
     0
 62
     7
  6
Continuous
370
    -3
390
F
  0
LAYER
  5
F0
330
2
100
AcDbSymbolTableRecord
100
AcDbLayerTableRecord
  2
LAYER-161
 70
     0
 62
     7
  6
Continuous
370
    -3
390
F
  0
LAYER
  5
F1
330
2
100
AcDbSymbolTableRecord
100
AcDbLayerTableRecord
  2
LAYER-162
 70
     0
 62
     7
  6
Continuous
370
    -3
390
F
  0
LAYER
  5
F2
330
2
100
AcDbSymbolTableRecord
100
AcDbLayerTableRecord
  2
LAYER-163
 70
     0
 62
     7
  6
Continuous
370
    -3
390
F
  0
LAYER
  5
F3
330
2
100
AcDbSymbolTableRecord
100
AcDbLayerTableRecord
  2
LAYER-164
 70
     0
 62
     7
  6
Continuous
370
    -3
390
F
  0
LAYER
  5
F4
330
2
100
AcDbSymbolTableRecord
100
AcDbLayerTableRecord
  2
LAYER-165
 70
     0
 62
     7
  6
Continuous
370
    -3
390
F
  0
LAYER
  5
F5
330
2
100
AcDbSymbolTableRecord
100
AcDbLayerTableRecord
  2
LAYER-166
 70
     0
 62
     7
  6
Continuous
370
    -3
390
F
  0
LAYER
  5
F6
330
2
100
AcDbSymbolTableRecord
100
AcDbLayerTableRecord
  2
LAYER-167
 70
     0
 62
     7
  6
Continuous
370
    -3
390
F
  0
LAYER
  5
F7
330
2
100
AcDbSymbolTableRecord
100
AcDbLayerTableRecord
  2
LAYER-168
 70
     0
 62
     7
  6
Continuous
370
    -3
390
F
  0
LAYER
  5
F8
330
2
100
AcDbSymbolTableRecord
100
AcDbLayerTableRecord
  2
LAYER-169
 70
     0
 62
     7
  6
Continuous
370
    -3
390
F
  0
LAYER
  5
F9
330
2
100
AcDbSymbolTableRecord
100
AcDbLayerTableRecord
  2
LAYER-170
 70
     0
 62
     7
  6
Continuous
370
    -3
390
F
  0
LAYER
  5
FA
330
2
100
AcDbSymbolTableRecord
100
AcDbLayerTableRecord
  2
LAYER-171
 70
     0
 62
     7
  6
Continuous
370
    -3
390
F
  0
LAYER
  5
FB
330
2
100
AcDbSymbolTableRecord
100
AcDbLayerTableRecord
  2
LAYER-172
 70
     0
 62
     7
  6
Continuous
370
    -3
390
F
  0
LAYER
  5
FC
330
2
100
AcDbSymbolTableRecord
100
AcDbLayerTableRecord
  2
LAYER-173
 70
     0
 62
     7
  6
Continuous
370
    -3
390
F
  0
LAYER
  5
FD
330
2
100
AcDbSymbolTableRecord
100
AcDbLayerTableRecord
  2
LAYER-174
 70
     0
 62
     7
  6
Continuous
370
    -3
390
F
  0
LAYER
  5
FE
330
2
100
AcDbSymbolTableRecord
100
AcDbLayerTableRecord
  2
LAYER-175
 70
     0
 62
     7
  6
Continuous
370
    -3
390
F
  0
LAYER
  5
FF
330
2
100
AcDbSymbolTableRecord
100
AcDbLayerTableRecord
  2
LAYER-176
 70
     0
 62
     7
  6
Continuous
370
    -3
390
F
  0
LAYER
  5
100
330
2
100
AcDbSymbolTableRecord
100
AcDbLayerTableRecord
  2
LAYER-177
 70
     0
 62
     7
  6
Continuous
370
    -3
390
F
  0
LAYER
  5
101
330
2
100
AcDbSymbolTableRecord
100
AcDbLayerTableRecord
  2
LAYER-178
 70
     0
 62
     7
  6
Continuous
370
    -3
390
F
  0
LAYER
  5
102
330
2
100
AcDbSymbolTableRecord
100
AcDbLayerTableRecord
  2
LAYER-179
 70
     0
 62
     7
  6
Continuous
370
    -3
390
F
  0
LAYER
  5
103
330
2
100
AcDbSymbolTableRecord
100
AcDbLayerTableRecord
  2
LAYER-180
 70
     0
 62
     7
  6
Continuous
370
    -3
390
F
  0
LAYER
  5
104
330
2
100
AcDbSymbolTableRecord
100
AcDbLayerTableRecord
  2
LAYER-181
 70
     0
 62
     7
  6
Continuous
370
    -3
390
F
  0
LAYER
  5
105
330
2
100
AcDbSymbolTableRecord
100
AcDbLayerTableRecord
  2
LAYER-182
 70
     0
 62
     7
  6
Continuous
370
    -3
390
F
  0
LAYER
  5
106
330
2
100
AcDbSymbolTableRecord
100
AcDbLayerTableRecord
  2
LAYER-183
 70
     0
 62
     7
  6
Continuous
370
    -3
390
F
  0
LAYER
  5
107
330
2
100
AcDbSymbolTableRecord
100
AcDbLayerTableRecord
  2
LAYER-184
 70
     0
 62
     7
  6
Continuous
370
    -3
390
F
  0
LAYER
  5
108
330
2
100
AcDbSymbolTableRecord
100
AcDbLayerTableRecord
  2
LAYER-185
 70
     0
 62
     7
  6
Continuous
370
    -3
390
F
  0
LAYER
  5
109
330
2
100
AcDbSymbolTableRecord
100
AcDbLayerTableRecord
  2
LAYER-186
 70
     0
 62
     7
  6
Continuous
370
    -3
390
F
  0
LAYER
  5
10A
330
2
100
AcDbSymbolTableRecord
100
AcDbLayerTableRecord
  2
LAYER-187
 70
     0
 62
     7
  6
Continuous
370
    -3
390
F
  0
LAYER
  5
10B
330
2
100
AcDbSymbolTableRecord
100
AcDbLayerTableRecord
  2
LAYER-188
 70
     0
 62
     7
  6
Continuous
370
    -3
390
F
  0
LAYER
  5
10C
330
2
100
AcDbSymbolTableRecord
100
AcDbLayerTableRecord
  2
LAYER-189
 70
     0
 62
     7
  6
Continuous
370
    -3
390
F
  0
LAYER
  5
10D
330
2
100
AcDbSymbolTableRecord
100
AcDbLayerTableRecord
  2
LAYER-190
 70
     0
 62
     7
  6
Continuous
370
    -3
390
F
  0
LAYER
  5
10E
330
2
100
AcDbSymbolTableRecord
100
AcDbLayerTableRecord
  2
LAYER-191
 70
     0
 62
     7
  6
Continuous
370
    -3
390
F
  0
LAYER
  5
10F
330
2
100
AcDbSymbolTableRecord
100
AcDbLayerTableRecord
  2
LAYER-192
 70
     0
 62
     7
  6
Continuous
370
    -3
390
F
  0
LAYER
  5
110
330
2
100
AcDbSymbolTableRecord
100
AcDbLayerTableRecord
  2
LAYER-193
 70
     0
 62
     7
  6
Continuous
370
    -3
390
F
  0
LAYER
  5
111
330
2
100
AcDbSymbolTableRecord
100
AcDbLayerTableRecord
  2
LAYER-194
 70
     0
 62
     2
  6
Continuous
370
    -3
390
F
  0
LAYER
  5
112
330
2
100
AcDbSymbolTableRecord
100
AcDbLayerTableRecord
  2
LAYER-195
 70
     0
 62
     2
  6
Continuous
370
    -3
390
F
  0
LAYER
  5
113
330
2
100
AcDbSymbolTableRecord
100
AcDbLayerTableRecord
  2
LAYER-196
 70
     0
 62
     2
  6
Continuous
370
    -3
390
F
  0
LAYER
  5
114
330
2
100
AcDbSymbolTableRecord
100
AcDbLayerTableRecord
  2
LAYER-197
 70
     0
 62
     7
  6
Continuous
370
    -3
390
F
  0
LAYER
  5
115
330
2
100
AcDbSymbolTableRecord
100
AcDbLayerTableRecord
  2
LAYER-198
 70
     0
 62
     7
  6
Continuous
370
    -3
390
F
  0
LAYER
  5
116
330
2
100
AcDbSymbolTableRecord
100
AcDbLayerTableRecord
  2
LAYER-199
 70
     0
 62
     4
  6
Continuous
370
    -3
390
F
  0
LAYER
  5
117
330
2
100
AcDbSymbolTableRecord
100
AcDbLayerTableRecord
  2
LAYER-200
 70
     0
 62
     1
  6
Continuous
370
    -3
390
F
  0
LAYER
  5
118
330
2
100
AcDbSymbolTableRecord
100
AcDbLayerTableRecord
  2
LAYER-201
 70
     0
 62
     1
  6
Continuous
370
    -3
390
F
  0
LAYER
  5
119
330
2
100
AcDbSymbolTableRecord
100
AcDbLayerTableRecord
  2
LAYER-202
 70
     0
 62
     2
  6
Continuous
370
    -3
390
F
  0
LAYER
  5
11A
330
2
100
AcDbSymbolTableRecord
100
AcDbLayerTableRecord
  2
LAYER-203
 70
     0
 62
     2
  6
Continuous
370
    -3
390
F
  0
LAYER
  5
11B
330
2
100
AcDbSymbolTableRecord
100
AcDbLayerTableRecord
  2
LAYER-204
 70
     0
 62
     7
  6
Continuous
370
    -3
390
F
  0
LAYER
  5
11C
330
2
100
AcDbSymbolTableRecord
100
AcDbLayerTableRecord
  2
LAYER-205
 70
     0
 62
     7
  6
Continuous
370
    -3
390
F
  0
LAYER
  5
11D
330
2
100
AcDbSymbolTableRecord
100
AcDbLayerTableRecord
  2
LAYER-206
 70
     0
 62
     7
  6
Continuous
370
    -3
390
F
  0
LAYER
  5
11E
330
2
100
AcDbSymbolTableRecord
100
AcDbLayerTableRecord
  2
LAYER-207
 70
     0
 62
    -7
  6
Continuous
370
    -3
390
F
  0
LAYER
  5
11F
330
2
100
AcDbSymbolTableRecord
100
AcDbLayerTableRecord
  2
LAYER-208
 70
     0
 62
     2
  6
Continuous
370
    -3
390
F
  0
LAYER
  5
120
330
2
100
AcDbSymbolTableRecord
100
AcDbLayerTableRecord
  2
LAYER-209
 70
     0
 62
     7
  6
Continuous
370
    -3
390
F
  0
LAYER
  5
121
330
2
100
AcDbSymbolTableRecord
100
AcDbLayerTableRecord
  2
LAYER-210
 70
     0
 62
     2
  6
Continuous
290
     0
370
    -3
390
F
  0
LAYER
  5
122
330
2
100
AcDbSymbolTableRecord
100
AcDbLayerTableRecord
  2
LAYER-211
 70
     0
 62
     7
  6
Continuous
370
    -3
390
F
  0
LAYER
  5
123
330
2
100
AcDbSymbolTableRecord
100
AcDbLayerTableRecord
  2
LAYER-212
 70
     0
 62
     7
  6
Continuous
370
    -3
390
F
  0
LAYER
  5
124
330
2
100
AcDbSymbolTableRecord
100
AcDbLayerTableRecord
  2
LAYER-213
 70
     0
 62
     2
  6
Continuous
370
    -3
390
F
  0
LAYER
  5
125
330
2
100
AcDbSymbolTableRecord
100
AcDbLayerTableRecord
  2
LAYER-214
 70
     0
 62
     7
  6
Continuous
370
    -3
390
F
  0
LAYER
  5
126
330
2
100
AcDbSymbolTableRecord
100
AcDbLayerTableRecord
  2
LAYER-215
 70
     0
 62
     7
  6
Continuous
370
    -3
390
F
  0
LAYER
  5
127
330
2
100
AcDbSymbolTableRecord
100
AcDbLayerTableRecord
  2
LAYER-216
 70
     0
 62
     4
  6
Continuous
370
    -3
390
F
  0
LAYER
  5
128
330
2
100
AcDbSymbolTableRecord
100
AcDbLayerTableRecord
  2
LAYER-217
 70
     0
 62
     7
  6
Continuous
370
    -3
390
F
  0
LAYER
  5
129
330
2
100
AcDbSymbolTableRecord
100
AcDbLayerTableRecord
  2
LAYER-218
 70
     0
 62
     7
  6
Continuous
370
    -3
390
F
  0
LAYER
  5
12A
330
2
100
AcDbSymbolTableRecord
100
AcDbLayerTableRecord
  2
LAYER-219
 70
     0
 62
     7
  6
Continuous
370
    -3
390
F
  0
LAYER
  5
12B
330
2
100
AcDbSymbolTableRecord
100
AcDbLayerTableRecord
  2
LAYER-220
 70
     0
 62
     4
  6
Continuous
370
    -3
390
F
  0
LAYER
  5
12C
330
2
100
AcDbSymbolTableRecord
100
AcDbLayerTableRecord
  2
LAYER-221
 70
     0
 62
    -7
  6
Continuous
290
     0
370
    -3
390
F
  0
LAYER
  5
12D
330
2
100
AcDbSymbolTableRecord
100
AcDbLayerTableRecord
  2
LAYER-222
 70
     0
 62
    -4
  6
Continuous
290
     0
370
    -3
390
F
  0
LAYER
  5
12E
330
2
100
AcDbSymbolTableRecord
100
AcDbLayerTableRecord
  2
LAYER-223
 70
     0
 62
    -1
  6
Continuous
290
     0
370
    -3
390
F
  0
LAYER
  5
12F
330
2
100
AcDbSymbolTableRecord
100
AcDbLayerTableRecord
  2
LAYER-224
 70
     0
 62
    -1
  6
Continuous
290
     0
370
    -3
390
F
  0
LAYER
  5
130
330
2
100
AcDbSymbolTableRecord
100
AcDbLayerTableRecord
  2
LAYER-225
 70
     0
 62
     7
  6
Continuous
370
    -3
390
F
  0
LAYER
  5
131
330
2
100
AcDbSymbolTableRecord
100
AcDbLayerTableRecord
  2
LAYER-226
 70
     0
 62
     2
  6
Continuous
370
    -3
390
F
  0
LAYER
  5
132
330
2
100
AcDbSymbolTableRecord
100
AcDbLayerTableRecord
  2
LAYER-227
 70
     0
 62
     7
  6
Continuous
370
    -3
390
F
  0
LAYER
  5
133
330
2
100
AcDbSymbolTableRecord
100
AcDbLayerTableRecord
  2
LAYER-228
 70
     0
 62
     7
  6
Continuous
370
    -3
390
F
  0
LAYER
  5
134
330
2
100
AcDbSymbolTableRecord
100
AcDbLayerTableRecord
  2
LAYER-229
 70
     0
 62
     7
  6
Continuous
370
    -3
390
F
  0
LAYER
  5
135
330
2
100
AcDbSymbolTableRecord
100
AcDbLayerTableRecord
  2
LAYER-230
 70
     0
 62
     7
  6
Continuous
370
    -3
390
F
  0
LAYER
  5
136
330
2
100
AcDbSymbolTableRecord
100
AcDbLayerTableRecord
  2
LAYER-231
 70
     0
 62
     7
  6
Continuous
370
    -3
390
F
  0
LAYER
  5
137
330
2
100
AcDbSymbolTableRecord
100
AcDbLayerTableRecord
  2
LAYER-232
 70
     0
 62
     7
  6
Continuous
370
    -3
390
F
  0
LAYER
  5
138
330
2
100
AcDbSymbolTableRecord
100
AcDbLayerTableRecord
  2
LAYER-233
 70
     0
 62
     7
  6
Continuous
370
    -3
390
F
  0
LAYER
  5
139
330
2
100
AcDbSymbolTableRecord
100
AcDbLayerTableRecord
  2
LAYER-234
 70
     0
 62
     7
  6
Continuous
370
    -3
390
F
  0
LAYER
  5
13A
330
2
100
AcDbSymbolTableRecord
100
AcDbLayerTableRecord
  2
LAYER-235
 70
     0
 62
     7
  6
Continuous
370
    -3
390
F
  0
LAYER
  5
13B
330
2
100
AcDbSymbolTableRecord
100
AcDbLayerTableRecord
  2
LAYER-236
 70
     0
 62
     7
  6
Continuous
370
    -3
390
F
  0
LAYER
  5
13C
330
2
100
AcDbSymbolTableRecord
100
AcDbLayerTableRecord
  2
LAYER-237
 70
     0
 62
     7
  6
Continuous
370
    -3
390
F
  0
LAYER
  5
13D
330
2
100
AcDbSymbolTableRecord
100
AcDbLayerTableRecord
  2
LAYER-238
 70
     0
 62
     7
  6
Continuous
370
    -3
390
F
  0
LAYER
  5
13E
330
2
100
AcDbSymbolTableRecord
100
AcDbLayerTableRecord
  2
LAYER-239
 70
     0
 62
     7
  6
Continuous
370
    -3
390
F
  0
LAYER
  5
13F
330
2
100
AcDbSymbolTableRecord
100
AcDbLayerTableRecord
  2
LAYER-240
 70
     0
 62
     7
  6
Continuous
370
    -3
390
F
  0
LAYER
  5
140
330
2
100
AcDbSymbolTableRecord
100
AcDbLayerTableRecord
  2
LAYER-241
 70
     0
 62
     7
  6
Continuous
370
    -3
390
F
  0
LAYER
  5
141
330
2
100
AcDbSymbolTableRecord
100
AcDbLayerTableRecord
  2
LAYER-242
 70
     0
 62
     7
  6
Continuous
370
    -3
390
F
  0
LAYER
  5
142
330
2
100
AcDbSymbolTableRecord
100
AcDbLayerTableRecord
  2
LAYER-243
 70
     0
 62
     7
  6
Continuous
370
    -3
390
F
  0
LAYER
  5
143
330
2
100
AcDbSymbolTableRecord
100
AcDbLayerTableRecord
  2
LAYER-244
 70
     0
 62
     7
  6
Continuous
370
    -3
390
F
  0
LAYER
  5
144
330
2
100
AcDbSymbolTableRecord
100
AcDbLayerTableRecord
  2
LAYER-245
 70
     0
 62
     7
  6
Continuous
370
    -3
390
F
  0
LAYER
  5
145
330
2
100
AcDbSymbolTableRecord
100
AcDbLayerTableRecord
  2
LAYER-246
 70
     0
 62
     7
  6
Continuous
370
    -3
390
F
  0
LAYER
  5
146
330
2
100
AcDbSymbolTableRecord
100
AcDbLayerTableRecord
  2
LAYER-247
 70
     0
 62
     7
  6
Continuous
370
    -3
390
F
  0
LAYER
  5
147
330
2
100
AcDbSymbolTableRecord
100
AcDbLayerTableRecord
  2
LAYER-248
 70
     0
 62
     7
  6
Continuous
370
    -3
390
F
  0
LAYER
  5
148
330
2
100
AcDbSymbolTableRecord
100
AcDbLayerTableRecord
  2
LAYER-249
 70
     0
 62
     7
  6
Continuous
370
    -3
390
F
  0
LAYER
  5
149
330
2
100
AcDbSymbolTableRecord
100
AcDbLayerTableRecord
  2
LAYER-250
 70
     0
 62
     7
  6
Continuous
370
    -3
390
F
  0
LAYER
  5
14A
330
2
100
AcDbSymbolTableRecord
100
AcDbLayerTableRecord
  2
LAYER-251
 70
     0
 62
     7
  6
Continuous
370
    -3
390
F
  0
LAYER
  5
14B
330
2
100
AcDbSymbolTableRecord
100
AcDbLayerTableRecord
  2
LAYER-252
 70
     0
 62
     7
  6
Continuous
370
    -3
390
F
  0
LAYER
  5
14C
330
2
100
AcDbSymbolTableRecord
100
AcDbLayerTableRecord
  2
LAYER-253
 70
     0
 62
     7
  6
Continuous
370
    -3
390
F
  0
LAYER
  5
14D
330
2
100
AcDbSymbolTableRecord
100
AcDbLayerTableRecord
  2
LAYER-254
 70
     0
 62
     7
  6
Continuous
370
    -3
390
F
  0
LAYER
  5
14E
330
2
100
AcDbSymbolTableRecord
100
AcDbLayerTableRecord
  2
LAYER-255
 70
     0
 62
     7
  6
Continuous
370
    -3
390
F
  0
LAYER
  5
14F
330
2
100
AcDbSymbolTableRecord
100
AcDbLayerTableRecord
  2
LAYER-256
 70
     0
 62
     7
  6
Continuous
370
    -3
390
F
  0
LAYER
  5
150
330
2
100
AcDbSymbolTableRecord
100
AcDbLayerTableRecord
  2
SUPLINE
 70
     0
 62
    -7
  6
Continuous
290
     0
370
    -3
390
F
  0
LAYER
  5
151
330
2
100
AcDbSymbolTableRecord
100
AcDbLayerTableRecord
  2
FRAMELAYER-001
 70
     0
 62
     7
  6
Continuous
370
    -3
390
F
  0
LAYER
  5
152
330
2
100
AcDbSymbolTableRecord
100
AcDbLayerTableRecord
  2
FRAMELAYER-002
 70
     0
 62
     7
  6
Continuous
370
    -3
390
F
  0
LAYER
  5
153
330
2
100
AcDbSymbolTableRecord
100
AcDbLayerTableRecord
  2
FRAMELAYER-003
 70
     0
 62
     7
  6
Continuous
370
    -3
390
F
  0
LAYER
  5
154
330
2
100
AcDbSymbolTableRecord
100
AcDbLayerTableRecord
  2
FRAMELAYER-004
 70
     0
 62
     7
  6
Continuous
370
    -3
390
F
  0
LAYER
  5
155
330
2
100
AcDbSymbolTableRecord
100
AcDbLayerTableRecord
  2
FRAMELAYER-005
 70
     0
 62
     7
  6
Continuous
370
    -3
390
F
  0
LAYER
  5
156
330
2
100
AcDbSymbolTableRecord
100
AcDbLayerTableRecord
  2
FRAMELAYER-006
 70
     0
 62
     7
  6
Continuous
370
    -3
390
F
  0
LAYER
  5
157
330
2
100
AcDbSymbolTableRecord
100
AcDbLayerTableRecord
  2
FRAMELAYER-007
 70
     0
 62
     7
  6
Continuous
370
    -3
390
F
  0
LAYER
  5
158
330
2
100
AcDbSymbolTableRecord
100
AcDbLayerTableRecord
  2
FRAMELAYER-008
 70
     0
 62
     7
  6
Continuous
370
    -3
390
F
  0
LAYER
  5
159
330
2
100
AcDbSymbolTableRecord
100
AcDbLayerTableRecord
  2
FRAMELAYER-009
 70
     0
 62
     7
  6
Continuous
370
    -3
390
F
  0
LAYER
  5
15A
330
2
100
AcDbSymbolTableRecord
100
AcDbLayerTableRecord
  2
FRAMELAYER-010
 70
     0
 62
     7
  6
Continuous
370
    -3
390
F
  0
LAYER
  5
15B
330
2
100
AcDbSymbolTableRecord
100
AcDbLayerTableRecord
  2
FRAMELAYER-011
 70
     0
 62
     7
  6
Continuous
370
    -3
390
F
  0
LAYER
  5
15C
330
2
100
AcDbSymbolTableRecord
100
AcDbLayerTableRecord
  2
FRAMELAYER-012
 70
     0
 62
     7
  6
Continuous
370
    -3
390
F
  0
LAYER
  5
15D
330
2
100
AcDbSymbolTableRecord
100
AcDbLayerTableRecord
  2
FRAMELAYER-013
 70
     0
 62
     7
  6
Continuous
370
    -3
390
F
  0
LAYER
  5
15E
330
2
100
AcDbSymbolTableRecord
100
AcDbLayerTableRecord
  2
FRAMELAYER-014
 70
     0
 62
     7
  6
Continuous
370
    -3
390
F
  0
LAYER
  5
15F
330
2
100
AcDbSymbolTableRecord
100
AcDbLayerTableRecord
  2
FRAMELAYER-015
 70
     0
 62
    -7
  6
Continuous
370
    -3
390
F
  0
LAYER
  5
160
330
2
100
AcDbSymbolTableRecord
100
AcDbLayerTableRecord
  2
FRAMELAYER-016
 70
     0
 62
     4
  6
Continuous
370
    -3
390
F
  0
LAYER
  5
161
330
2
100
AcDbSymbolTableRecord
100
AcDbLayerTableRecord
  2
FRAMELAYER-017
 70
     0
 62
     7
  6
Continuous
370
    -3
390
F
  0
LAYER
  5
162
330
2
100
AcDbSymbolTableRecord
100
AcDbLayerTableRecord
  2
FRAMELAYER-018
 70
     0
 62
     2
  6
Continuous
370
    -3
390
F
  0
LAYER
  5
163
330
2
100
AcDbSymbolTableRecord
100
AcDbLayerTableRecord
  2
FRAMELAYER-019
 70
     0
 62
     3
  6
Continuous
370
    -3
390
F
  0
LAYER
  5
164
330
2
100
AcDbSymbolTableRecord
100
AcDbLayerTableRecord
  2
FRAMELAYER-020
 70
     0
 62
     2
  6
Continuous
370
    -3
390
F
  0
LAYER
  5
165
330
2
100
AcDbSymbolTableRecord
100
AcDbLayerTableRecord
  2
FRAMELAYER-021
 70
     0
 62
     7
  6
Continuous
370
    -3
390
F
  0
LAYER
  5
166
330
2
100
AcDbSymbolTableRecord
100
AcDbLayerTableRecord
  2
FRAMELAYER-022
 70
     0
 62
     4
  6
Continuous
370
    -3
390
F
  0
LAYER
  5
167
330
2
100
AcDbSymbolTableRecord
100
AcDbLayerTableRecord
  2
FRAMELAYER-023
 70
     0
 62
     4
  6
Continuous
370
    -3
390
F
  0
LAYER
  5
168
330
2
100
AcDbSymbolTableRecord
100
AcDbLayerTableRecord
  2
FRAMELAYER-024
 70
     0
 62
     7
  6
Continuous
370
    -3
390
F
  0
LAYER
  5
169
330
2
100
AcDbSymbolTableRecord
100
AcDbLayerTableRecord
  2
FRAMELAYER-025
 70
     0
 62
     7
  6
Continuous
370
    -3
390
F
  0
LAYER
  5
16A
330
2
100
AcDbSymbolTableRecord
100
AcDbLayerTableRecord
  2
FRAMELAYER-026
 70
     0
 62
    -7
  6
Continuous
370
    -3
390
F
  0
LAYER
  5
16B
330
2
100
AcDbSymbolTableRecord
100
AcDbLayerTableRecord
  2
FRAMELAYER-027
 70
     0
 62
     7
  6
Continuous
370
    -3
390
F
  0
LAYER
  5
16C
330
2
100
AcDbSymbolTableRecord
100
AcDbLayerTableRecord
  2
FRAMELAYER-028
 70
     0
 62
     7
  6
Continuous
370
    -3
390
F
  0
LAYER
  5
16D
330
2
100
AcDbSymbolTableRecord
100
AcDbLayerTableRecord
  2
FRAMELAYER-029
 70
     0
 62
     7
  6
Continuous
370
    -3
390
F
  0
LAYER
  5
16E
330
2
100
AcDbSymbolTableRecord
100
AcDbLayerTableRecord
  2
FRAMELAYER-030
 70
     0
 62
     2
  6
Continuous
370
    -3
390
F
  0
LAYER
  5
16F
330
2
100
AcDbSymbolTableRecord
100
AcDbLayerTableRecord
  2
FRAMELAYER-031
 70
     0
 62
     7
  6
Continuous
370
    -3
390
F
  0
LAYER
  5
170
330
2
100
AcDbSymbolTableRecord
100
AcDbLayerTableRecord
  2
FRAMELAYER-032
 70
     0
 62
     2
  6
Continuous
370
    -3
390
F
  0
LAYER
  5
171
330
2
100
AcDbSymbolTableRecord
100
AcDbLayerTableRecord
  2
FRAMELAYER-033
 70
     0
 62
     7
  6
Continuous
370
    -3
390
F
  0
LAYER
  5
172
330
2
100
AcDbSymbolTableRecord
100
AcDbLayerTableRecord
  2
FRAMELAYER-034
 70
     0
 62
     7
  6
Continuous
370
    -3
390
F
  0
LAYER
  5
173
330
2
100
AcDbSymbolTableRecord
100
AcDbLayerTableRecord
  2
FRAMELAYER-035
 70
     0
 62
     3
  6
Continuous
370
    -3
390
F
  0
LAYER
  5
174
330
2
100
AcDbSymbolTableRecord
100
AcDbLayerTableRecord
  2
FRAMELAYER-036
 70
     0
 62
     2
  6
Continuous
370
    -3
390
F
  0
LAYER
  5
175
330
2
100
AcDbSymbolTableRecord
100
AcDbLayerTableRecord
  2
FRAMELAYER-037
 70
     0
 62
     7
  6
Continuous
370
    -3
390
F
  0
LAYER
  5
176
330
2
100
AcDbSymbolTableRecord
100
AcDbLayerTableRecord
  2
FRAMELAYER-038
 70
     0
 62
     7
  6
Continuous
370
    -3
390
F
  0
LAYER
  5
177
330
2
100
AcDbSymbolTableRecord
100
AcDbLayerTableRecord
  2
FRAMELAYER-039
 70
     0
 62
     7
  6
Continuous
370
    -3
390
F
  0
LAYER
  5
178
330
2
100
AcDbSymbolTableRecord
100
AcDbLayerTableRecord
  2
FRAMELAYER-040
 70
     0
 62
     7
  6
Continuous
370
    -3
390
F
  0
LAYER
  5
179
330
2
100
AcDbSymbolTableRecord
100
AcDbLayerTableRecord
  2
FRAMELAYER-041
 70
     0
 62
     7
  6
Continuous
370
    -3
390
F
  0
LAYER
  5
17A
330
2
100
AcDbSymbolTableRecord
100
AcDbLayerTableRecord
  2
FRAMELAYER-042
 70
     0
 62
     7
  6
Continuous
370
    -3
390
F
  0
LAYER
  5
17B
330
2
100
AcDbSymbolTableRecord
100
AcDbLayerTableRecord
  2
FRAMELAYER-043
 70
     0
 62
     7
  6
Continuous
370
    -3
390
F
  0
LAYER
  5
17C
330
2
100
AcDbSymbolTableRecord
100
AcDbLayerTableRecord
  2
FRAMELAYER-044
 70
     0
 62
     7
  6
Continuous
370
    -3
390
F
  0
LAYER
  5
17D
330
2
100
AcDbSymbolTableRecord
100
AcDbLayerTableRecord
  2
FRAMELAYER-045
 70
     0
 62
     7
  6
Continuous
370
    -3
390
F
  0
LAYER
  5
17E
330
2
100
AcDbSymbolTableRecord
100
AcDbLayerTableRecord
  2
FRAMELAYER-046
 70
     0
 62
     7
  6
Continuous
370
    -3
390
F
  0
LAYER
  5
17F
330
2
100
AcDbSymbolTableRecord
100
AcDbLayerTableRecord
  2
FRAMELAYER-047
 70
     0
 62
     7
  6
Continuous
370
    -3
390
F
  0
LAYER
  5
180
330
2
100
AcDbSymbolTableRecord
100
AcDbLayerTableRecord
  2
FRAMELAYER-048
 70
     0
 62
     2
  6
Continuous
370
    -3
390
F
  0
LAYER
  5
181
330
2
100
AcDbSymbolTableRecord
100
AcDbLayerTableRecord
  2
FRAMELAYER-049
 70
     0
 62
     3
  6
Continuous
370
    -3
390
F
  0
LAYER
  5
182
330
2
100
AcDbSymbolTableRecord
100
AcDbLayerTableRecord
  2
FRAMELAYER-050
 70
     0
 62
     7
  6
Continuous
370
    -3
390
F
  0
LAYER
  5
183
330
2
100
AcDbSymbolTableRecord
100
AcDbLayerTableRecord
  2
FRAMELAYER-051
 70
     0
 62
     2
  6
Continuous
370
    -3
390
F
  0
LAYER
  5
184
330
2
100
AcDbSymbolTableRecord
100
AcDbLayerTableRecord
  2
FRAMELAYER-052
 70
     0
 62
     7
  6
Continuous
370
    -3
390
F
  0
LAYER
  5
185
330
2
100
AcDbSymbolTableRecord
100
AcDbLayerTableRecord
  2
FRAMELAYER-053
 70
     0
 62
     7
  6
Continuous
370
    -3
390
F
  0
LAYER
  5
186
330
2
100
AcDbSymbolTableRecord
100
AcDbLayerTableRecord
  2
FRAMELAYER-054
 70
     0
 62
     7
  6
Continuous
370
    -3
390
F
  0
LAYER
  5
187
330
2
100
AcDbSymbolTableRecord
100
AcDbLayerTableRecord
  2
FRAMELAYER-055
 70
     0
 62
     7
  6
Continuous
370
    -3
390
F
  0
LAYER
  5
188
330
2
100
AcDbSymbolTableRecord
100
AcDbLayerTableRecord
  2
FRAMELAYER-056
 70
     0
 62
     7
  6
Continuous
370
    -3
390
F
  0
LAYER
  5
189
330
2
100
AcDbSymbolTableRecord
100
AcDbLayerTableRecord
  2
FRAMELAYER-057
 70
     0
 62
     7
  6
Continuous
370
    -3
390
F
  0
LAYER
  5
18A
330
2
100
AcDbSymbolTableRecord
100
AcDbLayerTableRecord
  2
FRAMELAYER-058
 70
     0
 62
     7
  6
Continuous
370
    -3
390
F
  0
LAYER
  5
18B
330
2
100
AcDbSymbolTableRecord
100
AcDbLayerTableRecord
  2
FRAMELAYER-059
 70
     0
 62
     7
  6
Continuous
370
    -3
390
F
  0
LAYER
  5
18C
330
2
100
AcDbSymbolTableRecord
100
AcDbLayerTableRecord
  2
FRAMELAYER-060
 70
     0
 62
     7
  6
Continuous
370
    -3
390
F
  0
LAYER
  5
18D
330
2
100
AcDbSymbolTableRecord
100
AcDbLayerTableRecord
  2
FRAMELAYER-061
 70
     0
 62
     7
  6
Continuous
370
    -3
390
F
  0
LAYER
  5
18E
330
2
100
AcDbSymbolTableRecord
100
AcDbLayerTableRecord
  2
FRAMELAYER-062
 70
     0
 62
     7
  6
Continuous
370
    -3
390
F
  0
LAYER
  5
18F
330
2
100
AcDbSymbolTableRecord
100
AcDbLayerTableRecord
  2
FRAMELAYER-063
 70
     0
 62
     7
  6
Continuous
370
    -3
390
F
  0
LAYER
  5
190
330
2
100
AcDbSymbolTableRecord
100
AcDbLayerTableRecord
  2
FRAMELAYER-064
 70
     0
 62
     2
  6
Continuous
370
    -3
390
F
  0
LAYER
  5
191
330
2
100
AcDbSymbolTableRecord
100
AcDbLayerTableRecord
  2
FRAMELAYER-065
 70
     0
 62
     7
  6
Continuous
370
    -3
390
F
  0
LAYER
  5
192
330
2
100
AcDbSymbolTableRecord
100
AcDbLayerTableRecord
  2
FRAMELAYER-066
 70
     0
 62
     2
  6
Continuous
370
    -3
390
F
  0
LAYER
  5
193
330
2
100
AcDbSymbolTableRecord
100
AcDbLayerTableRecord
  2
FRAMELAYER-067
 70
     0
 62
     2
  6
Continuous
370
    -3
390
F
  0
LAYER
  5
194
330
2
100
AcDbSymbolTableRecord
100
AcDbLayerTableRecord
  2
FRAMELAYER-068
 70
     0
 62
     7
  6
Continuous
370
    -3
390
F
  0
LAYER
  5
195
330
2
100
AcDbSymbolTableRecord
100
AcDbLayerTableRecord
  2
FRAMELAYER-069
 70
     0
 62
     7
  6
Continuous
370
    -3
390
F
  0
LAYER
  5
196
330
2
100
AcDbSymbolTableRecord
100
AcDbLayerTableRecord
  2
FRAMELAYER-070
 70
     0
 62
     7
  6
Continuous
370
    -3
390
F
  0
LAYER
  5
197
330
2
100
AcDbSymbolTableRecord
100
AcDbLayerTableRecord
  2
FRAMELAYER-071
 70
     0
 62
     7
  6
Continuous
370
    -3
390
F
  0
LAYER
  5
198
330
2
100
AcDbSymbolTableRecord
100
AcDbLayerTableRecord
  2
FRAMELAYER-072
 70
     0
 62
     7
  6
Continuous
370
    -3
390
F
  0
LAYER
  5
199
330
2
100
AcDbSymbolTableRecord
100
AcDbLayerTableRecord
  2
FRAMELAYER-073
 70
     0
 62
     7
  6
Continuous
370
    -3
390
F
  0
LAYER
  5
19A
330
2
100
AcDbSymbolTableRecord
100
AcDbLayerTableRecord
  2
FRAMELAYER-074
 70
     0
 62
     7
  6
Continuous
370
    -3
390
F
  0
LAYER
  5
19B
330
2
100
AcDbSymbolTableRecord
100
AcDbLayerTableRecord
  2
FRAMELAYER-075
 70
     0
 62
     7
  6
Continuous
370
    -3
390
F
  0
LAYER
  5
19C
330
2
100
AcDbSymbolTableRecord
100
AcDbLayerTableRecord
  2
FRAMELAYER-076
 70
     0
 62
     7
  6
Continuous
370
    -3
390
F
  0
LAYER
  5
19D
330
2
100
AcDbSymbolTableRecord
100
AcDbLayerTableRecord
  2
FRAMELAYER-077
 70
     0
 62
     7
  6
Continuous
370
    -3
390
F
  0
LAYER
  5
19E
330
2
100
AcDbSymbolTableRecord
100
AcDbLayerTableRecord
  2
FRAMELAYER-078
 70
     0
 62
     7
  6
Continuous
370
    -3
390
F
  0
LAYER
  5
19F
330
2
100
AcDbSymbolTableRecord
100
AcDbLayerTableRecord
  2
FRAMELAYER-079
 70
     0
 62
     7
  6
Continuous
370
    -3
390
F
  0
LAYER
  5
1A0
330
2
100
AcDbSymbolTableRecord
100
AcDbLayerTableRecord
  2
FRAMELAYER-080
 70
     0
 62
     2
  6
Continuous
370
    -3
390
F
  0
LAYER
  5
1A1
330
2
100
AcDbSymbolTableRecord
100
AcDbLayerTableRecord
  2
FRAMELAYER-081
 70
     0
 62
     7
  6
Continuous
370
    -3
390
F
  0
LAYER
  5
1A2
330
2
100
AcDbSymbolTableRecord
100
AcDbLayerTableRecord
  2
FRAMELAYER-082
 70
     0
 62
     7
  6
Continuous
370
    -3
390
F
  0
LAYER
  5
1A3
330
2
100
AcDbSymbolTableRecord
100
AcDbLayerTableRecord
  2
FRAMELAYER-083
 70
     0
 62
     7
  6
Continuous
370
    -3
390
F
  0
LAYER
  5
1A4
330
2
100
AcDbSymbolTableRecord
100
AcDbLayerTableRecord
  2
FRAMELAYER-084
 70
     0
 62
     7
  6
Continuous
370
    -3
390
F
  0
LAYER
  5
1A5
330
2
100
AcDbSymbolTableRecord
100
AcDbLayerTableRecord
  2
FRAMELAYER-085
 70
     0
 62
     7
  6
Continuous
370
    -3
390
F
  0
LAYER
  5
1A6
330
2
100
AcDbSymbolTableRecord
100
AcDbLayerTableRecord
  2
FRAMELAYER-086
 70
     0
 62
     7
  6
Continuous
370
    -3
390
F
  0
LAYER
  5
1A7
330
2
100
AcDbSymbolTableRecord
100
AcDbLayerTableRecord
  2
FRAMELAYER-087
 70
     0
 62
     7
  6
Continuous
370
    -3
390
F
  0
LAYER
  5
1A8
330
2
100
AcDbSymbolTableRecord
100
AcDbLayerTableRecord
  2
FRAMELAYER-088
 70
     0
 62
     7
  6
Continuous
370
    -3
390
F
  0
LAYER
  5
1A9
330
2
100
AcDbSymbolTableRecord
100
AcDbLayerTableRecord
  2
FRAMELAYER-089
 70
     0
 62
     7
  6
Continuous
370
    -3
390
F
  0
LAYER
  5
1AA
330
2
100
AcDbSymbolTableRecord
100
AcDbLayerTableRecord
  2
FRAMELAYER-090
 70
     0
 62
     7
  6
Continuous
370
    -3
390
F
  0
LAYER
  5
1AB
330
2
100
AcDbSymbolTableRecord
100
AcDbLayerTableRecord
  2
FRAMELAYER-091
 70
     0
 62
     7
  6
Continuous
370
    -3
390
F
  0
LAYER
  5
1AC
330
2
100
AcDbSymbolTableRecord
100
AcDbLayerTableRecord
  2
FRAMELAYER-092
 70
     0
 62
     7
  6
Continuous
370
    -3
390
F
  0
LAYER
  5
1AD
330
2
100
AcDbSymbolTableRecord
100
AcDbLayerTableRecord
  2
FRAMELAYER-093
 70
     0
 62
     7
  6
Continuous
370
    -3
390
F
  0
LAYER
  5
1AE
330
2
100
AcDbSymbolTableRecord
100
AcDbLayerTableRecord
  2
FRAMELAYER-094
 70
     0
 62
     7
  6
Continuous
370
    -3
390
F
  0
LAYER
  5
1AF
330
2
100
AcDbSymbolTableRecord
100
AcDbLayerTableRecord
  2
FRAMELAYER-095
 70
     0
 62
     7
  6
Continuous
370
    -3
390
F
  0
LAYER
  5
1B0
330
2
100
AcDbSymbolTableRecord
100
AcDbLayerTableRecord
  2
FRAMELAYER-096
 70
     0
 62
     7
  6
Continuous
370
    -3
390
F
  0
LAYER
  5
1B1
330
2
100
AcDbSymbolTableRecord
100
AcDbLayerTableRecord
  2
FRAMELAYER-097
 70
     0
 62
     7
  6
Continuous
370
    -3
390
F
  0
LAYER
  5
1B2
330
2
100
AcDbSymbolTableRecord
100
AcDbLayerTableRecord
  2
FRAMELAYER-098
 70
     0
 62
     7
  6
Continuous
370
    -3
390
F
  0
LAYER
  5
1B3
330
2
100
AcDbSymbolTableRecord
100
AcDbLayerTableRecord
  2
FRAMELAYER-099
 70
     0
 62
     7
  6
Continuous
370
    -3
390
F
  0
LAYER
  5
1B4
330
2
100
AcDbSymbolTableRecord
100
AcDbLayerTableRecord
  2
FRAMELAYER-100
 70
     0
 62
     7
  6
Continuous
370
    -3
390
F
  0
LAYER
  5
1B5
330
2
100
AcDbSymbolTableRecord
100
AcDbLayerTableRecord
  2
FRAMELAYER-101
 70
     0
 62
     7
  6
Continuous
370
    -3
390
F
  0
LAYER
  5
1B6
330
2
100
AcDbSymbolTableRecord
100
AcDbLayerTableRecord
  2
FRAMELAYER-102
 70
     0
 62
     7
  6
Continuous
370
    -3
390
F
  0
LAYER
  5
1B7
330
2
100
AcDbSymbolTableRecord
100
AcDbLayerTableRecord
  2
FRAMELAYER-103
 70
     0
 62
     7
  6
Continuous
370
    -3
390
F
  0
LAYER
  5
1B8
330
2
100
AcDbSymbolTableRecord
100
AcDbLayerTableRecord
  2
FRAMELAYER-104
 70
     0
 62
     7
  6
Continuous
370
    -3
390
F
  0
LAYER
  5
1B9
330
2
100
AcDbSymbolTableRecord
100
AcDbLayerTableRecord
  2
FRAMELAYER-105
 70
     0
 62
     7
  6
Continuous
370
    -3
390
F
  0
LAYER
  5
1BA
330
2
100
AcDbSymbolTableRecord
100
AcDbLayerTableRecord
  2
FRAMELAYER-106
 70
     0
 62
     7
  6
Continuous
370
    -3
390
F
  0
LAYER
  5
1BB
330
2
100
AcDbSymbolTableRecord
100
AcDbLayerTableRecord
  2
FRAMELAYER-107
 70
     0
 62
     7
  6
Continuous
370
    -3
390
F
  0
LAYER
  5
1BC
330
2
100
AcDbSymbolTableRecord
100
AcDbLayerTableRecord
  2
FRAMELAYER-108
 70
     0
 62
     7
  6
Continuous
370
    -3
390
F
  0
LAYER
  5
1BD
330
2
100
AcDbSymbolTableRecord
100
AcDbLayerTableRecord
  2
FRAMELAYER-109
 70
     0
 62
     7
  6
Continuous
370
    -3
390
F
  0
LAYER
  5
1BE
330
2
100
AcDbSymbolTableRecord
100
AcDbLayerTableRecord
  2
FRAMELAYER-110
 70
     0
 62
     7
  6
Continuous
370
    -3
390
F
  0
LAYER
  5
1BF
330
2
100
AcDbSymbolTableRecord
100
AcDbLayerTableRecord
  2
FRAMELAYER-111
 70
     0
 62
     7
  6
Continuous
370
    -3
390
F
  0
LAYER
  5
1C0
330
2
100
AcDbSymbolTableRecord
100
AcDbLayerTableRecord
  2
FRAMELAYER-112
 70
     0
 62
     7
  6
Continuous
370
    -3
390
F
  0
LAYER
  5
1C1
330
2
100
AcDbSymbolTableRecord
100
AcDbLayerTableRecord
  2
FRAMELAYER-113
 70
     0
 62
     7
  6
Continuous
370
    -3
390
F
  0
LAYER
  5
1C2
330
2
100
AcDbSymbolTableRecord
100
AcDbLayerTableRecord
  2
FRAMELAYER-114
 70
     0
 62
     7
  6
Continuous
370
    -3
390
F
  0
LAYER
  5
1C3
330
2
100
AcDbSymbolTableRecord
100
AcDbLayerTableRecord
  2
FRAMELAYER-115
 70
     0
 62
     7
  6
Continuous
370
    -3
390
F
  0
LAYER
  5
1C4
330
2
100
AcDbSymbolTableRecord
100
AcDbLayerTableRecord
  2
FRAMELAYER-116
 70
     0
 62
     7
  6
Continuous
370
    -3
390
F
  0
LAYER
  5
1C5
330
2
100
AcDbSymbolTableRecord
100
AcDbLayerTableRecord
  2
FRAMELAYER-117
 70
     0
 62
     7
  6
Continuous
370
    -3
390
F
  0
LAYER
  5
1C6
330
2
100
AcDbSymbolTableRecord
100
AcDbLayerTableRecord
  2
FRAMELAYER-118
 70
     0
 62
     7
  6
Continuous
370
    -3
390
F
  0
LAYER
  5
1C7
330
2
100
AcDbSymbolTableRecord
100
AcDbLayerTableRecord
  2
FRAMELAYER-119
 70
     0
 62
     7
  6
Continuous
370
    -3
390
F
  0
LAYER
  5
1C8
330
2
100
AcDbSymbolTableRecord
100
AcDbLayerTableRecord
  2
FRAMELAYER-120
 70
     0
 62
     7
  6
Continuous
370
    -3
390
F
  0
LAYER
  5
1C9
330
2
100
AcDbSymbolTableRecord
100
AcDbLayerTableRecord
  2
FRAMELAYER-121
 70
     0
 62
     7
  6
Continuous
370
    -3
390
F
  0
LAYER
  5
1CA
330
2
100
AcDbSymbolTableRecord
100
AcDbLayerTableRecord
  2
FRAMELAYER-122
 70
     0
 62
     7
  6
Continuous
370
    -3
390
F
  0
LAYER
  5
1CB
330
2
100
AcDbSymbolTableRecord
100
AcDbLayerTableRecord
  2
FRAMELAYER-123
 70
     0
 62
     7
  6
Continuous
370
    -3
390
F
  0
LAYER
  5
1CC
330
2
100
AcDbSymbolTableRecord
100
AcDbLayerTableRecord
  2
FRAMELAYER-124
 70
     0
 62
     7
  6
Continuous
370
    -3
390
F
  0
LAYER
  5
1CD
330
2
100
AcDbSymbolTableRecord
100
AcDbLayerTableRecord
  2
FRAMELAYER-125
 70
     0
 62
     7
  6
Continuous
370
    -3
390
F
  0
LAYER
  5
1CE
330
2
100
AcDbSymbolTableRecord
100
AcDbLayerTableRecord
  2
FRAMELAYER-126
 70
     0
 62
     7
  6
Continuous
370
    -3
390
F
  0
LAYER
  5
1CF
330
2
100
AcDbSymbolTableRecord
100
AcDbLayerTableRecord
  2
FRAMELAYER-127
 70
     0
 62
     7
  6
Continuous
370
    -3
390
F
  0
LAYER
  5
1D0
330
2
100
AcDbSymbolTableRecord
100
AcDbLayerTableRecord
  2
FRAMELAYER-128
 70
     0
 62
     7
  6
Continuous
370
    -3
390
F
  0
LAYER
  5
1D1
330
2
100
AcDbSymbolTableRecord
100
AcDbLayerTableRecord
  2
FRAMELAYER-129
 70
     0
 62
     7
  6
Continuous
370
    -3
390
F
  0
LAYER
  5
1D2
330
2
100
AcDbSymbolTableRecord
100
AcDbLayerTableRecord
  2
FRAMELAYER-130
 70
     0
 62
     7
  6
Continuous
370
    -3
390
F
  0
LAYER
  5
1D3
330
2
100
AcDbSymbolTableRecord
100
AcDbLayerTableRecord
  2
FRAMELAYER-131
 70
     0
 62
     7
  6
Continuous
370
    -3
390
F
  0
LAYER
  5
1D4
330
2
100
AcDbSymbolTableRecord
100
AcDbLayerTableRecord
  2
FRAMELAYER-132
 70
     0
 62
     7
  6
Continuous
370
    -3
390
F
  0
LAYER
  5
1D5
330
2
100
AcDbSymbolTableRecord
100
AcDbLayerTableRecord
  2
FRAMELAYER-133
 70
     0
 62
     7
  6
Continuous
370
    -3
390
F
  0
LAYER
  5
1D6
330
2
100
AcDbSymbolTableRecord
100
AcDbLayerTableRecord
  2
FRAMELAYER-134
 70
     0
 62
     7
  6
Continuous
370
    -3
390
F
  0
LAYER
  5
1D7
330
2
100
AcDbSymbolTableRecord
100
AcDbLayerTableRecord
  2
FRAMELAYER-135
 70
     0
 62
    -4
  6
Continuous
370
    -3
390
F
  0
LAYER
  5
1D8
330
2
100
AcDbSymbolTableRecord
100
AcDbLayerTableRecord
  2
FRAMELAYER-136
 70
     0
 62
    -3
  6
Continuous
370
    -3
390
F
  0
LAYER
  5
1D9
330
2
100
AcDbSymbolTableRecord
100
AcDbLayerTableRecord
  2
FRAMELAYER-137
 70
     0
 62
    -1
  6
Continuous
370
    -3
390
F
  0
LAYER
  5
1DA
330
2
100
AcDbSymbolTableRecord
100
AcDbLayerTableRecord
  2
FRAMELAYER-138
 70
     0
 62
     7
  6
Continuous
370
    -3
390
F
  0
LAYER
  5
1DB
330
2
100
AcDbSymbolTableRecord
100
AcDbLayerTableRecord
  2
FRAMELAYER-139
 70
     0
 62
     7
  6
Continuous
370
    -3
390
F
  0
LAYER
  5
1DC
330
2
100
AcDbSymbolTableRecord
100
AcDbLayerTableRecord
  2
FRAMELAYER-140
 70
     0
 62
     7
  6
Continuous
370
    -3
390
F
  0
LAYER
  5
1DD
330
2
100
AcDbSymbolTableRecord
100
AcDbLayerTableRecord
  2
FRAMELAYER-141
 70
     0
 62
     7
  6
Continuous
370
    -3
390
F
  0
LAYER
  5
1DE
330
2
100
AcDbSymbolTableRecord
100
AcDbLayerTableRecord
  2
FRAMELAYER-142
 70
     0
 62
     3
  6
Continuous
370
    -3
390
F
  0
LAYER
  5
1DF
330
2
100
AcDbSymbolTableRecord
100
AcDbLayerTableRecord
  2
FRAMELAYER-143
 70
     0
 62
     7
  6
Continuous
370
    -3
390
F
  0
LAYER
  5
1E0
330
2
100
AcDbSymbolTableRecord
100
AcDbLayerTableRecord
  2
FRAMELAYER-144
 70
     0
 62
     7
  6
Continuous
370
    -3
390
F
  0
LAYER
  5
1E1
330
2
100
AcDbSymbolTableRecord
100
AcDbLayerTableRecord
  2
FRAMELAYER-145
 70
     0
 62
     3
  6
Continuous
370
    -3
390
F
  0
LAYER
  5
1E2
330
2
100
AcDbSymbolTableRecord
100
AcDbLayerTableRecord
  2
FRAMELAYER-146
 70
     0
 62
     7
  6
Continuous
370
    -3
390
F
  0
LAYER
  5
1E3
330
2
100
AcDbSymbolTableRecord
100
AcDbLayerTableRecord
  2
FRAMELAYER-147
 70
     0
 62
     7
  6
Continuous
370
    -3
390
F
  0
LAYER
  5
1E4
330
2
100
AcDbSymbolTableRecord
100
AcDbLayerTableRecord
  2
FRAMELAYER-148
 70
     0
 62
     7
  6
Continuous
370
    -3
390
F
  0
LAYER
  5
1E5
330
2
100
AcDbSymbolTableRecord
100
AcDbLayerTableRecord
  2
FRAMELAYER-149
 70
     0
 62
     7
  6
Continuous
370
    -3
390
F
  0
LAYER
  5
1E6
330
2
100
AcDbSymbolTableRecord
100
AcDbLayerTableRecord
  2
FRAMELAYER-150
 70
     0
 62
     7
  6
Continuous
370
    -3
390
F
  0
LAYER
  5
1E7
330
2
100
AcDbSymbolTableRecord
100
AcDbLayerTableRecord
  2
FRAMELAYER-151
 70
     0
 62
     7
  6
Continuous
370
    -3
390
F
  0
LAYER
  5
1E8
330
2
100
AcDbSymbolTableRecord
100
AcDbLayerTableRecord
  2
FRAMELAYER-152
 70
     0
 62
     7
  6
Continuous
370
    -3
390
F
  0
LAYER
  5
1E9
330
2
100
AcDbSymbolTableRecord
100
AcDbLayerTableRecord
  2
FRAMELAYER-153
 70
     0
 62
     7
  6
Continuous
370
    -3
390
F
  0
LAYER
  5
1EA
330
2
100
AcDbSymbolTableRecord
100
AcDbLayerTableRecord
  2
FRAMELAYER-154
 70
     0
 62
     7
  6
Continuous
370
    -3
390
F
  0
LAYER
  5
1EB
330
2
100
AcDbSymbolTableRecord
100
AcDbLayerTableRecord
  2
FRAMELAYER-155
 70
     0
 62
     7
  6
Continuous
370
    -3
390
F
  0
LAYER
  5
1EC
330
2
100
AcDbSymbolTableRecord
100
AcDbLayerTableRecord
  2
FRAMELAYER-156
 70
     0
 62
     7
  6
Continuous
370
    -3
390
F
  0
LAYER
  5
1ED
330
2
100
AcDbSymbolTableRecord
100
AcDbLayerTableRecord
  2
FRAMELAYER-157
 70
     0
 62
     7
  6
Continuous
370
    -3
390
F
  0
LAYER
  5
1EE
330
2
100
AcDbSymbolTableRecord
100
AcDbLayerTableRecord
  2
FRAMELAYER-158
 70
     0
 62
     7
  6
Continuous
370
    -3
390
F
  0
LAYER
  5
1EF
330
2
100
AcDbSymbolTableRecord
100
AcDbLayerTableRecord
  2
FRAMELAYER-159
 70
     0
 62
     7
  6
Continuous
370
    -3
390
F
  0
LAYER
  5
1F0
330
2
100
AcDbSymbolTableRecord
100
AcDbLayerTableRecord
  2
FRAMELAYER-160
 70
     0
 62
     7
  6
Continuous
370
    -3
390
F
  0
LAYER
  5
1F1
330
2
100
AcDbSymbolTableRecord
100
AcDbLayerTableRecord
  2
FRAMELAYER-161
 70
     0
 62
     7
  6
Continuous
370
    -3
390
F
  0
LAYER
  5
1F2
330
2
100
AcDbSymbolTableRecord
100
AcDbLayerTableRecord
  2
FRAMELAYER-162
 70
     0
 62
     7
  6
Continuous
370
    -3
390
F
  0
LAYER
  5
1F3
330
2
100
AcDbSymbolTableRecord
100
AcDbLayerTableRecord
  2
FRAMELAYER-163
 70
     0
 62
     7
  6
Continuous
370
    -3
390
F
  0
LAYER
  5
1F4
330
2
100
AcDbSymbolTableRecord
100
AcDbLayerTableRecord
  2
FRAMELAYER-164
 70
     0
 62
     7
  6
Continuous
370
    -3
390
F
  0
LAYER
  5
1F5
330
2
100
AcDbSymbolTableRecord
100
AcDbLayerTableRecord
  2
FRAMELAYER-165
 70
     0
 62
     7
  6
Continuous
370
    -3
390
F
  0
LAYER
  5
1F6
330
2
100
AcDbSymbolTableRecord
100
AcDbLayerTableRecord
  2
FRAMELAYER-166
 70
     0
 62
     7
  6
Continuous
370
    -3
390
F
  0
LAYER
  5
1F7
330
2
100
AcDbSymbolTableRecord
100
AcDbLayerTableRecord
  2
FRAMELAYER-167
 70
     0
 62
     7
  6
Continuous
370
    -3
390
F
  0
LAYER
  5
1F8
330
2
100
AcDbSymbolTableRecord
100
AcDbLayerTableRecord
  2
FRAMELAYER-168
 70
     0
 62
     7
  6
Continuous
370
    -3
390
F
  0
LAYER
  5
1F9
330
2
100
AcDbSymbolTableRecord
100
AcDbLayerTableRecord
  2
FRAMELAYER-169
 70
     0
 62
     7
  6
Continuous
370
    -3
390
F
  0
LAYER
  5
1FA
330
2
100
AcDbSymbolTableRecord
100
AcDbLayerTableRecord
  2
FRAMELAYER-170
 70
     0
 62
     7
  6
Continuous
370
    -3
390
F
  0
LAYER
  5
1FB
330
2
100
AcDbSymbolTableRecord
100
AcDbLayerTableRecord
  2
FRAMELAYER-171
 70
     0
 62
     7
  6
Continuous
370
    -3
390
F
  0
LAYER
  5
1FC
330
2
100
AcDbSymbolTableRecord
100
AcDbLayerTableRecord
  2
FRAMELAYER-172
 70
     0
 62
     7
  6
Continuous
370
    -3
390
F
  0
LAYER
  5
1FD
330
2
100
AcDbSymbolTableRecord
100
AcDbLayerTableRecord
  2
FRAMELAYER-173
 70
     0
 62
     7
  6
Continuous
370
    -3
390
F
  0
LAYER
  5
1FE
330
2
100
AcDbSymbolTableRecord
100
AcDbLayerTableRecord
  2
FRAMELAYER-174
 70
     0
 62
     7
  6
Continuous
370
    -3
390
F
  0
LAYER
  5
1FF
330
2
100
AcDbSymbolTableRecord
100
AcDbLayerTableRecord
  2
FRAMELAYER-175
 70
     0
 62
     7
  6
Continuous
370
    -3
390
F
  0
LAYER
  5
200
330
2
100
AcDbSymbolTableRecord
100
AcDbLayerTableRecord
  2
FRAMELAYER-176
 70
     0
 62
     7
  6
Continuous
370
    -3
390
F
  0
LAYER
  5
201
330
2
100
AcDbSymbolTableRecord
100
AcDbLayerTableRecord
  2
FRAMELAYER-177
 70
     0
 62
     7
  6
Continuous
370
    -3
390
F
  0
LAYER
  5
202
330
2
100
AcDbSymbolTableRecord
100
AcDbLayerTableRecord
  2
FRAMELAYER-178
 70
     0
 62
     7
  6
Continuous
370
    -3
390
F
  0
LAYER
  5
203
330
2
100
AcDbSymbolTableRecord
100
AcDbLayerTableRecord
  2
FRAMELAYER-179
 70
     0
 62
     7
  6
Continuous
370
    -3
390
F
  0
LAYER
  5
204
330
2
100
AcDbSymbolTableRecord
100
AcDbLayerTableRecord
  2
FRAMELAYER-180
 70
     0
 62
     7
  6
Continuous
370
    -3
390
F
  0
LAYER
  5
205
330
2
100
AcDbSymbolTableRecord
100
AcDbLayerTableRecord
  2
FRAMELAYER-181
 70
     0
 62
     7
  6
Continuous
370
    -3
390
F
  0
LAYER
  5
206
330
2
100
AcDbSymbolTableRecord
100
AcDbLayerTableRecord
  2
FRAMELAYER-182
 70
     0
 62
     7
  6
Continuous
370
    -3
390
F
  0
LAYER
  5
207
330
2
100
AcDbSymbolTableRecord
100
AcDbLayerTableRecord
  2
FRAMELAYER-183
 70
     0
 62
     7
  6
Continuous
370
    -3
390
F
  0
LAYER
  5
208
330
2
100
AcDbSymbolTableRecord
100
AcDbLayerTableRecord
  2
FRAMELAYER-184
 70
     0
 62
     7
  6
Continuous
370
    -3
390
F
  0
LAYER
  5
209
330
2
100
AcDbSymbolTableRecord
100
AcDbLayerTableRecord
  2
FRAMELAYER-185
 70
     0
 62
     7
  6
Continuous
370
    -3
390
F
  0
LAYER
  5
20A
330
2
100
AcDbSymbolTableRecord
100
AcDbLayerTableRecord
  2
FRAMELAYER-186
 70
     0
 62
     7
  6
Continuous
370
    -3
390
F
  0
LAYER
  5
20B
330
2
100
AcDbSymbolTableRecord
100
AcDbLayerTableRecord
  2
FRAMELAYER-187
 70
     0
 62
     7
  6
Continuous
370
    -3
390
F
  0
LAYER
  5
20C
330
2
100
AcDbSymbolTableRecord
100
AcDbLayerTableRecord
  2
FRAMELAYER-188
 70
     0
 62
     7
  6
Continuous
370
    -3
390
F
  0
LAYER
  5
20D
330
2
100
AcDbSymbolTableRecord
100
AcDbLayerTableRecord
  2
FRAMELAYER-189
 70
     0
 62
     7
  6
Continuous
370
    -3
390
F
  0
LAYER
  5
20E
330
2
100
AcDbSymbolTableRecord
100
AcDbLayerTableRecord
  2
FRAMELAYER-190
 70
     0
 62
     7
  6
Continuous
370
    -3
390
F
  0
LAYER
  5
20F
330
2
100
AcDbSymbolTableRecord
100
AcDbLayerTableRecord
  2
FRAMELAYER-191
 70
     0
 62
     7
  6
Continuous
370
    -3
390
F
  0
LAYER
  5
210
330
2
100
AcDbSymbolTableRecord
100
AcDbLayerTableRecord
  2
FRAMELAYER-192
 70
     0
 62
     7
  6
Continuous
370
    -3
390
F
  0
LAYER
  5
211
330
2
100
AcDbSymbolTableRecord
100
AcDbLayerTableRecord
  2
FRAMELAYER-193
 70
     0
 62
     7
  6
Continuous
370
    -3
390
F
  0
LAYER
  5
212
330
2
100
AcDbSymbolTableRecord
100
AcDbLayerTableRecord
  2
FRAMELAYER-194
 70
     0
 62
     2
  6
Continuous
370
    -3
390
F
  0
LAYER
  5
213
330
2
100
AcDbSymbolTableRecord
100
AcDbLayerTableRecord
  2
FRAMELAYER-195
 70
     0
 62
     2
  6
Continuous
370
    -3
390
F
  0
LAYER
  5
214
330
2
100
AcDbSymbolTableRecord
100
AcDbLayerTableRecord
  2
FRAMELAYER-196
 70
     0
 62
     2
  6
Continuous
370
    -3
390
F
  0
LAYER
  5
215
330
2
100
AcDbSymbolTableRecord
100
AcDbLayerTableRecord
  2
FRAMELAYER-197
 70
     0
 62
     7
  6
Continuous
370
    -3
390
F
  0
LAYER
  5
216
330
2
100
AcDbSymbolTableRecord
100
AcDbLayerTableRecord
  2
FRAMELAYER-198
 70
     0
 62
     7
  6
Continuous
370
    -3
390
F
  0
LAYER
  5
217
330
2
100
AcDbSymbolTableRecord
100
AcDbLayerTableRecord
  2
FRAMELAYER-199
 70
     0
 62
     4
  6
Continuous
370
    -3
390
F
  0
LAYER
  5
218
330
2
100
AcDbSymbolTableRecord
100
AcDbLayerTableRecord
  2
FRAMELAYER-200
 70
     0
 62
     1
  6
Continuous
370
    -3
390
F
  0
LAYER
  5
219
330
2
100
AcDbSymbolTableRecord
100
AcDbLayerTableRecord
  2
FRAMELAYER-201
 70
     0
 62
     1
  6
Continuous
370
    -3
390
F
  0
LAYER
  5
21A
330
2
100
AcDbSymbolTableRecord
100
AcDbLayerTableRecord
  2
FRAMELAYER-202
 70
     0
 62
     2
  6
Continuous
370
    -3
390
F
  0
LAYER
  5
21B
330
2
100
AcDbSymbolTableRecord
100
AcDbLayerTableRecord
  2
FRAMELAYER-203
 70
     0
 62
     2
  6
Continuous
370
    -3
390
F
  0
LAYER
  5
21C
330
2
100
AcDbSymbolTableRecord
100
AcDbLayerTableRecord
  2
FRAMELAYER-204
 70
     0
 62
     7
  6
Continuous
370
    -3
390
F
  0
LAYER
  5
21D
330
2
100
AcDbSymbolTableRecord
100
AcDbLayerTableRecord
  2
FRAMELAYER-205
 70
     0
 62
     7
  6
Continuous
370
    -3
390
F
  0
LAYER
  5
21E
330
2
100
AcDbSymbolTableRecord
100
AcDbLayerTableRecord
  2
FRAMELAYER-206
 70
     0
 62
     7
  6
Continuous
370
    -3
390
F
  0
LAYER
  5
21F
330
2
100
AcDbSymbolTableRecord
100
AcDbLayerTableRecord
  2
FRAMELAYER-207
 70
     0
 62
    -7
  6
Continuous
370
    -3
390
F
  0
LAYER
  5
220
330
2
100
AcDbSymbolTableRecord
100
AcDbLayerTableRecord
  2
FRAMELAYER-208
 70
     0
 62
     2
  6
Continuous
370
    -3
390
F
  0
LAYER
  5
221
330
2
100
AcDbSymbolTableRecord
100
AcDbLayerTableRecord
  2
FRAMELAYER-209
 70
     0
 62
     7
  6
Continuous
370
    -3
390
F
  0
LAYER
  5
222
330
2
100
AcDbSymbolTableRecord
100
AcDbLayerTableRecord
  2
FRAMELAYER-210
 70
     0
 62
     2
  6
Continuous
290
     0
370
    -3
390
F
  0
LAYER
  5
223
330
2
100
AcDbSymbolTableRecord
100
AcDbLayerTableRecord
  2
FRAMELAYER-211
 70
     0
 62
     7
  6
Continuous
370
    -3
390
F
  0
LAYER
  5
224
330
2
100
AcDbSymbolTableRecord
100
AcDbLayerTableRecord
  2
FRAMELAYER-212
 70
     0
 62
     7
  6
Continuous
370
    -3
390
F
  0
LAYER
  5
225
330
2
100
AcDbSymbolTableRecord
100
AcDbLayerTableRecord
  2
FRAMELAYER-213
 70
     0
 62
     2
  6
Continuous
370
    -3
390
F
  0
LAYER
  5
226
330
2
100
AcDbSymbolTableRecord
100
AcDbLayerTableRecord
  2
FRAMELAYER-214
 70
     0
 62
     7
  6
Continuous
370
    -3
390
F
  0
LAYER
  5
227
330
2
100
AcDbSymbolTableRecord
100
AcDbLayerTableRecord
  2
FRAMELAYER-215
 70
     0
 62
     7
  6
Continuous
370
    -3
390
F
  0
LAYER
  5
228
330
2
100
AcDbSymbolTableRecord
100
AcDbLayerTableRecord
  2
FRAMELAYER-216
 70
     0
 62
     4
  6
Continuous
370
    -3
390
F
  0
LAYER
  5
229
330
2
100
AcDbSymbolTableRecord
100
AcDbLayerTableRecord
  2
FRAMELAYER-217
 70
     0
 62
     7
  6
Continuous
370
    -3
390
F
  0
LAYER
  5
22A
330
2
100
AcDbSymbolTableRecord
100
AcDbLayerTableRecord
  2
FRAMELAYER-218
 70
     0
 62
     7
  6
Continuous
370
    -3
390
F
  0
LAYER
  5
22B
330
2
100
AcDbSymbolTableRecord
100
AcDbLayerTableRecord
  2
FRAMELAYER-219
 70
     0
 62
     7
  6
Continuous
370
    -3
390
F
  0
LAYER
  5
22C
330
2
100
AcDbSymbolTableRecord
100
AcDbLayerTableRecord
  2
FRAMELAYER-220
 70
     0
 62
     4
  6
Continuous
370
    -3
390
F
  0
LAYER
  5
22D
330
2
100
AcDbSymbolTableRecord
100
AcDbLayerTableRecord
  2
FRAMELAYER-221
 70
     0
 62
    -7
  6
Continuous
290
     0
370
    -3
390
F
  0
LAYER
  5
22E
330
2
100
AcDbSymbolTableRecord
100
AcDbLayerTableRecord
  2
FRAMELAYER-222
 70
     0
 62
    -4
  6
Continuous
290
     0
370
    -3
390
F
  0
LAYER
  5
22F
330
2
100
AcDbSymbolTableRecord
100
AcDbLayerTableRecord
  2
FRAMELAYER-223
 70
     0
 62
    -1
  6
Continuous
290
     0
370
    -3
390
F
  0
LAYER
  5
230
330
2
100
AcDbSymbolTableRecord
100
AcDbLayerTableRecord
  2
FRAMELAYER-224
 70
     0
 62
    -1
  6
Continuous
290
     0
370
    -3
390
F
  0
LAYER
  5
231
330
2
100
AcDbSymbolTableRecord
100
AcDbLayerTableRecord
  2
FRAMELAYER-225
 70
     0
 62
     7
  6
Continuous
370
    -3
390
F
  0
LAYER
  5
232
330
2
100
AcDbSymbolTableRecord
100
AcDbLayerTableRecord
  2
FRAMELAYER-226
 70
     0
 62
     2
  6
Continuous
370
    -3
390
F
  0
LAYER
  5
233
330
2
100
AcDbSymbolTableRecord
100
AcDbLayerTableRecord
  2
FRAMELAYER-227
 70
     0
 62
     7
  6
Continuous
370
    -3
390
F
  0
LAYER
  5
234
330
2
100
AcDbSymbolTableRecord
100
AcDbLayerTableRecord
  2
FRAMELAYER-228
 70
     0
 62
     7
  6
Continuous
370
    -3
390
F
  0
LAYER
  5
235
330
2
100
AcDbSymbolTableRecord
100
AcDbLayerTableRecord
  2
FRAMELAYER-229
 70
     0
 62
     7
  6
Continuous
370
    -3
390
F
  0
LAYER
  5
236
330
2
100
AcDbSymbolTableRecord
100
AcDbLayerTableRecord
  2
FRAMELAYER-230
 70
     0
 62
     7
  6
Continuous
370
    -3
390
F
  0
LAYER
  5
237
330
2
100
AcDbSymbolTableRecord
100
AcDbLayerTableRecord
  2
FRAMELAYER-231
 70
     0
 62
     7
  6
Continuous
370
    -3
390
F
  0
LAYER
  5
238
330
2
100
AcDbSymbolTableRecord
100
AcDbLayerTableRecord
  2
FRAMELAYER-232
 70
     0
 62
     7
  6
Continuous
370
    -3
390
F
  0
LAYER
  5
239
330
2
100
AcDbSymbolTableRecord
100
AcDbLayerTableRecord
  2
FRAMELAYER-233
 70
     0
 62
     7
  6
Continuous
370
    -3
390
F
  0
LAYER
  5
23A
330
2
100
AcDbSymbolTableRecord
100
AcDbLayerTableRecord
  2
FRAMELAYER-234
 70
     0
 62
     7
  6
Continuous
370
    -3
390
F
  0
LAYER
  5
23B
330
2
100
AcDbSymbolTableRecord
100
AcDbLayerTableRecord
  2
FRAMELAYER-235
 70
     0
 62
     7
  6
Continuous
370
    -3
390
F
  0
LAYER
  5
23C
330
2
100
AcDbSymbolTableRecord
100
AcDbLayerTableRecord
  2
FRAMELAYER-236
 70
     0
 62
     7
  6
Continuous
370
    -3
390
F
  0
LAYER
  5
23D
330
2
100
AcDbSymbolTableRecord
100
AcDbLayerTableRecord
  2
FRAMELAYER-237
 70
     0
 62
     7
  6
Continuous
370
    -3
390
F
  0
LAYER
  5
23E
330
2
100
AcDbSymbolTableRecord
100
AcDbLayerTableRecord
  2
FRAMELAYER-238
 70
     0
 62
     7
  6
Continuous
370
    -3
390
F
  0
LAYER
  5
23F
330
2
100
AcDbSymbolTableRecord
100
AcDbLayerTableRecord
  2
FRAMELAYER-239
 70
     0
 62
     7
  6
Continuous
370
    -3
390
F
  0
LAYER
  5
240
330
2
100
AcDbSymbolTableRecord
100
AcDbLayerTableRecord
  2
FRAMELAYER-240
 70
     0
 62
     7
  6
Continuous
370
    -3
390
F
  0
LAYER
  5
241
330
2
100
AcDbSymbolTableRecord
100
AcDbLayerTableRecord
  2
FRAMELAYER-241
 70
     0
 62
     7
  6
Continuous
370
    -3
390
F
  0
LAYER
  5
242
330
2
100
AcDbSymbolTableRecord
100
AcDbLayerTableRecord
  2
FRAMELAYER-242
 70
     0
 62
     7
  6
Continuous
370
    -3
390
F
  0
LAYER
  5
243
330
2
100
AcDbSymbolTableRecord
100
AcDbLayerTableRecord
  2
FRAMELAYER-243
 70
     0
 62
     7
  6
Continuous
370
    -3
390
F
  0
LAYER
  5
244
330
2
100
AcDbSymbolTableRecord
100
AcDbLayerTableRecord
  2
FRAMELAYER-244
 70
     0
 62
     7
  6
Continuous
370
    -3
390
F
  0
LAYER
  5
245
330
2
100
AcDbSymbolTableRecord
100
AcDbLayerTableRecord
  2
FRAMELAYER-245
 70
     0
 62
     7
  6
Continuous
370
    -3
390
F
  0
LAYER
  5
246
330
2
100
AcDbSymbolTableRecord
100
AcDbLayerTableRecord
  2
FRAMELAYER-246
 70
     0
 62
     7
  6
Continuous
370
    -3
390
F
  0
LAYER
  5
247
330
2
100
AcDbSymbolTableRecord
100
AcDbLayerTableRecord
  2
FRAMELAYER-247
 70
     0
 62
     7
  6
Continuous
370
    -3
390
F
  0
LAYER
  5
248
330
2
100
AcDbSymbolTableRecord
100
AcDbLayerTableRecord
  2
FRAMELAYER-248
 70
     0
 62
     7
  6
Continuous
370
    -3
390
F
  0
LAYER
  5
249
330
2
100
AcDbSymbolTableRecord
100
AcDbLayerTableRecord
  2
FRAMELAYER-249
 70
     0
 62
     7
  6
Continuous
370
    -3
390
F
  0
LAYER
  5
24A
330
2
100
AcDbSymbolTableRecord
100
AcDbLayerTableRecord
  2
FRAMELAYER-250
 70
     0
 62
     7
  6
Continuous
370
    -3
390
F
  0
LAYER
  5
24B
330
2
100
AcDbSymbolTableRecord
100
AcDbLayerTableRecord
  2
FRAMELAYER-251
 70
     0
 62
     7
  6
Continuous
370
    -3
390
F
  0
LAYER
  5
24C
330
2
100
AcDbSymbolTableRecord
100
AcDbLayerTableRecord
  2
FRAMELAYER-252
 70
     0
 62
     7
  6
Continuous
370
    -3
390
F
  0
LAYER
  5
24D
330
2
100
AcDbSymbolTableRecord
100
AcDbLayerTableRecord
  2
FRAMELAYER-253
 70
     0
 62
     7
  6
Continuous
370
    -3
390
F
  0
LAYER
  5
24E
330
2
100
AcDbSymbolTableRecord
100
AcDbLayerTableRecord
  2
FRAMELAYER-254
 70
     0
 62
     7
  6
Continuous
370
    -3
390
F
  0
LAYER
  5
24F
330
2
100
AcDbSymbolTableRecord
100
AcDbLayerTableRecord
  2
FRAMELAYER-255
 70
     0
 62
     7
  6
Continuous
370
    -3
390
F
  0
LAYER
  5
250
330
2
100
AcDbSymbolTableRecord
100
AcDbLayerTableRecord
  2
FRAMELAYER-256
 70
     0
 62
     7
  6
Continuous
370
    -3
390
F
  0
ENDTAB
  0
TABLE
  2
STYLE
  5
3
330
0
100
AcDbSymbolTable
 70
     7
  0
STYLE
  5
11
330
3
100
AcDbSymbolTableRecord
100
AcDbTextStyleTableRecord
  2
Standard
 70
     0
 40
0.0
 41
1.0
 50
0.0
 71
     0
 42
2.5
  3
txt
  4

  0
STYLE
  5
31
330
3
100
AcDbSymbolTableRecord
100
AcDbTextStyleTableRecord
  2
STANDARD2
 70
     0
 40
0.0
 41
1.0
 50
0.0
 71
     0
 42
4.0
  3
MS Mincho.ttf
  4

1001
ACAD
1000
MS Mincho
1071
    32785
  0
STYLE
  5
32
330
3
100
AcDbSymbolTableRecord
100
AcDbTextStyleTableRecord
  2
STRING_H
 70
     0
 40
0.0
 41
1.0
 50
0.0
 71
     0
 42
4.0
  3
MS Mincho.ttf
  4

1001
ACAD
1000
MS Mincho
1071
    32785
  0
STYLE
  5
33
330
3
100
AcDbSymbolTableRecord
100
AcDbTextStyleTableRecord
  2
STRING_H_ITALIC
 70
     0
 40
0.0
 41
1.0
 50
15.0
 71
     0
 42
4.0
  3
MS Mincho.ttf
  4

1001
ACAD
1000
MS Mincho
1071
    32785
  0
STYLE
  5
34
330
3
100
AcDbSymbolTableRecord
100
AcDbTextStyleTableRecord
  2
STRING_V
 70
     0
 40
0.0
 41
1.0
 50
0.0
 71
     0
 42
4.0
  3
@MS Mincho.ttf
  4

1001
ACAD
1000
@MS Mincho
1071
    32785
  0
STYLE
  5
35
330
3
100
AcDbSymbolTableRecord
100
AcDbTextStyleTableRecord
  2
STRING_V_ITALIC
 70
     0
 40
0.0
 41
1.0
 50
15.0
 71
     0
 42
4.0
  3
@MS Mincho.ttf
  4

1001
ACAD
1000
@MS Mincho
1071
    32785
  0
STYLE
  5
36
330
3
100
AcDbSymbolTableRecord
100
AcDbTextStyleTableRecord
  2

 70
     1
 40
0.0
 41
1.0
 50
0.0
 71
     0
 42
0.2
  3
ltypeshp.shx
  4

  0
ENDTAB
  0
TABLE
  2
VIEW
  5
6
330
0
100
AcDbSymbolTable
 70
     0
  0
ENDTAB
  0
TABLE
  2
UCS
  5
7
330
0
100
AcDbSymbolTable
 70
     0
  0
ENDTAB
  0
TABLE
  2
APPID
  5
9
330
0
100
AcDbSymbolTable
 70
     1
  0
APPID
  5
12
330
9
100
AcDbSymbolTableRecord
100
AcDbRegAppTableRecord
  2
ACAD
 70
     0
  0
ENDTAB
  0
TABLE
  2
DIMSTYLE
  5
A
330
0
100
AcDbSymbolTable
 70
     2
100
AcDbDimStyleTable
  0
DIMSTYLE
105
27
330
A
100
AcDbSymbolTableRecord
100
AcDbDimStyleTableRecord
  2
ISO-25
 70
     0
 41
2.5
 42
0.625
 43
3.75
 44
1.25
 73
     0
 74
     0
 77
     1
 78
     8
140
2.5
141
2.5
143
0.03937007874016
147
0.625
171
     3
172
     1
271
     2
272
     2
274
     3
283
     0
284
     8
340
11
  0
DIMSTYLE
105
251
102
{ACAD_REACTORS
330
55A
330
564
330
56E
330
578
330
582
330
58C
102
}
330
A
100
AcDbSymbolTableRecord
100
AcDbDimStyleTableRecord
  2
DIO_DIMSTYLE
 70
     0
 41
4.0
 42
1.0
 43
3.75
 44
1.0
 45
0.1
 73
     0
 74
     0
 77
     1
 78
     8
 79
     2
140
3.0
141
2.5
143
0.03937007874016
147
0.5
171
     3
172
     1
173
     1
179
     1
271
     1
272
     1
274
     3
283
     0
284
     8
288
     1
289
     0
340
31
  0
ENDTAB
  0
TABLE
  2
BLOCK_RECORD
  5
1
330
0
100
AcDbSymbolTable
 70
     8
  0
BLOCK_RECORD
  5
1F
330
1
100
AcDbSymbolTableRecord
100
AcDbBlockTableRecord
  2
*Model_Space
340
22
  0
BLOCK_RECORD
  5
1B
330
1
100
AcDbSymbolTableRecord
100
AcDbBlockTableRecord
  2
*Paper_Space
340
1E
  0
BLOCK_RECORD
  5
23
330
1
100
AcDbSymbolTableRecord
100
AcDbBlockTableRecord
  2
*Paper_Space0
340
26
  0
BLOCK_RECORD
  5
54B
330
1
100
AcDbSymbolTableRecord
100
AcDbBlockTableRecord
  2
_OPEN
340
0
102
{BLKREFS
331
554
331
555
331
55E
331
55F
331
568
331
569
331
572
331
573
331
57C
331
57D
331
586
331
587
102
}
  0
BLOCK_RECORD
  5
551
330
1
100
AcDbSymbolTableRecord
100
AcDbBlockTableRecord
  2
*D02
340
0
  0
BLOCK_RECORD
  5
55B
330
1
100
AcDbSymbolTableRecord
100
AcDbBlockTableRecord
  2
*D13
340
0
  0
BLOCK_RECORD
  5
565
330
1
100
AcDbSymbolTableRecord
100
AcDbBlockTableRecord
  2
*D24
340
0
  0
BLOCK_RECORD
  5
56F
330
1
100
AcDbSymbolTableRecord
100
AcDbBlockTableRecord
  2
*D35
340
0
  0
BLOCK_RECORD
  5
579
330
1
100
AcDbSymbolTableRecord
100
AcDbBlockTableRecord
  2
*D46
340
0
  0
BLOCK_RECORD
  5
583
330
1
100
AcDbSymbolTableRecord
100
AcDbBlockTableRecord
  2
*D57
340
0
  0
ENDTAB
  0
ENDSEC
  0
SECTION
  2
BLOCKS
  0
BLOCK
  5
20
330
1F
100
AcDbEntity
  8
0
100
AcDbBlockBegin
  2
*Model_Space
 70
     0
 71
     0
 10
0.0
 20
0.0
 30
0.0
  3
*Model_Space
  1

  0
ENDBLK
  5
21
330
1F
100
AcDbEntity
  8
0
100
AcDbBlockEnd
  0
BLOCK
  5
1C
330
1B
100
AcDbEntity
 67
     1
  8
0
100
AcDbBlockBegin
  2
*Paper_Space
 70
     0
 71
     0
 10
0.0
 20
0.0
 30
0.0
  3
*Paper_Space
  1

  0
ENDBLK
  5
1D
330
1B
100
AcDbEntity
 67
     1
  8
0
100
AcDbBlockEnd
  0
BLOCK
  5
24
330
23
100
AcDbEntity
  8
0
100
AcDbBlockBegin
  2
*Paper_Space0
 70
     0
 71
     0
 10
0.0
 20
0.0
 30
0.0
  3
*Paper_Space0
  1

  0
ENDBLK
  5
25
330
23
100
AcDbEntity
  8
0
100
AcDbBlockEnd
  0
BLOCK
  5
54C
330
54B
100
AcDbEntity
  8
0
100
AcDbBlockBegin
  2
_OPEN
 70
     0
 71
     0
 10
0.0
 20
0.0
 30
0.0
  3
_OPEN
  1

  0
LINE
  5
54E
330
54B
100
AcDbEntity
  8
LAYER-035
  6
Continuous
 62
     0
100
AcDbLine
 10
0.0
 20
0.0
 30
0.0
 11
-1.0
 21
0.0
 31
0.0
  0
LINE
  5
54F
330
54B
100
AcDbEntity
  8
LAYER-035
  6
Continuous
 62
     0
100
AcDbLine
 10
0.0
 20
0.0
 30
0.0
 11
-1.0
 21
0.1666250109338451
 31
0.0
  0
LINE
  5
550
330
54B
100
AcDbEntity
  8
LAYER-035
  6
Continuous
 62
     0
100
AcDbLine
 10
0.0
 20
0.0
 30
0.0
 11
-1.0
 21
-0.1666250109338451
 31
0.0
  0
ENDBLK
  5
54D
330
54B
100
AcDbEntity
  8
0
100
AcDbBlockEnd
  0
BLOCK
  5
552
330
551
100
AcDbEntity
  8
0
100
AcDbBlockBegin
  2
*D02
 70
     1
 71
     0
 10
0.0
 20
0.0
 30
0.0
  3
*D02
  1

  0
INSERT
  5
554
330
551
100
AcDbEntity
  8
LAYER-035
  6
Continuous
 62
     5
100
AcDbBlockReference
  2
_OPEN
 10
-534.0823741797979
 20
339.1558396501346
 30
0.0
 41
4.0
 42
4.0
 43
4.0
 50
90.0
  0
INSERT
  5
555
330
551
100
AcDbEntity
  8
LAYER-035
  6
Continuous
 62
     5
100
AcDbBlockReference
  2
_OPEN
 10
-534.0823741797979
 20
-130.8441603498654
 30
0.0
 41
4.0
 42
4.0
 43
4.0
 50
-90.0
  0
LINE
  5
556
330
551
100
AcDbEntity
  8
LAYER-035
  6
Continuous
 62
     5
100
AcDbLine
 10
-476.367438353513
 20
339.1558396501346
 30
0.0
 11
-535.0823741797979
 21
339.1558396501346
 31
0.0
  0
LINE
  5
557
330
551
100
AcDbEntity
  8
LAYER-035
  6
Continuous
 62
     5
100
AcDbLine
 10
-507.2796774395232
 20
-130.8441603498654
 30
0.0
 11
-535.0823741797979
 21
-130.8441603498654
 31
0.0
  0
LINE
  5
558
330
551
100
AcDbEntity
  8
LAYER-035
  6
Continuous
 62
     5
100
AcDbLine
 10
-534.0823741797979
 20
339.1558396501346
 30
0.0
 11
-534.0823741797979
 21
-130.8441603498654
 31
0.0
  0
MTEXT
  5
559
330
551
100
AcDbEntity
  8
LAYER-036
  6
Continuous
 62
     5
100
AcDbMText
 10
-534.5823741797979
 20
104.1558396501346
 30
0.0
 40
4.0
 41
0.0
 71
     8
 72
     1
  1
470
  7
STRING_H
 11
6.123031769111886E-17
 21
1.0
 31
0.0
 73
     1
 44
1.0
  0
ENDBLK
  5
553
330
551
100
AcDbEntity
  8
0
100
AcDbBlockEnd
  0
BLOCK
  5
55C
330
55B
100
AcDbEntity
  8
0
100
AcDbBlockBegin
  2
*D13
 70
     1
 71
     0
 10
0.0
 20
0.0
 30
0.0
  3
*D13
  1

  0
INSERT
  5
55E
330
55B
100
AcDbEntity
  8
LAYER-035
  6
Continuous
 62
     5
100
AcDbBlockReference
  2
_OPEN
 10
-53.77967743952317
 20
-184.0159787009297
 30
0.0
 41
4.0
 42
4.0
 43
4.0
  0
INSERT
  5
55F
330
55B
100
AcDbEntity
  8
LAYER-035
  6
Continuous
 62
     5
100
AcDbBlockReference
  2
_OPEN
 10
-443.7796774395232
 20
-184.0159787009297
 30
0.0
 41
4.0
 42
4.0
 43
4.0
 50
180.0
  0
LINE
  5
560
330
55B
100
AcDbEntity
  8
LAYER-035
  6
Continuous
 62
     5
100
AcDbLine
 10
-53.7796774395232
 20
-114.5647701333427
 30
0.0
 11
-53.77967743952317
 21
-185.0159787009297
 31
0.0
  0
LINE
  5
561
330
55B
100
AcDbEntity
  8
LAYER-035
  6
Continuous
 62
     5
100
AcDbLine
 10
-443.7796774395232
 20
-114.5647701333427
 30
0.0
 11
-443.7796774395232
 21
-185.0159787009297
 31
0.0
  0
LINE
  5
562
330
55B
100
AcDbEntity
  8
LAYER-035
  6
Continuous
 62
     5
100
AcDbLine
 10
-53.77967743952317
 20
-184.0159787009297
 30
0.0
 11
-443.7796774395232
 21
-184.0159787009297
 31
0.0
  0
MTEXT
  5
563
330
55B
100
AcDbEntity
  8
LAYER-036
  6
Continuous
 62
     5
100
AcDbMText
 10
-248.7796774395232
 20
-183.5159787009297
 30
0.0
 40
4.0
 41
0.0
 71
     8
 72
     1
  1
390
  7
STRING_H
 73
     1
 44
1.0
  0
ENDBLK
  5
55D
330
55B
100
AcDbEntity
  8
0
100
AcDbBlockEnd
  0
BLOCK
  5
566
330
565
100
AcDbEntity
  8
0
100
AcDbBlockBegin
  2
*D24
 70
     1
 71
     0
 10
0.0
 20
0.0
 30
0.0
  3
*D24
  1

  0
INSERT
  5
568
330
565
100
AcDbEntity
  8
LAYER-035
  6
Continuous
 62
     5
100
AcDbBlockReference
  2
_OPEN
 10
8.7203225604768
 20
-222.0672152169626
 30
0.0
 41
4.0
 42
4.0
 43
4.0
  0
INSERT
  5
569
330
565
100
AcDbEntity
  8
LAYER-035
  6
Continuous
 62
     5
100
AcDbBlockReference
  2
_OPEN
 10
-506.2796774395232
 20
-222.0672152169626
 30
0.0
 41
4.0
 42
4.0
 43
4.0
 50
180.0
  0
LINE
  5
56A
330
565
100
AcDbEntity
  8
LAYER-035
  6
Continuous
 62
     5
100
AcDbLine
 10
8.7203225604768
 20
-131.8441603498654
 30
0.0
 11
8.7203225604768
 21
-223.0672152169626
 31
0.0
  0
LINE
  5
56B
330
565
100
AcDbEntity
  8
LAYER-035
  6
Continuous
 62
     5
100
AcDbLine
 10
-506.2796774395232
 20
-131.8441603498654
 30
0.0
 11
-506.2796774395232
 21
-223.0672152169626
 31
0.0
  0
LINE
  5
56C
330
565
100
AcDbEntity
  8
LAYER-035
  6
Continuous
 62
     5
100
AcDbLine
 10
8.7203225604768
 20
-222.0672152169626
 30
0.0
 11
-506.2796774395232
 21
-222.0672152169626
 31
0.0
  0
MTEXT
  5
56D
330
565
100
AcDbEntity
  8
LAYER-036
  6
Continuous
 62
     5
100
AcDbMText
 10
-248.7796774395232
 20
-221.5672152169626
 30
0.0
 40
4.0
 41
0.0
 71
     8
 72
     1
  1
515
  7
STRING_H
 73
     1
 44
1.0
  0
ENDBLK
  5
567
330
565
100
AcDbEntity
  8
0
100
AcDbBlockEnd
  0
BLOCK
  5
570
330
56F
100
AcDbEntity
  8
0
100
AcDbBlockBegin
  2
*D35
 70
     1
 71
     0
 10
0.0
 20
0.0
 30
0.0
  3
*D35
  1

  0
INSERT
  5
572
330
56F
100
AcDbEntity
  8
LAYER-035
  6
Continuous
 62
     5
100
AcDbBlockReference
  2
_OPEN
 10
143.8559875820905
 20
26.18960680969875
 30
0.0
 41
4.0
 42
4.0
 43
4.0
 50
180.0
  0
INSERT
  5
573
330
56F
100
AcDbEntity
  8
LAYER-035
  6
Continuous
 62
     5
100
AcDbBlockReference
  2
_OPEN
 10
443.8559875820905
 20
26.18960680969875
 30
0.0
 41
4.0
 42
4.0
 43
4.0
  0
LINE
  5
574
330
56F
100
AcDbEntity
  8
LAYER-035
  6
Continuous
 62
     5
100
AcDbLine
 10
143.8559875820905
 20
111.9347857490315
 30
0.0
 11
143.8559875820905
 21
25.18960680969875
 31
0.0
  0
LINE
  5
575
330
56F
100
AcDbEntity
  8
LAYER-035
  6
Continuous
 62
     5
100
AcDbLine
 10
443.8559875820905
 20
111.9347857490315
 30
0.0
 11
443.8559875820905
 21
25.18960680969875
 31
0.0
  0
LINE
  5
576
330
56F
100
AcDbEntity
  8
LAYER-035
  6
Continuous
 62
     5
100
AcDbLine
 10
143.8559875820905
 20
26.18960680969875
 30
0.0
 11
443.8559875820905
 21
26.18960680969875
 31
0.0
  0
MTEXT
  5
577
330
56F
100
AcDbEntity
  8
LAYER-036
  6
Continuous
 62
     5
100
AcDbMText
 10
284.2345459129186
 20
26.68960680969875
 30
0.0
 40
4.0
 41
0.0
 71
     8
 72
     1
  1
300
  7
STRING_H
 73
     1
 44
1.0
  0
ENDBLK
  5
571
330
56F
100
AcDbEntity
  8
0
100
AcDbBlockEnd
  0
BLOCK
  5
57A
330
579
100
AcDbEntity
  8
0
100
AcDbBlockBegin
  2
*D46
 70
     1
 71
     0
 10
0.0
 20
0.0
 30
0.0
  3
*D46
  1

  0
INSERT
  5
57C
330
579
100
AcDbEntity
  8
LAYER-035
  6
Continuous
 62
     5
100
AcDbBlockReference
  2
_OPEN
 10
423.8559875479996
 20
-184.0159787009297
 30
0.0
 41
4.0
 42
4.0
 43
4.0
  0
INSERT
  5
57D
330
579
100
AcDbEntity
  8
LAYER-035
  6
Continuous
 62
     5
100
AcDbBlockReference
  2
_OPEN
 10
163.8559875479996
 20
-184.0159787009297
 30
0.0
 41
4.0
 42
4.0
 43
4.0
 50
180.0
  0
LINE
  5
57E
330
579
100
AcDbEntity
  8
LAYER-035
  6
Continuous
 62
     5
100
AcDbLine
 10
423.8559875479996
 20
-138.933777417304
 30
0.0
 11
423.8559875479996
 21
-185.0159787009297
 31
0.0
  0
LINE
  5
57F
330
579
100
AcDbEntity
  8
LAYER-035
  6
Continuous
 62
     5
100
AcDbLine
 10
163.8559875479996
 20
-138.933777417304
 30
0.0
 11
163.8559875479996
 21
-185.0159787009297
 31
0.0
  0
LINE
  5
580
330
579
100
AcDbEntity
  8
LAYER-035
  6
Continuous
 62
     5
100
AcDbLine
 10
423.8559875479996
 20
-184.0159787009297
 30
0.0
 11
163.8559875479996
 21
-184.0159787009297
 31
0.0
  0
MTEXT
  5
581
330
579
100
AcDbEntity
  8
LAYER-036
  6
Continuous
 62
     5
100
AcDbMText
 10
293.8559875479996
 20
-183.5159787009297
 30
0.0
 40
4.0
 41
0.0
 71
     8
 72
     1
  1
260
  7
STRING_H
 73
     1
 44
1.0
  0
ENDBLK
  5
57B
330
579
100
AcDbEntity
  8
0
100
AcDbBlockEnd
  0
BLOCK
  5
584
330
583
100
AcDbEntity
  8
0
100
AcDbBlockBegin
  2
*D57
 70
     1
 71
     0
 10
0.0
 20
0.0
 30
0.0
  3
*D57
  1

  0
INSERT
  5
586
330
583
100
AcDbEntity
  8
LAYER-035
  6
Continuous
 62
     5
100
AcDbBlockReference
  2
_OPEN
 10
443.8559875820905
 20
-222.0672152169626
 30
0.0
 41
4.0
 42
4.0
 43
4.0
  0
INSERT
  5
587
330
583
100
AcDbEntity
  8
LAYER-035
  6
Continuous
 62
     5
100
AcDbBlockReference
  2
_OPEN
 10
143.8559875820905
 20
-222.0672152169626
 30
0.0
 41
4.0
 42
4.0
 43
4.0
 50
180.0
  0
LINE
  5
588
330
583
100
AcDbEntity
  8
LAYER-035
  6
Continuous
 62
     5
100
AcDbLine
 10
443.8559875820905
 20
-131.8441603498654
 30
0.0
 11
443.8559875820905
 21
-223.0672152169626
 31
0.0
  0
LINE
  5
589
330
583
100
AcDbEntity
  8
LAYER-035
  6
Continuous
 62
     5
100
AcDbLine
 10
143.8559875820905
 20
-131.8441603498654
 30
0.0
 11
143.8559875820905
 21
-223.0672152169626
 31
0.0
  0
LINE
  5
58A
330
583
100
AcDbEntity
  8
LAYER-035
  6
Continuous
 62
     5
100
AcDbLine
 10
443.8559875820905
 20
-222.0672152169626
 30
0.0
 11
143.8559875820905
 21
-222.0672152169626
 31
0.0
  0
MTEXT
  5
58B
330
583
100
AcDbEntity
  8
LAYER-036
  6
Continuous
 62
     5
100
AcDbMText
 10
293.8559875820905
 20
-221.5672152169626
 30
0.0
 40
4.0
 41
0.0
 71
     8
 72
     1
  1
300
  7
STRING_H
 73
     1
 44
1.0
  0
ENDBLK
  5
585
330
583
100
AcDbEntity
  8
0
100
AcDbBlockEnd
  0
ENDSEC
  0
SECTION
  2
ENTITIES
  0
LINE
  5
252
330
1F
100
AcDbEntity
  8
LAYER-033
  6
Continuous
 62
     1
100
AcDbLine
 10
-80.71560684896083
 20
-331.3597434338237
 30
0.0
 11
37.0295179814872
 21
-331.3597434338237
 31
0.0
  0
LINE
  5
253
330
1F
100
AcDbEntity
  8
LAYER-033
  6
Continuous
 62
     1
100
AcDbLine
 10
-80.71560684896083
 20
-339.4451935351281
 30
0.0
 11
-22.64859653968249
 21
-339.4451935351281
 31
0.0
  0
LINE
  5
254
330
1F
100
AcDbEntity
  8
LAYER-033
  6
Continuous
 62
     1
100
AcDbLine
 10
-80.71560684896083
 20
-323.2742933325193
 30
0.0
 11
-22.64859653968249
 21
-323.2742933325193
 31
0.0
  0
LINE
  5
255
330
1F
100
AcDbEntity
  8
LAYER-007
  6
Continuous
 62
     1
100
AcDbLine
 10
358.0987327454992
 20
339.1558396501346
 30
0.0
 11
387.9920969936242
 21
339.1558396501346
 31
0.0
  0
LINE
  5
256
330
1F
100
AcDbEntity
  8
LAYER-033
  6
Continuous
 62
     1
100
AcDbLine
 10
358.0987327454992
 20
339.1558396501346
 30
0.0
 11
358.0987327454992
 21
289.3335659032595
 31
0.0
  0
LINE
  5
257
330
1F
100
AcDbEntity
  8
LAYER-007
  6
Continuous
 62
     1
100
AcDbLine
 10
-455.4240418929788
 20
339.1558396501346
 30
0.0
 11
-455.4240418929788
 21
214.1558396501346
 31
0.0
  0
LINE
  5
258
330
1F
100
AcDbEntity
  8
LAYER-007
  6
Continuous
 62
     1
100
AcDbLine
 10
-40.14096436549099
 20
339.1558396501346
 30
0.0
 11
-40.14096436549099
 21
214.1558396501346
 31
0.0
  0
LINE
  5
259
330
1F
100
AcDbEntity
  8
LAYER-008
  6
CENTER
 62
     4
100
AcDbLine
 10
-425.5089621597166
 20
335.1671523808392
 30
0.0
 11
-425.5089621597166
 21
294.2832200502421
 31
0.0
  0
LINE
  5
25A
330
1F
100
AcDbEntity
  8
LAYER-008
  6
CENTER
 62
     4
100
AcDbLine
 10
-354.4183785475238
 20
335.1671523808392
 30
0.0
 11
-354.4183785475238
 21
294.2832200502421
 31
0.0
  0
LINE
  5
25B
330
1F
100
AcDbEntity
  8
LAYER-008
  6
CENTER
 62
     4
100
AcDbLine
 10
-283.3277949353312
 20
335.1671523808392
 30
0.0
 11
-283.3277949353312
 21
294.2832200502421
 31
0.0
  0
LINE
  5
25C
330
1F
100
AcDbEntity
  8
LAYER-008
  6
CENTER
 62
     4
100
AcDbLine
 10
-212.2372113231385
 20
335.1671523808392
 30
0.0
 11
-212.2372113231385
 21
294.2832200502421
 31
0.0
  0
LINE
  5
25D
330
1F
100
AcDbEntity
  8
LAYER-008
  6
CENTER
 62
     4
100
AcDbLine
 10
-141.1466277109458
 20
335.1671523808392
 30
0.0
 11
-141.1466277109458
 21
294.2832200502421
 31
0.0
  0
LINE
  5
25E
330
1F
100
AcDbEntity
  8
LAYER-008
  6
CENTER
 62
     4
100
AcDbLine
 10
-70.05604409875312
 20
335.1671523808392
 30
0.0
 11
-70.05604409875312
 21
294.2832200502421
 31
0.0
  0
LINE
  5
25F
330
1F
100
AcDbEntity
  8
LAYER-007
  6
Continuous
 62
     1
100
AcDbLine
 10
412.9032338659131
 20
334.1736122754471
 30
0.0
 11
417.8854612417492
 21
334.1736122754471
 31
0.0
  0
LINE
  5
260
330
1F
100
AcDbEntity
  8
LAYER-007
  6
Continuous
 62
     1
100
AcDbLine
 10
412.9032338659131
 20
334.1736122754471
 30
0.0
 11
412.9032338659131
 21
259.4402016551344
 31
0.0
  0
LINE
  5
261
330
1F
100
AcDbEntity
  8
LAYER-007
  6
Continuous
 62
     1
100
AcDbLine
 10
417.8854612417492
 20
334.1736122754471
 30
0.0
 11
417.8854612417492
 21
289.3335659032595
 31
0.0
  0
LINE
  5
262
330
1F
100
AcDbEntity
  8
LAYER-006
  6
Continuous
 62
     1
100
AcDbLine
 10
387.9920969936242
 20
331.6824985882127
 30
0.0
 11
392.9743243683117
 21
331.6824985882127
 31
0.0
  0
LINE
  5
263
330
1F
100
AcDbEntity
  8
LAYER-006
  6
Continuous
 62
     1
100
AcDbLine
 10
392.9743243683117
 20
331.6824985882127
 30
0.0
 11
392.9743243683117
 21
296.8069069652911
 31
0.0
  0
LINE
  5
264
330
1F
100
AcDbEntity
  8
LAYER-006
  6
Continuous
 62
     1
100
AcDbLine
 10
392.9743243683117
 20
327.6967216733612
 30
0.0
 11
412.9032338670618
 21
327.6967216733612
 31
0.0
  0
LINE
  5
265
330
1F
100
AcDbEntity
  8
LAYER-007
  6
Continuous
 62
     1
100
AcDbLine
 10
422.8676886164367
 20
327.6967216733612
 30
0.0
 11
432.8321433658118
 21
327.6967216733612
 31
0.0
  0
LINE
  5
266
330
1F
100
AcDbEntity
  8
LAYER-007
  6
Continuous
 62
     1
100
AcDbLine
 10
432.8321433658118
 20
327.6967216733612
 30
0.0
 11
432.8321433658118
 21
300.7926838828133
 31
0.0
  0
LINE
  5
267
330
1F
100
AcDbEntity
  8
LAYER-007
  6
Continuous
 62
     4
100
AcDbLine
 10
-465.3957351373995
 20
324.1982997835038
 30
0.0
 11
-465.3957351373995
 21
302.2605646740854
 31
0.0
  0
LINE
  5
268
330
1F
100
AcDbEntity
  8
LAYER-007
  6
Continuous
 62
     1
100
AcDbLine
 10
-425.5089621597166
 20
324.1982997835038
 30
0.0
 11
-434.4834860798301
 21
319.2124531612935
 31
0.0
  0
LINE
  5
269
330
1F
100
AcDbEntity
  8
LAYER-007
  6
Continuous
 62
     1
100
AcDbLine
 10
-354.4183785475238
 20
324.1982997835038
 30
0.0
 11
-363.3929124391955
 21
319.2124531612935
 31
0.0
  0
LINE
  5
26A
330
1F
100
AcDbEntity
  8
LAYER-007
  6
Continuous
 62
     1
100
AcDbLine
 10
-283.3277949353312
 20
324.1982997835038
 30
0.0
 11
-292.302308883616
 21
319.2124531612935
 31
0.0
  0
LINE
  5
26B
330
1F
100
AcDbEntity
  8
LAYER-007
  6
Continuous
 62
     1
100
AcDbLine
 10
-212.2372113231385
 20
324.1982997835038
 30
0.0
 11
-221.2117352426688
 21
319.2124531612935
 31
0.0
  0
LINE
  5
26C
330
1F
100
AcDbEntity
  8
LAYER-007
  6
Continuous
 62
     1
100
AcDbLine
 10
-141.1466277109458
 20
324.1982997835038
 30
0.0
 11
-150.1211516309239
 21
319.2124531612935
 31
0.0
  0
LINE
  5
26D
330
1F
100
AcDbEntity
  8
LAYER-007
  6
Continuous
 62
     1
100
AcDbLine
 10
-70.05604409875312
 20
324.1982997835038
 30
0.0
 11
-79.03056801873137
 21
319.2124531612935
 31
0.0
  0
LINE
  5
26E
330
1F
100
AcDbEntity
  8
LAYER-007
  6
Continuous
 62
     4
100
AcDbLine
 10
-30.16927112107027
 20
324.1982997835038
 30
0.0
 11
-30.16927112107027
 21
302.2605646740854
 31
0.0
  0
LINE
  5
26F
330
1F
100
AcDbEntity
  8
LAYER-006
  6
Continuous
 62
     1
100
AcDbLine
 10
392.9743243683117
 20
320.7215933815633
 30
0.0
 11
412.9032338670618
 21
320.7215933815633
 31
0.0
  0
LINE
  5
270
330
1F
100
AcDbEntity
  8
LAYER-007
  6
Continuous
 62
     1
100
AcDbLine
 10
422.8676886164367
 20
320.7215933815633
 30
0.0
 11
442.7965981151867
 21
320.7215933815633
 31
0.0
  0
LINE
  5
271
330
1F
100
AcDbEntity
  8
LAYER-007
  6
Continuous
 62
     1
100
AcDbLine
 10
442.7965981151867
 20
320.7215933815633
 30
0.0
 11
442.7965981151867
 21
307.7678121746112
 31
0.0
  0
LINE
  5
272
330
1F
100
AcDbEntity
  8
LAYER-007
  6
Continuous
 62
     1
100
AcDbLine
 10
-434.4834860798301
 20
319.2124531612935
 30
0.0
 11
-434.4834860798301
 21
309.2407599168729
 31
0.0
  0
LINE
  5
273
330
1F
100
AcDbEntity
  8
LAYER-007
  6
Continuous
 62
     1
100
AcDbLine
 10
-416.5344382397381
 20
319.2124531612935
 30
0.0
 11
-425.5089621597166
 21
324.1982997835038
 31
0.0
  0
LINE
  5
274
330
1F
100
AcDbEntity
  8
LAYER-007
  6
Continuous
 62
     1
100
AcDbLine
 10
-363.3929124391955
 20
319.2124531612935
 30
0.0
 11
-363.3929124391955
 21
309.2407599168729
 31
0.0
  0
LINE
  5
275
330
1F
100
AcDbEntity
  8
LAYER-007
  6
Continuous
 62
     1
100
AcDbLine
 10
-345.4438546275452
 20
319.2124531612935
 30
0.0
 11
-354.4183785475238
 21
324.1982997835038
 31
0.0
  0
LINE
  5
276
330
1F
100
AcDbEntity
  8
LAYER-007
  6
Continuous
 62
     1
100
AcDbLine
 10
-292.302308883616
 20
319.2124531612935
 30
0.0
 11
-292.302308883616
 21
309.2407599168729
 31
0.0
  0
LINE
  5
277
330
1F
100
AcDbEntity
  8
LAYER-007
  6
Continuous
 62
     1
100
AcDbLine
 10
-274.3532710153524
 20
319.2124531612935
 30
0.0
 11
-283.3277949353312
 21
324.1982997835038
 31
0.0
  0
LINE
  5
278
330
1F
100
AcDbEntity
  8
LAYER-007
  6
Continuous
 62
     1
100
AcDbLine
 10
-221.2117352426688
 20
319.2124531612935
 30
0.0
 11
-221.2117352426688
 21
309.2407599168729
 31
0.0
  0
LINE
  5
279
330
1F
100
AcDbEntity
  8
LAYER-007
  6
Continuous
 62
     1
100
AcDbLine
 10
-203.2626774309786
 20
319.2124531612935
 30
0.0
 11
-212.2372113231385
 21
324.1982997835038
 31
0.0
  0
LINE
  5
27A
330
1F
100
AcDbEntity
  8
LAYER-007
  6
Continuous
 62
     1
100
AcDbLine
 10
-150.1211516309239
 20
319.2124531612935
 30
0.0
 11
-150.1211516309239
 21
309.2407599168729
 31
0.0
  0
LINE
  5
27B
330
1F
100
AcDbEntity
  8
LAYER-007
  6
Continuous
 62
     1
100
AcDbLine
 10
-132.172103790967
 20
319.2124531612935
 30
0.0
 11
-141.1466277109458
 21
324.1982997835038
 31
0.0
  0
LINE
  5
27C
330
1F
100
AcDbEntity
  8
LAYER-007
  6
Continuous
 62
     1
100
AcDbLine
 10
-79.03056801873137
 20
319.2124531612935
 30
0.0
 11
-79.03056801873137
 21
309.2407599168729
 31
0.0
  0
LINE
  5
27D
330
1F
100
AcDbEntity
  8
LAYER-007
  6
Continuous
 62
     1
100
AcDbLine
 10
-61.08153015086208
 20
319.2124531612935
 30
0.0
 11
-70.05604409875312
 21
324.1982997835038
 31
0.0
  0
LINE
  5
27E
330
1F
100
AcDbEntity
  8
LAYER-008
  6
CENTER
 62
     4
100
AcDbLine
 10
362.084524608555
 20
314.2447027766971
 30
0.0
 11
452.7610528634132
 21
314.2447027766971
 31
0.0
  0
LINE
  5
27F
330
1F
100
AcDbEntity
  8
LAYER-008
  6
CENTER
 62
     4
100
AcDbLine
 10
362.0845246097037
 20
314.2447027766971
 30
0.0
 11
452.7610528645617
 21
314.2447027766971
 31
0.0
  0
LINE
  5
280
330
1F
100
AcDbEntity
  8
LAYER-007
  6
Continuous
 62
     4
100
AcDbLine
 10
-470.3815917313028
 20
314.2266065390832
 30
0.0
 11
-460.4098885151889
 21
314.2266065390832
 31
0.0
  0
LINE
  5
281
330
1F
100
AcDbEntity
  8
LAYER-008
  6
CENTER
 62
     4
100
AcDbLine
 10
-445.452348648558
 20
314.2266065390832
 30
0.0
 11
-405.5655756708761
 21
314.2266065390832
 31
0.0
  0
LINE
  5
282
330
1F
100
AcDbEntity
  8
LAYER-008
  6
CENTER
 62
     4
100
AcDbLine
 10
-374.3617650363653
 20
314.2266065390832
 30
0.0
 11
-334.4749920591635
 21
314.2266065390832
 31
0.0
  0
LINE
  5
283
330
1F
100
AcDbEntity
  8
LAYER-008
  6
CENTER
 62
     4
100
AcDbLine
 10
-303.2711814241718
 20
314.2266065390832
 30
0.0
 11
-263.3843885027272
 21
314.2266065390832
 31
0.0
  0
LINE
  5
284
330
1F
100
AcDbEntity
  8
LAYER-008
  6
CENTER
 62
     4
100
AcDbLine
 10
-232.1805978124283
 20
314.2266065390832
 30
0.0
 11
-192.2938248342977
 21
314.2266065390832
 31
0.0
  0
LINE
  5
285
330
1F
100
AcDbEntity
  8
LAYER-008
  6
CENTER
 62
     4
100
AcDbLine
 10
-161.0900142001048
 20
314.2266065390832
 30
0.0
 11
-121.2032412221044
 21
314.2266065390832
 31
0.0
  0
LINE
  5
286
330
1F
100
AcDbEntity
  8
LAYER-008
  6
CENTER
 62
     4
100
AcDbLine
 10
-89.99943058759394
 20
314.2266065390832
 30
0.0
 11
-50.11265760991168
 21
314.2266065390832
 31
0.0
  0
LINE
  5
287
330
1F
100
AcDbEntity
  8
LAYER-007
  6
Continuous
 62
     4
100
AcDbLine
 10
-25.18342449886026
 20
314.2266065390832
 30
0.0
 11
-35.1551177428984
 21
314.2266065390832
 31
0.0
  0
LINE
  5
288
330
1F
100
AcDbEntity
  8
LAYER-007
  6
Continuous
 62
     1
100
AcDbLine
 10
-434.4834860798301
 20
309.2407599168729
 30
0.0
 11
-425.5089621597166
 21
304.2549132949739
 31
0.0
  0
LINE
  5
289
330
1F
100
AcDbEntity
  8
LAYER-007
  6
Continuous
 62
     1
100
AcDbLine
 10
-416.5344382397381
 20
309.2407599168729
 30
0.0
 11
-416.5344382397381
 21
319.2124531612935
 31
0.0
  0
LINE
  5
28A
330
1F
100
AcDbEntity
  8
LAYER-007
  6
Continuous
 62
     1
100
AcDbLine
 10
-363.3929124391955
 20
309.2407599168729
 30
0.0
 11
-354.4183785475238
 21
304.2549132946626
 31
0.0
  0
LINE
  5
28B
330
1F
100
AcDbEntity
  8
LAYER-007
  6
Continuous
 62
     1
100
AcDbLine
 10
-345.4438546275452
 20
309.2407599168729
 30
0.0
 11
-345.4438546275452
 21
319.2124531612935
 31
0.0
  0
LINE
  5
28C
330
1F
100
AcDbEntity
  8
LAYER-007
  6
Continuous
 62
     1
100
AcDbLine
 10
-292.302308883616
 20
309.2407599168729
 30
0.0
 11
-283.3277949353312
 21
304.2549132946626
 31
0.0
  0
LINE
  5
28D
330
1F
100
AcDbEntity
  8
LAYER-007
  6
Continuous
 62
     1
100
AcDbLine
 10
-274.3532710153524
 20
309.2407599168729
 30
0.0
 11
-274.3532710153524
 21
319.2124531612935
 31
0.0
  0
LINE
  5
28E
330
1F
100
AcDbEntity
  8
LAYER-007
  6
Continuous
 62
     1
100
AcDbLine
 10
-221.2117352426688
 20
309.2407599168729
 30
0.0
 11
-212.2372113231385
 21
304.2549132946626
 31
0.0
  0
LINE
  5
28F
330
1F
100
AcDbEntity
  8
LAYER-007
  6
Continuous
 62
     1
100
AcDbLine
 10
-203.2626774309786
 20
309.2407599168729
 30
0.0
 11
-203.2626774309786
 21
319.2124531612935
 31
0.0
  0
LINE
  5
290
330
1F
100
AcDbEntity
  8
LAYER-007
  6
Continuous
 62
     1
100
AcDbLine
 10
-150.1211516309239
 20
309.2407599168729
 30
0.0
 11
-141.1466277109458
 21
304.2549132946626
 31
0.0
  0
LINE
  5
291
330
1F
100
AcDbEntity
  8
LAYER-007
  6
Continuous
 62
     1
100
AcDbLine
 10
-132.172103790967
 20
309.2407599168729
 30
0.0
 11
-132.172103790967
 21
319.2124531612935
 31
0.0
  0
LINE
  5
292
330
1F
100
AcDbEntity
  8
LAYER-007
  6
Continuous
 62
     1
100
AcDbLine
 10
-79.03056801873137
 20
309.2407599168729
 30
0.0
 11
-70.05604409875312
 21
304.2549132949739
 31
0.0
  0
LINE
  5
293
330
1F
100
AcDbEntity
  8
LAYER-007
  6
Continuous
 62
     1
100
AcDbLine
 10
-61.08153015086208
 20
309.2407599168729
 30
0.0
 11
-61.08153015086208
 21
319.2124531612935
 31
0.0
  0
LINE
  5
294
330
1F
100
AcDbEntity
  8
LAYER-006
  6
Continuous
 62
     1
100
AcDbLine
 10
412.9032338670618
 20
307.7678121746112
 30
0.0
 11
392.9743243683117
 21
307.7678121746112
 31
0.0
  0
LINE
  5
295
330
1F
100
AcDbEntity
  8
LAYER-007
  6
Continuous
 62
     1
100
AcDbLine
 10
422.8676886164367
 20
307.7678121746112
 30
0.0
 11
442.7965981151867
 21
307.7678121746112
 31
0.0
  0
LINE
  5
296
330
1F
100
AcDbEntity
  8
LAYER-007
  6
Continuous
 62
     1
100
AcDbLine
 10
-425.5089621597166
 20
304.2549132949739
 30
0.0
 11
-416.5344382397381
 21
309.2407599168729
 31
0.0
  0
LINE
  5
297
330
1F
100
AcDbEntity
  8
LAYER-007
  6
Continuous
 62
     1
100
AcDbLine
 10
-354.4183785475238
 20
304.2549132946626
 30
0.0
 11
-345.4438546275452
 21
309.2407599168729
 31
0.0
  0
LINE
  5
298
330
1F
100
AcDbEntity
  8
LAYER-007
  6
Continuous
 62
     1
100
AcDbLine
 10
-283.3277949353312
 20
304.2549132946626
 30
0.0
 11
-274.3532710153524
 21
309.2407599168729
 31
0.0
  0
LINE
  5
299
330
1F
100
AcDbEntity
  8
LAYER-007
  6
Continuous
 62
     1
100
AcDbLine
 10
-212.2372113231385
 20
304.2549132946626
 30
0.0
 11
-203.2626774309786
 21
309.2407599168729
 31
0.0
  0
LINE
  5
29A
330
1F
100
AcDbEntity
  8
LAYER-007
  6
Continuous
 62
     1
100
AcDbLine
 10
-141.1466277109458
 20
304.2549132946626
 30
0.0
 11
-132.172103790967
 21
309.2407599168729
 31
0.0
  0
LINE
  5
29B
330
1F
100
AcDbEntity
  8
LAYER-007
  6
Continuous
 62
     1
100
AcDbLine
 10
-70.05604409875312
 20
304.2549132949739
 30
0.0
 11
-61.08153015086208
 21
309.2407599168729
 31
0.0
  0
LINE
  5
29C
330
1F
100
AcDbEntity
  8
LAYER-006
  6
Continuous
 62
     1
100
AcDbLine
 10
392.9743243683117
 20
300.7926838828133
 30
0.0
 11
412.9032338670618
 21
300.7926838828133
 31
0.0
  0
LINE
  5
29D
330
1F
100
AcDbEntity
  8
LAYER-007
  6
Continuous
 62
     1
100
AcDbLine
 10
422.8676886164367
 20
300.7926838828133
 30
0.0
 11
432.8321433658118
 21
300.7926838828133
 31
0.0
  0
LINE
  5
29E
330
1F
100
AcDbEntity
  8
LAYER-006
  6
Continuous
 62
     1
100
AcDbLine
 10
387.9920969936242
 20
296.8069069652911
 30
0.0
 11
392.9743243683117
 21
296.8069069652911
 31
0.0
  0
LINE
  5
29F
330
1F
100
AcDbEntity
  8
LAYER-007
  6
Continuous
 62
     1
100
AcDbLine
 10
358.0987327454992
 20
289.3335659032595
 30
0.0
 11
383.0098696176455
 21
289.3335659032595
 31
0.0
  0
LINE
  5
2A0
330
1F
100
AcDbEntity
  8
LAYER-008
  6
HIDDEN
 62
     4
100
AcDbLine
 10
417.8854612417492
 20
289.3335659032595
 30
0.0
 11
417.8854612417492
 21
259.4402016551344
 31
0.0
  0
LINE
  5
2A1
330
1F
100
AcDbEntity
  8
LAYER-007
  6
Continuous
 62
     1
100
AcDbLine
 10
417.8854612417492
 20
289.3335659032595
 30
0.0
 11
432.8321433646631
 21
284.351338528572
 31
0.0
  0
LINE
  5
2A2
330
1F
100
AcDbEntity
  8
LAYER-007
  6
Continuous
 62
     1
100
AcDbLine
 10
-432.4891574025045
 20
289.297373428
 30
0.0
 11
-432.4891574025045
 21
269.3539869393924
 31
0.0
  0
LINE
  5
2A3
330
1F
100
AcDbEntity
  8
LAYER-008
  6
HIDDEN
 62
     4
100
AcDbLine
 10
-430.4948087819274
 20
289.297373428
 30
0.0
 11
-430.4948087819274
 21
269.3539869393924
 31
0.0
  0
LINE
  5
2A4
330
1F
100
AcDbEntity
  8
LAYER-008
  6
HIDDEN
 62
     4
100
AcDbLine
 10
-420.5231155375067
 20
289.297373428
 30
0.0
 11
-420.5231155375067
 21
269.3539869393924
 31
0.0
  0
LINE
  5
2A5
330
1F
100
AcDbEntity
  8
LAYER-007
  6
Continuous
 62
     1
100
AcDbLine
 10
-418.5287868603156
 20
289.297373428
 30
0.0
 11
-418.5287868603156
 21
269.3539869393924
 31
0.0
  0
LINE
  5
2A6
330
1F
100
AcDbEntity
  8
LAYER-007
  6
Continuous
 62
     1
100
AcDbLine
 10
-361.3985737903117
 20
289.297373428
 30
0.0
 11
-361.3985737903117
 21
269.3539869393924
 31
0.0
  0
LINE
  5
2A7
330
1F
100
AcDbEntity
  8
LAYER-008
  6
HIDDEN
 62
     4
100
AcDbLine
 10
-359.4042251697349
 20
289.297373428
 30
0.0
 11
-359.4042251697349
 21
269.3539869393924
 31
0.0
  0
LINE
  5
2A8
330
1F
100
AcDbEntity
  8
LAYER-008
  6
HIDDEN
 62
     4
100
AcDbLine
 10
-349.432531925314
 20
289.297373428
 30
0.0
 11
-349.432531925314
 21
269.3539869393924
 31
0.0
  0
LINE
  5
2A9
330
1F
100
AcDbEntity
  8
LAYER-007
  6
Continuous
 62
     1
100
AcDbLine
 10
-347.4382032481231
 20
289.297373428
 30
0.0
 11
-347.4382032481231
 21
269.3539869393924
 31
0.0
  0
LINE
  5
2AA
330
1F
100
AcDbEntity
  8
LAYER-007
  6
Continuous
 62
     1
100
AcDbLine
 10
-290.307990178119
 20
289.297373428
 30
0.0
 11
-290.307990178119
 21
269.3539869393924
 31
0.0
  0
LINE
  5
2AB
330
1F
100
AcDbEntity
  8
LAYER-008
  6
HIDDEN
 62
     4
100
AcDbLine
 10
-288.3136415575418
 20
289.297373428
 30
0.0
 11
-288.3136415575418
 21
269.3539869393924
 31
0.0
  0
LINE
  5
2AC
330
1F
100
AcDbEntity
  8
LAYER-008
  6
HIDDEN
 62
     4
100
AcDbLine
 10
-278.3419483131213
 20
289.297373428
 30
0.0
 11
-278.3419483131213
 21
269.3539869393924
 31
0.0
  0
LINE
  5
2AD
330
1F
100
AcDbEntity
  8
LAYER-007
  6
Continuous
 62
     1
100
AcDbLine
 10
-276.3476196359302
 20
289.297373428
 30
0.0
 11
-276.3476196359302
 21
269.3539869393924
 31
0.0
  0
LINE
  5
2AE
330
1F
100
AcDbEntity
  8
LAYER-007
  6
Continuous
 62
     1
100
AcDbLine
 10
-219.2174065659263
 20
289.297373428
 30
0.0
 11
-219.2174065659263
 21
269.3539869393924
 31
0.0
  0
LINE
  5
2AF
330
1F
100
AcDbEntity
  8
LAYER-008
  6
HIDDEN
 62
     4
100
AcDbLine
 10
-217.2230579453492
 20
289.297373428
 30
0.0
 11
-217.2230579453492
 21
269.3539869393924
 31
0.0
  0
LINE
  5
2B0
330
1F
100
AcDbEntity
  8
LAYER-008
  6
HIDDEN
 62
     4
100
AcDbLine
 10
-207.2513647009286
 20
289.297373428
 30
0.0
 11
-207.2513647009286
 21
269.3539869393924
 31
0.0
  0
LINE
  5
2B1
330
1F
100
AcDbEntity
  8
LAYER-007
  6
Continuous
 62
     1
100
AcDbLine
 10
-205.2570360237375
 20
289.297373428
 30
0.0
 11
-205.2570360237375
 21
269.3539869393924
 31
0.0
  0
LINE
  5
2B2
330
1F
100
AcDbEntity
  8
LAYER-007
  6
Continuous
 62
     1
100
AcDbLine
 10
-148.1268229537336
 20
289.297373428
 30
0.0
 11
-148.1268229537336
 21
269.3539869393924
 31
0.0
  0
LINE
  5
2B3
330
1F
100
AcDbEntity
  8
LAYER-008
  6
HIDDEN
 62
     4
100
AcDbLine
 10
-146.1324743331564
 20
289.297373428
 30
0.0
 11
-146.1324743331564
 21
269.3539869393924
 31
0.0
  0
LINE
  5
2B4
330
1F
100
AcDbEntity
  8
LAYER-008
  6
HIDDEN
 62
     4
100
AcDbLine
 10
-136.1607810887358
 20
289.297373428
 30
0.0
 11
-136.1607810887358
 21
269.3539869393924
 31
0.0
  0
LINE
  5
2B5
330
1F
100
AcDbEntity
  8
LAYER-007
  6
Continuous
 62
     1
100
AcDbLine
 10
-134.1664524111947
 20
289.297373428
 30
0.0
 11
-134.1664524111947
 21
269.3539869393924
 31
0.0
  0
LINE
  5
2B6
330
1F
100
AcDbEntity
  8
LAYER-007
  6
Continuous
 62
     1
100
AcDbLine
 10
-77.03623934154089
 20
289.297373428
 30
0.0
 11
-77.03623934154089
 21
269.3539869393924
 31
0.0
  0
LINE
  5
2B7
330
1F
100
AcDbEntity
  8
LAYER-008
  6
HIDDEN
 62
     4
100
AcDbLine
 10
-75.04189072096395
 20
289.297373428
 30
0.0
 11
-75.04189072096395
 21
269.3539869393924
 31
0.0
  0
LINE
  5
2B8
330
1F
100
AcDbEntity
  8
LAYER-008
  6
HIDDEN
 62
     4
100
AcDbLine
 10
-65.07019747654306
 20
289.297373428
 30
0.0
 11
-65.07019747654306
 21
269.3539869393924
 31
0.0
  0
LINE
  5
2B9
330
1F
100
AcDbEntity
  8
LAYER-007
  6
Continuous
 62
     1
100
AcDbLine
 10
-63.07586879935198
 20
289.297373428
 30
0.0
 11
-63.07586879935198
 21
269.3539869393924
 31
0.0
  0
LINE
  5
2BA
330
1F
100
AcDbEntity
  8
LAYER-008
  6
HIDDEN
 62
     4
100
AcDbLine
 10
427.8499159911243
 20
285.3477840035095
 30
0.0
 11
427.8499159911243
 21
259.4402016551344
 31
0.0
  0
LINE
  5
2BB
330
1F
100
AcDbEntity
  8
LAYER-007
  6
Continuous
 62
     1
100
AcDbLine
 10
432.8321433646631
 20
284.351338528572
 30
0.0
 11
432.8321433646631
 21
259.4402016551344
 31
0.0
  0
LINE
  5
2BC
330
1F
100
AcDbEntity
  8
LAYER-007
  6
Continuous
 62
     1
100
AcDbLine
 10
-432.4891574025045
 20
269.3539869393924
 30
0.0
 11
-418.5287868603156
 21
269.3539869393924
 31
0.0
  0
LINE
  5
2BD
330
1F
100
AcDbEntity
  8
LAYER-007
  6
Continuous
 62
     1
100
AcDbLine
 10
-430.4948087819274
 20
269.3539869393924
 30
0.0
 11
-430.4948087819274
 21
214.1558396501346
 31
0.0
  0
LINE
  5
2BE
330
1F
100
AcDbEntity
  8
LAYER-007
  6
Continuous
 62
     1
100
AcDbLine
 10
-420.5231155375067
 20
269.3539869393924
 30
0.0
 11
-420.5231155375067
 21
214.1558396501346
 31
0.0
  0
LINE
  5
2BF
330
1F
100
AcDbEntity
  8
LAYER-007
  6
Continuous
 62
     1
100
AcDbLine
 10
-361.3985737903117
 20
269.3539869393924
 30
0.0
 11
-347.4382032481231
 21
269.3539869393924
 31
0.0
  0
LINE
  5
2C0
330
1F
100
AcDbEntity
  8
LAYER-007
  6
Continuous
 62
     1
100
AcDbLine
 10
-359.4042251697349
 20
269.3539869393924
 30
0.0
 11
-359.4042251697349
 21
214.1558396501346
 31
0.0
  0
LINE
  5
2C1
330
1F
100
AcDbEntity
  8
LAYER-007
  6
Continuous
 62
     1
100
AcDbLine
 10
-349.432531925314
 20
269.3539869393924
 30
0.0
 11
-349.432531925314
 21
214.1558396501346
 31
0.0
  0
LINE
  5
2C2
330
1F
100
AcDbEntity
  8
LAYER-007
  6
Continuous
 62
     1
100
AcDbLine
 10
-290.307990178119
 20
269.3539869393924
 30
0.0
 11
-276.3476196359302
 21
269.3539869393924
 31
0.0
  0
LINE
  5
2C3
330
1F
100
AcDbEntity
  8
LAYER-007
  6
Continuous
 62
     1
100
AcDbLine
 10
-288.3136415575418
 20
269.3539869393924
 30
0.0
 11
-288.3136415575418
 21
214.1558396501346
 31
0.0
  0
LINE
  5
2C4
330
1F
100
AcDbEntity
  8
LAYER-007
  6
Continuous
 62
     1
100
AcDbLine
 10
-278.3419483131213
 20
269.3539869393924
 30
0.0
 11
-278.3419483131213
 21
214.1558396501346
 31
0.0
  0
LINE
  5
2C5
330
1F
100
AcDbEntity
  8
LAYER-007
  6
Continuous
 62
     1
100
AcDbLine
 10
-219.2174065659263
 20
269.3539869393924
 30
0.0
 11
-205.2570360237375
 21
269.3539869393924
 31
0.0
  0
LINE
  5
2C6
330
1F
100
AcDbEntity
  8
LAYER-007
  6
Continuous
 62
     1
100
AcDbLine
 10
-217.2230579453492
 20
269.3539869393924
 30
0.0
 11
-217.2230579453492
 21
214.1558396501346
 31
0.0
  0
LINE
  5
2C7
330
1F
100
AcDbEntity
  8
LAYER-007
  6
Continuous
 62
     1
100
AcDbLine
 10
-207.2513647009286
 20
269.3539869393924
 30
0.0
 11
-207.2513647009286
 21
214.1558396501346
 31
0.0
  0
LINE
  5
2C8
330
1F
100
AcDbEntity
  8
LAYER-007
  6
Continuous
 62
     1
100
AcDbLine
 10
-148.1268229537336
 20
269.3539869393924
 30
0.0
 11
-134.1664524111947
 21
269.3539869393924
 31
0.0
  0
LINE
  5
2C9
330
1F
100
AcDbEntity
  8
LAYER-007
  6
Continuous
 62
     1
100
AcDbLine
 10
-146.1324743331564
 20
269.3539869393924
 30
0.0
 11
-146.1324743331564
 21
214.1558396501346
 31
0.0
  0
LINE
  5
2CA
330
1F
100
AcDbEntity
  8
LAYER-007
  6
Continuous
 62
     1
100
AcDbLine
 10
-136.1607810887358
 20
269.3539869393924
 30
0.0
 11
-136.1607810887358
 21
214.1558396501346
 31
0.0
  0
LINE
  5
2CB
330
1F
100
AcDbEntity
  8
LAYER-007
  6
Continuous
 62
     1
100
AcDbLine
 10
-77.03623934154089
 20
269.3539869393924
 30
0.0
 11
-63.07586879935198
 21
269.3539869393924
 31
0.0
  0
LINE
  5
2CC
330
1F
100
AcDbEntity
  8
LAYER-007
  6
Continuous
 62
     1
100
AcDbLine
 10
-75.04189072096395
 20
269.3539869393924
 30
0.0
 11
-75.04189072096395
 21
214.1558396501346
 31
0.0
  0
LINE
  5
2CD
330
1F
100
AcDbEntity
  8
LAYER-007
  6
Continuous
 62
     1
100
AcDbLine
 10
-65.07019747654306
 20
269.3539869393924
 30
0.0
 11
-65.07019747654306
 21
214.1558396501346
 31
0.0
  0
LINE
  5
2CE
330
1F
100
AcDbEntity
  8
LAYER-001
  6
CENTER
 62
     5
100
AcDbLine
 10
-486.336290950682
 20
269.9973218188899
 30
0.0
 11
-486.336290950682
 21
187.2322678901991
 31
0.0
  0
LINE
  5
2CF
330
1F
100
AcDbEntity
  8
LAYER-001
  6
CENTER
 62
     5
100
AcDbLine
 10
-496.3079841951026
 20
260.0256285744694
 30
0.0
 11
-476.3645977062614
 21
260.0256285744694
 31
0.0
  0
LINE
  5
2D0
330
1F
100
AcDbEntity
  8
LAYER-003
  6
Continuous
 62
     1
100
AcDbLine
 10
-491.322137572893
 20
260.0256285744694
 30
0.0
 11
-491.322137572893
 21
218.2595464174229
 31
0.0
  0
ARC
  5
2D1
330
1F
100
AcDbEntity
  8
LAYER-003
  6
Continuous
 62
     1
100
AcDbCircle
 10
-486.336290950682
 20
260.0256285744694
 30
0.0
 40
4.985846622210283
100
AcDbArc
 50
0.0
 51
180.0000050000007
  0
LINE
  5
2D2
330
1F
100
AcDbEntity
  8
LAYER-003
  6
Continuous
 62
     1
100
AcDbLine
 10
-481.3504443284725
 20
260.0256285744694
 30
0.0
 11
-481.3504443284725
 21
218.2595464174229
 31
0.0
  0
LINE
  5
2D3
330
1F
100
AcDbEntity
  8
LAYER-001
  6
CENTER
 62
     5
100
AcDbLine
 10
-496.3079841951026
 20
240.0822420856283
 30
0.0
 11
-476.3645977062614
 21
240.0822420856283
 31
0.0
  0
LINE
  5
2D4
330
1F
100
AcDbEntity
  8
LAYER-003
  6
Continuous
 62
     1
100
AcDbLine
 10
-481.3504443284725
 20
224.2733439790218
 30
0.0
 11
-476.1737943418767
 21
223.3893942568461
 31
0.0
  0
LINE
  5
2D5
330
1F
100
AcDbEntity
  8
LAYER-003
  6
Continuous
 62
     1
100
AcDbLine
 10
-496.4987875594886
 20
223.3893942568461
 30
0.0
 11
-491.322137572893
 21
224.2733439790218
 31
0.0
  0
LINE
  5
2D6
330
1F
100
AcDbEntity
  8
LAYER-003
  6
Continuous
 62
     1
100
AcDbLine
 10
-496.0213827736257
 20
223.1303635701132
 30
0.0
 11
-491.322137572893
 21
223.1303635701132
 31
0.0
  0
LINE
  5
2D7
330
1F
100
AcDbEntity
  8
LAYER-003
  6
Continuous
 62
     1
100
AcDbLine
 10
-481.3504443284725
 20
223.1303635701132
 30
0.0
 11
-476.6511991276465
 21
223.1303635701132
 31
0.0
  0
LINE
  5
2D8
330
1F
100
AcDbEntity
  8
LAYER-003
  6
Continuous
 62
     1
100
AcDbLine
 10
-498.1498626344653
 20
221.5973314054251
 30
0.0
 11
-498.8009075062083
 21
214.1558396501346
 31
0.0
  0
ARC
  5
2D9
330
1F
100
AcDbEntity
  8
LAYER-003
  6
Continuous
 62
     1
100
AcDbCircle
 10
-496.1631313903572
 20
221.4235088374658
 30
0.0
 40
1.994338648884113
100
AcDbArc
 50
99.6901559981962
 51
175.0000059999998
  0
ARC
  5
2DA
330
1F
100
AcDbEntity
  8
LAYER-003
  6
Continuous
 62
     1
100
AcDbCircle
 10
-476.5094505110078
 20
221.4235088374658
 30
0.0
 40
1.994338648884113
100
AcDbArc
 50
5.000000023411458
 51
80.30984900000139
  0
ARC
  5
2DB
330
1F
100
AcDbEntity
  8
LAYER-003
  6
Continuous
 62
     1
100
AcDbCircle
 10
-492.8178915594804
 20
218.2595464174229
 30
0.0
 40
1.495753986663085
100
AcDbArc
 50
269.9999970070918
 51
0.0
  0
ARC
  5
2DC
330
1F
100
AcDbEntity
  8
LAYER-003
  6
Continuous
 62
     1
100
AcDbCircle
 10
-479.8546903418093
 20
218.2595464174229
 30
0.0
 40
1.495753986663085
100
AcDbArc
 50
180.0000051888342
 51
270.0000010000073
  0
LINE
  5
2DD
330
1F
100
AcDbEntity
  8
LAYER-003
  6
Continuous
 62
     1
100
AcDbLine
 10
-498.8009075062083
 20
214.1558396501346
 30
0.0
 11
-473.8716743955574
 21
214.1558396501346
 31
0.0
  0
LINE
  5
2DE
330
1F
100
AcDbEntity
  8
LAYER-003
  6
Continuous
 62
     1
100
AcDbLine
 10
-473.8716743955574
 20
214.1558396501346
 30
0.0
 11
-474.5227192671773
 21
221.5973314054251
 31
0.0
  0
LINE
  5
2DF
330
1F
100
AcDbEntity
  8
LAYER-001
  6
CENTER
 62
     5
100
AcDbLine
 10
-11.22306392836507
 20
269.9973218188899
 30
0.0
 11
-11.22306392836507
 21
187.2322678901991
 31
0.0
  0
LINE
  5
2E0
330
1F
100
AcDbEntity
  8
LAYER-001
  6
CENTER
 62
     5
100
AcDbLine
 10
-21.19475717278564
 20
260.0256285744694
 30
0.0
 11
-1.251370683944458
 21
260.0256285744694
 31
0.0
  0
LINE
  5
2E1
330
1F
100
AcDbEntity
  8
LAYER-003
  6
Continuous
 62
     1
100
AcDbLine
 10
-16.20891055011012
 20
260.0256285744694
 30
0.0
 11
-16.20891055011012
 21
218.2595464174229
 31
0.0
  0
ARC
  5
2E2
330
1F
100
AcDbEntity
  8
LAYER-003
  6
Continuous
 62
     1
100
AcDbCircle
 10
-11.22306392836507
 20
260.0256285744694
 30
0.0
 40
4.985846622210283
100
AcDbArc
 50
0.0
 51
180.0000050000007
  0
LINE
  5
2E3
330
1F
100
AcDbEntity
  8
LAYER-003
  6
Continuous
 62
     1
100
AcDbLine
 10
-6.237217306154749
 20
260.0256285744694
 30
0.0
 11
-6.237217306154749
 21
218.2595464174229
 31
0.0
  0
LINE
  5
2E4
330
1F
100
AcDbEntity
  8
LAYER-001
  6
CENTER
 62
     5
100
AcDbLine
 10
-21.19475717278564
 20
240.0822420856283
 30
0.0
 11
-1.251370683944458
 21
240.0822420856283
 31
0.0
  0
LINE
  5
2E5
330
1F
100
AcDbEntity
  8
LAYER-003
  6
Continuous
 62
     1
100
AcDbLine
 10
-6.237217306154749
 20
224.2733439790218
 30
0.0
 11
-1.060567319559086
 21
223.3893942568461
 31
0.0
  0
LINE
  5
2E6
330
1F
100
AcDbEntity
  8
LAYER-003
  6
Continuous
 62
     1
100
AcDbLine
 10
-21.38556053717102
 20
223.3893942568461
 30
0.0
 11
-16.20891055011012
 21
224.2733439790218
 31
0.0
  0
LINE
  5
2E7
330
1F
100
AcDbEntity
  8
LAYER-003
  6
Continuous
 62
     1
100
AcDbLine
 10
-20.90815575140093
 20
223.1303635701132
 30
0.0
 11
-16.20891055011012
 21
223.1303635701132
 31
0.0
  0
LINE
  5
2E8
330
1F
100
AcDbEntity
  8
LAYER-003
  6
Continuous
 62
     1
100
AcDbLine
 10
-6.237217306154749
 20
223.1303635701132
 30
0.0
 11
-1.537972105328949
 21
223.1303635701132
 31
0.0
  0
LINE
  5
2E9
330
1F
100
AcDbEntity
  8
LAYER-003
  6
Continuous
 62
     1
100
AcDbLine
 10
-23.03663561214762
 20
221.5973314054251
 30
0.0
 11
-23.6876804838908
 21
214.1558396501346
 31
0.0
  0
ARC
  5
2EA
330
1F
100
AcDbEntity
  8
LAYER-003
  6
Continuous
 62
     1
100
AcDbCircle
 10
-21.04990436803962
 20
221.4235088374658
 30
0.0
 40
1.994338648884113
100
AcDbArc
 50
99.6901559981946
 51
175.0000059999996
  0
ARC
  5
2EB
330
1F
100
AcDbEntity
  8
LAYER-003
  6
Continuous
 62
     1
100
AcDbCircle
 10
-1.39622348869017
 20
221.4235088374658
 30
0.0
 40
1.994338648884113
100
AcDbArc
 50
5.00000002420289
 51
80.3098490000006
  0
ARC
  5
2EC
330
1F
100
AcDbEntity
  8
LAYER-003
  6
Continuous
 62
     1
100
AcDbCircle
 10
-17.70466453723822
 20
218.2595464174229
 30
0.0
 40
1.495753986663085
100
AcDbArc
 50
269.9999969968927
 51
0.0
  0
ARC
  5
2ED
330
1F
100
AcDbEntity
  8
LAYER-003
  6
Continuous
 62
     1
100
AcDbCircle
 10
-4.741463319491603
 20
218.2595464174229
 30
0.0
 40
1.495753986663085
100
AcDbArc
 50
180.0000051544701
 51
270.0000010000039
  0
LINE
  5
2EE
330
1F
100
AcDbEntity
  8
LAYER-003
  6
Continuous
 62
     1
100
AcDbLine
 10
-23.6876804838908
 20
214.1558396501346
 30
0.0
 11
8.720322560476802
 21
214.1558396501346
 31
0.0
  0
LINE
  5
2EF
330
1F
100
AcDbEntity
  8
LAYER-003
  6
Continuous
 62
     1
100
AcDbLine
 10
1.241552627160671
 20
214.1558396501346
 30
0.0
 11
0.5905077551403775
 21
221.5973314054251
 31
0.0
  0
LINE
  5
2F0
330
1F
100
AcDbEntity
  8
LAYER-001
  6
CENTER
 62
     5
100
AcDbLine
 10
244.3137627466086
 20
269.3767352783927
 30
0.0
 11
244.3137627466086
 21
186.671760858169
 31
0.0
  0
LINE
  5
2F1
330
1F
100
AcDbEntity
  8
LAYER-001
  6
CENTER
 62
     5
100
AcDbLine
 10
214.4203984984836
 20
239.4833710302676
 30
0.0
 11
274.2071269947338
 21
239.4833710302676
 31
0.0
  0
ARC
  5
2F2
330
1F
100
AcDbEntity
  8
LAYER-003
  6
Continuous
 62
     1
100
AcDbCircle
 10
244.3137627466086
 20
239.4833710302676
 30
0.0
 40
24.91113687343753
100
AcDbArc
 50
306.4760049930263
 51
233.5240039998285
  0
CIRCLE
  5
2F3
330
1F
100
AcDbEntity
  8
LAYER-003
  6
Continuous
 62
     1
100
AcDbCircle
 10
244.3137627466086
 20
239.4833710302676
 30
0.0
 40
14.94668212406252
  0
LINE
  5
2F4
330
1F
100
AcDbEntity
  8
LAYER-003
  6
Continuous
 62
     1
100
AcDbLine
 10
244.3137627466086
 20
224.5366889057222
 30
0.0
 11
254.4688823561424
 21
222.8026406115728
 31
0.0
  0
LINE
  5
2F5
330
1F
100
AcDbEntity
  8
LAYER-003
  6
Continuous
 62
     1
100
AcDbLine
 10
234.1586431380298
 20
222.8026406115728
 30
0.0
 11
244.3137627466086
 21
224.5366889057222
 31
0.0
  0
LINE
  5
2F6
330
1F
100
AcDbEntity
  8
LAYER-003
  6
Continuous
 62
     1
100
AcDbLine
 10
234.6357013734119
 20
222.5437979563303
 30
0.0
 11
253.9918241198037
 21
222.5437979563303
 31
0.0
  0
LINE
  5
2F7
330
1F
100
AcDbEntity
  8
LAYER-003
  6
Continuous
 62
     1
100
AcDbLine
 10
232.5087665853573
 20
221.0118786262889
 30
0.0
 11
231.8581943098893
 21
213.5757886818927
 31
0.0
  0
ARC
  5
2F8
330
1F
100
AcDbEntity
  8
LAYER-003
  6
Continuous
 62
     1
100
AcDbCircle
 10
234.4940556527041
 20
220.8381822368797
 30
0.0
 40
1.992890949875002
100
AcDbArc
 50
99.69015599999457
 51
175.0000060000019
  0
ARC
  5
2F9
330
1F
100
AcDbEntity
  8
LAYER-003
  6
Continuous
 62
     1
100
AcDbCircle
 10
254.1334698405116
 20
220.8381822368797
 30
0.0
 40
1.992890949875002
100
AcDbArc
 50
4.999999999999869
 51
80.30984900000868
  0
ARC
  5
2FA
330
1F
100
AcDbEntity
  8
LAYER-003
  6
Continuous
 62
     1
100
AcDbCircle
 10
225.9501923626832
 20
214.6446986610858
 30
0.0
 40
5.978672849625007
100
AcDbArc
 50
355.0000000025524
 51
53.52399497074216
  0
ARC
  5
2FB
330
1F
100
AcDbEntity
  8
LAYER-003
  6
Continuous
 62
     1
100
AcDbCircle
 10
262.6773331326332
 20
214.6446986610858
 30
0.0
 40
5.978672849625007
100
AcDbArc
 50
126.4760060160832
 51
185.0000039980722
  0
LINE
  5
2FC
330
1F
100
AcDbEntity
  8
LAYER-003
  6
Continuous
 62
     1
100
AcDbLine
 10
231.8581943098893
 20
213.5757886818927
 30
0.0
 11
256.7693311833269
 21
213.5757886818927
 31
0.0
  0
LINE
  5
2FD
330
1F
100
AcDbEntity
  8
LAYER-003
  6
Continuous
 62
     1
100
AcDbLine
 10
256.7693311833269
 20
213.5757886818927
 30
0.0
 11
256.1187589078584
 21
221.0118786262889
 31
0.0
  0
LINE
  5
2FE
330
1F
100
AcDbEntity
  8
LAYER-001
  6
CENTER
 62
     5
100
AcDbLine
 10
343.3982034531185
 20
269.3767352783927
 30
0.0
 11
343.3982034531185
 21
186.671760858169
 31
0.0
  0
LINE
  5
2FF
330
1F
100
AcDbEntity
  8
LAYER-001
  6
CENTER
 62
     5
100
AcDbLine
 10
313.5048392049935
 20
239.4833710302676
 30
0.0
 11
373.2915677012435
 21
239.4833710302676
 31
0.0
  0
ARC
  5
300
330
1F
100
AcDbEntity
  8
LAYER-003
  6
Continuous
 62
     1
100
AcDbCircle
 10
343.3982034531185
 20
239.4833710302676
 30
0.0
 40
24.91113687343753
100
AcDbArc
 50
306.4760049930274
 51
233.5240039998296
  0
CIRCLE
  5
301
330
1F
100
AcDbEntity
  8
LAYER-003
  6
Continuous
 62
     1
100
AcDbCircle
 10
343.3982034531185
 20
239.4833710302676
 30
0.0
 40
14.94668212406252
  0
LINE
  5
302
330
1F
100
AcDbEntity
  8
LAYER-003
  6
Continuous
 62
     1
100
AcDbLine
 10
343.3982034531185
 20
224.5366889057222
 30
0.0
 11
353.5533230621872
 21
222.8026406115728
 31
0.0
  0
LINE
  5
303
330
1F
100
AcDbEntity
  8
LAYER-003
  6
Continuous
 62
     1
100
AcDbLine
 10
333.2430838443415
 20
222.8026406115728
 30
0.0
 11
343.3982034531185
 21
224.5366889057222
 31
0.0
  0
LINE
  5
304
330
1F
100
AcDbEntity
  8
LAYER-003
  6
Continuous
 62
     1
100
AcDbLine
 10
333.720142079955
 20
222.5437979563303
 30
0.0
 11
353.0762648263141
 21
222.5437979563303
 31
0.0
  0
LINE
  5
305
330
1F
100
AcDbEntity
  8
LAYER-003
  6
Continuous
 62
     1
100
AcDbLine
 10
331.5932072918677
 20
221.0118786262889
 30
0.0
 11
330.9426350163997
 21
213.5757886818927
 31
0.0
  0
ARC
  5
306
330
1F
100
AcDbEntity
  8
LAYER-003
  6
Continuous
 62
     1
100
AcDbCircle
 10
333.5784963592145
 20
220.8381822368797
 30
0.0
 40
1.992890949875002
100
AcDbArc
 50
99.69015599999538
 51
175.0000060000021
  0
ARC
  5
307
330
1F
100
AcDbEntity
  8
LAYER-003
  6
Continuous
 62
     1
100
AcDbCircle
 10
353.217910547022
 20
220.8381822368797
 30
0.0
 40
1.992890949875002
100
AcDbArc
 50
4.999999999999869
 51
80.30984899999177
  0
ARC
  5
308
330
1F
100
AcDbEntity
  8
LAYER-003
  6
Continuous
 62
     1
100
AcDbCircle
 10
325.0346330691936
 20
214.6446986610858
 30
0.0
 40
5.978672849625007
100
AcDbArc
 50
355.0000000025524
 51
53.52399497074195
  0
ARC
  5
309
330
1F
100
AcDbEntity
  8
LAYER-003
  6
Continuous
 62
     1
100
AcDbCircle
 10
361.7617738391436
 20
214.6446986610858
 30
0.0
 40
5.978672849625007
100
AcDbArc
 50
126.4760060160832
 51
185.0000039980722
  0
LINE
  5
30A
330
1F
100
AcDbEntity
  8
LAYER-003
  6
Continuous
 62
     1
100
AcDbLine
 10
330.9426350163997
 20
213.5757886818927
 30
0.0
 11
355.8537718898372
 21
213.5757886818927
 31
0.0
  0
LINE
  5
30B
330
1F
100
AcDbEntity
  8
LAYER-003
  6
Continuous
 62
     1
100
AcDbLine
 10
355.8537718898372
 20
213.5757886818927
 30
0.0
 11
355.2031996143688
 21
221.0118786262889
 31
0.0
  0
LINE
  5
30C
330
1F
100
AcDbEntity
  8
LAYER-007
  6
Continuous
 62
     1
100
AcDbLine
 10
412.9032338659131
 20
259.4402016551344
 30
0.0
 11
432.8321433646631
 21
259.4402016551344
 31
0.0
  0
LINE
  5
30D
330
1F
100
AcDbEntity
  8
LAYER-033
  6
Continuous
 62
     5
100
AcDbLine
 10
421.7585607164991
 20
259.4402016551344
 30
0.0
 11
427.8499159911243
 21
253.3488463806251
 31
0.0
  0
LINE
  5
30E
330
1F
100
AcDbEntity
  8
LAYER-033
  6
Continuous
 62
     5
100
AcDbLine
 10
417.8854612417492
 20
256.2673676058392
 30
0.0
 11
427.8499159911243
 21
246.3029128565156
 31
0.0
  0
LINE
  5
30F
330
1F
100
AcDbEntity
  8
LAYER-033
  6
Continuous
 62
     5
100
AcDbLine
 10
417.8854612417492
 20
249.2214340813645
 30
0.0
 11
427.8499159911243
 21
239.2569793324061
 31
0.0
  0
LINE
  5
310
330
1F
100
AcDbEntity
  8
LAYER-033
  6
Continuous
 62
     5
100
AcDbLine
 10
417.8854612417492
 20
242.1755005576716
 30
0.0
 11
427.8499159911243
 21
232.2110458082964
 31
0.0
  0
LINE
  5
311
330
1F
100
AcDbEntity
  8
LAYER-033
  6
Continuous
 62
     5
100
AcDbLine
 10
417.8854612417492
 20
235.1295670335619
 30
0.0
 11
427.8499159911243
 21
225.1651122841869
 31
0.0
  0
LINE
  5
312
330
1F
100
AcDbEntity
  8
LAYER-033
  6
Continuous
 62
     5
100
AcDbLine
 10
417.8854612417492
 20
228.0836335094524
 30
0.0
 11
427.8499159911243
 21
218.1191787600774
 31
0.0
  0
LINE
  5
313
330
1F
100
AcDbEntity
  8
LAYER-033
  6
Continuous
 62
     5
100
AcDbLine
 10
417.8854612417492
 20
221.0376999853428
 30
0.0
 11
427.8499159911243
 21
211.0732452359678
 31
0.0
  0
LINE
  5
314
330
1F
100
AcDbEntity
  8
LAYER-033
  6
Continuous
 62
     5
100
AcDbLine
 10
417.8854612417492
 20
213.9917664612332
 30
0.0
 11
427.8499159911243
 21
204.0273117121346
 31
0.0
  0
LINE
  5
315
330
1F
100
AcDbEntity
  8
LAYER-033
  6
Continuous
 62
     5
100
AcDbLine
 10
417.8854612417492
 20
206.9458329371237
 30
0.0
 11
427.8499159911243
 21
196.9813781878392
 31
0.0
  0
LINE
  5
316
330
1F
100
AcDbEntity
  8
LAYER-033
  6
Continuous
 62
     5
100
AcDbLine
 10
417.8854612417492
 20
199.8998994130141
 30
0.0
 11
427.8499159911243
 21
189.935444664
 31
0.0
  0
LINE
  5
317
330
1F
100
AcDbEntity
  8
LAYER-033
  6
Continuous
 62
     5
100
AcDbLine
 10
417.8854612417492
 20
192.8539658889046
 30
0.0
 11
427.8499159911243
 21
182.889511139
 31
0.0
  0
LINE
  5
318
330
1F
100
AcDbEntity
  8
LAYER-033
  6
Continuous
 62
     5
100
AcDbLine
 10
417.8854612417492
 20
185.808032364795
 30
0.0
 11
427.8499159911243
 21
175.8435776154199
 31
0.0
  0
LINE
  5
319
330
1F
100
AcDbEntity
  8
LAYER-033
  6
Continuous
 62
     5
100
AcDbLine
 10
417.8854612417492
 20
178.7620988406853
 30
0.0
 11
427.8499159911243
 21
168.7976440913104
 31
0.0
  0
LINE
  5
31A
330
1F
100
AcDbEntity
  8
LAYER-033
  6
Continuous
 62
     5
100
AcDbLine
 10
417.8854612417492
 20
171.7161653165757
 30
0.0
 11
427.8499159911243
 21
161.7517105672007
 31
0.0
  0
LINE
  5
31B
330
1F
100
AcDbEntity
  8
LAYER-033
  6
Continuous
 62
     5
100
AcDbLine
 10
417.8854612417492
 20
164.6702317924662
 30
0.0
 11
427.8499159911243
 21
154.7057770430912
 31
0.0
  0
LINE
  5
31C
330
1F
100
AcDbEntity
  8
LAYER-033
  6
Continuous
 62
     5
100
AcDbLine
 10
417.8854612417492
 20
157.6242982683566
 30
0.0
 11
427.8499159911243
 21
147.6598435194745
 31
0.0
  0
LINE
  5
31D
330
1F
100
AcDbEntity
  8
LAYER-033
  6
Continuous
 62
     5
100
AcDbLine
 10
417.8854612417492
 20
150.5783647481439
 30
0.0
 11
427.8499159911243
 21
140.6139099987689
 31
0.0
  0
LINE
  5
31E
330
1F
100
AcDbEntity
  8
LAYER-033
  6
Continuous
 62
     5
100
AcDbLine
 10
417.8854612417492
 20
143.5324312201375
 30
0.0
 11
427.8499159911243
 21
133.5679764707625
 31
0.0
  0
LINE
  5
31F
330
1F
100
AcDbEntity
  8
LAYER-033
  6
Continuous
 62
     5
100
AcDbLine
 10
417.8854612417492
 20
136.4864976960279
 30
0.0
 11
427.8499159911243
 21
126.5220429466529
 31
0.0
  0
LINE
  5
320
330
1F
100
AcDbEntity
  8
LAYER-033
  6
Continuous
 62
     5
100
AcDbLine
 10
417.8854612417492
 20
129.4405641719184
 30
0.0
 11
427.8499159911243
 21
119.4761094225434
 31
0.0
  0
LINE
  5
321
330
1F
100
AcDbEntity
  8
LAYER-033
  6
Continuous
 62
     5
100
AcDbLine
 10
417.8854612417492
 20
118.5215311729432
 30
0.0
 11
427.8499159911243
 21
128.4859859223183
 31
0.0
  0
LINE
  5
322
330
1F
100
AcDbEntity
  8
LAYER-033
  6
Continuous
 62
     5
100
AcDbLine
 10
417.8854612417492
 20
125.5674646970527
 30
0.0
 11
427.8499159911243
 21
135.5319194464278
 31
0.0
  0
LINE
  5
323
330
1F
100
AcDbEntity
  8
LAYER-033
  6
Continuous
 62
     5
100
AcDbLine
 10
417.8854612417492
 20
132.6133982211624
 30
0.0
 11
427.8499159911243
 21
142.5778529705374
 31
0.0
  0
LINE
  5
324
330
1F
100
AcDbEntity
  8
LAYER-033
  6
Continuous
 62
     5
100
AcDbLine
 10
417.8854612417492
 20
139.659331745272
 30
0.0
 11
427.8499159911243
 21
149.623786494647
 31
0.0
  0
LINE
  5
325
330
1F
100
AcDbEntity
  8
LAYER-033
  6
Continuous
 62
     5
100
AcDbLine
 10
417.8854612417492
 20
146.7052652689478
 30
0.0
 11
427.8499159911243
 21
156.6697200187564
 31
0.0
  0
LINE
  5
326
330
1F
100
AcDbEntity
  8
LAYER-033
  6
Continuous
 62
     5
100
AcDbLine
 10
417.8854612417492
 20
153.7511987934911
 30
0.0
 11
427.8499159911243
 21
163.7156535428659
 31
0.0
  0
LINE
  5
327
330
1F
100
AcDbEntity
  8
LAYER-033
  6
Continuous
 62
     5
100
AcDbLine
 10
417.8854612417492
 20
160.7971323176005
 30
0.0
 11
427.8499159911243
 21
170.7615870669756
 31
0.0
  0
LINE
  5
328
330
1F
100
AcDbEntity
  8
LAYER-033
  6
Continuous
 62
     5
100
AcDbLine
 10
417.8854612417492
 20
167.8430658417102
 30
0.0
 11
427.8499159911243
 21
177.8075205910852
 31
0.0
  0
LINE
  5
329
330
1F
100
AcDbEntity
  8
LAYER-033
  6
Continuous
 62
     5
100
AcDbLine
 10
417.8854612417492
 20
174.8889993659652
 30
0.0
 11
427.8499159911243
 21
184.8534541151947
 31
0.0
  0
LINE
  5
32A
330
1F
100
AcDbEntity
  8
LAYER-033
  6
Continuous
 62
     5
100
AcDbLine
 10
417.8854612417492
 20
181.934932888349
 30
0.0
 11
427.8499159911243
 21
191.899387637724
 31
0.0
  0
LINE
  5
32B
330
1F
100
AcDbEntity
  8
LAYER-033
  6
Continuous
 62
     5
100
AcDbLine
 10
417.8854612417492
 20
188.9808664140388
 30
0.0
 11
427.8499159911243
 21
198.9453211634138
 31
0.0
  0
LINE
  5
32C
330
1F
100
AcDbEntity
  8
LAYER-033
  6
Continuous
 62
     5
100
AcDbLine
 10
417.8854612417492
 20
196.0267999381484
 30
0.0
 11
427.8499159911243
 21
205.9912546875235
 31
0.0
  0
LINE
  5
32D
330
1F
100
AcDbEntity
  8
LAYER-033
  6
Continuous
 62
     5
100
AcDbLine
 10
417.8854612417492
 20
203.0727334622581
 30
0.0
 11
427.8499159911243
 21
213.037188211633
 31
0.0
  0
LINE
  5
32E
330
1F
100
AcDbEntity
  8
LAYER-033
  6
Continuous
 62
     5
100
AcDbLine
 10
417.8854612417492
 20
210.1186669863675
 30
0.0
 11
427.8499159911243
 21
220.0831217357425
 31
0.0
  0
LINE
  5
32F
330
1F
100
AcDbEntity
  8
LAYER-033
  6
Continuous
 62
     5
100
AcDbLine
 10
417.8854612417492
 20
217.1646005104772
 30
0.0
 11
427.8499159911243
 21
227.1290552598522
 31
0.0
  0
LINE
  5
330
330
1F
100
AcDbEntity
  8
LAYER-033
  6
Continuous
 62
     5
100
AcDbLine
 10
417.8854612417492
 20
224.2105339749947
 30
0.0
 11
427.8499159911243
 21
234.1749887839616
 31
0.0
  0
LINE
  5
331
330
1F
100
AcDbEntity
  8
LAYER-033
  6
Continuous
 62
     5
100
AcDbLine
 10
417.8854612417492
 20
231.2564675586963
 30
0.0
 11
427.8499159911243
 21
241.2209223080712
 31
0.0
  0
LINE
  5
332
330
1F
100
AcDbEntity
  8
LAYER-033
  6
Continuous
 62
     5
100
AcDbLine
 10
417.8854612417492
 20
238.3024010828058
 30
0.0
 11
427.8499159911243
 21
248.2668558321807
 31
0.0
  0
LINE
  5
333
330
1F
100
AcDbEntity
  8
LAYER-033
  6
Continuous
 62
     5
100
AcDbLine
 10
417.8854612417492
 20
245.3483346069154
 30
0.0
 11
427.8499159911243
 21
255.3127893562904
 31
0.0
  0
LINE
  5
334
330
1F
100
AcDbEntity
  8
LAYER-033
  6
Continuous
 62
     5
100
AcDbLine
 10
417.8854612417492
 20
252.394268131025
 30
0.0
 11
424.9313947658588
 21
259.4402016551344
 31
0.0
  0
LINE
  5
335
330
1F
100
AcDbEntity
  8
LAYER-007
  6
Continuous
 62
     1
100
AcDbLine
 10
-20.19757787665029
 20
223.5922507268483
 30
0.0
 11
-20.19757787665029
 21
339.1558396501346
 31
0.0
  0
LINE
  5
336
330
1F
100
AcDbEntity
  8
LAYER-007
  6
Continuous
 62
     1
100
AcDbLine
 10
-475.367438353513
 20
223.0584996259923
 30
0.0
 11
-475.367438353513
 21
339.1558396501346
 31
0.0
  0
LINE
  5
337
330
1F
100
AcDbEntity
  8
LAYER-006
  6
Continuous
 62
     1
100
AcDbLine
 10
8.7203225604768
 20
214.1558396501346
 30
0.0
 11
8.7203225604768
 21
-130.8441603498654
 31
0.0
  0
LINE
  5
338
330
1F
100
AcDbEntity
  8
LAYER-006
  6
Continuous
 62
     1
100
AcDbLine
 10
204.4559337846527
 20
213.5757886818927
 30
0.0
 11
204.4559337846527
 21
133.860130757455
 31
0.0
  0
LINE
  5
339
330
1F
100
AcDbEntity
  8
LAYER-006
  6
Continuous
 62
     1
100
AcDbLine
 10
204.4559337846527
 20
213.5757886818927
 30
0.0
 11
279.1893643338754
 21
213.5757886818927
 31
0.0
  0
LINE
  5
33A
330
1F
100
AcDbEntity
  8
LAYER-006
  6
Continuous
 62
     1
100
AcDbLine
 10
279.1893643338754
 20
213.5757886818927
 30
0.0
 11
279.1893643338754
 21
208.5935613072055
 31
0.0
  0
LINE
  5
33B
330
1F
100
AcDbEntity
  8
LAYER-006
  6
Continuous
 62
     1
100
AcDbLine
 10
308.5226118303065
 20
213.5757886818927
 30
0.0
 11
383.2560224506191
 21
213.5757886818927
 31
0.0
  0
LINE
  5
33C
330
1F
100
AcDbEntity
  8
LAYER-006
  6
Continuous
 62
     1
100
AcDbLine
 10
308.5226118303065
 20
213.5757886818927
 30
0.0
 11
308.5226118303065
 21
208.5935613072055
 31
0.0
  0
LINE
  5
33D
330
1F
100
AcDbEntity
  8
LAYER-006
  6
Continuous
 62
     1
100
AcDbLine
 10
383.2560224506191
 20
213.5757886818927
 30
0.0
 11
383.2560224506191
 21
133.860130757455
 31
0.0
  0
LINE
  5
33E
330
1F
100
AcDbEntity
  8
LAYER-006
  6
Continuous
 62
     1
100
AcDbLine
 10
209.4381611593403
 20
208.5935613072055
 30
0.0
 11
209.4381611593403
 21
-125.8619329771303
 31
0.0
  0
LINE
  5
33F
330
1F
100
AcDbEntity
  8
LAYER-006
  6
Continuous
 62
     1
100
AcDbLine
 10
209.4381611593403
 20
208.5935613072055
 30
0.0
 11
378.2737950759305
 21
208.5935613072055
 31
0.0
  0
LINE
  5
340
330
1F
100
AcDbEntity
  8
LAYER-006
  6
Continuous
 62
     1
100
AcDbLine
 10
214.4203885340289
 20
208.5935613072055
 30
0.0
 11
214.4203885340289
 21
-125.8619329771303
 31
0.0
  0
LINE
  5
341
330
1F
100
AcDbEntity
  8
LAYER-006
  6
Continuous
 62
     1
100
AcDbLine
 10
378.2737950759305
 20
208.5935613072055
 30
0.0
 11
378.2737950759305
 21
-125.8619329771303
 31
0.0
  0
LINE
  5
342
330
1F
100
AcDbEntity
  8
LAYER-007
  6
CENTER
 62
     4
100
AcDbLine
 10
-485.0013706839436
 20
190.2237658918318
 30
0.0
 11
-485.0013706839436
 21
157.317178185244
 31
0.0
  0
LINE
  5
343
330
1F
100
AcDbEntity
  8
LAYER-007
  6
CENTER
 62
     4
100
AcDbLine
 10
-12.55798419510263
 20
190.2237658918318
 30
0.0
 11
-12.55798419510263
 21
157.317178185244
 31
0.0
  0
LINE
  5
344
330
1F
100
AcDbEntity
  8
LAYER-006
  6
Continuous
 62
     1
100
AcDbLine
 10
189.5092616250455
 20
188.6646318795454
 30
0.0
 11
189.5092616250455
 21
158.7712676314206
 31
0.0
  0
LINE
  5
345
330
1F
100
AcDbEntity
  8
LAYER-006
  6
Continuous
 62
     1
100
AcDbLine
 10
204.4559337846527
 20
188.6646318795454
 30
0.0
 11
189.5092616250455
 21
188.6646318795454
 31
0.0
  0
LINE
  5
346
330
1F
100
AcDbEntity
  8
LAYER-006
  6
Continuous
 62
     1
100
AcDbLine
 10
383.2560224506191
 20
188.6646318795454
 30
0.0
 11
398.202704574681
 21
188.6646318795454
 31
0.0
  0
LINE
  5
347
330
1F
100
AcDbEntity
  8
LAYER-006
  6
Continuous
 62
     1
100
AcDbLine
 10
398.202704574681
 20
188.6646318795454
 30
0.0
 11
398.202704574681
 21
158.7712676314206
 31
0.0
  0
LINE
  5
348
330
1F
100
AcDbEntity
  8
LAYER-006
  6
Continuous
 62
     1
100
AcDbLine
 10
179.5448068756711
 20
181.6895235194377
 30
0.0
 11
179.5448068756711
 21
166.7428413904964
 31
0.0
  0
LINE
  5
349
330
1F
100
AcDbEntity
  8
LAYER-006
  6
Continuous
 62
     1
100
AcDbLine
 10
204.4559337846527
 20
181.6895235194377
 30
0.0
 11
179.5448068756711
 21
181.6895235194377
 31
0.0
  0
LINE
  5
34A
330
1F
100
AcDbEntity
  8
LAYER-006
  6
Continuous
 62
     1
100
AcDbLine
 10
209.4381611593403
 20
181.6895235194377
 30
0.0
 11
378.2737950759305
 21
181.6895235194377
 31
0.0
  0
LINE
  5
34B
330
1F
100
AcDbEntity
  8
LAYER-006
  6
Continuous
 62
     1
100
AcDbLine
 10
383.2560224506191
 20
181.6895235194377
 30
0.0
 11
408.1671593240567
 21
181.6895235194377
 31
0.0
  0
LINE
  5
34C
330
1F
100
AcDbEntity
  8
LAYER-006
  6
Continuous
 62
     1
100
AcDbLine
 10
408.1671593240567
 20
181.6895235194377
 30
0.0
 11
408.1671593240567
 21
166.7428413904964
 31
0.0
  0
LINE
  5
34D
330
1F
100
AcDbEntity
  8
LAYER-007
  6
CENTER
 62
     4
100
AcDbLine
 10
165.9503676455602
 20
174.7144051948752
 30
0.0
 11
414.9625270918475
 21
174.7144051948752
 31
0.0
  0
LINE
  5
34E
330
1F
100
AcDbEntity
  8
LAYER-007
  6
CENTER
 62
     4
100
AcDbLine
 10
-494.9730639283634
 20
174.2690467290658
 30
0.0
 11
-475.0296774395237
 21
174.2690467290658
 31
0.0
  0
LINE
  5
34F
330
1F
100
AcDbEntity
  8
LAYER-007
  6
CENTER
 62
     4
100
AcDbLine
 10
-22.52967743905812
 20
174.2690467290658
 30
0.0
 11
-2.586290951031302
 21
174.2690467290658
 31
0.0
  0
LINE
  5
350
330
1F
100
AcDbEntity
  8
LAYER-006
  6
Continuous
 62
     1
100
AcDbLine
 10
204.4559337846527
 20
166.7428413904964
 30
0.0
 11
179.5448068756711
 21
166.7428413904964
 31
0.0
  0
LINE
  5
351
330
1F
100
AcDbEntity
  8
LAYER-006
  6
Continuous
 62
     1
100
AcDbLine
 10
209.4381611593403
 20
166.7428413904964
 30
0.0
 11
378.2737950759305
 21
166.7428413904964
 31
0.0
  0
LINE
  5
352
330
1F
100
AcDbEntity
  8
LAYER-006
  6
Continuous
 62
     1
100
AcDbLine
 10
383.2560224506191
 20
166.7428413904964
 30
0.0
 11
408.1671593240567
 21
166.7428413904964
 31
0.0
  0
LINE
  5
353
330
1F
100
AcDbEntity
  8
LAYER-006
  6
Continuous
 62
     1
100
AcDbLine
 10
149.6514426275455
 20
163.7534950060681
 30
0.0
 11
149.6514426275455
 21
122.8992404979117
 31
0.0
  0
LINE
  5
354
330
1F
100
AcDbEntity
  8
LAYER-006
  6
Continuous
 62
     1
100
AcDbLine
 10
149.6514426275455
 20
163.7534950060681
 30
0.0
 11
151.6443236129651
 21
163.7534950060681
 31
0.0
  0
LINE
  5
355
330
1F
100
AcDbEntity
  8
LAYER-006
  6
Continuous
 62
     1
100
AcDbLine
 10
151.6443236129651
 20
163.7534950060681
 30
0.0
 11
151.6443236129651
 21
147.8103773715632
 31
0.0
  0
LINE
  5
356
330
1F
100
AcDbEntity
  8
LAYER-006
  6
Continuous
 62
     1
100
AcDbLine
 10
204.4559337846527
 20
158.7712676314206
 30
0.0
 11
189.5092616250455
 21
158.7712676314206
 31
0.0
  0
LINE
  5
357
330
1F
100
AcDbEntity
  8
LAYER-006
  6
Continuous
 62
     1
100
AcDbLine
 10
383.2560224506191
 20
158.7712676314206
 30
0.0
 11
398.202704574681
 21
158.7712676314206
 31
0.0
  0
LINE
  5
358
330
1F
100
AcDbEntity
  8
LAYER-006
  6
Continuous
 62
     1
100
AcDbLine
 10
-420.6947621587215
 20
152.9952826147645
 30
0.0
 11
-420.6947621587215
 21
123.4134211542145
 31
0.0
  0
ARC
  5
359
330
1F
100
AcDbEntity
  8
LAYER-006
  6
Continuous
 62
     1
100
AcDbCircle
 10
-407.7315509692826
 20
152.9952826147645
 30
0.0
 40
12.96321118943998
100
AcDbArc
 50
337.3575500000002
 51
180.0127219999995
  0
CIRCLE
  5
35A
330
1F
100
AcDbEntity
  8
LAYER-006
  6
Continuous
 62
     1
100
AcDbCircle
 10
-407.7315509692826
 20
152.9952826147645
 30
0.0
 40
6.980175299401153
  0
LINE
  5
35B
330
1F
100
AcDbEntity
  8
LAYER-006
  6
Continuous
 62
     1
100
AcDbLine
 10
-395.7655190759774
 20
152.9952826147645
 30
0.0
 11
-395.7655190759774
 21
123.4134211542145
 31
0.0
  0
LINE
  5
35C
330
1F
100
AcDbEntity
  8
LAYER-006
  6
Continuous
 62
     1
100
AcDbLine
 10
-385.793835803069
 20
152.9952726433837
 30
0.0
 11
-385.793835803069
 21
123.4134111825211
 31
0.0
  0
ARC
  5
35D
330
1F
100
AcDbEntity
  8
LAYER-006
  6
Continuous
 62
     1
100
AcDbCircle
 10
-372.8306246141854
 20
152.9952726433837
 30
0.0
 40
12.96321118943998
100
AcDbArc
 50
337.3575499993646
 51
180.0127220162432
  0
CIRCLE
  5
35E
330
1F
100
AcDbEntity
  8
LAYER-006
  6
Continuous
 62
     1
100
AcDbCircle
 10
-372.8306246141854
 20
152.9952726433837
 30
0.0
 40
6.980175299401153
  0
LINE
  5
35F
330
1F
100
AcDbEntity
  8
LAYER-006
  6
Continuous
 62
     1
100
AcDbLine
 10
-360.864592720506
 20
152.9952726433837
 30
0.0
 11
-360.864592720506
 21
123.4134111825211
 31
0.0
  0
LINE
  5
360
330
1F
100
AcDbEntity
  8
LAYER-006
  6
Continuous
 62
     1
100
AcDbLine
 10
-277.4805842101538
 20
152.9952826147645
 30
0.0
 11
-277.4805842101538
 21
123.4134211542145
 31
0.0
  0
ARC
  5
361
330
1F
100
AcDbEntity
  8
LAYER-006
  6
Continuous
 62
     1
100
AcDbCircle
 10
-264.5173730207148
 20
152.9952826147645
 30
0.0
 40
12.96321118943998
100
AcDbArc
 50
337.3575500000002
 51
180.0127219999995
  0
CIRCLE
  5
362
330
1F
100
AcDbEntity
  8
LAYER-006
  6
Continuous
 62
     1
100
AcDbCircle
 10
-264.5173730207148
 20
152.9952826147645
 30
0.0
 40
6.980175299401153
  0
LINE
  5
363
330
1F
100
AcDbEntity
  8
LAYER-006
  6
Continuous
 62
     1
100
AcDbLine
 10
-252.5513411274097
 20
152.9952826147645
 30
0.0
 11
-252.5513411274097
 21
123.4134211542145
 31
0.0
  0
LINE
  5
364
330
1F
100
AcDbEntity
  8
LAYER-006
  6
Continuous
 62
     1
100
AcDbLine
 10
-242.5796578543001
 20
152.9952726430713
 30
0.0
 11
-242.5796578543001
 21
123.4134111825211
 31
0.0
  0
ARC
  5
365
330
1F
100
AcDbEntity
  8
LAYER-006
  6
Continuous
 62
     1
100
AcDbCircle
 10
-229.616446666
 20
152.9952726430713
 30
0.0
 40
12.96321118943998
100
AcDbArc
 50
337.3575500012896
 51
180.0127220148631
  0
CIRCLE
  5
366
330
1F
100
AcDbEntity
  8
LAYER-006
  6
Continuous
 62
     1
100
AcDbCircle
 10
-229.616446666
 20
152.9952726430713
 30
0.0
 40
6.980175299401153
  0
LINE
  5
367
330
1F
100
AcDbEntity
  8
LAYER-006
  6
Continuous
 62
     1
100
AcDbLine
 10
-217.6504147767747
 20
152.9952726430713
 30
0.0
 11
-217.6504147767747
 21
123.4134111825211
 31
0.0
  0
LINE
  5
368
330
1F
100
AcDbEntity
  8
LAYER-006
  6
Continuous
 62
     1
100
AcDbLine
 10
-136.6947621585005
 20
152.9952826147645
 30
0.0
 11
-136.6947621585005
 21
123.4134211542145
 31
0.0
  0
ARC
  5
369
330
1F
100
AcDbEntity
  8
LAYER-006
  6
Continuous
 62
     1
100
AcDbCircle
 10
-123.7315509690615
 20
152.9952826147645
 30
0.0
 40
12.96321118943998
100
AcDbArc
 50
337.3575499946508
 51
180.0127219999995
  0
CIRCLE
  5
36A
330
1F
100
AcDbEntity
  8
LAYER-006
  6
Continuous
 62
     1
100
AcDbCircle
 10
-123.7315509690615
 20
152.9952826147645
 30
0.0
 40
6.980175299401153
  0
LINE
  5
36B
330
1F
100
AcDbEntity
  8
LAYER-006
  6
Continuous
 62
     1
100
AcDbLine
 10
-111.7655190760159
 20
152.9952826147645
 30
0.0
 11
-111.7655190760159
 21
123.4134211542145
 31
0.0
  0
LINE
  5
36C
330
1F
100
AcDbEntity
  8
LAYER-006
  6
Continuous
 62
     1
100
AcDbLine
 10
-101.7938358030305
 20
152.9952726433837
 30
0.0
 11
-101.7938358030305
 21
123.4134111825211
 31
0.0
  0
ARC
  5
36D
330
1F
100
AcDbEntity
  8
LAYER-006
  6
Continuous
 62
     1
100
AcDbCircle
 10
-88.83062461404131
 20
152.9952726433837
 30
0.0
 40
12.96321118943998
100
AcDbArc
 50
337.3575499994954
 51
180.0127220162436
  0
CIRCLE
  5
36E
330
1F
100
AcDbEntity
  8
LAYER-006
  6
Continuous
 62
     1
100
AcDbCircle
 10
-88.83062461404131
 20
152.9952726433837
 30
0.0
 40
6.980175299401153
  0
LINE
  5
36F
330
1F
100
AcDbEntity
  8
LAYER-006
  6
Continuous
 62
     1
100
AcDbLine
 10
-76.864592720285
 20
152.9952726433837
 30
0.0
 11
-76.864592720285
 21
123.4134111825211
 31
0.0
  0
LINE
  5
370
330
1F
100
AcDbEntity
  8
LAYER-006
  6
Continuous
 62
     1
100
AcDbLine
 10
151.6443236129651
 20
147.8103773715632
 30
0.0
 11
164.5981247516086
 21
142.8281499973635
 31
0.0
  0
LINE
  5
371
330
1F
100
AcDbEntity
  8
LAYER-007
  6
HIDDEN
 62
     4
100
AcDbLine
 10
151.6443236129651
 20
147.8103773715632
 30
0.0
 11
151.6443236129651
 21
122.8992404979117
 31
0.0
  0
LINE
  5
372
330
1F
100
AcDbEntity
  8
LAYER-007
  6
HIDDEN
 62
     4
100
AcDbLine
 10
162.6052338017331
 20
143.8245855073583
 30
0.0
 11
162.6052338017331
 21
122.8992404979117
 31
0.0
  0
LINE
  5
373
330
1F
100
AcDbEntity
  8
LAYER-007
  6
HIDDEN
 62
     4
100
AcDbLine
 10
-415.708915537
 20
143.0235893703436
 30
0.0
 11
-415.708915537
 21
123.4134211542145
 31
0.0
  0
LINE
  5
374
330
1F
100
AcDbEntity
  8
LAYER-007
  6
HIDDEN
 62
     4
100
AcDbLine
 10
-400.7513656981874
 20
143.0235893703436
 30
0.0
 11
-400.7513656981874
 21
123.4134211542145
 31
0.0
  0
LINE
  5
375
330
1F
100
AcDbEntity
  8
LAYER-007
  6
HIDDEN
 62
     4
100
AcDbLine
 10
-380.8079891813102
 20
143.0235793986507
 30
0.0
 11
-380.8079891813102
 21
123.4134111825211
 31
0.0
  0
LINE
  5
376
330
1F
100
AcDbEntity
  8
LAYER-007
  6
HIDDEN
 62
     4
100
AcDbLine
 10
-365.8504293710234
 20
143.0235793986507
 30
0.0
 11
-365.8504293710234
 21
123.4134111825211
 31
0.0
  0
LINE
  5
377
330
1F
100
AcDbEntity
  8
LAYER-007
  6
HIDDEN
 62
     4
100
AcDbLine
 10
-272.4947375875617
 20
143.0235893703436
 30
0.0
 11
-272.4947375875617
 21
123.4134211542145
 31
0.0
  0
LINE
  5
378
330
1F
100
AcDbEntity
  8
LAYER-007
  6
HIDDEN
 62
     4
100
AcDbLine
 10
-257.537187754457
 20
143.0235893703436
 30
0.0
 11
-257.537187754457
 21
123.4134211542145
 31
0.0
  0
LINE
  5
379
330
1F
100
AcDbEntity
  8
LAYER-007
  6
HIDDEN
 62
     4
100
AcDbLine
 10
-237.5938112324737
 20
143.0235793986507
 30
0.0
 11
-237.5938112324737
 21
123.4134111825211
 31
0.0
  0
LINE
  5
37A
330
1F
100
AcDbEntity
  8
LAYER-007
  6
HIDDEN
 62
     4
100
AcDbLine
 10
-222.6362514224556
 20
143.0235793986507
 30
0.0
 11
-222.6362514224556
 21
123.4134111825211
 31
0.0
  0
LINE
  5
37B
330
1F
100
AcDbEntity
  8
LAYER-007
  6
HIDDEN
 62
     4
100
AcDbLine
 10
-131.7089155362905
 20
143.0235893703436
 30
0.0
 11
-131.7089155362905
 21
123.4134211542145
 31
0.0
  0
LINE
  5
37C
330
1F
100
AcDbEntity
  8
LAYER-007
  6
HIDDEN
 62
     4
100
AcDbLine
 10
-116.7513656979664
 20
143.0235893703436
 30
0.0
 11
-116.7513656979664
 21
123.4134211542145
 31
0.0
  0
LINE
  5
37D
330
1F
100
AcDbEntity
  8
LAYER-007
  6
HIDDEN
 62
     4
100
AcDbLine
 10
-96.8079891808205
 20
143.0235793986507
 30
0.0
 11
-96.8079891808205
 21
123.4134111825211
 31
0.0
  0
LINE
  5
37E
330
1F
100
AcDbEntity
  8
LAYER-007
  6
HIDDEN
 62
     4
100
AcDbLine
 10
-81.85042937080235
 20
143.0235793986507
 30
0.0
 11
-81.85042937080235
 21
123.4134111825211
 31
0.0
  0
LINE
  5
37F
330
1F
100
AcDbEntity
  8
LAYER-006
  6
Continuous
 62
     1
100
AcDbLine
 10
164.5981247516086
 20
142.8281499973635
 30
0.0
 11
164.5981247516086
 21
122.8992404979117
 31
0.0
  0
LINE
  5
380
330
1F
100
AcDbEntity
  8
LAYER-006
  6
Continuous
 62
     1
100
AcDbLine
 10
-486.336290950682
 20
134.3822737513837
 30
0.0
 11
-486.336290950682
 21
-51.0705944511144
 31
0.0
  0
LINE
  5
381
330
1F
100
AcDbEntity
  8
LAYER-006
  6
Continuous
 62
     1
100
AcDbLine
 10
-395.7655190759774
 20
134.3822737513837
 30
0.0
 11
-385.793835803069
 21
134.3822737513837
 31
0.0
  0
LINE
  5
382
330
1F
100
AcDbEntity
  8
LAYER-006
  6
Continuous
 62
     1
100
AcDbLine
 10
-252.5513411274097
 20
134.3822737513837
 30
0.0
 11
-242.5796578543001
 21
134.3822737513837
 31
0.0
  0
LINE
  5
383
330
1F
100
AcDbEntity
  8
LAYER-006
  6
Continuous
 62
     1
100
AcDbLine
 10
-111.7655190760159
 20
134.3822737513837
 30
0.0
 11
-101.7938358030305
 21
134.3822737513837
 31
0.0
  0
LINE
  5
384
330
1F
100
AcDbEntity
  8
LAYER-006
  6
Continuous
 62
     1
100
AcDbLine
 10
-11.22306392836464
 20
134.3822737513837
 30
0.0
 11
-11.22306392836464
 21
-51.0705944511144
 31
0.0
  0
LINE
  5
385
330
1F
100
AcDbEntity
  8
LAYER-006
  6
Continuous
 62
     1
100
AcDbLine
 10
204.4559337846527
 20
133.860130757455
 30
0.0
 11
209.4381611593403
 21
133.860130757455
 31
0.0
  0
LINE
  5
386
330
1F
100
AcDbEntity
  8
LAYER-006
  6
Continuous
 62
     1
100
AcDbLine
 10
378.2737950759305
 20
133.860130757455
 30
0.0
 11
383.2560224506191
 21
133.860130757455
 31
0.0
  0
LINE
  5
387
330
1F
100
AcDbEntity
  8
LAYER-006
  6
Continuous
 62
     1
100
AcDbLine
 10
-420.6947621587215
 20
123.4134211542145
 30
0.0
 11
-395.7655190759774
 21
123.4134211542145
 31
0.0
  0
LINE
  5
388
330
1F
100
AcDbEntity
  8
LAYER-006
  6
Continuous
 62
     1
100
AcDbLine
 10
-415.708915537
 20
123.4134211542145
 30
0.0
 11
-415.708915537
 21
113.1085096370822
 31
0.0
  0
LINE
  5
389
330
1F
100
AcDbEntity
  8
LAYER-006
  6
Continuous
 62
     4
100
AcDbLine
 10
-412.0534565134131
 20
123.4134211542145
 30
0.0
 11
-401.7485449939821
 21
113.1085096370822
 31
0.0
  0
LINE
  5
38A
330
1F
100
AcDbEntity
  8
LAYER-006
  6
Continuous
 62
     4
100
AcDbLine
 10
-405.0732612686679
 20
123.4134211542145
 30
0.0
 11
-400.7513656981874
 21
119.0915255837348
 31
0.0
  0
LINE
  5
38B
330
1F
100
AcDbEntity
  8
LAYER-006
  6
Continuous
 62
     1
100
AcDbLine
 10
-400.7513656981874
 20
123.4134211542145
 30
0.0
 11
-400.7513656981874
 21
113.1085096370822
 31
0.0
  0
LINE
  5
38C
330
1F
100
AcDbEntity
  8
LAYER-006
  6
Continuous
 62
     1
100
AcDbLine
 10
-385.793835803069
 20
123.4134111825211
 30
0.0
 11
-360.864592720506
 21
123.4134111825211
 31
0.0
  0
LINE
  5
38D
330
1F
100
AcDbEntity
  8
LAYER-006
  6
Continuous
 62
     1
100
AcDbLine
 10
-380.8079891813102
 20
123.4134111825211
 30
0.0
 11
-380.8079891813102
 21
113.1085096370822
 31
0.0
  0
LINE
  5
38E
330
1F
100
AcDbEntity
  8
LAYER-006
  6
Continuous
 62
     4
100
AcDbLine
 10
-377.1525304892029
 20
123.4134111825211
 30
0.0
 11
-366.8476186388527
 21
113.1085096370822
 31
0.0
  0
LINE
  5
38F
330
1F
100
AcDbEntity
  8
LAYER-006
  6
Continuous
 62
     4
100
AcDbLine
 10
-370.1723357462423
 20
123.4134111825211
 30
0.0
 11
-365.8504293710234
 21
119.0915156120415
 31
0.0
  0
LINE
  5
390
330
1F
100
AcDbEntity
  8
LAYER-006
  6
Continuous
 62
     1
100
AcDbLine
 10
-365.8504293710234
 20
123.4134111825211
 30
0.0
 11
-365.8504293710234
 21
113.1085096370822
 31
0.0
  0
LINE
  5
391
330
1F
100
AcDbEntity
  8
LAYER-006
  6
Continuous
 62
     1
100
AcDbLine
 10
-277.4805842101538
 20
123.4134211542145
 30
0.0
 11
-252.5513411274097
 21
123.4134211542145
 31
0.0
  0
LINE
  5
392
330
1F
100
AcDbEntity
  8
LAYER-006
  6
Continuous
 62
     1
100
AcDbLine
 10
-272.4947375875617
 20
123.4134211542145
 30
0.0
 11
-272.4947375875617
 21
113.1085096370822
 31
0.0
  0
LINE
  5
393
330
1F
100
AcDbEntity
  8
LAYER-006
  6
Continuous
 62
     4
100
AcDbLine
 10
-268.8392785628865
 20
123.4134211542145
 30
0.0
 11
-258.534367045755
 21
113.1085096370822
 31
0.0
  0
LINE
  5
394
330
1F
100
AcDbEntity
  8
LAYER-006
  6
Continuous
 62
     4
100
AcDbLine
 10
-261.8590833201002
 20
123.4134211542145
 30
0.0
 11
-257.537187754457
 21
119.0915255837348
 31
0.0
  0
LINE
  5
395
330
1F
100
AcDbEntity
  8
LAYER-006
  6
Continuous
 62
     1
100
AcDbLine
 10
-257.537187754457
 20
123.4134211542145
 30
0.0
 11
-257.537187754457
 21
113.1085096370822
 31
0.0
  0
LINE
  5
396
330
1F
100
AcDbEntity
  8
LAYER-006
  6
Continuous
 62
     1
100
AcDbLine
 10
-242.5796578543001
 20
123.4134111825211
 30
0.0
 11
-217.6504147767747
 21
123.4134111825211
 31
0.0
  0
LINE
  5
397
330
1F
100
AcDbEntity
  8
LAYER-006
  6
Continuous
 62
     1
100
AcDbLine
 10
-237.5938112324737
 20
123.4134111825211
 30
0.0
 11
-237.5938112324737
 21
113.1085096370822
 31
0.0
  0
LINE
  5
398
330
1F
100
AcDbEntity
  8
LAYER-006
  6
Continuous
 62
     4
100
AcDbLine
 10
-233.9383525406352
 20
123.4134111825211
 30
0.0
 11
-223.6334406902848
 21
113.1085096370822
 31
0.0
  0
LINE
  5
399
330
1F
100
AcDbEntity
  8
LAYER-006
  6
Continuous
 62
     4
100
AcDbLine
 10
-226.9581577976744
 20
123.4134111825211
 30
0.0
 11
-222.6362514224556
 21
119.0915156120415
 31
0.0
  0
LINE
  5
39A
330
1F
100
AcDbEntity
  8
LAYER-006
  6
Continuous
 62
     1
100
AcDbLine
 10
-222.6362514224556
 20
123.4134111825211
 30
0.0
 11
-222.6362514224556
 21
113.1085096370822
 31
0.0
  0
LINE
  5
39B
330
1F
100
AcDbEntity
  8
LAYER-006
  6
Continuous
 62
     1
100
AcDbLine
 10
-136.6947621585005
 20
123.4134211542145
 30
0.0
 11
-111.7655190760159
 21
123.4134211542145
 31
0.0
  0
LINE
  5
39C
330
1F
100
AcDbEntity
  8
LAYER-006
  6
Continuous
 62
     1
100
AcDbLine
 10
-131.7089155362905
 20
123.4134211542145
 30
0.0
 11
-131.7089155362905
 21
113.1085096370822
 31
0.0
  0
LINE
  5
39D
330
1F
100
AcDbEntity
  8
LAYER-006
  6
Continuous
 62
     4
100
AcDbLine
 10
-128.0534565112332
 20
123.4134211542145
 30
0.0
 11
-117.748544993838
 21
113.1085096370822
 31
0.0
  0
LINE
  5
39E
330
1F
100
AcDbEntity
  8
LAYER-006
  6
Continuous
 62
     4
100
AcDbLine
 10
-121.0732612684468
 20
123.4134211542145
 30
0.0
 11
-116.7513656979664
 21
119.0915255837348
 31
0.0
  0
LINE
  5
39F
330
1F
100
AcDbEntity
  8
LAYER-006
  6
Continuous
 62
     1
100
AcDbLine
 10
-116.7513656979664
 20
123.4134211542145
 30
0.0
 11
-116.7513656979664
 21
113.1085096370822
 31
0.0
  0
LINE
  5
3A0
330
1F
100
AcDbEntity
  8
LAYER-006
  6
Continuous
 62
     1
100
AcDbLine
 10
-101.7938358030305
 20
123.4134111825211
 30
0.0
 11
-76.864592720285
 21
123.4134111825211
 31
0.0
  0
LINE
  5
3A1
330
1F
100
AcDbEntity
  8
LAYER-006
  6
Continuous
 62
     1
100
AcDbLine
 10
-96.8079891808205
 20
123.4134111825211
 30
0.0
 11
-96.8079891808205
 21
113.1085096370822
 31
0.0
  0
LINE
  5
3A2
330
1F
100
AcDbEntity
  8
LAYER-006
  6
Continuous
 62
     4
100
AcDbLine
 10
-93.15253048898185
 20
123.4134111825211
 30
0.0
 11
-82.84761863863164
 21
113.1085096370822
 31
0.0
  0
LINE
  5
3A3
330
1F
100
AcDbEntity
  8
LAYER-006
  6
Continuous
 62
     4
100
AcDbLine
 10
-86.17233574602119
 20
123.4134111825211
 30
0.0
 11
-81.85042937080235
 21
119.0915156120415
 31
0.0
  0
LINE
  5
3A4
330
1F
100
AcDbEntity
  8
LAYER-006
  6
Continuous
 62
     1
100
AcDbLine
 10
-81.85042937080235
 20
123.4134111825211
 30
0.0
 11
-81.85042937080235
 21
113.1085096370822
 31
0.0
  0
LINE
  5
3A5
330
1F
100
AcDbEntity
  8
LAYER-006
  6
Continuous
 62
     1
100
AcDbLine
 10
149.6514426275455
 20
122.8992404979117
 30
0.0
 11
164.5981247516086
 21
122.8992404979117
 31
0.0
  0
LINE
  5
3A6
330
1F
100
AcDbEntity
  8
LAYER-006
  6
Continuous
 62
     1
100
AcDbLine
 10
151.6443236129651
 20
122.8992404979117
 30
0.0
 11
151.6443236129651
 21
112.9347857490315
 31
0.0
  0
LINE
  5
3A7
330
1F
100
AcDbEntity
  8
LAYER-006
  6
Continuous
 62
     4
100
AcDbLine
 10
155.630105512716
 20
122.8992404979117
 30
0.0
 11
161.6087982912507
 21
116.920567644
 31
0.0
  0
LINE
  5
3A8
330
1F
100
AcDbEntity
  8
LAYER-006
  6
Continuous
 62
     1
100
AcDbLine
 10
161.6087982912507
 20
122.8992404979117
 30
0.0
 11
161.6087982912507
 21
112.9347857490315
 31
0.0
  0
LINE
  5
3A9
330
1F
100
AcDbEntity
  8
LAYER-006
  6
Continuous
 62
     4
100
AcDbLine
 10
-415.708915537
 20
120.0886849363359
 30
0.0
 11
-408.7287202937238
 21
113.1085096370822
 31
0.0
  0
LINE
  5
3AA
330
1F
100
AcDbEntity
  8
LAYER-006
  6
Continuous
 62
     4
100
AcDbLine
 10
-380.8079891813102
 20
120.0886949081767
 30
0.0
 11
-373.8277939382537
 21
113.1085096370822
 31
0.0
  0
LINE
  5
3AB
330
1F
100
AcDbEntity
  8
LAYER-006
  6
Continuous
 62
     4
100
AcDbLine
 10
-272.4947375875617
 20
120.0886849363359
 30
0.0
 11
-265.514542345156
 21
113.1085096370822
 31
0.0
  0
LINE
  5
3AC
330
1F
100
AcDbEntity
  8
LAYER-006
  6
Continuous
 62
     4
100
AcDbLine
 10
-237.5938112324737
 20
120.0886949081767
 30
0.0
 11
-230.613615989686
 21
113.1085096370822
 31
0.0
  0
LINE
  5
3AD
330
1F
100
AcDbEntity
  8
LAYER-006
  6
Continuous
 62
     4
100
AcDbLine
 10
-131.7089155362905
 20
120.0886849363359
 30
0.0
 11
-124.7287202935027
 21
113.1085096370822
 31
0.0
  0
LINE
  5
3AE
330
1F
100
AcDbEntity
  8
LAYER-006
  6
Continuous
 62
     4
100
AcDbLine
 10
-96.8079891808205
 20
120.0886949081767
 30
0.0
 11
-89.8277939381961
 21
113.1085096370822
 31
0.0
  0
LINE
  5
3AF
330
1F
100
AcDbEntity
  8
LAYER-006
  6
Continuous
 62
     4
100
AcDbLine
 10
151.6443236129651
 20
119.9098941088581
 30
0.0
 11
158.6194519019828
 21
112.9347857490315
 31
0.0
  0
LINE
  5
3B0
330
1F
100
AcDbEntity
  8
LAYER-006
  6
Continuous
 62
     4
100
AcDbLine
 10
-415.708915537
 20
116.1000176102954
 30
0.0
 11
-408.3955015449861
 21
123.4134211542145
 31
0.0
  0
LINE
  5
3B1
330
1F
100
AcDbEntity
  8
LAYER-006
  6
Continuous
 62
     4
100
AcDbLine
 10
-380.8079891813102
 20
116.1000176102954
 30
0.0
 11
-373.4945747135195
 21
123.4134111825211
 31
0.0
  0
LINE
  5
3B2
330
1F
100
AcDbEntity
  8
LAYER-006
  6
Continuous
 62
     4
100
AcDbLine
 10
-272.4947375875617
 20
116.1000176102954
 30
0.0
 11
-265.1813235964183
 21
123.4134211542145
 31
0.0
  0
LINE
  5
3B3
330
1F
100
AcDbEntity
  8
LAYER-006
  6
Continuous
 62
     4
100
AcDbLine
 10
-237.5938112324737
 20
116.1000176102954
 30
0.0
 11
-230.2803967649209
 21
123.4134111825211
 31
0.0
  0
LINE
  5
3B4
330
1F
100
AcDbEntity
  8
LAYER-006
  6
Continuous
 62
     4
100
AcDbLine
 10
-131.7089155362905
 20
116.1000176102954
 30
0.0
 11
-124.395501544765
 21
123.4134211542145
 31
0.0
  0
LINE
  5
3B5
330
1F
100
AcDbEntity
  8
LAYER-006
  6
Continuous
 62
     4
100
AcDbLine
 10
-96.8079891808205
 20
116.1000176102954
 30
0.0
 11
-89.49457471337553
 21
123.4134111825211
 31
0.0
  0
LINE
  5
3B6
330
1F
100
AcDbEntity
  8
LAYER-006
  6
Continuous
 62
     4
100
AcDbLine
 10
151.6443236129651
 20
115.9241221736363
 30
0.0
 11
158.6194519019828
 21
122.8992404979117
 31
0.0
  0
LINE
  5
3B7
330
1F
100
AcDbEntity
  8
LAYER-006
  6
Continuous
 62
     4
100
AcDbLine
 10
-411.7202382387426
 20
113.1085096370822
 30
0.0
 11
-401.4153267216104
 21
123.4134211542145
 31
0.0
  0
LINE
  5
3B8
330
1F
100
AcDbEntity
  8
LAYER-006
  6
Continuous
 62
     4
100
AcDbLine
 10
-404.740042996121
 20
113.1085096370822
 30
0.0
 11
-400.7513656981874
 21
117.0971869299679
 31
0.0
  0
LINE
  5
3B9
330
1F
100
AcDbEntity
  8
LAYER-006
  6
Continuous
 62
     4
100
AcDbLine
 10
-376.8193118832726
 20
113.1085096370822
 30
0.0
 11
-366.51440004
 21
123.4134111825211
 31
0.0
  0
LINE
  5
3BA
330
1F
100
AcDbEntity
  8
LAYER-006
  6
Continuous
 62
     4
100
AcDbLine
 10
-370.8362884578501
 20
113.1085096370822
 30
0.0
 11
-365.8504293710234
 21
118.0943562592923
 31
0.0
  0
LINE
  5
3BB
330
1F
100
AcDbEntity
  8
LAYER-006
  6
Continuous
 62
     1
100
AcDbLine
 10
-324.7796774395232
 20
113.1085096370822
 30
0.0
 11
-324.7796774395232
 21
-31.12721793396705
 31
0.0
  0
LINE
  5
3BC
330
1F
100
AcDbEntity
  8
LAYER-006
  6
Continuous
 62
     1
100
AcDbLine
 10
-314.7796774395232
 20
113.1085096370822
 30
0.0
 11
-314.7796774395232
 21
-31.12721793396705
 31
0.0
  0
LINE
  5
3BD
330
1F
100
AcDbEntity
  8
LAYER-006
  6
Continuous
 62
     4
100
AcDbLine
 10
-268.5060602901748
 20
113.1085096370822
 30
0.0
 11
-258.2011487730427
 21
123.4134211542145
 31
0.0
  0
LINE
  5
3BE
330
1F
100
AcDbEntity
  8
LAYER-006
  6
Continuous
 62
     4
100
AcDbLine
 10
-261.5258650473886
 20
113.1085096370822
 30
0.0
 11
-257.537187754457
 21
117.0971869299679
 31
0.0
  0
LINE
  5
3BF
330
1F
100
AcDbEntity
  8
LAYER-006
  6
Continuous
 62
     4
100
AcDbLine
 10
-233.605133934705
 20
113.1085096370822
 30
0.0
 11
-223.3002220915955
 21
123.4134111825211
 31
0.0
  0
LINE
  5
3C0
330
1F
100
AcDbEntity
  8
LAYER-006
  6
Continuous
 62
     4
100
AcDbLine
 10
-227.6221105092824
 20
113.1085096370822
 30
0.0
 11
-222.6362514224556
 21
118.0943562592923
 31
0.0
  0
LINE
  5
3C1
330
1F
100
AcDbEntity
  8
LAYER-006
  6
Continuous
 62
     1
100
AcDbLine
 10
-182.7796774395232
 20
113.1085096370822
 30
0.0
 11
-182.7796774395232
 21
-31.12721793396705
 31
0.0
  0
LINE
  5
3C2
330
1F
100
AcDbEntity
  8
LAYER-006
  6
Continuous
 62
     1
100
AcDbLine
 10
-172.7796774395232
 20
113.1085096370822
 30
0.0
 11
-172.7796774395232
 21
-31.12721793396705
 31
0.0
  0
LINE
  5
3C3
330
1F
100
AcDbEntity
  8
LAYER-006
  6
Continuous
 62
     4
100
AcDbLine
 10
-127.7202382380366
 20
113.1085096370822
 30
0.0
 11
-117.4153267213894
 21
123.4134211542145
 31
0.0
  0
LINE
  5
3C4
330
1F
100
AcDbEntity
  8
LAYER-006
  6
Continuous
 62
     4
100
AcDbLine
 10
-120.7400429957353
 20
113.1085096370822
 30
0.0
 11
-116.7513656979664
 21
117.0971869299679
 31
0.0
  0
LINE
  5
3C5
330
1F
100
AcDbEntity
  8
LAYER-006
  6
Continuous
 62
     4
100
AcDbLine
 10
-92.81931188305163
 20
113.1085096370822
 30
0.0
 11
-82.51440004
 21
123.4134111825211
 31
0.0
  0
LINE
  5
3C6
330
1F
100
AcDbEntity
  8
LAYER-006
  6
Continuous
 62
     4
100
AcDbLine
 10
-86.83628845531925
 20
113.1085096370822
 30
0.0
 11
-81.85042937080235
 21
118.0943562590032
 31
0.0
  0
LINE
  5
3C7
330
1F
100
AcDbEntity
  8
LAYER-006
  6
Continuous
 62
     1
100
AcDbLine
 10
-40.7796774395232
 20
113.1085096370822
 30
0.0
 11
-40.7796774395232
 21
-31.12721793396702
 31
0.0
  0
LINE
  5
3C8
330
1F
100
AcDbEntity
  8
LAYER-006
  6
Continuous
 62
     1
100
AcDbLine
 10
143.8559875820905
 20
112.9347857490315
 30
0.0
 11
443.8559875820905
 21
112.9347857490315
 31
0.0
  0
LINE
  5
3C9
330
1F
100
AcDbEntity
  8
LAYER-006
  6
Continuous
 62
     4
100
AcDbLine
 10
155.630105512716
 20
112.9347857490315
 30
0.0
 11
161.6087982912507
 21
118.9134585983757
 31
0.0
  0
LINE
  5
3CA
330
1F
100
AcDbEntity
  8
LAYER-006
  6
Continuous
 62
     1
100
AcDbLine
 10
443.8559875820905
 20
112.9347857490315
 30
0.0
 11
443.8559875820905
 21
-31.19960289166554
 31
0.0
  0
LINE
  5
3CB
330
1F
100
AcDbEntity
  8
LAYER-007
  6
Continuous
 62
     4
100
AcDbLine
 10
-412.3028643780829
 20
93.16512314824084
 30
0.0
 11
-416.2915516475444
 21
84.19059922826267
 31
0.0
  0
LINE
  5
3CC
330
1F
100
AcDbEntity
  8
LAYER-007
  6
Continuous
 62
     4
100
AcDbLine
 10
-400.3368424564719
 20
93.16512314824084
 30
0.0
 11
-404.3255097825466
 21
84.19059922826267
 31
0.0
  0
LINE
  5
3CD
330
1F
100
AcDbEntity
  8
LAYER-007
  6
Continuous
 62
     4
100
AcDbLine
 10
-379.7950951930013
 20
93.16512314824084
 30
0.0
 11
-378.7979258685601
 21
93.16512314824084
 31
0.0
  0
LINE
  5
3CE
330
1F
100
AcDbEntity
  8
LAYER-007
  6
Continuous
 62
     4
100
AcDbLine
 10
-378.7979258685601
 20
93.16512314824084
 30
0.0
 11
-376.8035971913691
 21
93.16512314824084
 31
0.0
  0
LINE
  5
3CF
330
1F
100
AcDbEntity
  8
LAYER-007
  6
Continuous
 62
     4
100
AcDbLine
 10
-376.8035971913691
 20
93.16512314824084
 30
0.0
 11
-376.8035971913691
 21
86.18492790530317
 31
0.0
  0
LINE
  5
3D0
330
1F
100
AcDbEntity
  8
LAYER-007
  6
Continuous
 62
     4
100
AcDbLine
 10
-366.831883999409
 20
93.16512314824084
 30
0.0
 11
-383.7837724907702
 21
73.22173665940014
 31
0.0
  0
LINE
  5
3D1
330
1F
100
AcDbEntity
  8
LAYER-007
  6
Continuous
 62
     4
100
AcDbLine
 10
-270.933344886015
 20
93.16512314824084
 30
0.0
 11
-269.9361556181856
 21
93.16512314824084
 31
0.0
  0
LINE
  5
3D2
330
1F
100
AcDbEntity
  8
LAYER-007
  6
Continuous
 62
     4
100
AcDbLine
 10
-269.9361556181856
 20
93.16512314824084
 30
0.0
 11
-269.9361556181856
 21
91.17077452766375
 31
0.0
  0
LINE
  5
3D3
330
1F
100
AcDbEntity
  8
LAYER-007
  6
Continuous
 62
     4
100
AcDbLine
 10
-259.9644623737658
 20
93.16512314824084
 30
0.0
 11
-257.9701336965747
 21
91.17077452766375
 31
0.0
  0
LINE
  5
3D4
330
1F
100
AcDbEntity
  8
LAYER-007
  6
Continuous
 62
     4
100
AcDbLine
 10
-233.0850674781816
 20
93.16512314824084
 30
0.0
 11
-236.0765654798152
 21
86.18492790530317
 31
0.0
  0
LINE
  5
3D5
330
1F
100
AcDbEntity
  8
LAYER-007
  6
Continuous
 62
     4
100
AcDbLine
 10
-131.9433002758086
 20
93.16512314824084
 30
0.0
 11
-131.9433002758086
 21
91.17077452766375
 31
0.0
  0
LINE
  5
3D6
330
1F
100
AcDbEntity
  8
LAYER-007
  6
Continuous
 62
     4
100
AcDbLine
 10
-116.9857604068059
 20
93.16512314824084
 30
0.0
 11
-115.9885910847361
 21
92.16795382379897
 31
0.0
  0
LINE
  5
3D7
330
1F
100
AcDbEntity
  8
LAYER-007
  6
Continuous
 62
     4
100
AcDbLine
 10
-84.87157099333425
 20
93.16512314824084
 30
0.0
 11
-81.88006302010282
 21
93.16512314824084
 31
0.0
  0
LINE
  5
3D8
330
1F
100
AcDbEntity
  8
LAYER-007
  6
Continuous
 62
     4
100
AcDbLine
 10
-81.88006302010282
 20
93.16512314824084
 30
0.0
 11
-80.88289369279261
 21
91.17077452766375
 31
0.0
  0
LINE
  5
3D9
330
1F
100
AcDbEntity
  8
LAYER-007
  6
Continuous
 62
     4
100
AcDbLine
 10
-222.1162148810116
 20
92.16795382379897
 30
0.0
 11
-227.102061503223
 21
83.19342990382083
 31
0.0
  0
LINE
  5
3DA
330
1F
100
AcDbEntity
  8
LAYER-007
  6
Continuous
 62
     4
100
AcDbLine
 10
-124.9631050330209
 20
92.16795382379897
 30
0.0
 11
-126.957453651
 21
79.20475260605198
 31
0.0
  0
LINE
  5
3DB
330
1F
100
AcDbEntity
  8
LAYER-007
  6
Continuous
 62
     4
100
AcDbLine
 10
-115.9885910847361
 20
92.16795382379897
 30
0.0
 11
-113.9942424641583
 21
92.16795382379897
 31
0.0
  0
LINE
  5
3DC
330
1F
100
AcDbEntity
  8
LAYER-007
  6
Continuous
 62
     4
100
AcDbLine
 10
-87.86306899496645
 20
92.16795382379897
 30
0.0
 11
-84.87157099333425
 21
93.16512314824084
 31
0.0
  0
LINE
  5
3DD
330
1F
100
AcDbEntity
  8
LAYER-007
  6
Continuous
 62
     4
100
AcDbLine
 10
-269.9361556181856
 20
91.17077452766375
 30
0.0
 11
-270.933344886015
 21
86.18492790530317
 31
0.0
  0
LINE
  5
3DE
330
1F
100
AcDbEntity
  8
LAYER-007
  6
Continuous
 62
     4
100
AcDbLine
 10
-257.9701336965747
 20
91.17077452766375
 30
0.0
 11
-256.9729643721321
 21
90.17360520322188
 31
0.0
  0
LINE
  5
3DF
330
1F
100
AcDbEntity
  8
LAYER-007
  6
Continuous
 62
     4
100
AcDbLine
 10
-131.9433002758086
 20
91.17077452766375
 30
0.0
 11
-132.9404696039031
 21
78.20758328161011
 31
0.0
  0
LINE
  5
3E0
330
1F
100
AcDbEntity
  8
LAYER-007
  6
Continuous
 62
     4
100
AcDbLine
 10
-80.88289369279261
 20
91.17077452766375
 30
0.0
 11
-81.88006302010282
 21
88.179276526
 31
0.0
  0
LINE
  5
3E1
330
1F
100
AcDbEntity
  8
LAYER-007
  6
Continuous
 62
     4
100
AcDbLine
 10
-256.9729643721321
 20
90.17360520322188
 30
0.0
 11
-255.9758050193836
 21
90.17360520322188
 31
0.0
  0
LINE
  5
3E2
330
1F
100
AcDbEntity
  8
LAYER-007
  6
Continuous
 62
     4
100
AcDbLine
 10
-89.85741761600001
 20
90.17360520322188
 30
0.0
 11
-87.86306899496645
 21
92.16795382379897
 31
0.0
  0
LINE
  5
3E3
330
1F
100
AcDbEntity
  8
LAYER-007
  6
Continuous
 62
     4
100
AcDbLine
 10
-81.88006302010282
 20
88.179276526
 30
0.0
 11
-84.87157099333425
 21
85.1877585810112
 31
0.0
  0
LINE
  5
3E4
330
1F
100
AcDbEntity
  8
LAYER-007
  6
Continuous
 62
     4
100
AcDbLine
 10
-227.102061503223
 20
87.1821071967062
 30
0.0
 11
-222.1162148810116
 21
92.16795382379897
 31
0.0
  0
LINE
  5
3E5
330
1F
100
AcDbEntity
  8
LAYER-007
  6
Continuous
 62
     4
100
AcDbLine
 10
-376.8035971913691
 20
86.18492790530317
 30
0.0
 11
-374.8092485707912
 21
78.20758328161011
 31
0.0
  0
LINE
  5
3E6
330
1F
100
AcDbEntity
  8
LAYER-007
  6
Continuous
 62
     4
100
AcDbLine
 10
-270.933344886015
 20
86.18492790530317
 30
0.0
 11
-272.9276735632046
 21
80.20191195880119
 31
0.0
  0
LINE
  5
3E7
330
1F
100
AcDbEntity
  8
LAYER-007
  6
Continuous
 62
     4
100
AcDbLine
 10
-260.9616516415936
 20
86.18492790530317
 30
0.0
 11
-259.9644623737658
 21
93.16512314824084
 31
0.0
  0
LINE
  5
3E8
330
1F
100
AcDbEntity
  8
LAYER-007
  6
Continuous
 62
     4
100
AcDbLine
 10
-236.0765654798152
 20
86.18492790530317
 30
0.0
 11
-236.0765654798152
 21
84.19059922826267
 31
0.0
  0
LINE
  5
3E9
330
1F
100
AcDbEntity
  8
LAYER-007
  6
Continuous
 62
     4
100
AcDbLine
 10
-117.9829297336198
 20
85.1877585810112
 30
0.0
 11
-116.9857604068059
 21
93.16512314824084
 31
0.0
  0
LINE
  5
3EA
330
1F
100
AcDbEntity
  8
LAYER-007
  6
Continuous
 62
     4
100
AcDbLine
 10
-84.87157099333425
 20
85.1877585810112
 30
0.0
 11
-88.86023831940901
 21
84.19059922826267
 31
0.0
  0
LINE
  5
3EB
330
1F
100
AcDbEntity
  8
LAYER-007
  6
Continuous
 62
     4
100
AcDbLine
 10
-84.87157099333425
 20
85.1877585810112
 30
0.0
 11
-82.87722237275648
 21
85.1877585810112
 31
0.0
  0
LINE
  5
3EC
330
1F
100
AcDbEntity
  8
LAYER-007
  6
Continuous
 62
     4
100
AcDbLine
 10
-82.87722237275648
 20
85.1877585810112
 30
0.0
 11
-82.87722237275648
 21
83.19342990382083
 31
0.0
  0
LINE
  5
3ED
330
1F
100
AcDbEntity
  8
LAYER-007
  6
Continuous
 62
     4
100
AcDbLine
 10
-416.2915516475444
 20
84.19059922826267
 30
0.0
 11
-417.2887110007776
 21
77.21041395228562
 31
0.0
  0
LINE
  5
3EE
330
1F
100
AcDbEntity
  8
LAYER-007
  6
Continuous
 62
     4
100
AcDbLine
 10
-404.3255097825466
 20
84.19059922826267
 30
0.0
 11
-406.3198584031243
 21
75.21606533659048
 31
0.0
  0
LINE
  5
3EF
330
1F
100
AcDbEntity
  8
LAYER-007
  6
Continuous
 62
     4
100
AcDbLine
 10
-236.0765654798152
 20
84.19059922826267
 30
0.0
 11
-235.0794061270653
 21
82.19626057937825
 31
0.0
  0
LINE
  5
3F0
330
1F
100
AcDbEntity
  8
LAYER-007
  6
Continuous
 62
     4
100
AcDbLine
 10
-229.0963901804128
 20
84.19059922826267
 30
0.0
 11
-227.102061503223
 21
87.1821071967062
 31
0.0
  0
LINE
  5
3F1
330
1F
100
AcDbEntity
  8
LAYER-007
  6
Continuous
 62
     4
100
AcDbLine
 10
-224.1105435582027
 20
84.19059922826267
 30
0.0
 11
-222.1162148810116
 21
85.1877585810112
 31
0.0
  0
LINE
  5
3F2
330
1F
100
AcDbEntity
  8
LAYER-007
  6
Continuous
 62
     4
100
AcDbLine
 10
-88.86023831940901
 20
84.19059922826267
 30
0.0
 11
-84.87157099333425
 21
85.1877585810112
 31
0.0
  0
LINE
  5
3F3
330
1F
100
AcDbEntity
  8
LAYER-007
  6
Continuous
 62
     4
100
AcDbLine
 10
-227.102061503223
 20
83.19342990382083
 30
0.0
 11
-234.0822368026242
 21
73.22173665940014
 31
0.0
  0
LINE
  5
3F4
330
1F
100
AcDbEntity
  8
LAYER-007
  6
Continuous
 62
     4
100
AcDbLine
 10
-82.87722237275648
 20
83.19342990382083
 30
0.0
 11
-85.86874031777538
 21
77.21041395228562
 31
0.0
  0
LINE
  5
3F5
330
1F
100
AcDbEntity
  8
LAYER-007
  6
Continuous
 62
     4
100
AcDbLine
 10
-235.0794061270653
 20
82.19626057937825
 30
0.0
 11
-231.0907188576038
 21
82.19626057937825
 31
0.0
  0
LINE
  5
3F6
330
1F
100
AcDbEntity
  8
LAYER-007
  6
Continuous
 62
     4
100
AcDbLine
 10
-231.0907188576038
 20
82.19626057937825
 30
0.0
 11
-229.0963901804128
 21
84.19059922826267
 31
0.0
  0
LINE
  5
3F7
330
1F
100
AcDbEntity
  8
LAYER-007
  6
Continuous
 62
     4
100
AcDbLine
 10
-228.0992208559716
 20
82.19626057937825
 30
0.0
 11
-224.1105435582027
 21
84.19059922826267
 31
0.0
  0
LINE
  5
3F8
330
1F
100
AcDbEntity
  8
LAYER-007
  6
Continuous
 62
     4
100
AcDbLine
 10
-82.87722237275648
 20
82.19626057937825
 30
0.0
 11
-80.88289369279261
 21
84.19059922826267
 31
0.0
  0
LINE
  5
3F9
330
1F
100
AcDbEntity
  8
LAYER-007
  6
Continuous
 62
     4
100
AcDbLine
 10
-405.3226890786817
 20
81.19908128324303
 30
0.0
 11
-400.3368424564719
 21
93.16512314824084
 31
0.0
  0
LINE
  5
3FA
330
1F
100
AcDbEntity
  8
LAYER-007
  6
Continuous
 62
     4
100
AcDbLine
 10
-231.0907188576038
 20
81.19908128324303
 30
0.0
 11
-228.0992208559716
 21
82.19626057937825
 31
0.0
  0
LINE
  5
3FB
330
1F
100
AcDbEntity
  8
LAYER-007
  6
Continuous
 62
     4
100
AcDbLine
 10
-272.9276735632046
 20
80.20191195880119
 30
0.0
 11
-273.9248428876472
 21
76.21323466103303
 31
0.0
  0
LINE
  5
3FC
330
1F
100
AcDbEntity
  8
LAYER-007
  6
Continuous
 62
     4
100
AcDbLine
 10
-263.9531496433734
 20
80.20191195880119
 30
0.0
 11
-260.9616516415936
 21
86.18492790530317
 31
0.0
  0
LINE
  5
3FD
330
1F
100
AcDbEntity
  8
LAYER-007
  6
Continuous
 62
     4
100
AcDbLine
 10
-126.957453651
 20
80.20191195880119
 30
0.0
 11
-124.9631050330209
 21
92.16795382379897
 31
0.0
  0
LINE
  5
3FE
330
1F
100
AcDbEntity
  8
LAYER-007
  6
Continuous
 62
     4
100
AcDbLine
 10
-85.86874031777538
 20
80.20191195880119
 30
0.0
 11
-82.87722237275648
 21
82.19626057937825
 31
0.0
  0
LINE
  5
3FF
330
1F
100
AcDbEntity
  8
LAYER-007
  6
Continuous
 62
     4
100
AcDbLine
 10
-126.957453651
 20
79.20475260605198
 30
0.0
 11
-126.957453651
 21
74.21890598384198
 31
0.0
  0
LINE
  5
400
330
1F
100
AcDbEntity
  8
LAYER-007
  6
Continuous
 62
     4
100
AcDbLine
 10
-374.8092485707912
 20
78.20758328161011
 30
0.0
 11
-373.8120792463487
 21
75.21606533659048
 31
0.0
  0
LINE
  5
401
330
1F
100
AcDbEntity
  8
LAYER-007
  6
Continuous
 62
     4
100
AcDbLine
 10
-235.0794061270653
 20
78.20758328161011
 30
0.0
 11
-231.0907188576038
 21
81.19908128324303
 31
0.0
  0
LINE
  5
402
330
1F
100
AcDbEntity
  8
LAYER-007
  6
Continuous
 62
     4
100
AcDbLine
 10
-132.9404696039031
 20
78.20758328161011
 30
0.0
 11
-132.9404696039031
 21
74.21890598384198
 31
0.0
  0
LINE
  5
403
330
1F
100
AcDbEntity
  8
LAYER-007
  6
Continuous
 62
     4
100
AcDbLine
 10
-417.2887110007776
 20
77.21041395228562
 30
0.0
 11
-417.2887110007776
 21
74.21890598384198
 31
0.0
  0
LINE
  5
404
330
1F
100
AcDbEntity
  8
LAYER-007
  6
Continuous
 62
     4
100
AcDbLine
 10
-408.314187083884
 20
77.21041395228562
 30
0.0
 11
-405.3226890786817
 21
81.19908128324303
 31
0.0
  0
LINE
  5
405
330
1F
100
AcDbEntity
  8
LAYER-007
  6
Continuous
 62
     4
100
AcDbLine
 10
-92.84891561749272
 20
77.21041395228562
 30
0.0
 11
-85.86874031777538
 21
80.20191195880119
 31
0.0
  0
LINE
  5
406
330
1F
100
AcDbEntity
  8
LAYER-007
  6
Continuous
 62
     4
100
AcDbLine
 10
-85.86874031777538
 20
77.21041395228562
 30
0.0
 11
-90.85458693721313
 21
74.21890598384198
 31
0.0
  0
LINE
  5
407
330
1F
100
AcDbEntity
  8
LAYER-007
  6
Continuous
 62
     4
100
AcDbLine
 10
-273.9248428876472
 20
76.21323466103303
 30
0.0
 11
-273.9248428876472
 21
75.21606533659048
 31
0.0
  0
LINE
  5
408
330
1F
100
AcDbEntity
  8
LAYER-007
  6
Continuous
 62
     4
100
AcDbLine
 10
-236.0765654798152
 20
76.21323466103303
 30
0.0
 11
-235.0794061270653
 21
78.20758328161011
 31
0.0
  0
LINE
  5
409
330
1F
100
AcDbEntity
  8
LAYER-007
  6
Continuous
 62
     4
100
AcDbLine
 10
-406.3198584031243
 20
75.21606533659048
 30
0.0
 11
-405.3226890786817
 21
74.21890598384198
 31
0.0
  0
LINE
  5
40A
330
1F
100
AcDbEntity
  8
LAYER-007
  6
Continuous
 62
     4
100
AcDbLine
 10
-373.8120792463487
 20
75.21606533659048
 30
0.0
 11
-369.8234019485814
 21
73.22173665940014
 31
0.0
  0
LINE
  5
40B
330
1F
100
AcDbEntity
  8
LAYER-007
  6
Continuous
 62
     4
100
AcDbLine
 10
-273.9248428876472
 20
75.21606533659048
 30
0.0
 11
-271.9305042387635
 21
74.21890598384198
 31
0.0
  0
LINE
  5
40C
330
1F
100
AcDbEntity
  8
LAYER-007
  6
Continuous
 62
     4
100
AcDbLine
 10
-267.9418269409946
 20
75.21606533659048
 30
0.0
 11
-263.9531496433734
 21
80.20191195880119
 31
0.0
  0
LINE
  5
40D
330
1F
100
AcDbEntity
  8
LAYER-007
  6
Continuous
 62
     4
100
AcDbLine
 10
-417.2887110007776
 20
74.21890598384198
 30
0.0
 11
-414.2972030265458
 21
74.21890598384198
 31
0.0
  0
LINE
  5
40E
330
1F
100
AcDbEntity
  8
LAYER-007
  6
Continuous
 62
     4
100
AcDbLine
 10
-414.2972030265458
 20
74.21890598384198
 30
0.0
 11
-411.3057050253344
 21
74.21890598384198
 31
0.0
  0
LINE
  5
40F
330
1F
100
AcDbEntity
  8
LAYER-007
  6
Continuous
 62
     4
100
AcDbLine
 10
-411.3057050253344
 20
74.21890598384198
 30
0.0
 11
-408.314187083884
 21
77.21041395228562
 31
0.0
  0
LINE
  5
410
330
1F
100
AcDbEntity
  8
LAYER-007
  6
Continuous
 62
     4
100
AcDbLine
 10
-405.3226890786817
 20
74.21890598384198
 30
0.0
 11
-402.331171133663
 21
74.21890598384198
 31
0.0
  0
LINE
  5
411
330
1F
100
AcDbEntity
  8
LAYER-007
  6
Continuous
 62
     4
100
AcDbLine
 10
-402.331171133663
 20
74.21890598384198
 30
0.0
 11
-399.3396631603367
 21
76.21323466103303
 31
0.0
  0
LINE
  5
412
330
1F
100
AcDbEntity
  8
LAYER-007
  6
Continuous
 62
     4
100
AcDbLine
 10
-366.831883999409
 20
74.21890598384198
 30
0.0
 11
-364.8375553263713
 21
77.21041395228562
 31
0.0
  0
LINE
  5
413
330
1F
100
AcDbEntity
  8
LAYER-007
  6
Continuous
 62
     4
100
AcDbLine
 10
-271.9305042387635
 20
74.21890598384198
 30
0.0
 11
-269.9361556181856
 21
74.21890598384198
 31
0.0
  0
LINE
  5
414
330
1F
100
AcDbEntity
  8
LAYER-007
  6
Continuous
 62
     4
100
AcDbLine
 10
-269.9361556181856
 20
74.21890598384198
 30
0.0
 11
-267.9418269409946
 21
75.21606533659048
 31
0.0
  0
LINE
  5
415
330
1F
100
AcDbEntity
  8
LAYER-007
  6
Continuous
 62
     4
100
AcDbLine
 10
-236.0765654798152
 20
74.21890598384198
 30
0.0
 11
-236.0765654798152
 21
76.21323466103303
 31
0.0
  0
LINE
  5
416
330
1F
100
AcDbEntity
  8
LAYER-007
  6
Continuous
 62
     4
100
AcDbLine
 10
-132.9404696039031
 20
74.21890598384198
 30
0.0
 11
-131.9433002758086
 21
73.22173665940014
 31
0.0
  0
LINE
  5
417
330
1F
100
AcDbEntity
  8
LAYER-007
  6
Continuous
 62
     4
100
AcDbLine
 10
-129.9489715986176
 20
74.21890598384198
 30
0.0
 11
-126.957453651
 21
80.20191195880119
 31
0.0
  0
LINE
  5
418
330
1F
100
AcDbEntity
  8
LAYER-007
  6
Continuous
 62
     4
100
AcDbLine
 10
-126.957453651
 20
74.21890598384198
 30
0.0
 11
-125.9602843291561
 21
73.22173665940014
 31
0.0
  0
LINE
  5
419
330
1F
100
AcDbEntity
  8
LAYER-007
  6
Continuous
 62
     4
100
AcDbLine
 10
-121.9716070313886
 20
74.21890598384198
 30
0.0
 11
-117.9829297336198
 21
85.1877585810112
 31
0.0
  0
LINE
  5
41A
330
1F
100
AcDbEntity
  8
LAYER-007
  6
Continuous
 62
     4
100
AcDbLine
 10
-94.84326423775423
 20
74.21890598384198
 30
0.0
 11
-92.84891561749272
 21
77.21041395228562
 31
0.0
  0
LINE
  5
41B
330
1F
100
AcDbEntity
  8
LAYER-007
  6
Continuous
 62
     4
100
AcDbLine
 10
-90.85458693721313
 20
74.21890598384198
 30
0.0
 11
-92.84891561749272
 21
73.22173665940014
 31
0.0
  0
LINE
  5
41C
330
1F
100
AcDbEntity
  8
LAYER-007
  6
Continuous
 62
     4
100
AcDbLine
 10
-369.8234019485814
 20
73.22173665940014
 30
0.0
 11
-366.831883999409
 21
74.21890598384198
 31
0.0
  0
LINE
  5
41D
330
1F
100
AcDbEntity
  8
LAYER-007
  6
Continuous
 62
     4
100
AcDbLine
 10
-234.0822368026242
 20
73.22173665940014
 30
0.0
 11
-236.0765654798152
 21
74.21890598384198
 31
0.0
  0
LINE
  5
41E
330
1F
100
AcDbEntity
  8
LAYER-007
  6
Continuous
 62
     4
100
AcDbLine
 10
-131.9433002758086
 20
73.22173665940014
 30
0.0
 11
-129.9489715986176
 21
74.21890598384198
 31
0.0
  0
LINE
  5
41F
330
1F
100
AcDbEntity
  8
LAYER-007
  6
Continuous
 62
     4
100
AcDbLine
 10
-125.9602843291561
 20
73.22173665940014
 30
0.0
 11
-121.9716070313886
 21
74.21890598384198
 31
0.0
  0
LINE
  5
420
330
1F
100
AcDbEntity
  8
LAYER-007
  6
Continuous
 62
     4
100
AcDbLine
 10
-92.84891561749272
 20
73.22173665940014
 30
0.0
 11
-94.84326423775423
 21
74.21890598384198
 31
0.0
  0
LINE
  5
421
330
1F
100
AcDbEntity
  8
LAYER-033
  6
Continuous
 62
     5
100
AcDbLine
 10
-11.22306392836433
 20
18.73125825982956
 30
0.0
 11
8.7203225604768
 21
18.73125825982956
 31
0.0
  0
LINE
  5
422
330
1F
100
AcDbEntity
  8
LAYER-033
  6
CENTER
 62
     5
100
AcDbLine
 10
-1.251370683943806
 20
14.90611945099775
 30
0.0
 11
-1.251370683943806
 21
-2.37283604239002
 31
0.0
  0
LINE
  5
423
330
1F
100
AcDbEntity
  8
LAYER-033
  6
HIDDEN
 62
     5
100
AcDbLine
 10
209.4381611593403
 20
11.01037522340758
 30
0.0
 11
214.4203885340289
 21
11.01037522340758
 31
0.0
  0
LINE
  5
424
330
1F
100
AcDbEntity
  8
LAYER-033
  6
CENTER
 62
     5
100
AcDbLine
 10
-9.890848431
 20
6.2666417047582
 30
0.0
 11
7.388107065399309
 21
6.2666417047582
 31
0.0
  0
CIRCLE
  5
425
330
1F
100
AcDbEntity
  8
LAYER-033
  6
Continuous
 62
     5
100
AcDbCircle
 10
-1.251370683943806
 20
6.2666417047582
 30
0.0
 40
4.846781139747582
  0
LINE
  5
426
330
1F
100
AcDbEntity
  8
LAYER-033
  6
HIDDEN
 62
     5
100
AcDbLine
 10
209.4381611593403
 20
1.323849542493463
 30
0.0
 11
214.4203885340289
 21
1.323849542493463
 31
0.0
  0
LINE
  5
427
330
1F
100
AcDbEntity
  8
LAYER-033
  6
Continuous
 62
     5
100
AcDbLine
 10
-11.22306392836433
 20
-6.197974851221773
 30
0.0
 11
8.7203225604768
 21
-6.197974851221773
 31
0.0
  0
LINE
  5
428
330
1F
100
AcDbEntity
  8
LAYER-006
  6
Continuous
 62
     1
100
AcDbLine
 10
-456.7796774395232
 20
-31.12721793396702
 30
0.0
 11
-456.7796774395232
 21
113.1085096370822
 31
0.0
  0
LINE
  5
429
330
1F
100
AcDbEntity
  8
LAYER-006
  6
Continuous
 62
     1
100
AcDbLine
 10
-428.120381859773
 20
-31.12721793396702
 30
0.0
 11
-428.120381859773
 21
-51.0705944511144
 31
0.0
  0
LINE
  5
42A
330
1F
100
AcDbEntity
  8
LAYER-006
  6
Continuous
 62
     1
100
AcDbLine
 10
-69.43897301966834
 20
-31.12721793396702
 30
0.0
 11
-69.43897301966834
 21
-51.0705944511144
 31
0.0
  0
LINE
  5
42B
330
1F
100
AcDbEntity
  8
LAYER-006
  6
Continuous
 62
     1
100
AcDbLine
 10
143.8559875820905
 20
-31.19960289166554
 30
0.0
 11
143.8559875820905
 21
112.9347857490315
 31
0.0
  0
LINE
  5
42C
330
1F
100
AcDbEntity
  8
LAYER-006
  6
Continuous
 62
     1
100
AcDbLine
 10
443.8559875820905
 20
-31.19960289166554
 30
0.0
 11
143.8559875820905
 21
-31.19960289166554
 31
0.0
  0
LINE
  5
42D
330
1F
100
AcDbEntity
  8
LAYER-006
  6
Continuous
 62
     1
100
AcDbLine
 10
-463.7230639283641
 20
-51.0705944511144
 30
0.0
 11
-463.7230639283641
 21
-130.8441603498654
 31
0.0
  0
LINE
  5
42E
330
1F
100
AcDbEntity
  8
LAYER-006
  6
Continuous
 62
     1
100
AcDbLine
 10
-423.8362909506822
 20
-51.0705944511144
 30
0.0
 11
-423.8362909506822
 21
-130.8441603498654
 31
0.0
  0
LINE
  5
42F
330
1F
100
AcDbEntity
  8
LAYER-006
  6
Continuous
 62
     1
100
AcDbLine
 10
-73.72306392875922
 20
-51.0705944511144
 30
0.0
 11
-73.72306392875922
 21
-130.8441603498654
 31
0.0
  0
LINE
  5
430
330
1F
100
AcDbEntity
  8
LAYER-006
  6
Continuous
 62
     1
100
AcDbLine
 10
-33.83629095068207
 20
-51.0705944511144
 30
0.0
 11
-33.83629095068207
 21
-130.8441603498654
 31
0.0
  0
LINE
  5
431
330
1F
100
AcDbEntity
  8
LAYER-006
  6
Continuous
 62
     1
100
AcDbLine
 10
199.4737064099658
 20
-51.12850242595582
 30
0.0
 11
199.4737064099658
 21
-125.8619329771303
 31
0.0
  0
LINE
  5
432
330
1F
100
AcDbEntity
  8
LAYER-006
  6
Continuous
 62
     1
100
AcDbLine
 10
199.4737064099658
 20
-51.12850242595582
 30
0.0
 11
209.4381611593403
 21
-51.12850242595582
 31
0.0
  0
LINE
  5
433
330
1F
100
AcDbEntity
  8
LAYER-006
  6
Continuous
 62
     1
100
AcDbLine
 10
204.4559337846527
 20
-51.12850242595582
 30
0.0
 11
204.4559337846527
 21
-130.8441603498654
 31
0.0
  0
LINE
  5
434
330
1F
100
AcDbEntity
  8
LAYER-006
  6
Continuous
 62
     1
100
AcDbLine
 10
378.2737950759305
 20
-51.12850242595582
 30
0.0
 11
388.2382498253061
 21
-51.12850242595582
 31
0.0
  0
LINE
  5
435
330
1F
100
AcDbEntity
  8
LAYER-006
  6
Continuous
 62
     1
100
AcDbLine
 10
383.2560224504768
 20
-51.12850242595582
 30
0.0
 11
383.2560224504768
 21
-130.8441603498654
 31
0.0
  0
LINE
  5
436
330
1F
100
AcDbEntity
  8
LAYER-006
  6
Continuous
 62
     1
100
AcDbLine
 10
388.2382498253061
 20
-51.12850242595582
 30
0.0
 11
388.2382498253061
 21
-125.8619329771303
 31
0.0
  0
LINE
  5
437
330
1F
100
AcDbEntity
  8
LAYER-007
  6
CENTER
 62
     4
100
AcDbLine
 10
-485.0013706839436
 20
-75.00266820941732
 30
0.0
 11
-485.0013706839436
 21
-107.909255916005
 31
0.0
  0
LINE
  5
438
330
1F
100
AcDbEntity
  8
LAYER-007
  6
CENTER
 62
     4
100
AcDbLine
 10
-12.55798419510264
 20
-75.00266820941732
 30
0.0
 11
-12.55798419510264
 21
-107.909255916005
 31
0.0
  0
LINE
  5
439
330
1F
100
AcDbEntity
  8
LAYER-006
  6
Continuous
 62
     1
100
AcDbLine
 10
184.5270342503586
 20
-77.03608477433133
 30
0.0
 11
184.5270342503586
 21
-106.9294589917896
 31
0.0
  0
LINE
  5
43A
330
1F
100
AcDbEntity
  8
LAYER-006
  6
Continuous
 62
     1
100
AcDbLine
 10
199.4737064099658
 20
-77.03608477433133
 30
0.0
 11
184.5270342503586
 21
-77.03608477433133
 31
0.0
  0
LINE
  5
43B
330
1F
100
AcDbEntity
  8
LAYER-006
  6
Continuous
 62
     1
100
AcDbLine
 10
388.2382498253061
 20
-77.03608477433133
 30
0.0
 11
403.184931949368
 21
-77.03608477433133
 31
0.0
  0
LINE
  5
43C
330
1F
100
AcDbEntity
  8
LAYER-006
  6
Continuous
 62
     1
100
AcDbLine
 10
403.184931949368
 20
-77.03608477433133
 30
0.0
 11
403.184931949368
 21
-106.9294589917896
 31
0.0
  0
LINE
  5
43D
330
1F
100
AcDbEntity
  8
LAYER-006
  6
Continuous
 62
     1
100
AcDbLine
 10
174.5625795009836
 20
-84.01121306334807
 30
0.0
 11
174.5625795009836
 21
-98.95789518741108
 31
0.0
  0
LINE
  5
43E
330
1F
100
AcDbEntity
  8
LAYER-006
  6
Continuous
 62
     1
100
AcDbLine
 10
199.4737064099658
 20
-84.01121306334807
 30
0.0
 11
174.5625795009836
 21
-84.01121306334807
 31
0.0
  0
LINE
  5
43F
330
1F
100
AcDbEntity
  8
LAYER-006
  6
Continuous
 62
     1
100
AcDbLine
 10
209.4381611593403
 20
-84.01121306334807
 30
0.0
 11
378.2737950759305
 21
-84.01121306334807
 31
0.0
  0
LINE
  5
440
330
1F
100
AcDbEntity
  8
LAYER-006
  6
Continuous
 62
     1
100
AcDbLine
 10
388.2382498253061
 20
-84.01121306334807
 30
0.0
 11
413.1493866987436
 21
-84.01121306334807
 31
0.0
  0
LINE
  5
441
330
1F
100
AcDbEntity
  8
LAYER-006
  6
Continuous
 62
     1
100
AcDbLine
 10
413.1493866987436
 20
-84.01121306334807
 30
0.0
 11
413.1493866987436
 21
-98.95789518741108
 31
0.0
  0
LINE
  5
442
330
1F
100
AcDbEntity
  8
LAYER-007
  6
CENTER
 62
     4
100
AcDbLine
 10
-494.9730639283634
 20
-90.95736742879723
 30
0.0
 11
-475.0296774395237
 21
-90.95736742879723
 31
0.0
  0
LINE
  5
443
330
1F
100
AcDbEntity
  8
LAYER-007
  6
CENTER
 62
     4
100
AcDbLine
 10
-22.52967743905812
 20
-90.95736742879723
 30
0.0
 11
-2.586290951031302
 21
-90.95736742879723
 31
0.0
  0
LINE
  5
444
330
1F
100
AcDbEntity
  8
LAYER-007
  6
CENTER
 62
     4
100
AcDbLine
 10
138.6905424032322
 20
-90.98632142345642
 30
0.0
 11
448.0249882860114
 21
-90.98632142345642
 31
0.0
  0
LINE
  5
445
330
1F
100
AcDbEntity
  8
LAYER-006
  6
Continuous
 62
     1
100
AcDbLine
 10
199.4737064099658
 20
-98.95789518741108
 30
0.0
 11
174.5625795009836
 21
-98.95789518741108
 31
0.0
  0
LINE
  5
446
330
1F
100
AcDbEntity
  8
LAYER-006
  6
Continuous
 62
     1
100
AcDbLine
 10
209.4381611593403
 20
-98.95789518741108
 30
0.0
 11
378.2737950759305
 21
-98.95789518741108
 31
0.0
  0
LINE
  5
447
330
1F
100
AcDbEntity
  8
LAYER-006
  6
Continuous
 62
     1
100
AcDbLine
 10
388.2382498253061
 20
-98.95789518741108
 30
0.0
 11
413.1493866987436
 21
-98.95789518741108
 31
0.0
  0
LINE
  5
448
330
1F
100
AcDbEntity
  8
LAYER-006
  6
Continuous
 62
     1
100
AcDbLine
 10
199.4737064099658
 20
-106.9294589917896
 30
0.0
 11
184.5270342503586
 21
-106.9294589917896
 31
0.0
  0
LINE
  5
449
330
1F
100
AcDbEntity
  8
LAYER-006
  6
Continuous
 62
     1
100
AcDbLine
 10
388.2382498253061
 20
-106.9294589917896
 30
0.0
 11
403.184931949368
 21
-106.9294589917896
 31
0.0
  0
LINE
  5
44A
330
1F
100
AcDbEntity
  8
LAYER-007
  6
HIDDEN
 62
     1
100
AcDbLine
 10
-450.7598726825232
 20
-125.8583137296089
 30
0.0
 11
-450.7598726825232
 21
-130.8441603498654
 31
0.0
  0
LINE
  5
44B
330
1F
100
AcDbEntity
  8
LAYER-007
  6
HIDDEN
 62
     1
100
AcDbLine
 10
-436.799502140123
 20
-125.8583137296089
 30
0.0
 11
-436.799502140123
 21
-130.8441603498654
 31
0.0
  0
LINE
  5
44C
330
1F
100
AcDbEntity
  8
LAYER-006
  6
Continuous
 62
     1
100
AcDbLine
 10
156.1116693661815
 20
-125.8619329771303
 30
0.0
 11
156.1116693661815
 21
-130.8441603498654
 31
0.0
  0
LINE
  5
44D
330
1F
100
AcDbEntity
  8
LAYER-006
  6
Continuous
 62
     1
100
AcDbLine
 10
171.6003057300447
 20
-125.8619329771303
 30
0.0
 11
171.6003057300447
 21
-130.8441603498654
 31
0.0
  0
LINE
  5
44E
330
1F
100
AcDbEntity
  8
LAYER-006
  6
Continuous
 62
     1
100
AcDbLine
 10
209.4381611593403
 20
-125.8619329771303
 30
0.0
 11
378.2737950759305
 21
-125.8619329771303
 31
0.0
  0
LINE
  5
44F
330
1F
100
AcDbEntity
  8
LAYER-006
  6
Continuous
 62
     1
100
AcDbLine
 10
279.1893643338754
 20
-125.8619329771303
 30
0.0
 11
279.1893643338754
 21
-130.8441603498654
 31
0.0
  0
LINE
  5
450
330
1F
100
AcDbEntity
  8
LAYER-006
  6
Continuous
 62
     1
100
AcDbLine
 10
308.5226118303065
 20
-125.8619329771303
 30
0.0
 11
308.5226118303065
 21
-130.8441603498654
 31
0.0
  0
LINE
  5
451
330
1F
100
AcDbEntity
  8
LAYER-006
  6
Continuous
 62
     1
100
AcDbLine
 10
373.2915677012435
 20
-125.8619329771303
 30
0.0
 11
373.2915677012435
 21
208.5935613072055
 31
0.0
  0
LINE
  5
452
330
1F
100
AcDbEntity
  8
LAYER-006
  6
Continuous
 62
     1
100
AcDbLine
 10
416.1116693661813
 20
-125.8619329771303
 30
0.0
 11
416.1116693661813
 21
-130.8441603498654
 31
0.0
  0
LINE
  5
453
330
1F
100
AcDbEntity
  8
LAYER-006
  6
Continuous
 62
     1
100
AcDbLine
 10
431.6003057298177
 20
-125.8619329771303
 30
0.0
 11
431.6003057298177
 21
-130.8441603498654
 31
0.0
  0
LINE
  5
454
330
1F
100
AcDbEntity
  8
LAYER-006
  6
Continuous
 62
     1
100
AcDbLine
 10
443.8559875820905
 20
-125.8619329771303
 30
0.0
 11
443.8559875820905
 21
-130.8441603498654
 31
0.0
  0
LINE
  5
455
330
1F
100
AcDbEntity
  8
LAYER-006
  6
Continuous
 62
     1
100
AcDbLine
 10
-506.2796774395232
 20
-130.8441603498654
 30
0.0
 11
-506.2796774395232
 21
214.1558396501346
 31
0.0
  0
LINE
  5
456
330
1F
100
AcDbEntity
  8
LAYER-006
  6
Continuous
 62
     1
100
AcDbLine
 10
143.8559875820905
 20
-130.8441603498654
 30
0.0
 11
143.8559875820905
 21
-125.8619329771303
 31
0.0
  0
LINE
  5
457
330
1F
100
AcDbEntity
  8
LAYER-007
  6
PHANTOM
 62
     4
100
AcDbLine
 10
279.1893643338754
 20
-130.8441603498654
 30
0.0
 11
308.5226118303065
 21
-130.8441603498654
 31
0.0
  0
LINE
  5
458
330
1F
100
AcDbEntity
  8
LAYER-007
  6
CENTER
 62
     4
100
AcDbLine
 10
-248.7796774395232
 20
227.1190308961883
 30
0.0
 11
-248.7796774395232
 21
-130.8441603498654
 31
0.0
  0
LINE
  5
459
330
1F
100
AcDbEntity
  8
LAYER-007
  6
HIDDEN
 62
     1
100
AcDbLine
 10
-506.2796774395232
 20
-125.8583137296089
 30
0.0
 11
8.720322560476802
 21
-125.8583137296089
 31
0.0
  0
LINE
  5
45A
330
1F
100
AcDbEntity
  8
LAYER-006
  6
Continuous
 62
     1
100
AcDbLine
 10
8.7203225604768
 20
-130.8441603498654
 30
0.0
 11
-506.2796774395232
 21
-130.8441603498654
 31
0.0
  0
LINE
  5
45B
330
1F
100
AcDbEntity
  8
LAYER-006
  6
Continuous
 62
     1
100
AcDbLine
 10
-506.2796774395232
 20
-51.0705944511144
 30
0.0
 11
8.720322560476802
 21
-51.0705944511144
 31
0.0
  0
LINE
  5
45C
330
1F
100
AcDbEntity
  8
LAYER-006
  6
Continuous
 62
     1
100
AcDbLine
 10
-40.7796774395232
 20
-31.12721793396703
 30
0.0
 11
-456.7796774395232
 21
-31.12721793396703
 31
0.0
  0
LINE
  5
45D
330
1F
100
AcDbEntity
  8
LAYER-006
  6
Continuous
 62
     1
100
AcDbLine
 10
-456.7796774395232
 20
113.1085096370822
 30
0.0
 11
-40.7796774395232
 21
113.1085096370822
 31
0.0
  0
LINE
  5
45E
330
1F
100
AcDbEntity
  8
LAYER-007
  6
HIDDEN
 62
     1
100
AcDbLine
 10
-506.2796774395232
 20
209.1699930279247
 30
0.0
 11
8.720322560476802
 21
209.1699930279247
 31
0.0
  0
LINE
  5
45F
330
1F
100
AcDbEntity
  8
LAYER-006
  6
Continuous
 62
     1
100
AcDbLine
 10
-506.2796774395232
 20
214.1558396501346
 30
0.0
 11
-5.768313803159572
 21
214.1558396501346
 31
0.0
  0
LINE
  5
460
330
1F
100
AcDbEntity
  8
LAYER-007
  6
Continuous
 62
     1
100
AcDbLine
 10
-455.4240418929788
 20
289.297373428
 30
0.0
 11
-40.14096436549096
 21
289.297373428
 31
0.0
  0
LINE
  5
461
330
1F
100
AcDbEntity
  8
LAYER-007
  6
Continuous
 62
     1
100
AcDbLine
 10
-475.367438353513
 20
339.1558396501346
 30
0.0
 11
-20.19757787665026
 21
339.1558396501346
 31
0.0
  0
LINE
  5
462
330
1F
100
AcDbEntity
  8
LAYER-006
  6
Continuous
 62
     1
100
AcDbLine
 10
-217.6504147767747
 20
134.3822737513837
 30
0.0
 11
-136.6947621585005
 21
134.3822737513837
 31
0.0
  0
LINE
  5
463
330
1F
100
AcDbEntity
  8
LAYER-006
  6
Continuous
 62
     1
100
AcDbLine
 10
-360.864592720506
 20
134.3822737513837
 30
0.0
 11
-277.4805842101538
 21
134.3822737513837
 31
0.0
  0
LINE
  5
464
330
1F
100
AcDbEntity
  8
LAYER-256
  6
Continuous
 62
     1
100
AcDbLine
 10
-44.96717743941633
 20
179.3569462745203
 30
0.0
 11
-44.96717743941633
 21
169.1811482517915
 31
0.0
  0
LINE
  5
465
330
1F
100
AcDbEntity
  8
LAYER-256
  6
Continuous
 62
     1
100
AcDbLine
 10
-53.7796774395232
 20
184.4448458199749
 30
0.0
 11
-44.96717743941633
 21
179.3569462745203
 31
0.0
  0
LINE
  5
466
330
1F
100
AcDbEntity
  8
LAYER-256
  6
CENTER
 62
     4
100
AcDbLine
 10
-53.7796774395232
 20
151.6616440245203
 30
0.0
 11
-53.7796774395232
 21
197.0698608427023
 31
0.0
  0
LINE
  5
467
330
1F
100
AcDbEntity
  8
LAYER-256
  6
CENTER
 62
     4
100
AcDbLine
 10
-71.98601723509913
 20
174.2690467290658
 30
0.0
 11
-36.97405727710151
 21
174.2690467290658
 31
0.0
  0
CIRCLE
  5
468
330
1F
100
AcDbEntity
  8
LAYER-256
  6
Continuous
 62
     1
100
AcDbCircle
 10
-53.7796774395232
 20
174.2690467290658
 30
0.0
 40
4.272727272727273
  0
LINE
  5
469
330
1F
100
AcDbEntity
  8
LAYER-256
  6
Continuous
 62
     1
100
AcDbLine
 10
-44.96717743941633
 20
169.1811482517915
 30
0.0
 11
-53.7796774395232
 21
164.0932487063369
 31
0.0
  0
LINE
  5
46A
330
1F
100
AcDbEntity
  8
LAYER-256
  6
Continuous
 62
     1
100
AcDbLine
 10
-53.7796774395232
 20
164.0932487063369
 30
0.0
 11
-62.59217743952124
 21
169.1811482517915
 31
0.0
  0
LINE
  5
46B
330
1F
100
AcDbEntity
  8
LAYER-256
  6
Continuous
 62
     1
100
AcDbLine
 10
-62.59217743952124
 20
169.1811482517915
 30
0.0
 11
-62.59217743952124
 21
179.3569462745203
 31
0.0
  0
LINE
  5
46C
330
1F
100
AcDbEntity
  8
LAYER-256
  6
Continuous
 62
     1
100
AcDbLine
 10
-62.59217743952124
 20
179.3569462745203
 30
0.0
 11
-53.7796774395232
 21
184.4448458199749
 31
0.0
  0
CIRCLE
  5
46D
330
1F
100
AcDbEntity
  8
LAYER-256
  6
Continuous
 62
     1
100
AcDbCircle
 10
-53.7796774395232
 20
174.2690467290658
 30
0.0
 40
8.8125
  0
LINE
  5
46E
330
1F
100
AcDbEntity
  8
LAYER-256
  6
Continuous
 62
     1
100
AcDbLine
 10
-443.7796774395232
 20
184.4448458199749
 30
0.0
 11
-434.9671774395252
 21
179.3569462745203
 31
0.0
  0
LINE
  5
46F
330
1F
100
AcDbEntity
  8
LAYER-256
  6
Continuous
 62
     1
100
AcDbLine
 10
-452.5921774395213
 20
179.3569462745203
 30
0.0
 11
-443.7796774395232
 21
184.4448458199749
 31
0.0
  0
LINE
  5
470
330
1F
100
AcDbEntity
  8
LAYER-256
  6
Continuous
 62
     1
100
AcDbLine
 10
-434.9671774395252
 20
179.3569462745203
 30
0.0
 11
-434.9671774395252
 21
169.1811482517915
 31
0.0
  0
LINE
  5
471
330
1F
100
AcDbEntity
  8
LAYER-256
  6
CENTER
 62
     4
100
AcDbLine
 10
-461.9860172350992
 20
174.2690467290658
 30
0.0
 11
-426.9740572775922
 21
174.2690467290658
 31
0.0
  0
CIRCLE
  5
472
330
1F
100
AcDbEntity
  8
LAYER-256
  6
Continuous
 62
     1
100
AcDbCircle
 10
-443.7796774395232
 20
174.2690467290658
 30
0.0
 40
4.272727272727273
  0
CIRCLE
  5
473
330
1F
100
AcDbEntity
  8
LAYER-256
  6
Continuous
 62
     1
100
AcDbCircle
 10
-443.7796774395232
 20
174.2690467290658
 30
0.0
 40
8.8125
  0
LINE
  5
474
330
1F
100
AcDbEntity
  8
LAYER-256
  6
Continuous
 62
     1
100
AcDbLine
 10
-452.5921774395213
 20
169.1811482517915
 30
0.0
 11
-452.5921774395213
 21
179.3569462745203
 31
0.0
  0
LINE
  5
475
330
1F
100
AcDbEntity
  8
LAYER-256
  6
Continuous
 62
     1
100
AcDbLine
 10
-434.9671774395252
 20
169.1811482517915
 30
0.0
 11
-443.7796774395232
 21
164.0932487063369
 31
0.0
  0
LINE
  5
476
330
1F
100
AcDbEntity
  8
LAYER-256
  6
Continuous
 62
     1
100
AcDbLine
 10
-443.7796774395232
 20
164.0932487063369
 30
0.0
 11
-452.5921774395213
 21
169.1811482517915
 31
0.0
  0
LINE
  5
477
330
1F
100
AcDbEntity
  8
LAYER-256
  6
CENTER
 62
     4
100
AcDbLine
 10
-443.7796774395232
 20
151.6616440245203
 30
0.0
 11
-443.7796774395232
 21
197.0698608427023
 31
0.0
  0
LINE
  5
478
330
1F
100
AcDbEntity
  8
LAYER-256
  6
Continuous
 62
     1
100
AcDbLine
 10
-434.9671774395252
 20
-96.04526590607151
 30
0.0
 11
-443.7796774395232
 21
-101.1331654515261
 31
0.0
  0
CIRCLE
  5
479
330
1F
100
AcDbEntity
  8
LAYER-256
  6
Continuous
 62
     1
100
AcDbCircle
 10
-443.7796774395232
 20
-90.95736742879723
 30
0.0
 40
8.8125
  0
LINE
  5
47A
330
1F
100
AcDbEntity
  8
LAYER-256
  6
Continuous
 62
     1
100
AcDbLine
 10
-434.9671774395252
 20
-85.86946788334262
 30
0.0
 11
-434.9671774395252
 21
-96.04526590607151
 31
0.0
  0
LINE
  5
47B
330
1F
100
AcDbEntity
  8
LAYER-256
  6
Continuous
 62
     1
100
AcDbLine
 10
-443.7796774395232
 20
-80.78156833788813
 30
0.0
 11
-434.9671774395252
 21
-85.86946788334262
 31
0.0
  0
LINE
  5
47C
330
1F
100
AcDbEntity
  8
LAYER-256
  6
Continuous
 62
     1
100
AcDbLine
 10
-452.5921774395213
 20
-85.86946788334262
 30
0.0
 11
-443.7796774395232
 21
-80.78156833788813
 31
0.0
  0
LINE
  5
47D
330
1F
100
AcDbEntity
  8
LAYER-256
  6
CENTER
 62
     4
100
AcDbLine
 10
-443.7796774395232
 20
-113.5647701333427
 30
0.0
 11
-443.7796774395232
 21
-68.15655331516075
 31
0.0
  0
CIRCLE
  5
47E
330
1F
100
AcDbEntity
  8
LAYER-256
  6
Continuous
 62
     1
100
AcDbCircle
 10
-443.7796774395232
 20
-90.95736742879723
 30
0.0
 40
4.272727272727273
  0
LINE
  5
47F
330
1F
100
AcDbEntity
  8
LAYER-256
  6
CENTER
 62
     4
100
AcDbLine
 10
-461.9860172350992
 20
-90.95736742879723
 30
0.0
 11
-426.9740572775922
 21
-90.95736742879723
 31
0.0
  0
LINE
  5
480
330
1F
100
AcDbEntity
  8
LAYER-256
  6
Continuous
 62
     1
100
AcDbLine
 10
-443.7796774395232
 20
-101.1331654515261
 30
0.0
 11
-452.5921774395213
 21
-96.04526590607151
 31
0.0
  0
LINE
  5
481
330
1F
100
AcDbEntity
  8
LAYER-256
  6
Continuous
 62
     1
100
AcDbLine
 10
-452.5921774395213
 20
-96.04526590607151
 30
0.0
 11
-452.5921774395213
 21
-85.86946788334262
 31
0.0
  0
LINE
  5
482
330
1F
100
AcDbEntity
  8
LAYER-256
  6
Continuous
 62
     1
100
AcDbLine
 10
-44.96717743941633
 20
-96.04526590607151
 30
0.0
 11
-53.7796774395232
 21
-101.1331654515261
 31
0.0
  0
CIRCLE
  5
483
330
1F
100
AcDbEntity
  8
LAYER-256
  6
Continuous
 62
     1
100
AcDbCircle
 10
-53.7796774395232
 20
-90.95736742879723
 30
0.0
 40
8.8125
  0
LINE
  5
484
330
1F
100
AcDbEntity
  8
LAYER-256
  6
CENTER
 62
     4
100
AcDbLine
 10
-71.98601723509913
 20
-90.95736742879723
 30
0.0
 11
-36.97405727710151
 21
-90.95736742879723
 31
0.0
  0
LINE
  5
485
330
1F
100
AcDbEntity
  8
LAYER-256
  6
Continuous
 62
     1
100
AcDbLine
 10
-44.96717743941633
 20
-85.86946788334262
 30
0.0
 11
-44.96717743941633
 21
-96.04526590607151
 31
0.0
  0
LINE
  5
486
330
1F
100
AcDbEntity
  8
LAYER-256
  6
Continuous
 62
     1
100
AcDbLine
 10
-53.7796774395232
 20
-80.78156833788813
 30
0.0
 11
-44.96717743941633
 21
-85.86946788334262
 31
0.0
  0
LINE
  5
487
330
1F
100
AcDbEntity
  8
LAYER-256
  6
Continuous
 62
     1
100
AcDbLine
 10
-62.59217743952124
 20
-85.86946788334262
 30
0.0
 11
-53.7796774395232
 21
-80.78156833788813
 31
0.0
  0
LINE
  5
488
330
1F
100
AcDbEntity
  8
LAYER-256
  6
Continuous
 62
     1
100
AcDbLine
 10
-62.59217743952124
 20
-96.04526590607151
 30
0.0
 11
-62.59217743952124
 21
-85.86946788334262
 31
0.0
  0
LINE
  5
489
330
1F
100
AcDbEntity
  8
LAYER-256
  6
Continuous
 62
     1
100
AcDbLine
 10
-53.7796774395232
 20
-101.1331654515261
 30
0.0
 11
-62.59217743952124
 21
-96.04526590607151
 31
0.0
  0
CIRCLE
  5
48A
330
1F
100
AcDbEntity
  8
LAYER-256
  6
Continuous
 62
     1
100
AcDbCircle
 10
-53.7796774395232
 20
-90.95736742879723
 30
0.0
 40
4.272727272727273
  0
LINE
  5
48B
330
1F
100
AcDbEntity
  8
LAYER-256
  6
CENTER
 62
     4
100
AcDbLine
 10
-53.7796774395232
 20
-113.5647701333427
 30
0.0
 11
-53.7796774395232
 21
-68.15655331516075
 31
0.0
  0
LINE
  5
48C
330
1F
100
AcDbEntity
  8
LAYER-007
  6
CENTER
 62
     4
100
AcDbLine
 10
293.8559875479996
 20
251.4406968006082
 30
0.0
 11
293.8559875479996
 21
-130.8441603498654
 31
0.0
  0
LINE
  5
48D
330
1F
100
AcDbEntity
  8
LAYER-006
  6
Continuous
 62
     1
100
AcDbLine
 10
388.2382498253061
 20
-125.8619329771303
 30
0.0
 11
443.8559875820905
 21
-125.8619329771303
 31
0.0
  0
LINE
  5
48E
330
1F
100
AcDbEntity
  8
LAYER-006
  6
Continuous
 62
     1
100
AcDbLine
 10
308.5226118303065
 20
-130.8441603498654
 30
0.0
 11
443.8559875820905
 21
-130.8441603498654
 31
0.0
  0
LINE
  5
48F
330
1F
100
AcDbEntity
  8
LAYER-006
  6
Continuous
 62
     1
100
AcDbLine
 10
143.8559875820905
 20
-125.8619329771303
 30
0.0
 11
199.4737064099658
 21
-125.8619329771303
 31
0.0
  0
LINE
  5
490
330
1F
100
AcDbEntity
  8
LAYER-006
  6
Continuous
 62
     1
100
AcDbLine
 10
143.8559875820905
 20
-130.8441603498654
 30
0.0
 11
279.1893643338754
 21
-130.8441603498654
 31
0.0
  0
LINE
  5
491
330
1F
100
AcDbEntity
  8
LAYER-007
  6
HIDDEN
 62
     1
100
AcDbLine
 10
-46.79950214051812
 20
-125.8583137296089
 30
0.0
 11
-46.79950214051812
 21
-130.8441603498654
 31
0.0
  0
LINE
  5
492
330
1F
100
AcDbEntity
  8
LAYER-007
  6
HIDDEN
 62
     1
100
AcDbLine
 10
-60.7598726825232
 20
-125.8583137296089
 30
0.0
 11
-60.7598726825232
 21
-130.8441603498654
 31
0.0
  0
LINE
  5
493
330
1F
100
AcDbEntity
  8
LAYER-006
  6
Continuous
 62
     1
100
AcDbLine
 10
-76.864592720285
 20
134.3822737513837
 30
0.0
 11
8.720322560476802
 21
134.3822737513837
 31
0.0
  0
LINE
  5
494
330
1F
100
AcDbEntity
  8
LAYER-006
  6
Continuous
 62
     1
100
AcDbLine
 10
-506.2796774395232
 20
134.3822737513837
 30
0.0
 11
-420.6947621587215
 21
134.3822737513837
 31
0.0
  0
LINE
  5
495
330
1F
100
AcDbEntity
  8
LAYER-033
  6
Continuous
 62
     5
100
AcDbLine
 10
-33.83629095068207
 20
-114.0009473835165
 30
0.0
 11
8.720322560476802
 21
-114.0009473835165
 31
0.0
  0
LINE
  5
496
330
1F
100
AcDbEntity
  8
LAYER-033
  6
CENTER
 62
     4
100
AcDbLine
 10
423.8559875479996
 20
-117.761146345974
 30
0.0
 11
423.8559875479996
 21
-137.933777417304
 31
0.0
  0
LINE
  5
497
330
1F
100
AcDbEntity
  8
LAYER-033
  6
CENTER
 62
     4
100
AcDbLine
 10
163.8559875479996
 20
-119.5393320478363
 30
0.0
 11
163.8559875479996
 21
-137.933777417304
 31
0.0
  0
LINE
  5
498
330
1F
100
AcDbEntity
  8
LAYER-007
  6
HIDDEN
 62
     4
100
AcDbLine
 10
402.9387791188353
 20
344.1380670248221
 30
0.0
 11
402.9387791188353
 21
369.0492038982597
 31
0.0
  0
LINE
  5
499
330
1F
100
AcDbEntity
  8
LAYER-007
  6
HIDDEN
 62
     4
100
AcDbLine
 10
417.8854612417492
 20
339.1558396501346
 30
0.0
 11
402.9387791188353
 21
344.1380670248221
 31
0.0
  0
LINE
  5
49A
330
1F
100
AcDbEntity
  8
LAYER-007
  6
HIDDEN
 62
     4
100
AcDbLine
 10
422.8676886175854
 20
294.315793277947
 30
0.0
 11
422.8676886175854
 21
369.0492038982597
 31
0.0
  0
LINE
  5
49B
330
1F
100
AcDbEntity
  8
LAYER-007
  6
HIDDEN
 62
     4
100
AcDbLine
 10
417.8854612417492
 20
294.315793277947
 30
0.0
 11
417.8854612417492
 21
339.1558396501346
 31
0.0
  0
LINE
  5
49C
330
1F
100
AcDbEntity
  8
LAYER-007
  6
HIDDEN
 62
     4
100
AcDbLine
 10
422.8676886175854
 20
294.315793277947
 30
0.0
 11
417.8854612417492
 21
294.315793277947
 31
0.0
  0
LINE
  5
49D
330
1F
100
AcDbEntity
  8
LAYER-007
  6
HIDDEN
 62
     4
100
AcDbLine
 10
422.8676886175854
 20
369.0492038982597
 30
0.0
 11
402.9387791188353
 21
369.0492038982597
 31
0.0
  0
LINE
  5
49E
330
1F
100
AcDbEntity
  8
LAYER-007
  6
Continuous
 62
     1
100
AcDbLine
 10
383.0098696176455
 20
339.1558396501346
 30
0.0
 11
383.0098696176455
 21
213.5757886818927
 31
0.0
  0
LINE
  5
49F
330
1F
100
AcDbEntity
  8
LAYER-007
  6
Continuous
 62
     1
100
AcDbLine
 10
387.9920969936242
 20
339.1558396501346
 30
0.0
 11
387.9920969936242
 21
188.6646318795453
 31
0.0
  0
LINE
  5
4A0
330
1F
100
AcDbEntity
  8
LAYER-033
  6
Continuous
 62
     5
100
AcDbLine
 10
417.8854612417492
 20
122.3946306478088
 30
0.0
 11
427.3453061405265
 21
112.9347857490315
 31
0.0
  0
LINE
  5
4A1
330
1F
100
AcDbEntity
  8
LAYER-007
  6
Continuous
 62
     1
100
AcDbLine
 10
427.8499159911243
 20
259.4402016551344
 30
0.0
 11
427.8499159911243
 21
112.9347857490315
 31
0.0
  0
LINE
  5
4A2
330
1F
100
AcDbEntity
  8
LAYER-033
  6
Continuous
 62
     5
100
AcDbLine
 10
426.3905828659616
 20
112.9347857490315
 30
0.0
 11
427.8499159911243
 21
114.3941188740992
 31
0.0
  0
LINE
  5
4A3
330
1F
100
AcDbEntity
  8
LAYER-033
  6
Continuous
 62
     5
100
AcDbLine
 10
417.8854612417492
 20
115.3486971236993
 30
0.0
 11
420.2993726166471
 21
112.9347857488978
 31
0.0
  0
LINE
  5
4A4
330
1F
100
AcDbEntity
  8
LAYER-033
  6
Continuous
 62
     5
100
AcDbLine
 10
419.3446493419469
 20
112.9347857490315
 30
0.0
 11
427.8499159911243
 21
121.4400523982088
 31
0.0
  0
LINE
  5
4A5
330
1F
100
AcDbEntity
  8
LAYER-007
  6
Continuous
 62
     1
100
AcDbLine
 10
417.8854612417492
 20
259.4402016551344
 30
0.0
 11
417.8854612417492
 21
112.9347857490315
 31
0.0
  0
LINE
  5
4A6
330
1F
100
AcDbEntity
  8
LAYER-033
  6
Continuous
 62
     4
100
AcDbLine
 10
-430.4948087819274
 20
264.4042394710865
 30
0.0
 11
-425.5450613136216
 21
269.3539869393924
 31
0.0
  0
LINE
  5
4A7
330
1F
100
AcDbEntity
  8
LAYER-033
  6
Continuous
 62
     4
100
AcDbLine
 10
-430.4948087819274
 20
259.4544920027806
 30
0.0
 11
-420.5953138453157
 21
269.3539869393924
 31
0.0
  0
LINE
  5
4A8
330
1F
100
AcDbEntity
  8
LAYER-033
  6
Continuous
 62
     4
100
AcDbLine
 10
-430.4948087819274
 20
254.5047445344748
 30
0.0
 11
-420.5231155375067
 21
264.4764377788955
 31
0.0
  0
LINE
  5
4A9
330
1F
100
AcDbEntity
  8
LAYER-033
  6
Continuous
 62
     4
100
AcDbLine
 10
-430.4948087819274
 20
249.5549970661689
 30
0.0
 11
-420.5231155375067
 21
259.5266903105896
 31
0.0
  0
LINE
  5
4AA
330
1F
100
AcDbEntity
  8
LAYER-033
  6
Continuous
 62
     4
100
AcDbLine
 10
-430.4948087819274
 20
244.605249597863
 30
0.0
 11
-420.5231155375067
 21
254.5769428422838
 31
0.0
  0
LINE
  5
4AB
330
1F
100
AcDbEntity
  8
LAYER-033
  6
Continuous
 62
     4
100
AcDbLine
 10
-430.4948087819274
 20
239.6555021295572
 30
0.0
 11
-420.5231155375067
 21
249.6271953739779
 31
0.0
  0
LINE
  5
4AC
330
1F
100
AcDbEntity
  8
LAYER-033
  6
Continuous
 62
     4
100
AcDbLine
 10
-430.4948087819274
 20
234.7057546612513
 30
0.0
 11
-420.5231155375067
 21
244.6774479056721
 31
0.0
  0
LINE
  5
4AD
330
1F
100
AcDbEntity
  8
LAYER-033
  6
Continuous
 62
     4
100
AcDbLine
 10
-430.4948087819274
 20
229.7560071929455
 30
0.0
 11
-420.5231155375067
 21
239.7277004373662
 31
0.0
  0
LINE
  5
4AE
330
1F
100
AcDbEntity
  8
LAYER-033
  6
Continuous
 62
     4
100
AcDbLine
 10
-430.4948087819274
 20
224.8062597246396
 30
0.0
 11
-420.5231155375067
 21
234.7779529690604
 31
0.0
  0
LINE
  5
4AF
330
1F
100
AcDbEntity
  8
LAYER-033
  6
Continuous
 62
     4
100
AcDbLine
 10
-430.4948087819274
 20
219.8565122563338
 30
0.0
 11
-420.5231155375067
 21
229.8282055007545
 31
0.0
  0
LINE
  5
4B0
330
1F
100
AcDbEntity
  8
LAYER-033
  6
Continuous
 62
     4
100
AcDbLine
 10
-430.4948087819274
 20
214.9067647880279
 30
0.0
 11
-420.5231155375067
 21
224.8784580324487
 31
0.0
  0
LINE
  5
4B1
330
1F
100
AcDbEntity
  8
LAYER-033
  6
Continuous
 62
     4
100
AcDbLine
 10
-426.2959864515149
 20
214.1558396501346
 30
0.0
 11
-420.5231155375067
 21
219.9287105641429
 31
0.0
  0
LINE
  5
4B2
330
1F
100
AcDbEntity
  8
LAYER-033
  6
Continuous
 62
     4
100
AcDbLine
 10
-421.3462389832091
 20
214.1558396501346
 30
0.0
 11
-420.5231155375067
 21
214.978963095837
 31
0.0
  0
LINE
  5
4B3
330
1F
100
AcDbEntity
  8
LAYER-033
  6
Continuous
 62
     4
100
AcDbLine
 10
-430.4948087819274
 20
219.1055871184405
 30
0.0
 11
-425.5450613136216
 21
214.1558396501346
 31
0.0
  0
LINE
  5
4B4
330
1F
100
AcDbEntity
  8
LAYER-033
  6
Continuous
 62
     4
100
AcDbLine
 10
-430.4948087819274
 20
224.0553345867463
 30
0.0
 11
-420.5953138453157
 21
214.1558396501346
 31
0.0
  0
LINE
  5
4B5
330
1F
100
AcDbEntity
  8
LAYER-033
  6
Continuous
 62
     4
100
AcDbLine
 10
-430.4948087819274
 20
229.0050820550522
 30
0.0
 11
-420.5231155375067
 21
219.0333888106314
 31
0.0
  0
LINE
  5
4B6
330
1F
100
AcDbEntity
  8
LAYER-033
  6
Continuous
 62
     4
100
AcDbLine
 10
-430.4948087819274
 20
233.954829523358
 30
0.0
 11
-420.5231155375067
 21
223.9831362789373
 31
0.0
  0
LINE
  5
4B7
330
1F
100
AcDbEntity
  8
LAYER-033
  6
Continuous
 62
     4
100
AcDbLine
 10
-430.4948087819274
 20
238.9045769916638
 30
0.0
 11
-420.5231155375067
 21
228.9328837472467
 31
0.0
  0
LINE
  5
4B8
330
1F
100
AcDbEntity
  8
LAYER-033
  6
Continuous
 62
     4
100
AcDbLine
 10
-430.4948087819274
 20
243.85432446
 30
0.0
 11
-420.5231155375067
 21
233.8826312155489
 31
0.0
  0
LINE
  5
4B9
330
1F
100
AcDbEntity
  8
LAYER-033
  6
Continuous
 62
     4
100
AcDbLine
 10
-430.4948087819274
 20
248.8040719282755
 30
0.0
 11
-420.5231155375067
 21
238.8323786838548
 31
0.0
  0
LINE
  5
4BA
330
1F
100
AcDbEntity
  8
LAYER-033
  6
Continuous
 62
     4
100
AcDbLine
 10
-430.4948087819274
 20
253.7538193965814
 30
0.0
 11
-420.5231155375067
 21
243.7821261521606
 31
0.0
  0
LINE
  5
4BB
330
1F
100
AcDbEntity
  8
LAYER-033
  6
Continuous
 62
     4
100
AcDbLine
 10
-430.4948087819274
 20
258.7035668648872
 30
0.0
 11
-420.5231155375067
 21
248.7318736204665
 31
0.0
  0
LINE
  5
4BC
330
1F
100
AcDbEntity
  8
LAYER-033
  6
Continuous
 62
     4
100
AcDbLine
 10
-430.4948087819274
 20
263.6533143331931
 30
0.0
 11
-420.5231155375067
 21
253.6816210887723
 31
0.0
  0
LINE
  5
4BD
330
1F
100
AcDbEntity
  8
LAYER-033
  6
Continuous
 62
     4
100
AcDbLine
 10
-430.4948087819274
 20
268.6030618014989
 30
0.0
 11
-420.5231155375067
 21
258.6313685570781
 31
0.0
  0
LINE
  5
4BE
330
1F
100
AcDbEntity
  8
LAYER-033
  6
Continuous
 62
     4
100
AcDbLine
 10
-426.2959864514846
 20
269.3539869393924
 30
0.0
 11
-420.5231155375067
 21
263.5811160254145
 31
0.0
  0
LINE
  5
4BF
330
1F
100
AcDbEntity
  8
LAYER-033
  6
Continuous
 62
     4
100
AcDbLine
 10
-421.3462389831788
 20
269.3539869393924
 30
0.0
 11
-420.5231155375067
 21
268.5308634937203
 31
0.0
  0
LINE
  5
4C0
330
1F
100
AcDbEntity
  8
LAYER-033
  6
Continuous
 62
     4
100
AcDbLine
 10
-359.4042251697349
 20
264.4042394710865
 30
0.0
 11
-354.454477701429
 21
269.3539869393924
 31
0.0
  0
LINE
  5
4C1
330
1F
100
AcDbEntity
  8
LAYER-033
  6
Continuous
 62
     4
100
AcDbLine
 10
-359.4042251697349
 20
259.4544920027806
 30
0.0
 11
-349.5047302331232
 21
269.3539869393924
 31
0.0
  0
LINE
  5
4C2
330
1F
100
AcDbEntity
  8
LAYER-033
  6
Continuous
 62
     4
100
AcDbLine
 10
-359.4042251697349
 20
254.5047445344748
 30
0.0
 11
-349.432531925314
 21
264.4764377788956
 31
0.0
  0
LINE
  5
4C3
330
1F
100
AcDbEntity
  8
LAYER-033
  6
Continuous
 62
     4
100
AcDbLine
 10
-359.4042251697349
 20
249.5549970661689
 30
0.0
 11
-349.432531925314
 21
259.5266903105897
 31
0.0
  0
LINE
  5
4C4
330
1F
100
AcDbEntity
  8
LAYER-033
  6
Continuous
 62
     4
100
AcDbLine
 10
-359.4042251697349
 20
244.605249597863
 30
0.0
 11
-349.432531925314
 21
254.5769428422839
 31
0.0
  0
LINE
  5
4C5
330
1F
100
AcDbEntity
  8
LAYER-033
  6
Continuous
 62
     4
100
AcDbLine
 10
-359.4042251697349
 20
239.6555021295572
 30
0.0
 11
-349.432531925314
 21
249.627195373978
 31
0.0
  0
LINE
  5
4C6
330
1F
100
AcDbEntity
  8
LAYER-033
  6
Continuous
 62
     4
100
AcDbLine
 10
-359.4042251697349
 20
234.7057546612513
 30
0.0
 11
-349.432531925314
 21
244.6774479056722
 31
0.0
  0
LINE
  5
4C7
330
1F
100
AcDbEntity
  8
LAYER-033
  6
Continuous
 62
     4
100
AcDbLine
 10
-359.4042251697349
 20
229.7560071929455
 30
0.0
 11
-349.432531925314
 21
239.7277004373663
 31
0.0
  0
LINE
  5
4C8
330
1F
100
AcDbEntity
  8
LAYER-033
  6
Continuous
 62
     4
100
AcDbLine
 10
-359.4042251697349
 20
224.8062597246396
 30
0.0
 11
-349.432531925314
 21
234.7779529690605
 31
0.0
  0
LINE
  5
4C9
330
1F
100
AcDbEntity
  8
LAYER-033
  6
Continuous
 62
     4
100
AcDbLine
 10
-359.4042251697349
 20
219.8565122563338
 30
0.0
 11
-349.432531925314
 21
229.8282055007547
 31
0.0
  0
LINE
  5
4CA
330
1F
100
AcDbEntity
  8
LAYER-033
  6
Continuous
 62
     4
100
AcDbLine
 10
-359.4042251697349
 20
214.9067647880279
 30
0.0
 11
-349.432531925314
 21
224.8784580324488
 31
0.0
  0
LINE
  5
4CB
330
1F
100
AcDbEntity
  8
LAYER-033
  6
Continuous
 62
     4
100
AcDbLine
 10
-355.2054028393224
 20
214.1558396501346
 30
0.0
 11
-349.432531925314
 21
219.928710564143
 31
0.0
  0
LINE
  5
4CC
330
1F
100
AcDbEntity
  8
LAYER-033
  6
Continuous
 62
     4
100
AcDbLine
 10
-350.2556553710165
 20
214.1558396501346
 30
0.0
 11
-349.432531925314
 21
214.9789630958371
 31
0.0
  0
LINE
  5
4CD
330
1F
100
AcDbEntity
  8
LAYER-033
  6
Continuous
 62
     4
100
AcDbLine
 10
-359.4042251697349
 20
219.1055871184405
 30
0.0
 11
-354.454477701429
 21
214.1558396501346
 31
0.0
  0
LINE
  5
4CE
330
1F
100
AcDbEntity
  8
LAYER-033
  6
Continuous
 62
     4
100
AcDbLine
 10
-359.4042251697349
 20
224.0553345867463
 30
0.0
 11
-349.5047302331232
 21
214.1558396501346
 31
0.0
  0
LINE
  5
4CF
330
1F
100
AcDbEntity
  8
LAYER-033
  6
Continuous
 62
     4
100
AcDbLine
 10
-359.4042251697349
 20
229.0050820550522
 30
0.0
 11
-349.432531925314
 21
219.0333888106313
 31
0.0
  0
LINE
  5
4D0
330
1F
100
AcDbEntity
  8
LAYER-033
  6
Continuous
 62
     4
100
AcDbLine
 10
-359.4042251697349
 20
233.954829523358
 30
0.0
 11
-349.432531925314
 21
223.9831362789371
 31
0.0
  0
LINE
  5
4D1
330
1F
100
AcDbEntity
  8
LAYER-033
  6
Continuous
 62
     4
100
AcDbLine
 10
-359.4042251697349
 20
238.9045769916638
 30
0.0
 11
-349.432531925314
 21
228.9328837472467
 31
0.0
  0
LINE
  5
4D2
330
1F
100
AcDbEntity
  8
LAYER-033
  6
Continuous
 62
     4
100
AcDbLine
 10
-359.4042251697349
 20
243.85432446
 30
0.0
 11
-349.432531925314
 21
233.8826312155488
 31
0.0
  0
LINE
  5
4D3
330
1F
100
AcDbEntity
  8
LAYER-033
  6
Continuous
 62
     4
100
AcDbLine
 10
-359.4042251697349
 20
248.8040719282755
 30
0.0
 11
-349.432531925314
 21
238.8323786838547
 31
0.0
  0
LINE
  5
4D4
330
1F
100
AcDbEntity
  8
LAYER-033
  6
Continuous
 62
     4
100
AcDbLine
 10
-359.4042251697349
 20
253.7538193965814
 30
0.0
 11
-349.432531925314
 21
243.7821261521605
 31
0.0
  0
LINE
  5
4D5
330
1F
100
AcDbEntity
  8
LAYER-033
  6
Continuous
 62
     4
100
AcDbLine
 10
-359.4042251697349
 20
258.7035668648872
 30
0.0
 11
-349.432531925314
 21
248.7318736204664
 31
0.0
  0
LINE
  5
4D6
330
1F
100
AcDbEntity
  8
LAYER-033
  6
Continuous
 62
     4
100
AcDbLine
 10
-359.4042251697349
 20
263.6533143331931
 30
0.0
 11
-349.432531925314
 21
253.6816210887722
 31
0.0
  0
LINE
  5
4D7
330
1F
100
AcDbEntity
  8
LAYER-033
  6
Continuous
 62
     4
100
AcDbLine
 10
-359.4042251697349
 20
268.6030618014989
 30
0.0
 11
-349.432531925314
 21
258.631368557078
 31
0.0
  0
LINE
  5
4D8
330
1F
100
AcDbEntity
  8
LAYER-033
  6
Continuous
 62
     4
100
AcDbLine
 10
-355.2054028392921
 20
269.3539869393924
 30
0.0
 11
-349.432531925314
 21
263.5811160254144
 31
0.0
  0
LINE
  5
4D9
330
1F
100
AcDbEntity
  8
LAYER-033
  6
Continuous
 62
     4
100
AcDbLine
 10
-350.2556553709862
 20
269.3539869393924
 30
0.0
 11
-349.432531925314
 21
268.5308634937202
 31
0.0
  0
LINE
  5
4DA
330
1F
100
AcDbEntity
  8
LAYER-033
  6
Continuous
 62
     4
100
AcDbLine
 10
-288.3136415575418
 20
264.4042394710865
 30
0.0
 11
-283.3638940892359
 21
269.3539869393924
 31
0.0
  0
LINE
  5
4DB
330
1F
100
AcDbEntity
  8
LAYER-033
  6
Continuous
 62
     4
100
AcDbLine
 10
-288.3136415575418
 20
259.4544920027806
 30
0.0
 11
-278.4141466209301
 21
269.3539869393924
 31
0.0
  0
LINE
  5
4DC
330
1F
100
AcDbEntity
  8
LAYER-033
  6
Continuous
 62
     4
100
AcDbLine
 10
-288.3136415575418
 20
254.5047445344748
 30
0.0
 11
-278.3419483131213
 21
264.4764377788953
 31
0.0
  0
LINE
  5
4DD
330
1F
100
AcDbEntity
  8
LAYER-033
  6
Continuous
 62
     4
100
AcDbLine
 10
-288.3136415575418
 20
249.5549970661689
 30
0.0
 11
-278.3419483131213
 21
259.5266903105894
 31
0.0
  0
LINE
  5
4DE
330
1F
100
AcDbEntity
  8
LAYER-033
  6
Continuous
 62
     4
100
AcDbLine
 10
-288.3136415575418
 20
244.605249597863
 30
0.0
 11
-278.3419483131213
 21
254.5769428422835
 31
0.0
  0
LINE
  5
4DF
330
1F
100
AcDbEntity
  8
LAYER-033
  6
Continuous
 62
     4
100
AcDbLine
 10
-288.3136415575418
 20
239.6555021295572
 30
0.0
 11
-278.3419483131213
 21
249.6271953739777
 31
0.0
  0
LINE
  5
4E0
330
1F
100
AcDbEntity
  8
LAYER-033
  6
Continuous
 62
     4
100
AcDbLine
 10
-288.3136415575418
 20
234.7057546612513
 30
0.0
 11
-278.3419483131213
 21
244.6774479056718
 31
0.0
  0
LINE
  5
4E1
330
1F
100
AcDbEntity
  8
LAYER-033
  6
Continuous
 62
     4
100
AcDbLine
 10
-288.3136415575418
 20
229.7560071929455
 30
0.0
 11
-278.3419483131213
 21
239.727700437366
 31
0.0
  0
LINE
  5
4E2
330
1F
100
AcDbEntity
  8
LAYER-033
  6
Continuous
 62
     4
100
AcDbLine
 10
-288.3136415575418
 20
224.8062597246396
 30
0.0
 11
-278.3419483131213
 21
234.7779529690602
 31
0.0
  0
LINE
  5
4E3
330
1F
100
AcDbEntity
  8
LAYER-033
  6
Continuous
 62
     4
100
AcDbLine
 10
-288.3136415575418
 20
219.8565122563338
 30
0.0
 11
-278.3419483131213
 21
229.8282055007543
 31
0.0
  0
LINE
  5
4E4
330
1F
100
AcDbEntity
  8
LAYER-033
  6
Continuous
 62
     4
100
AcDbLine
 10
-288.3136415575418
 20
214.9067647880279
 30
0.0
 11
-278.3419483131213
 21
224.8784580324485
 31
0.0
  0
LINE
  5
4E5
330
1F
100
AcDbEntity
  8
LAYER-033
  6
Continuous
 62
     4
100
AcDbLine
 10
-284.1148192271293
 20
214.1558396501346
 30
0.0
 11
-278.3419483131213
 21
219.9287105641426
 31
0.0
  0
LINE
  5
4E6
330
1F
100
AcDbEntity
  8
LAYER-033
  6
Continuous
 62
     4
100
AcDbLine
 10
-279.1650717588234
 20
214.1558396501346
 30
0.0
 11
-278.3419483131213
 21
214.9789630958368
 31
0.0
  0
LINE
  5
4E7
330
1F
100
AcDbEntity
  8
LAYER-033
  6
Continuous
 62
     4
100
AcDbLine
 10
-288.3136415575418
 20
219.1055871184405
 30
0.0
 11
-283.3638940892359
 21
214.1558396501346
 31
0.0
  0
LINE
  5
4E8
330
1F
100
AcDbEntity
  8
LAYER-033
  6
Continuous
 62
     4
100
AcDbLine
 10
-288.3136415575418
 20
224.0553345867463
 30
0.0
 11
-278.4141466209301
 21
214.1558396501346
 31
0.0
  0
LINE
  5
4E9
330
1F
100
AcDbEntity
  8
LAYER-033
  6
Continuous
 62
     4
100
AcDbLine
 10
-288.3136415575418
 20
229.0050820550522
 30
0.0
 11
-278.3419483131213
 21
219.0333888106316
 31
0.0
  0
LINE
  5
4EA
330
1F
100
AcDbEntity
  8
LAYER-033
  6
Continuous
 62
     4
100
AcDbLine
 10
-288.3136415575418
 20
233.954829523358
 30
0.0
 11
-278.3419483131213
 21
223.9831362789375
 31
0.0
  0
LINE
  5
4EB
330
1F
100
AcDbEntity
  8
LAYER-033
  6
Continuous
 62
     4
100
AcDbLine
 10
-288.3136415575418
 20
238.9045769916638
 30
0.0
 11
-278.3419483131213
 21
228.9328837472467
 31
0.0
  0
LINE
  5
4EC
330
1F
100
AcDbEntity
  8
LAYER-033
  6
Continuous
 62
     4
100
AcDbLine
 10
-288.3136415575418
 20
243.85432446
 30
0.0
 11
-278.3419483131213
 21
233.8826312155492
 31
0.0
  0
LINE
  5
4ED
330
1F
100
AcDbEntity
  8
LAYER-033
  6
Continuous
 62
     4
100
AcDbLine
 10
-288.3136415575418
 20
248.8040719282755
 30
0.0
 11
-278.3419483131213
 21
238.832378683855
 31
0.0
  0
LINE
  5
4EE
330
1F
100
AcDbEntity
  8
LAYER-033
  6
Continuous
 62
     4
100
AcDbLine
 10
-288.3136415575418
 20
253.7538193965814
 30
0.0
 11
-278.3419483131213
 21
243.7821261521609
 31
0.0
  0
LINE
  5
4EF
330
1F
100
AcDbEntity
  8
LAYER-033
  6
Continuous
 62
     4
100
AcDbLine
 10
-288.3136415575418
 20
258.7035668648872
 30
0.0
 11
-278.3419483131213
 21
248.7318736204667
 31
0.0
  0
LINE
  5
4F0
330
1F
100
AcDbEntity
  8
LAYER-033
  6
Continuous
 62
     4
100
AcDbLine
 10
-288.3136415575418
 20
263.6533143331931
 30
0.0
 11
-278.3419483131213
 21
253.6816210887725
 31
0.0
  0
LINE
  5
4F1
330
1F
100
AcDbEntity
  8
LAYER-033
  6
Continuous
 62
     4
100
AcDbLine
 10
-288.3136415575418
 20
268.6030618014989
 30
0.0
 11
-278.3419483131213
 21
258.6313685570784
 31
0.0
  0
LINE
  5
4F2
330
1F
100
AcDbEntity
  8
LAYER-033
  6
Continuous
 62
     4
100
AcDbLine
 10
-284.114819227099
 20
269.3539869393924
 30
0.0
 11
-278.3419483131213
 21
263.5811160254147
 31
0.0
  0
LINE
  5
4F3
330
1F
100
AcDbEntity
  8
LAYER-033
  6
Continuous
 62
     4
100
AcDbLine
 10
-279.1650717587932
 20
269.3539869393924
 30
0.0
 11
-278.3419483131213
 21
268.5308634937205
 31
0.0
  0
LINE
  5
4F4
330
1F
100
AcDbEntity
  8
LAYER-033
  6
Continuous
 62
     4
100
AcDbLine
 10
-217.2230579453492
 20
264.4042394710865
 30
0.0
 11
-212.2733104770434
 21
269.3539869393924
 31
0.0
  0
LINE
  5
4F5
330
1F
100
AcDbEntity
  8
LAYER-033
  6
Continuous
 62
     4
100
AcDbLine
 10
-217.2230579453492
 20
259.4544920027807
 30
0.0
 11
-207.3235630087375
 21
269.3539869393924
 31
0.0
  0
LINE
  5
4F6
330
1F
100
AcDbEntity
  8
LAYER-033
  6
Continuous
 62
     4
100
AcDbLine
 10
-217.2230579453492
 20
254.5047445344748
 30
0.0
 11
-207.2513647009286
 21
264.4764377788954
 31
0.0
  0
LINE
  5
4F7
330
1F
100
AcDbEntity
  8
LAYER-033
  6
Continuous
 62
     4
100
AcDbLine
 10
-217.2230579453492
 20
249.554997066169
 30
0.0
 11
-207.2513647009286
 21
259.5266903105896
 31
0.0
  0
LINE
  5
4F8
330
1F
100
AcDbEntity
  8
LAYER-033
  6
Continuous
 62
     4
100
AcDbLine
 10
-217.2230579453492
 20
244.6052495978632
 30
0.0
 11
-207.2513647009286
 21
254.5769428422838
 31
0.0
  0
LINE
  5
4F9
330
1F
100
AcDbEntity
  8
LAYER-033
  6
Continuous
 62
     4
100
AcDbLine
 10
-217.2230579453492
 20
239.6555021295573
 30
0.0
 11
-207.2513647009286
 21
249.6271953739779
 31
0.0
  0
LINE
  5
4FA
330
1F
100
AcDbEntity
  8
LAYER-033
  6
Continuous
 62
     4
100
AcDbLine
 10
-217.2230579453492
 20
234.7057546612515
 30
0.0
 11
-207.2513647009286
 21
244.6774479056721
 31
0.0
  0
LINE
  5
4FB
330
1F
100
AcDbEntity
  8
LAYER-033
  6
Continuous
 62
     4
100
AcDbLine
 10
-217.2230579453492
 20
229.7560071929457
 30
0.0
 11
-207.2513647009286
 21
239.7277004373663
 31
0.0
  0
LINE
  5
4FC
330
1F
100
AcDbEntity
  8
LAYER-033
  6
Continuous
 62
     4
100
AcDbLine
 10
-217.2230579453492
 20
224.8062597246399
 30
0.0
 11
-207.2513647009286
 21
234.7779529690605
 31
0.0
  0
LINE
  5
4FD
330
1F
100
AcDbEntity
  8
LAYER-033
  6
Continuous
 62
     4
100
AcDbLine
 10
-217.2230579453492
 20
219.8565122563341
 30
0.0
 11
-207.2513647009286
 21
229.8282055007547
 31
0.0
  0
LINE
  5
4FE
330
1F
100
AcDbEntity
  8
LAYER-033
  6
Continuous
 62
     4
100
AcDbLine
 10
-217.2230579453492
 20
214.9067647880283
 30
0.0
 11
-207.2513647009286
 21
224.8784580324489
 31
0.0
  0
LINE
  5
4FF
330
1F
100
AcDbEntity
  8
LAYER-033
  6
Continuous
 62
     4
100
AcDbLine
 10
-213.024235614937
 20
214.1558396501346
 30
0.0
 11
-207.2513647009286
 21
219.9287105641431
 31
0.0
  0
LINE
  5
500
330
1F
100
AcDbEntity
  8
LAYER-033
  6
Continuous
 62
     4
100
AcDbLine
 10
-208.0744881466312
 20
214.1558396501346
 30
0.0
 11
-207.2513647009286
 21
214.9789630958372
 31
0.0
  0
LINE
  5
501
330
1F
100
AcDbEntity
  8
LAYER-033
  6
Continuous
 62
     4
100
AcDbLine
 10
-217.2230579453492
 20
219.1055871184404
 30
0.0
 11
-212.2733104770434
 21
214.1558396501346
 31
0.0
  0
LINE
  5
502
330
1F
100
AcDbEntity
  8
LAYER-033
  6
Continuous
 62
     4
100
AcDbLine
 10
-217.2230579453492
 20
224.0553345867463
 30
0.0
 11
-207.3235630087376
 21
214.1558396501346
 31
0.0
  0
LINE
  5
503
330
1F
100
AcDbEntity
  8
LAYER-033
  6
Continuous
 62
     4
100
AcDbLine
 10
-217.2230579453492
 20
229.0050820550521
 30
0.0
 11
-207.2513647009286
 21
219.0333888106315
 31
0.0
  0
LINE
  5
504
330
1F
100
AcDbEntity
  8
LAYER-033
  6
Continuous
 62
     4
100
AcDbLine
 10
-217.2230579453492
 20
233.9548295233579
 30
0.0
 11
-207.2513647009286
 21
223.9831362789373
 31
0.0
  0
LINE
  5
505
330
1F
100
AcDbEntity
  8
LAYER-033
  6
Continuous
 62
     4
100
AcDbLine
 10
-217.2230579453492
 20
238.9045769916637
 30
0.0
 11
-207.2513647009286
 21
228.9328837472467
 31
0.0
  0
LINE
  5
506
330
1F
100
AcDbEntity
  8
LAYER-033
  6
Continuous
 62
     4
100
AcDbLine
 10
-217.2230579453492
 20
243.85432446
 30
0.0
 11
-207.2513647009286
 21
233.8826312155489
 31
0.0
  0
LINE
  5
507
330
1F
100
AcDbEntity
  8
LAYER-033
  6
Continuous
 62
     4
100
AcDbLine
 10
-217.2230579453492
 20
248.8040719282753
 30
0.0
 11
-207.2513647009286
 21
238.8323786838547
 31
0.0
  0
LINE
  5
508
330
1F
100
AcDbEntity
  8
LAYER-033
  6
Continuous
 62
     4
100
AcDbLine
 10
-217.2230579453492
 20
253.7538193965812
 30
0.0
 11
-207.2513647009286
 21
243.7821261521605
 31
0.0
  0
LINE
  5
509
330
1F
100
AcDbEntity
  8
LAYER-033
  6
Continuous
 62
     4
100
AcDbLine
 10
-217.2230579453492
 20
258.703566864887
 30
0.0
 11
-207.2513647009286
 21
248.7318736204664
 31
0.0
  0
LINE
  5
50A
330
1F
100
AcDbEntity
  8
LAYER-033
  6
Continuous
 62
     4
100
AcDbLine
 10
-217.2230579453492
 20
263.6533143331928
 30
0.0
 11
-207.2513647009286
 21
253.6816210887722
 31
0.0
  0
LINE
  5
50B
330
1F
100
AcDbEntity
  8
LAYER-033
  6
Continuous
 62
     4
100
AcDbLine
 10
-217.2230579453492
 20
268.6030618014986
 30
0.0
 11
-207.2513647009286
 21
258.631368557078
 31
0.0
  0
LINE
  5
50C
330
1F
100
AcDbEntity
  8
LAYER-033
  6
Continuous
 62
     4
100
AcDbLine
 10
-213.0242356149067
 20
269.3539869393924
 30
0.0
 11
-207.2513647009286
 21
263.5811160254143
 31
0.0
  0
LINE
  5
50D
330
1F
100
AcDbEntity
  8
LAYER-033
  6
Continuous
 62
     4
100
AcDbLine
 10
-208.0744881466009
 20
269.3539869393924
 30
0.0
 11
-207.2513647009286
 21
268.5308634937201
 31
0.0
  0
LINE
  5
50E
330
1F
100
AcDbEntity
  8
LAYER-033
  6
Continuous
 62
     4
100
AcDbLine
 10
-146.1324743331564
 20
264.4042394710865
 30
0.0
 11
-141.1827268648506
 21
269.3539869393924
 31
0.0
  0
LINE
  5
50F
330
1F
100
AcDbEntity
  8
LAYER-033
  6
Continuous
 62
     4
100
AcDbLine
 10
-146.1324743331564
 20
259.4544920027807
 30
0.0
 11
-136.2329793965447
 21
269.3539869393924
 31
0.0
  0
LINE
  5
510
330
1F
100
AcDbEntity
  8
LAYER-033
  6
Continuous
 62
     4
100
AcDbLine
 10
-146.1324743331564
 20
254.5047445344748
 30
0.0
 11
-136.1607810887358
 21
264.4764377788954
 31
0.0
  0
LINE
  5
511
330
1F
100
AcDbEntity
  8
LAYER-033
  6
Continuous
 62
     4
100
AcDbLine
 10
-146.1324743331564
 20
249.554997066169
 30
0.0
 11
-136.1607810887358
 21
259.5266903105896
 31
0.0
  0
LINE
  5
512
330
1F
100
AcDbEntity
  8
LAYER-033
  6
Continuous
 62
     4
100
AcDbLine
 10
-146.1324743331564
 20
244.6052495978632
 30
0.0
 11
-136.1607810887358
 21
254.5769428422837
 31
0.0
  0
LINE
  5
513
330
1F
100
AcDbEntity
  8
LAYER-033
  6
Continuous
 62
     4
100
AcDbLine
 10
-146.1324743331564
 20
239.6555021295573
 30
0.0
 11
-136.1607810887358
 21
249.6271953739779
 31
0.0
  0
LINE
  5
514
330
1F
100
AcDbEntity
  8
LAYER-033
  6
Continuous
 62
     4
100
AcDbLine
 10
-146.1324743331564
 20
234.7057546612515
 30
0.0
 11
-136.1607810887358
 21
244.6774479056721
 31
0.0
  0
LINE
  5
515
330
1F
100
AcDbEntity
  8
LAYER-033
  6
Continuous
 62
     4
100
AcDbLine
 10
-146.1324743331564
 20
229.7560071929457
 30
0.0
 11
-136.1607810887358
 21
239.7277004373663
 31
0.0
  0
LINE
  5
516
330
1F
100
AcDbEntity
  8
LAYER-033
  6
Continuous
 62
     4
100
AcDbLine
 10
-146.1324743331564
 20
224.8062597246399
 30
0.0
 11
-136.1607810887358
 21
234.7779529690604
 31
0.0
  0
LINE
  5
517
330
1F
100
AcDbEntity
  8
LAYER-033
  6
Continuous
 62
     4
100
AcDbLine
 10
-146.1324743331564
 20
219.856512256334
 30
0.0
 11
-136.1607810887358
 21
229.8282055007546
 31
0.0
  0
LINE
  5
518
330
1F
100
AcDbEntity
  8
LAYER-033
  6
Continuous
 62
     4
100
AcDbLine
 10
-146.1324743331564
 20
214.9067647880282
 30
0.0
 11
-136.1607810887358
 21
224.8784580324488
 31
0.0
  0
LINE
  5
519
330
1F
100
AcDbEntity
  8
LAYER-033
  6
Continuous
 62
     4
100
AcDbLine
 10
-141.9336520027442
 20
214.1558396501346
 30
0.0
 11
-136.1607810887358
 21
219.928710564143
 31
0.0
  0
LINE
  5
51A
330
1F
100
AcDbEntity
  8
LAYER-033
  6
Continuous
 62
     4
100
AcDbLine
 10
-136.9839045344383
 20
214.1558396501346
 30
0.0
 11
-136.1607810887358
 21
214.9789630958371
 31
0.0
  0
LINE
  5
51B
330
1F
100
AcDbEntity
  8
LAYER-033
  6
Continuous
 62
     4
100
AcDbLine
 10
-146.1324743331564
 20
219.1055871184404
 30
0.0
 11
-141.1827268648506
 21
214.1558396501346
 31
0.0
  0
LINE
  5
51C
330
1F
100
AcDbEntity
  8
LAYER-033
  6
Continuous
 62
     4
100
AcDbLine
 10
-146.1324743331564
 20
224.0553345867463
 30
0.0
 11
-136.2329793965448
 21
214.1558396501346
 31
0.0
  0
LINE
  5
51D
330
1F
100
AcDbEntity
  8
LAYER-033
  6
Continuous
 62
     4
100
AcDbLine
 10
-146.1324743331564
 20
229.0050820550521
 30
0.0
 11
-136.1607810887358
 21
219.0333888106315
 31
0.0
  0
LINE
  5
51E
330
1F
100
AcDbEntity
  8
LAYER-033
  6
Continuous
 62
     4
100
AcDbLine
 10
-146.1324743331564
 20
233.9548295233579
 30
0.0
 11
-136.1607810887358
 21
223.9831362789373
 31
0.0
  0
LINE
  5
51F
330
1F
100
AcDbEntity
  8
LAYER-033
  6
Continuous
 62
     4
100
AcDbLine
 10
-146.1324743331564
 20
238.9045769916637
 30
0.0
 11
-136.1607810887358
 21
228.9328837472467
 31
0.0
  0
LINE
  5
520
330
1F
100
AcDbEntity
  8
LAYER-033
  6
Continuous
 62
     4
100
AcDbLine
 10
-146.1324743331564
 20
243.85432446
 30
0.0
 11
-136.1607810887358
 21
233.8826312155489
 31
0.0
  0
LINE
  5
521
330
1F
100
AcDbEntity
  8
LAYER-033
  6
Continuous
 62
     4
100
AcDbLine
 10
-146.1324743331564
 20
248.8040719282753
 30
0.0
 11
-136.1607810887358
 21
238.8323786838548
 31
0.0
  0
LINE
  5
522
330
1F
100
AcDbEntity
  8
LAYER-033
  6
Continuous
 62
     4
100
AcDbLine
 10
-146.1324743331564
 20
253.7538193965812
 30
0.0
 11
-136.1607810887358
 21
243.7821261521606
 31
0.0
  0
LINE
  5
523
330
1F
100
AcDbEntity
  8
LAYER-033
  6
Continuous
 62
     4
100
AcDbLine
 10
-146.1324743331564
 20
258.703566864887
 30
0.0
 11
-136.1607810887358
 21
248.7318736204664
 31
0.0
  0
LINE
  5
524
330
1F
100
AcDbEntity
  8
LAYER-033
  6
Continuous
 62
     4
100
AcDbLine
 10
-146.1324743331564
 20
263.6533143331928
 30
0.0
 11
-136.1607810887358
 21
253.6816210887722
 31
0.0
  0
LINE
  5
525
330
1F
100
AcDbEntity
  8
LAYER-033
  6
Continuous
 62
     4
100
AcDbLine
 10
-146.1324743331564
 20
268.6030618014987
 30
0.0
 11
-136.1607810887358
 21
258.6313685570781
 31
0.0
  0
LINE
  5
526
330
1F
100
AcDbEntity
  8
LAYER-033
  6
Continuous
 62
     4
100
AcDbLine
 10
-141.9336520027138
 20
269.3539869393924
 30
0.0
 11
-136.1607810887358
 21
263.5811160254144
 31
0.0
  0
LINE
  5
527
330
1F
100
AcDbEntity
  8
LAYER-033
  6
Continuous
 62
     4
100
AcDbLine
 10
-136.983904534408
 20
269.3539869393924
 30
0.0
 11
-136.1607810887358
 21
268.5308634937202
 31
0.0
  0
LINE
  5
528
330
1F
100
AcDbEntity
  8
LAYER-033
  6
Continuous
 62
     4
100
AcDbLine
 10
-75.04189072096395
 20
264.4042394710865
 30
0.0
 11
-70.09214325265809
 21
269.3539869393924
 31
0.0
  0
LINE
  5
529
330
1F
100
AcDbEntity
  8
LAYER-033
  6
Continuous
 62
     4
100
AcDbLine
 10
-75.04189072096395
 20
259.4544920027806
 30
0.0
 11
-65.14239578435223
 21
269.3539869393924
 31
0.0
  0
LINE
  5
52A
330
1F
100
AcDbEntity
  8
LAYER-033
  6
Continuous
 62
     4
100
AcDbLine
 10
-75.04189072096395
 20
254.5047445344748
 30
0.0
 11
-65.07019747654306
 21
264.4764377788957
 31
0.0
  0
LINE
  5
52B
330
1F
100
AcDbEntity
  8
LAYER-033
  6
Continuous
 62
     4
100
AcDbLine
 10
-75.04189072096395
 20
249.5549970661689
 30
0.0
 11
-65.07019747654306
 21
259.5266903105899
 31
0.0
  0
LINE
  5
52C
330
1F
100
AcDbEntity
  8
LAYER-033
  6
Continuous
 62
     4
100
AcDbLine
 10
-75.04189072096395
 20
244.6052495978631
 30
0.0
 11
-65.07019747654306
 21
254.576942842284
 31
0.0
  0
LINE
  5
52D
330
1F
100
AcDbEntity
  8
LAYER-033
  6
Continuous
 62
     4
100
AcDbLine
 10
-75.04189072096395
 20
239.6555021295573
 30
0.0
 11
-65.07019747654306
 21
249.6271953739782
 31
0.0
  0
LINE
  5
52E
330
1F
100
AcDbEntity
  8
LAYER-033
  6
Continuous
 62
     4
100
AcDbLine
 10
-75.04189072096395
 20
234.7057546612514
 30
0.0
 11
-65.07019747654306
 21
244.6774479056723
 31
0.0
  0
LINE
  5
52F
330
1F
100
AcDbEntity
  8
LAYER-033
  6
Continuous
 62
     4
100
AcDbLine
 10
-75.04189072096395
 20
229.7560071929456
 30
0.0
 11
-65.07019747654306
 21
239.7277004373665
 31
0.0
  0
LINE
  5
530
330
1F
100
AcDbEntity
  8
LAYER-033
  6
Continuous
 62
     4
100
AcDbLine
 10
-75.04189072096395
 20
224.8062597246398
 30
0.0
 11
-65.07019747654306
 21
234.7779529690607
 31
0.0
  0
LINE
  5
531
330
1F
100
AcDbEntity
  8
LAYER-033
  6
Continuous
 62
     4
100
AcDbLine
 10
-75.04189072096395
 20
219.856512256334
 30
0.0
 11
-65.07019747654306
 21
229.8282055007549
 31
0.0
  0
LINE
  5
532
330
1F
100
AcDbEntity
  8
LAYER-033
  6
Continuous
 62
     4
100
AcDbLine
 10
-75.04189072096395
 20
214.9067647880282
 30
0.0
 11
-65.07019747654306
 21
224.878458032449
 31
0.0
  0
LINE
  5
533
330
1F
100
AcDbEntity
  8
LAYER-033
  6
Continuous
 62
     4
100
AcDbLine
 10
-70.84306839055165
 20
214.1558396501346
 30
0.0
 11
-65.07019747654306
 21
219.9287105641432
 31
0.0
  0
LINE
  5
534
330
1F
100
AcDbEntity
  8
LAYER-033
  6
Continuous
 62
     4
100
AcDbLine
 10
-65.89332092224583
 20
214.1558396501346
 30
0.0
 11
-65.07019747654306
 21
214.9789630958374
 31
0.0
  0
LINE
  5
535
330
1F
100
AcDbEntity
  8
LAYER-033
  6
Continuous
 62
     4
100
AcDbLine
 10
-75.04189072096395
 20
219.1055871184404
 30
0.0
 11
-70.09214325265812
 21
214.1558396501346
 31
0.0
  0
LINE
  5
536
330
1F
100
AcDbEntity
  8
LAYER-033
  6
Continuous
 62
     4
100
AcDbLine
 10
-75.04189072096395
 20
224.0553345867463
 30
0.0
 11
-65.14239578435229
 21
214.1558396501346
 31
0.0
  0
LINE
  5
537
330
1F
100
AcDbEntity
  8
LAYER-033
  6
Continuous
 62
     4
100
AcDbLine
 10
-75.04189072096395
 20
229.0050820550521
 30
0.0
 11
-65.07019747654306
 21
219.0333888106312
 31
0.0
  0
LINE
  5
538
330
1F
100
AcDbEntity
  8
LAYER-033
  6
Continuous
 62
     4
100
AcDbLine
 10
-75.04189072096395
 20
233.9548295233579
 30
0.0
 11
-65.07019747654306
 21
223.9831362789371
 31
0.0
  0
LINE
  5
539
330
1F
100
AcDbEntity
  8
LAYER-033
  6
Continuous
 62
     4
100
AcDbLine
 10
-75.04189072096395
 20
238.9045769916638
 30
0.0
 11
-65.07019747654306
 21
228.9328837472467
 31
0.0
  0
LINE
  5
53A
330
1F
100
AcDbEntity
  8
LAYER-033
  6
Continuous
 62
     4
100
AcDbLine
 10
-75.04189072096395
 20
243.85432446
 30
0.0
 11
-65.07019747654306
 21
233.8826312155487
 31
0.0
  0
LINE
  5
53B
330
1F
100
AcDbEntity
  8
LAYER-033
  6
Continuous
 62
     4
100
AcDbLine
 10
-75.04189072096395
 20
248.8040719282754
 30
0.0
 11
-65.07019747654306
 21
238.8323786838545
 31
0.0
  0
LINE
  5
53C
330
1F
100
AcDbEntity
  8
LAYER-033
  6
Continuous
 62
     4
100
AcDbLine
 10
-75.04189072096395
 20
253.7538193965812
 30
0.0
 11
-65.07019747654306
 21
243.7821261521603
 31
0.0
  0
LINE
  5
53D
330
1F
100
AcDbEntity
  8
LAYER-033
  6
Continuous
 62
     4
100
AcDbLine
 10
-75.04189072096395
 20
258.7035668648871
 30
0.0
 11
-65.07019747654306
 21
248.7318736204662
 31
0.0
  0
LINE
  5
53E
330
1F
100
AcDbEntity
  8
LAYER-033
  6
Continuous
 62
     4
100
AcDbLine
 10
-75.04189072096395
 20
263.6533143331929
 30
0.0
 11
-65.07019747654306
 21
253.681621088772
 31
0.0
  0
LINE
  5
53F
330
1F
100
AcDbEntity
  8
LAYER-033
  6
Continuous
 62
     4
100
AcDbLine
 10
-75.04189072096395
 20
268.6030618014987
 30
0.0
 11
-65.07019747654306
 21
258.6313685570778
 31
0.0
  0
LINE
  5
540
330
1F
100
AcDbEntity
  8
LAYER-033
  6
Continuous
 62
     4
100
AcDbLine
 10
-70.84306839052132
 20
269.3539869393924
 30
0.0
 11
-65.07019747654306
 21
263.5811160254141
 31
0.0
  0
LINE
  5
541
330
1F
100
AcDbEntity
  8
LAYER-033
  6
Continuous
 62
     4
100
AcDbLine
 10
-65.89332092221551
 20
269.3539869393924
 30
0.0
 11
-65.07019747654306
 21
268.53086349372
 31
0.0
  0
TEXT
  5
542
330
1F
100
AcDbEntity
  8
LAYER-033
  6
Continuous
 62
     7
100
AcDbText
 10
-78.59006319201528
 20
-329.8597434338237
 30
0.0
 40
4.0
  1
２００／２２０Ｖ　５０／６０Ｈｚ　　１５０ｋＷ
  7
STRING_H
 11
-78.59006319201528
 21
-327.8597434338237
 31
0.0
100
AcDbText
 73
     2
  0
TEXT
  5
543
330
1F
100
AcDbEntity
  8
LAYER-033
  6
Continuous
 62
     7
100
AcDbText
 10
-78.59006319201528
 20
-337.9451935347909
 30
0.0
 40
4.0
  1
質　　量　１８５㎏
  7
STRING_H
 11
-78.59006319201528
 21
-335.9451935347909
 31
0.0
100
AcDbText
 73
     2
  0
TEXT
  5
544
330
1F
100
AcDbEntity
  8
LAYER-033
  6
Continuous
 62
     7
100
AcDbText
 10
-78.59006319201528
 20
-321.7742933325193
 30
0.0
 40
4.0
  1
ＫＲ－１Ｐ(低　圧)
  7
STRING_H
 11
-78.59006319201528
 21
-319.7742933325193
 31
0.0
100
AcDbText
 73
     2
  0
TEXT
  5
545
330
1F
100
AcDbEntity
  8
LAYER-008
  6
Continuous
 62
     4
100
AcDbText
 10
-270.1296774395233
 20
-140.5466673167461
 30
0.0
 40
2.0
  1
Ｕ
  7
STRING_H
 72
     1
 11
-268.6796774395233
 21
-140.5466673167461
 31
0.0
100
AcDbText
 73
     1
  0
TEXT
  5
546
330
1F
100
AcDbEntity
  8
LAYER-008
  6
Continuous
 62
     4
100
AcDbText
 10
-254.1296784395232
 20
-140.5466673167461
 30
0.0
 40
2.0
  1
Ｖ
  7
STRING_H
 72
     1
 11
-252.6796784395232
 21
-140.5466673167461
 31
0.0
100
AcDbText
 73
     1
  0
TEXT
  5
547
330
1F
100
AcDbEntity
  8
LAYER-008
  6
Continuous
 62
     4
100
AcDbText
 10
-238.1296774395233
 20
-140.5466673167461
 30
0.0
 40
2.0
  1
Ｗ
  7
STRING_H
 72
     1
 11
-236.6796774395233
 21
-140.5466673167461
 31
0.0
100
AcDbText
 73
     1
  0
TEXT
  5
548
330
1F
100
AcDbEntity
  8
LAYER-008
  6
Continuous
 62
     4
100
AcDbText
 10
-262.1296774395233
 20
-140.646666317
 30
0.0
 40
2.0
  1
Ｒ
  7
STRING_H
 72
     1
 11
-260.6796774395233
 21
-140.646666317
 31
0.0
100
AcDbText
 73
     1
  0
TEXT
  5
549
330
1F
100
AcDbEntity
  8
LAYER-008
  6
Continuous
 62
     4
100
AcDbText
 10
-246.1296774395233
 20
-140.646666317
 30
0.0
 40
2.0
  1
Ｓ
  7
STRING_H
 72
     1
 11
-244.6796774395233
 21
-140.646666317
 31
0.0
100
AcDbText
 73
     1
  0
TEXT
  5
54A
330
1F
100
AcDbEntity
  8
LAYER-008
  6
Continuous
 62
     4
100
AcDbText
 10
-230.1296764395233
 20
-140.646666317
 30
0.0
 40
2.0
  1
Ｔ
  7
STRING_H
 72
     1
 11
-228.6796764395233
 21
-140.646666317
 31
0.0
100
AcDbText
 73
     1
  0
DIMENSION
  5
55A
330
1F
100
AcDbEntity
  8
LAYER-035
  6
Continuous
 62
     5
100
AcDbDimension
  2
*D02
 10
-534.0823741797979
 20
-130.8441603498654
 30
0.0
 11
-534.0823741797979
 21
104.1558396501346
 31
0.0
 70
   128
  1
<>
 71
     0
 42
0.0
  3
DIO_DIMSTYLE
100
AcDbAlignedDimension
 13
-475.367438353513
 23
339.1558396501346
 33
0.0
 14
-506.2796774395232
 24
-130.8441603498654
 34
0.0
 50
90.0
100
AcDbRotatedDimension
1001
ACAD
1000
DSTYLE
1002
{
1070
    41
1040
4.0
1070
    44
1040
1.0
1070
    42
1040
1.0
1070
     6
1000
_OPEN
1070
     7
1000
_OPEN
1070
   173
1070
     1
1070
   140
1040
4.0
1070
   178
1070
     5
1070
   147
1040
0.5
1002
}
  0
DIMENSION
  5
564
330
1F
100
AcDbEntity
  8
LAYER-035
  6
Continuous
 62
     5
100
AcDbDimension
  2
*D13
 10
-443.7796774395232
 20
-184.0159787009297
 30
0.0
 11
-248.7796774395232
 21
-184.0159787009297
 31
0.0
 70
   129
  1
<>
 71
     0
 42
0.0
  3
DIO_DIMSTYLE
100
AcDbAlignedDimension
 13
-53.7796774395232
 23
-113.5647701333427
 33
0.0
 14
-443.7796774395232
 24
-113.5647701333427
 34
0.0
1001
ACAD
1000
DSTYLE
1002
{
1070
    41
1040
4.0
1070
    44
1040
1.0
1070
    42
1040
1.0
1070
     6
1000
_OPEN
1070
     7
1000
_OPEN
1070
   173
1070
     1
1070
   140
1040
4.0
1070
   178
1070
     5
1070
   147
1040
0.5
1002
}
  0
DIMENSION
  5
56E
330
1F
100
AcDbEntity
  8
LAYER-035
  6
Continuous
 62
     5
100
AcDbDimension
  2
*D24
 10
-506.2796774395232
 20
-222.0672152169626
 30
0.0
 11
-248.7796774395232
 21
-222.0672152169626
 31
0.0
 70
   129
  1
<>
 71
     0
 42
0.0
  3
DIO_DIMSTYLE
100
AcDbAlignedDimension
 13
8.7203225604768
 23
-130.8441603498654
 33
0.0
 14
-506.2796774395232
 24
-130.8441603498654
 34
0.0
1001
ACAD
1000
DSTYLE
1002
{
1070
    41
1040
4.0
1070
    44
1040
1.0
1070
    42
1040
1.0
1070
     6
1000
_OPEN
1070
     7
1000
_OPEN
1070
   173
1070
     1
1070
   140
1040
4.0
1070
   178
1070
     5
1070
   147
1040
0.5
1002
}
  0
DIMENSION
  5
578
330
1F
100
AcDbEntity
  8
LAYER-035
  6
Continuous
 62
     5
100
AcDbDimension
  2
*D35
 10
443.8559875820905
 20
26.18960680969875
 30
0.0
 11
284.2345459129186
 21
26.18960680969875
 31
0.0
 70
   129
  1
<>
 71
     0
 42
0.0
  3
DIO_DIMSTYLE
100
AcDbAlignedDimension
 13
143.8559875820905
 23
112.9347857490315
 33
0.0
 14
443.8559875820905
 24
112.9347857490315
 34
0.0
1001
ACAD
1000
DSTYLE
1002
{
1070
    41
1040
4.0
1070
    44
1040
1.0
1070
    42
1040
1.0
1070
     6
1000
_OPEN
1070
     7
1000
_OPEN
1070
   173
1070
     1
1070
   140
1040
4.0
1070
   178
1070
     5
1070
   147
1040
0.5
1002
}
  0
DIMENSION
  5
582
330
1F
100
AcDbEntity
  8
LAYER-035
  6
Continuous
 62
     5
100
AcDbDimension
  2
*D46
 10
163.8559875479996
 20
-184.0159787009297
 30
0.0
 11
293.8559875479996
 21
-184.0159787009297
 31
0.0
 70
   129
  1
<>
 71
     0
 42
0.0
  3
DIO_DIMSTYLE
100
AcDbAlignedDimension
 13
423.8559875479996
 23
-137.933777417304
 33
0.0
 14
163.8559875479996
 24
-137.933777417304
 34
0.0
1001
ACAD
1000
DSTYLE
1002
{
1070
    41
1040
4.0
1070
    44
1040
1.0
1070
    42
1040
1.0
1070
     6
1000
_OPEN
1070
     7
1000
_OPEN
1070
   173
1070
     1
1070
   140
1040
4.0
1070
   178
1070
     5
1070
   147
1040
0.5
1002
}
  0
DIMENSION
  5
58C
330
1F
100
AcDbEntity
  8
LAYER-035
  6
Continuous
 62
     5
100
AcDbDimension
  2
*D57
 10
143.8559875820905
 20
-222.0672152169626
 30
0.0
 11
293.8559875820905
 21
-222.0672152169626
 31
0.0
 70
   129
  1
<>
 71
     0
 42
0.0
  3
DIO_DIMSTYLE
100
AcDbAlignedDimension
 13
443.8559875820905
 23
-130.8441603498654
 33
0.0
 14
143.8559875820905
 24
-130.8441603498654
 34
0.0
1001
ACAD
1000
DSTYLE
1002
{
1070
    41
1040
4.0
1070
    44
1040
1.0
1070
    42
1040
1.0
1070
     6
1000
_OPEN
1070
     7
1000
_OPEN
1070
   173
1070
     1
1070
   140
1040
4.0
1070
   178
1070
     5
1070
   147
1040
0.5
1002
}
  0
ENDSEC
  0
SECTION
  2
OBJECTS
  0
DICTIONARY
  5
C
330
0
100
AcDbDictionary
281
     1
  3
ACAD_GROUP
350
D
  3
ACAD_LAYOUT
350
1A
  3
ACAD_MLINESTYLE
350
17
  3
ACAD_PLOTSETTINGS
350
19
  3
ACAD_PLOTSTYLENAME
350
E
  0
DICTIONARY
  5
D
102
{ACAD_REACTORS
330
C
102
}
330
C
100
AcDbDictionary
281
     1
  0
DICTIONARY
  5
1A
102
{ACAD_REACTORS
330
C
102
}
330
C
100
AcDbDictionary
281
     1
  3
Model
350
22
  3
ﾚｲｱｳﾄ1
350
1E
  3
ﾚｲｱｳﾄ2
350
26
  0
DICTIONARY
  5
17
102
{ACAD_REACTORS
330
C
102
}
330
C
100
AcDbDictionary
281
     1
  3
Standard
350
18
  0
DICTIONARY
  5
19
102
{ACAD_REACTORS
330
C
102
}
330
C
100
AcDbDictionary
281
     1
  0
ACDBDICTIONARYWDFLT
  5
E
102
{ACAD_REACTORS
330
C
102
}
330
C
100
AcDbDictionary
281
     1
  3
Normal
350
F
100
AcDbDictionaryWithDefault
340
F
  0
LAYOUT
  5
22
102
{ACAD_REACTORS
330
1A
102
}
330
1A
100
AcDbPlotSettings
  1

  2
DWF ePlot.pc3
  4
ANSI_A_(8.50_x_11.00_Inches)
  6

 40
5.793749809265137
 41
17.79375076293945
 42
5.793746948242188
 43
17.79376220703125
 44
215.8999938964844
 45
279.3999938964844
 46
0.0
 47
0.0
 48
0.0
 49
0.0
140
0.0
141
0.0
142
1.0
143
39.26051453979704
 70
 11952
 72
     0
 73
     1
 74
     0
  7
acad.ctb
 75
     0
147
0.0254708837039396
148
-1793.922354682663
149
1.490346453088415
100
AcDbLayout
  1
Model
 70
     1
 71
     0
 10
-594.5
 20
-420.5
 11
594.5
 21
420.5
 12
0.0
 22
0.0
 32
0.0
 14
-594.5
 24
-420.5
 34
0.0
 15
594.5
 25
420.5
 35
0.0
146
0.0
 13
0.0
 23
0.0
 33
0.0
 16
1.0
 26
0.0
 36
0.0
 17
0.0
 27
1.0
 37
0.0
 76
     0
330
1F
  0
LAYOUT
  5
1E
102
{ACAD_REACTORS
330
1A
102
}
330
1A
100
AcDbPlotSettings
  1

  2
RICOH IPSiO NX700
  4

  6

 40
0.0
 41
0.0
 42
0.0
 43
0.0
 44
0.0
 45
0.0
 46
0.0
 47
0.0
 48
0.0
 49
0.0
140
0.0
141
0.0
142
1.0
143
1.0
 70
   688
 72
     0
 73
     0
 74
     5
  7
acad.ctb
 75
    16
147
1.0
148
0.0
149
0.0
100
AcDbLayout
  1
ﾚｲｱｳﾄ1
 70
     1
 71
     1
 10
-594.5
 20
-420.5
 11
594.5
 21
420.5
 12
0.0
 22
0.0
 32
0.0
 14
-594.5
 24
-420.5
 34
0.0
 15
594.5
 25
420.5
 35
0.0
146
0.0
 13
0.0
 23
0.0
 33
0.0
 16
1.0
 26
0.0
 36
0.0
 17
0.0
 27
1.0
 37
0.0
 76
     0
330
1B
  0
LAYOUT
  5
26
102
{ACAD_REACTORS
330
1A
102
}
330
1A
100
AcDbPlotSettings
  1

  2
RICOH IPSiO NX700
  4

  6

 40
0.0
 41
0.0
 42
0.0
 43
0.0
 44
0.0
 45
0.0
 46
0.0
 47
0.0
 48
0.0
 49
0.0
140
0.0
141
0.0
142
1.0
143
1.0
 70
   688
 72
     0
 73
     0
 74
     5
  7
acad.ctb
 75
    16
147
1.0
148
0.0
149
0.0
100
AcDbLayout
  1
ﾚｲｱｳﾄ2
 70
     1
 71
     2
 10
0.0
 20
0.0
 11
12.0
 21
9.0
 12
0.0
 22
0.0
 32
0.0
 14
0.0
 24
0.0
 34
0.0
 15
0.0
 25
0.0
 35
0.0
146
0.0
 13
0.0
 23
0.0
 33
0.0
 16
1.0
 26
0.0
 36
0.0
 17
0.0
 27
1.0
 37
0.0
 76
     0
330
23
  0
MLINESTYLE
  5
18
102
{ACAD_REACTORS
330
17
102
}
330
17
100
AcDbMlineStyle
  2
STANDARD
 70
     0
  3

 62
   256
 51
90.0
 52
90.0
 71
     2
 49
0.5
 62
   256
  6
BYLAYER
 49
-0.5
 62
   256
  6
BYLAYER
  0
ACDBPLACEHOLDER
  5
F
102
{ACAD_REACTORS
330
E
102
}
330
E
  0
ENDSEC
  0
EOF
