  0
SECTION
  2
HEADER
  9
$ACADVER
  1
AC1015
  9
$ACADMAINTVER
 70
     6
  9
$DWGCODEPAGE
  3
ANSI_932
  9
$INSBASE
 10
0.0
 20
0.0
 30
0.0
  9
$EXTMIN
 10
-594.5
 20
-420.5
 30
0.0
  9
$EXTMAX
 10
594.5
 20
420.5
 30
0.0
  9
$LIMMIN
 10
-594.5
 20
-420.5
  9
$LIMMAX
 10
594.5
 20
420.5
  9
$ORTHOMODE
 70
     0
  9
$REGENMODE
 70
     1
  9
$FILLMODE
 70
     1
  9
$QTEXTMODE
 70
     0
  9
$MIRRTEXT
 70
     1
  9
$LTSCALE
 40
4.0
  9
$ATTMODE
 70
     1
  9
$TEXTSIZE
 40
2.5
  9
$TRACEWID
 40
1.0
  9
$TEXTSTYLE
  7
Standard
  9
$CLAYER
  8
0
  9
$CELTYPE
  6
ByLayer
  9
$CECOLOR
 62
   256
  9
$CELTSCALE
 40
1.0
  9
$DISPSILH
 70
     0
  9
$DIMSCALE
 40
1.0
  9
$DIMASZ
 40
4.0
  9
$DIMEXO
 40
1.0
  9
$DIMDLI
 40
3.75
  9
$DIMRND
 40
0.1
  9
$DIMDLE
 40
0.0
  9
$DIMEXE
 40
1.0
  9
$DIMTP
 40
0.0
  9
$DIMTM
 40
0.0
  9
$DIMTXT
 40
2.5
  9
$DIMCEN
 40
2.5
  9
$DIMTSZ
 40
0.0
  9
$DIMTOL
 70
     0
  9
$DIMLIM
 70
     0
  9
$DIMTIH
 70
     0
  9
$DIMTOH
 70
     0
  9
$DIMSE1
 70
     0
  9
$DIMSE2
 70
     0
  9
$DIMTAD
 70
     1
  9
$DIMZIN
 70
     8
  9
$DIMBLK
  1

  9
$DIMASO
 70
     1
  9
$DIMSHO
 70
     1
  9
$DIMPOST
  1

  9
$DIMAPOST
  1

  9
$DIMALT
 70
     0
  9
$DIMALTD
 70
     3
  9
$DIMALTF
 40
0.03937007874016
  9
$DIMLFAC
 40
1.0
  9
$DIMTOFL
 70
     1
  9
$DIMTVP
 40
0.0
  9
$DIMTIX
 70
     0
  9
$DIMSOXD
 70
     0
  9
$DIMSAH
 70
     1
  9
$DIMBLK1
  1

  9
$DIMBLK2
  1

  9
$DIMSTYLE
  2
ISO-25
  9
$DIMCLRD
 70
     0
  9
$DIMCLRE
 70
     0
  9
$DIMCLRT
 70
     0
  9
$DIMTFAC
 40
1.0
  9
$DIMGAP
 40
0.5
  9
$DIMJUST
 70
     0
  9
$DIMSD1
 70
     0
  9
$DIMSD2
 70
     0
  9
$DIMTOLJ
 70
     0
  9
$DIMTZIN
 70
     8
  9
$DIMALTZ
 70
     0
  9
$DIMALTTZ
 70
     0
  9
$DIMUPT
 70
     1
  9
$DIMDEC
 70
     1
  9
$DIMTDEC
 70
     2
  9
$DIMALTU
 70
     2
  9
$DIMALTTD
 70
     3
  9
$DIMTXSTY
  7
Standard
  9
$DIMAUNIT
 70
     0
  9
$DIMADEC
 70
     1
  9
$DIMALTRND
 40
0.0
  9
$DIMAZIN
 70
     2
  9
$DIMDSEP
 70
    46
  9
$DIMATFIT
 70
     0
  9
$DIMFRAC
 70
     0
  9
$DIMLDRBLK
  1

  9
$DIMLUNIT
 70
     2
  9
$DIMLWD
 70
    -2
  9
$DIMLWE
 70
    -2
  9
$DIMTMOVE
 70
     0
  9
$LUNITS
 70
     2
  9
$LUPREC
 70
     4
  9
$SKETCHINC
 40
1.0
  9
$FILLETRAD
 40
10.0
  9
$AUNITS
 70
     0
  9
$AUPREC
 70
     0
  9
$MENU
  1
.
  9
$ELEVATION
 40
0.0
  9
$PELEVATION
 40
0.0
  9
$THICKNESS
 40
0.0
  9
$LIMCHECK
 70
     0
  9
$CHAMFERA
 40
10.0
  9
$CHAMFERB
 40
10.0
  9
$CHAMFERC
 40
20.0
  9
$CHAMFERD
 40
0.0
  9
$SKPOLY
 70
     0
  9
$TDCREATE
 40
2455091.0
  9
$TDUCREATE
 40
2451562.87528772
  9
$TDUPDATE
 40
2455111.0
  9
$TDUUPDATE
 40
2452026.917654526
  9
$TDINDWG
 40
0.0010008681
  9
$TDUSRTIMER
 40
0.0009680671
  9
$USRTIMER
 70
     1
  9
$ANGBASE
 50
0.0
  9
$ANGDIR
 70
     0
  9
$PDMODE
 70
     0
  9
$PDSIZE
 40
0.0
  9
$PLINEWID
 40
0.0
  9
$SPLFRAME
 70
     0
  9
$SPLINETYPE
 70
     6
  9
$SPLINESEGS
 70
     8
  9
$HANDSEED
  5
490
  9
$SURFTAB1
 70
     6
  9
$SURFTAB2
 70
     6
  9
$SURFTYPE
 70
     6
  9
$SURFU
 70
     6
  9
$SURFV
 70
     6
  9
$UCSBASE
  2

  9
$UCSNAME
  2

  9
$UCSORG
 10
0.0
 20
0.0
 30
0.0
  9
$UCSXDIR
 10
1.0
 20
0.0
 30
0.0
  9
$UCSYDIR
 10
0.0
 20
1.0
 30
0.0
  9
$UCSORTHOREF
  2

  9
$UCSORTHOVIEW
 70
     0
  9
$UCSORGTOP
 10
0.0
 20
0.0
 30
0.0
  9
$UCSORGBOTTOM
 10
0.0
 20
0.0
 30
0.0
  9
$UCSORGLEFT
 10
0.0
 20
0.0
 30
0.0
  9
$UCSORGRIGHT
 10
0.0
 20
0.0
 30
0.0
  9
$UCSORGFRONT
 10
0.0
 20
0.0
 30
0.0
  9
$UCSORGBACK
 10
0.0
 20
0.0
 30
0.0
  9
$PUCSBASE
  2

  9
$PUCSNAME
  2

  9
$PUCSORG
 10
0.0
 20
0.0
 30
0.0
  9
$PUCSXDIR
 10
1.0
 20
0.0
 30
0.0
  9
$PUCSYDIR
 10
0.0
 20
1.0
 30
0.0
  9
$PUCSORTHOREF
  2

  9
$PUCSORTHOVIEW
 70
     0
  9
$PUCSORGTOP
 10
0.0
 20
0.0
 30
0.0
  9
$PUCSORGBOTTOM
 10
0.0
 20
0.0
 30
0.0
  9
$PUCSORGLEFT
 10
0.0
 20
0.0
 30
0.0
  9
$PUCSORGRIGHT
 10
0.0
 20
0.0
 30
0.0
  9
$PUCSORGFRONT
 10
0.0
 20
0.0
 30
0.0
  9
$PUCSORGBACK
 10
0.0
 20
0.0
 30
0.0
  9
$USERI1
 70
     0
  9
$USERI2
 70
     0
  9
$USERI3
 70
     0
  9
$USERI4
 70
     0
  9
$USERI5
 70
     0
  9
$USERR1
 40
0.0
  9
$USERR2
 40
0.0
  9
$USERR3
 40
0.0
  9
$USERR4
 40
0.0
  9
$USERR5
 40
0.0
  9
$WORLDVIEW
 70
     1
  9
$SHADEDGE
 70
     3
  9
$SHADEDIF
 70
    70
  9
$TILEMODE
 70
     1
  9
$MAXACTVP
 70
    64
  9
$PINSBASE
 10
0.0
 20
0.0
 30
0.0
  9
$PLIMCHECK
 70
     0
  9
$PEXTMIN
 10
-594.5
 20
-420.5
 30
0.0
  9
$PEXTMAX
 10
594.5
 20
420.5
 30
0.0
  9
$PLIMMIN
 10
-594.5
 20
-420.5
  9
$PLIMMAX
 10
594.5
 20
420.5
  9
$UNITMODE
 70
     0
  9
$VISRETAIN
 70
     1
  9
$PLINEGEN
 70
     0
  9
$PSLTSCALE
 70
     1
  9
$TREEDEPTH
 70
  3020
  9
$CMLSTYLE
  2
Standard
  9
$CMLJUST
 70
     0
  9
$CMLSCALE
 40
20.0
  9
$PROXYGRAPHICS
 70
     1
  9
$MEASUREMENT
 70
     1
  9
$CELWEIGHT
370
    -1
  9
$ENDCAPS
280
     0
  9
$JOINSTYLE
280
     0
  9
$LWDISPLAY
290
     0
  9
$INSUNITS
 70
     4
  9
$HYPERLINKBASE
  1

  9
$STYLESHEET
  1

  9
$XEDIT
290
     1
  9
$CEPSNTYPE
380
     0
  9
$PSTYLEMODE
290
     1
  9
$FINGERPRINTGUID
  2
{B6423330-CE35-11D3-AA43-00E0292263AD}
  9
$VERSIONGUID
  2
{EAA0F794-BAE8-4B09-85E0-65C527BE2B8E}
  9
$EXTNAMES
290
     1
  9
$PSVPSCALE
 40
0.0
  9
$OLESTARTUP
290
     0
  0
ENDSEC
  0
SECTION
  2
CLASSES
  0
CLASS
  1
ACDBDICTIONARYWDFLT
  2
AcDbDictionaryWithDefault
  3
ObjectDBX Classes
 90
        0
280
     0
281
     0
  0
CLASS
  1
ACDBPLACEHOLDER
  2
AcDbPlaceHolder
  3
ObjectDBX Classes
 90
        0
280
     0
281
     0
  0
CLASS
  1
LAYOUT
  2
AcDbLayout
  3
ObjectDBX Classes
 90
        0
280
     0
281
     0
  0
ENDSEC
  0
SECTION
  2
TABLES
  0
TABLE
  2
VPORT
  5
8
330
0
100
AcDbSymbolTable
 70
     3
  0
VPORT
  5
30
330
8
100
AcDbSymbolTableRecord
100
AcDbViewportTableRecord
  2
*Active
 70
     0
 10
0.0
 20
0.0
 11
1.0
 21
1.0
 12
259.0560661764706
 22
148.5
 13
0.0
 23
0.0
 14
10.0
 24
10.0
 15
10.0
 25
10.0
 16
0.0
 26
0.0
 36
1.0
 17
0.0
 27
0.0
 37
0.0
 40
297.1173501144164
 41
1.268382352941176
 42
50.0
 43
0.0
 44
0.0
 50
0.0
 51
0.0
 71
     0
 72
   100
 73
     1
 74
     3
 75
     0
 76
     0
 77
     0
 78
     0
281
     0
 65
     1
110
0.0
120
0.0
130
0.0
111
1.0
121
0.0
131
0.0
112
0.0
122
1.0
132
0.0
 79
     0
146
0.0
  0
ENDTAB
  0
TABLE
  2
LTYPE
  5
5
330
0
100
AcDbSymbolTable
 70
    26
  0
LTYPE
  5
14
330
5
100
AcDbSymbolTableRecord
100
AcDbLinetypeTableRecord
  2
ByBlock
 70
     0
  3

 72
    65
 73
     0
 40
0.0
  0
LTYPE
  5
15
330
5
100
AcDbSymbolTableRecord
100
AcDbLinetypeTableRecord
  2
ByLayer
 70
     0
  3

 72
    65
 73
     0
 40
0.0
  0
LTYPE
  5
16
330
5
100
AcDbSymbolTableRecord
100
AcDbLinetypeTableRecord
  2
Continuous
 70
     0
  3
Solid line
 72
    65
 73
     0
 40
0.0
  0
LTYPE
  5
37
330
5
100
AcDbSymbolTableRecord
100
AcDbLinetypeTableRecord
  2
BORDER
 70
     0
  3
 __ __ . __ __ . __ __ . __ __ . __ __ . __ __
 72
    65
 73
     6
 40
1.75
 49
0.5
 74
     0
 49
-0.25
 74
     0
 49
0.5
 74
     0
 49
-0.25
 74
     0
 49
0.0
 74
     0
 49
-0.25
 74
     0
  0
LTYPE
  5
38
330
5
100
AcDbSymbolTableRecord
100
AcDbLinetypeTableRecord
  2
BORDER2
 70
     0
  3
__.__.__.__.__.__.__.__.__.__.__.__.__.__.__
 72
    65
 73
     6
 40
0.875
 49
0.25
 74
     0
 49
-0.125
 74
     0
 49
0.25
 74
     0
 49
-0.125
 74
     0
 49
0.0
 74
     0
 49
-0.125
 74
     0
  0
LTYPE
  5
39
330
5
100
AcDbSymbolTableRecord
100
AcDbLinetypeTableRecord
  2
BORDERX2
 70
     0
  3
____  ____  .  ____  ____  .  ____  ____  .
 72
    65
 73
     6
 40
3.5
 49
1.0
 74
     0
 49
-0.5
 74
     0
 49
1.0
 74
     0
 49
-0.5
 74
     0
 49
0.0
 74
     0
 49
-0.5
 74
     0
  0
LTYPE
  5
3A
330
5
100
AcDbSymbolTableRecord
100
AcDbLinetypeTableRecord
  2
CENTER
 70
     0
  3
____ _ ____ _ ____ _ ____ _ ____ _ ____ _ ____
 72
    65
 73
     4
 40
2.0
 49
1.25
 74
     0
 49
-0.25
 74
     0
 49
0.25
 74
     0
 49
-0.25
 74
     0
  0
LTYPE
  5
3B
330
5
100
AcDbSymbolTableRecord
100
AcDbLinetypeTableRecord
  2
CENTER2
 70
     0
  3
___ _ ___ _ ___ _ ___ _ ___ _ ___ _ ___ _ ___ 
 72
    65
 73
     4
 40
1.125
 49
0.75
 74
     0
 49
-0.125
 74
     0
 49
0.125
 74
     0
 49
-0.125
 74
     0
  0
LTYPE
  5
3C
330
5
100
AcDbSymbolTableRecord
100
AcDbLinetypeTableRecord
  2
CENTERX2
 70
     0
  3
________  __  ________  __  ________  __
 72
    65
 73
     4
 40
4.0
 49
2.5
 74
     0
 49
-0.5
 74
     0
 49
0.5
 74
     0
 49
-0.5
 74
     0
  0
LTYPE
  5
3D
330
5
100
AcDbSymbolTableRecord
100
AcDbLinetypeTableRecord
  2
DASHDOT
 70
     0
  3
__ . __ . __ . __ . __ . __ . __ . __ . __ .
 72
    65
 73
     4
 40
1.0
 49
0.5
 74
     0
 49
-0.25
 74
     0
 49
0.0
 74
     0
 49
-0.25
 74
     0
  0
LTYPE
  5
3E
330
5
100
AcDbSymbolTableRecord
100
AcDbLinetypeTableRecord
  2
DASHDOT2
 70
     0
  3
_._._._._._._._._._._._._._._._._._._._._._._.
 72
    65
 73
     4
 40
0.5
 49
0.25
 74
     0
 49
-0.125
 74
     0
 49
0.0
 74
     0
 49
-0.125
 74
     0
  0
LTYPE
  5
3F
330
5
100
AcDbSymbolTableRecord
100
AcDbLinetypeTableRecord
  2
DASHDOTX2
 70
     0
  3
____  .  ____  .  ____  .  ____  .  ____  .
 72
    65
 73
     4
 40
2.0
 49
1.0
 74
     0
 49
-0.5
 74
     0
 49
0.0
 74
     0
 49
-0.5
 74
     0
  0
LTYPE
  5
40
330
5
100
AcDbSymbolTableRecord
100
AcDbLinetypeTableRecord
  2
DASHED
 70
     0
  3
__ __ __ __ __ __ __ __ __ __ __ __ __ __ __
 72
    65
 73
     2
 40
0.75
 49
0.5
 74
     0
 49
-0.25
 74
     0
  0
LTYPE
  5
41
330
5
100
AcDbSymbolTableRecord
100
AcDbLinetypeTableRecord
  2
DASHED2
 70
     0
  3
_ _ _ _ _ _ _ _ _ _ _ _ _ _ _ _ _ _ _ _ _ _ _
 72
    65
 73
     2
 40
0.375
 49
0.25
 74
     0
 49
-0.125
 74
     0
  0
LTYPE
  5
42
330
5
100
AcDbSymbolTableRecord
100
AcDbLinetypeTableRecord
  2
DASHEDX2
 70
     0
  3
____  ____  ____  ____  ____  ____  ____  ____
 72
    65
 73
     2
 40
1.5
 49
1.0
 74
     0
 49
-0.5
 74
     0
  0
LTYPE
  5
43
330
5
100
AcDbSymbolTableRecord
100
AcDbLinetypeTableRecord
  2
DIVIDE
 70
     0
  3
____ . . ____ . . ____ . . ____ . . ____ . .
 72
    65
 73
     6
 40
1.25
 49
0.5
 74
     0
 49
-0.25
 74
     0
 49
0.0
 74
     0
 49
-0.25
 74
     0
 49
0.0
 74
     0
 49
-0.25
 74
     0
  0
LTYPE
  5
44
330
5
100
AcDbSymbolTableRecord
100
AcDbLinetypeTableRecord
  2
DIVIDE2
 70
     0
  3
__..__..__..__..__..__..__..__..__..__..__..__
 72
    65
 73
     6
 40
0.625
 49
0.25
 74
     0
 49
-0.125
 74
     0
 49
0.0
 74
     0
 49
-0.125
 74
     0
 49
0.0
 74
     0
 49
-0.125
 74
     0
  0
LTYPE
  5
45
330
5
100
AcDbSymbolTableRecord
100
AcDbLinetypeTableRecord
  2
DIVIDEX2
 70
     0
  3
________  .  .  ________  .  .  ________  .  .
 72
    65
 73
     6
 40
2.5
 49
1.0
 74
     0
 49
-0.5
 74
     0
 49
0.0
 74
     0
 49
-0.5
 74
     0
 49
0.0
 74
     0
 49
-0.5
 74
     0
  0
LTYPE
  5
46
330
5
100
AcDbSymbolTableRecord
100
AcDbLinetypeTableRecord
  2
DOT
 70
     0
  3
. . . . . . . . . . . . . . . . . . . . . . .
 72
    65
 73
     2
 40
0.25
 49
0.0
 74
     0
 49
-0.25
 74
     0
  0
LTYPE
  5
47
330
5
100
AcDbSymbolTableRecord
100
AcDbLinetypeTableRecord
  2
DOT2
 70
     0
  3
..............................................
 72
    65
 73
     2
 40
0.125
 49
0.0
 74
     0
 49
-0.125
 74
     0
  0
LTYPE
  5
48
330
5
100
AcDbSymbolTableRecord
100
AcDbLinetypeTableRecord
  2
DOTX2
 70
     0
  3
.  .  .  .  .  .  .  .  .  .  .  .  .  .  .  .
 72
    65
 73
     2
 40
0.5
 49
0.0
 74
     0
 49
-0.5
 74
     0
  0
LTYPE
  5
49
330
5
100
AcDbSymbolTableRecord
100
AcDbLinetypeTableRecord
  2
HIDDEN
 70
     0
  3
__ __ __ __ __ __ __ __ __ __ __ __ __ __ __
 72
    65
 73
     2
 40
0.375
 49
0.25
 74
     0
 49
-0.125
 74
     0
  0
LTYPE
  5
4A
330
5
100
AcDbSymbolTableRecord
100
AcDbLinetypeTableRecord
  2
HIDDEN2
 70
     0
  3
_ _ _ _ _ _ _ _ _ _ _ _ _ _ _ _ _ _ _ _ _ _ _
 72
    65
 73
     2
 40
0.1875
 49
0.125
 74
     0
 49
-0.0625
 74
     0
  0
LTYPE
  5
4B
330
5
100
AcDbSymbolTableRecord
100
AcDbLinetypeTableRecord
  2
HIDDENX2
 70
     0
  3
____ ____ ____ ____ ____ ____ ____ ____ ____
 72
    65
 73
     2
 40
0.75
 49
0.5
 74
     0
 49
-0.25
 74
     0
  0
LTYPE
  5
4C
330
5
100
AcDbSymbolTableRecord
100
AcDbLinetypeTableRecord
  2
PHANTOM
 70
     0
  3
______  __  __  ______  __  __  ______  __
 72
    65
 73
     6
 40
2.5
 49
1.25
 74
     0
 49
-0.25
 74
     0
 49
0.25
 74
     0
 49
-0.25
 74
     0
 49
0.25
 74
     0
 49
-0.25
 74
     0
  0
LTYPE
  5
4D
330
5
100
AcDbSymbolTableRecord
100
AcDbLinetypeTableRecord
  2
PHANTOM2
 70
     0
  3
___ _ _ ___ _ _ ___ _ _ ___ _ _ ___ _ _ ___ _
 72
    65
 73
     6
 40
1.25
 49
0.625
 74
     0
 49
-0.125
 74
     0
 49
0.125
 74
     0
 49
-0.125
 74
     0
 49
0.125
 74
     0
 49
-0.125
 74
     0
  0
LTYPE
  5
4E
330
5
100
AcDbSymbolTableRecord
100
AcDbLinetypeTableRecord
  2
PHANTOMX2
 70
     0
  3
____________    ____    ____    ____________
 72
    65
 73
     6
 40
5.0
 49
2.5
 74
     0
 49
-0.5
 74
     0
 49
0.5
 74
     0
 49
-0.5
 74
     0
 49
0.5
 74
     0
 49
-0.5
 74
     0
  0
LTYPE
  5
4F
330
5
100
AcDbSymbolTableRecord
100
AcDbLinetypeTableRecord
  2
CONTINUOUS2
 70
     0
  3
Solid line
 72
    65
 73
     0
 40
0.0
  0
ENDTAB
  0
TABLE
  2
LAYER
  5
2
330
0
100
AcDbSymbolTable
 70
   514
  0
LAYER
  5
10
330
2
100
AcDbSymbolTableRecord
100
AcDbLayerTableRecord
  2
0
 70
     0
 62
     7
  6
Continuous
370
    -3
390
F
  0
LAYER
  5
50
330
2
100
AcDbSymbolTableRecord
100
AcDbLayerTableRecord
  2
LAYER-001
 70
     0
 62
     7
  6
Continuous
370
    -3
390
F
  0
LAYER
  5
51
330
2
100
AcDbSymbolTableRecord
100
AcDbLayerTableRecord
  2
LAYER-002
 70
     0
 62
     7
  6
Continuous
370
    -3
390
F
  0
LAYER
  5
52
330
2
100
AcDbSymbolTableRecord
100
AcDbLayerTableRecord
  2
LAYER-003
 70
     0
 62
     7
  6
Continuous
370
    -3
390
F
  0
LAYER
  5
53
330
2
100
AcDbSymbolTableRecord
100
AcDbLayerTableRecord
  2
LAYER-004
 70
     0
 62
     7
  6
Continuous
370
    -3
390
F
  0
LAYER
  5
54
330
2
100
AcDbSymbolTableRecord
100
AcDbLayerTableRecord
  2
LAYER-005
 70
     0
 62
     7
  6
Continuous
370
    -3
390
F
  0
LAYER
  5
55
330
2
100
AcDbSymbolTableRecord
100
AcDbLayerTableRecord
  2
LAYER-006
 70
     0
 62
     7
  6
Continuous
370
    -3
390
F
  0
LAYER
  5
56
330
2
100
AcDbSymbolTableRecord
100
AcDbLayerTableRecord
  2
LAYER-007
 70
     0
 62
     7
  6
Continuous
370
    -3
390
F
  0
LAYER
  5
57
330
2
100
AcDbSymbolTableRecord
100
AcDbLayerTableRecord
  2
LAYER-008
 70
     0
 62
     7
  6
Continuous
370
    -3
390
F
  0
LAYER
  5
58
330
2
100
AcDbSymbolTableRecord
100
AcDbLayerTableRecord
  2
LAYER-009
 70
     0
 62
     7
  6
Continuous
370
    -3
390
F
  0
LAYER
  5
59
330
2
100
AcDbSymbolTableRecord
100
AcDbLayerTableRecord
  2
LAYER-010
 70
     0
 62
     7
  6
Continuous
370
    -3
390
F
  0
LAYER
  5
5A
330
2
100
AcDbSymbolTableRecord
100
AcDbLayerTableRecord
  2
LAYER-011
 70
     0
 62
     7
  6
Continuous
370
    -3
390
F
  0
LAYER
  5
5B
330
2
100
AcDbSymbolTableRecord
100
AcDbLayerTableRecord
  2
LAYER-012
 70
     0
 62
     7
  6
Continuous
370
    -3
390
F
  0
LAYER
  5
5C
330
2
100
AcDbSymbolTableRecord
100
AcDbLayerTableRecord
  2
LAYER-013
 70
     0
 62
     7
  6
Continuous
370
    -3
390
F
  0
LAYER
  5
5D
330
2
100
AcDbSymbolTableRecord
100
AcDbLayerTableRecord
  2
LAYER-014
 70
     0
 62
     7
  6
Continuous
370
    -3
390
F
  0
LAYER
  5
5E
330
2
100
AcDbSymbolTableRecord
100
AcDbLayerTableRecord
  2
LAYER-015
 70
     0
 62
    -7
  6
Continuous
370
    -3
390
F
  0
LAYER
  5
5F
330
2
100
AcDbSymbolTableRecord
100
AcDbLayerTableRecord
  2
LAYER-016
 70
     0
 62
     4
  6
Continuous
370
    -3
390
F
  0
LAYER
  5
60
330
2
100
AcDbSymbolTableRecord
100
AcDbLayerTableRecord
  2
LAYER-017
 70
     0
 62
     7
  6
Continuous
370
    -3
390
F
  0
LAYER
  5
61
330
2
100
AcDbSymbolTableRecord
100
AcDbLayerTableRecord
  2
LAYER-018
 70
     0
 62
     2
  6
Continuous
370
    -3
390
F
  0
LAYER
  5
62
330
2
100
AcDbSymbolTableRecord
100
AcDbLayerTableRecord
  2
LAYER-019
 70
     0
 62
     3
  6
Continuous
370
    -3
390
F
  0
LAYER
  5
63
330
2
100
AcDbSymbolTableRecord
100
AcDbLayerTableRecord
  2
LAYER-020
 70
     0
 62
     2
  6
Continuous
370
    -3
390
F
  0
LAYER
  5
64
330
2
100
AcDbSymbolTableRecord
100
AcDbLayerTableRecord
  2
LAYER-021
 70
     0
 62
     7
  6
Continuous
370
    -3
390
F
  0
LAYER
  5
65
330
2
100
AcDbSymbolTableRecord
100
AcDbLayerTableRecord
  2
LAYER-022
 70
     0
 62
     4
  6
Continuous
370
    -3
390
F
  0
LAYER
  5
66
330
2
100
AcDbSymbolTableRecord
100
AcDbLayerTableRecord
  2
LAYER-023
 70
     0
 62
     4
  6
Continuous
370
    -3
390
F
  0
LAYER
  5
67
330
2
100
AcDbSymbolTableRecord
100
AcDbLayerTableRecord
  2
LAYER-024
 70
     0
 62
     7
  6
Continuous
370
    -3
390
F
  0
LAYER
  5
68
330
2
100
AcDbSymbolTableRecord
100
AcDbLayerTableRecord
  2
LAYER-025
 70
     0
 62
     7
  6
Continuous
370
    -3
390
F
  0
LAYER
  5
69
330
2
100
AcDbSymbolTableRecord
100
AcDbLayerTableRecord
  2
LAYER-026
 70
     0
 62
    -7
  6
Continuous
370
    -3
390
F
  0
LAYER
  5
6A
330
2
100
AcDbSymbolTableRecord
100
AcDbLayerTableRecord
  2
LAYER-027
 70
     0
 62
     7
  6
Continuous
370
    -3
390
F
  0
LAYER
  5
6B
330
2
100
AcDbSymbolTableRecord
100
AcDbLayerTableRecord
  2
LAYER-028
 70
     0
 62
     7
  6
Continuous
370
    -3
390
F
  0
LAYER
  5
6C
330
2
100
AcDbSymbolTableRecord
100
AcDbLayerTableRecord
  2
LAYER-029
 70
     0
 62
     7
  6
Continuous
370
    -3
390
F
  0
LAYER
  5
6D
330
2
100
AcDbSymbolTableRecord
100
AcDbLayerTableRecord
  2
LAYER-030
 70
     0
 62
     2
  6
Continuous
370
    -3
390
F
  0
LAYER
  5
6E
330
2
100
AcDbSymbolTableRecord
100
AcDbLayerTableRecord
  2
LAYER-031
 70
     0
 62
     7
  6
Continuous
370
    -3
390
F
  0
LAYER
  5
6F
330
2
100
AcDbSymbolTableRecord
100
AcDbLayerTableRecord
  2
LAYER-032
 70
     0
 62
     2
  6
Continuous
370
    -3
390
F
  0
LAYER
  5
70
330
2
100
AcDbSymbolTableRecord
100
AcDbLayerTableRecord
  2
LAYER-033
 70
     0
 62
     7
  6
Continuous
370
    -3
390
F
  0
LAYER
  5
71
330
2
100
AcDbSymbolTableRecord
100
AcDbLayerTableRecord
  2
LAYER-034
 70
     0
 62
     7
  6
Continuous
370
    -3
390
F
  0
LAYER
  5
72
330
2
100
AcDbSymbolTableRecord
100
AcDbLayerTableRecord
  2
LAYER-035
 70
     0
 62
     3
  6
Continuous
370
    -3
390
F
  0
LAYER
  5
73
330
2
100
AcDbSymbolTableRecord
100
AcDbLayerTableRecord
  2
LAYER-036
 70
     0
 62
     2
  6
Continuous
370
    -3
390
F
  0
LAYER
  5
74
330
2
100
AcDbSymbolTableRecord
100
AcDbLayerTableRecord
  2
LAYER-037
 70
     0
 62
     7
  6
Continuous
370
    -3
390
F
  0
LAYER
  5
75
330
2
100
AcDbSymbolTableRecord
100
AcDbLayerTableRecord
  2
LAYER-038
 70
     0
 62
     7
  6
Continuous
370
    -3
390
F
  0
LAYER
  5
76
330
2
100
AcDbSymbolTableRecord
100
AcDbLayerTableRecord
  2
LAYER-039
 70
     0
 62
     7
  6
Continuous
370
    -3
390
F
  0
LAYER
  5
77
330
2
100
AcDbSymbolTableRecord
100
AcDbLayerTableRecord
  2
LAYER-040
 70
     0
 62
     7
  6
Continuous
370
    -3
390
F
  0
LAYER
  5
78
330
2
100
AcDbSymbolTableRecord
100
AcDbLayerTableRecord
  2
LAYER-041
 70
     0
 62
     7
  6
Continuous
370
    -3
390
F
  0
LAYER
  5
79
330
2
100
AcDbSymbolTableRecord
100
AcDbLayerTableRecord
  2
LAYER-042
 70
     0
 62
     7
  6
Continuous
370
    -3
390
F
  0
LAYER
  5
7A
330
2
100
AcDbSymbolTableRecord
100
AcDbLayerTableRecord
  2
LAYER-043
 70
     0
 62
     7
  6
Continuous
370
    -3
390
F
  0
LAYER
  5
7B
330
2
100
AcDbSymbolTableRecord
100
AcDbLayerTableRecord
  2
LAYER-044
 70
     0
 62
     7
  6
Continuous
370
    -3
390
F
  0
LAYER
  5
7C
330
2
100
AcDbSymbolTableRecord
100
AcDbLayerTableRecord
  2
LAYER-045
 70
     0
 62
     7
  6
Continuous
370
    -3
390
F
  0
LAYER
  5
7D
330
2
100
AcDbSymbolTableRecord
100
AcDbLayerTableRecord
  2
LAYER-046
 70
     0
 62
     7
  6
Continuous
370
    -3
390
F
  0
LAYER
  5
7E
330
2
100
AcDbSymbolTableRecord
100
AcDbLayerTableRecord
  2
LAYER-047
 70
     0
 62
     7
  6
Continuous
370
    -3
390
F
  0
LAYER
  5
7F
330
2
100
AcDbSymbolTableRecord
100
AcDbLayerTableRecord
  2
LAYER-048
 70
     0
 62
     2
  6
Continuous
370
    -3
390
F
  0
LAYER
  5
80
330
2
100
AcDbSymbolTableRecord
100
AcDbLayerTableRecord
  2
LAYER-049
 70
     0
 62
     3
  6
Continuous
370
    -3
390
F
  0
LAYER
  5
81
330
2
100
AcDbSymbolTableRecord
100
AcDbLayerTableRecord
  2
LAYER-050
 70
     0
 62
     7
  6
Continuous
370
    -3
390
F
  0
LAYER
  5
82
330
2
100
AcDbSymbolTableRecord
100
AcDbLayerTableRecord
  2
LAYER-051
 70
     0
 62
     2
  6
Continuous
370
    -3
390
F
  0
LAYER
  5
83
330
2
100
AcDbSymbolTableRecord
100
AcDbLayerTableRecord
  2
LAYER-052
 70
     0
 62
     7
  6
Continuous
370
    -3
390
F
  0
LAYER
  5
84
330
2
100
AcDbSymbolTableRecord
100
AcDbLayerTableRecord
  2
LAYER-053
 70
     0
 62
     7
  6
Continuous
370
    -3
390
F
  0
LAYER
  5
85
330
2
100
AcDbSymbolTableRecord
100
AcDbLayerTableRecord
  2
LAYER-054
 70
     0
 62
     7
  6
Continuous
370
    -3
390
F
  0
LAYER
  5
86
330
2
100
AcDbSymbolTableRecord
100
AcDbLayerTableRecord
  2
LAYER-055
 70
     0
 62
     7
  6
Continuous
370
    -3
390
F
  0
LAYER
  5
87
330
2
100
AcDbSymbolTableRecord
100
AcDbLayerTableRecord
  2
LAYER-056
 70
     0
 62
     7
  6
Continuous
370
    -3
390
F
  0
LAYER
  5
88
330
2
100
AcDbSymbolTableRecord
100
AcDbLayerTableRecord
  2
LAYER-057
 70
     0
 62
     7
  6
Continuous
370
    -3
390
F
  0
LAYER
  5
89
330
2
100
AcDbSymbolTableRecord
100
AcDbLayerTableRecord
  2
LAYER-058
 70
     0
 62
     7
  6
Continuous
370
    -3
390
F
  0
LAYER
  5
8A
330
2
100
AcDbSymbolTableRecord
100
AcDbLayerTableRecord
  2
LAYER-059
 70
     0
 62
     7
  6
Continuous
370
    -3
390
F
  0
LAYER
  5
8B
330
2
100
AcDbSymbolTableRecord
100
AcDbLayerTableRecord
  2
LAYER-060
 70
     0
 62
     7
  6
Continuous
370
    -3
390
F
  0
LAYER
  5
8C
330
2
100
AcDbSymbolTableRecord
100
AcDbLayerTableRecord
  2
LAYER-061
 70
     0
 62
     7
  6
Continuous
370
    -3
390
F
  0
LAYER
  5
8D
330
2
100
AcDbSymbolTableRecord
100
AcDbLayerTableRecord
  2
LAYER-062
 70
     0
 62
     7
  6
Continuous
370
    -3
390
F
  0
LAYER
  5
8E
330
2
100
AcDbSymbolTableRecord
100
AcDbLayerTableRecord
  2
LAYER-063
 70
     0
 62
     7
  6
Continuous
370
    -3
390
F
  0
LAYER
  5
8F
330
2
100
AcDbSymbolTableRecord
100
AcDbLayerTableRecord
  2
LAYER-064
 70
     0
 62
     2
  6
Continuous
370
    -3
390
F
  0
LAYER
  5
90
330
2
100
AcDbSymbolTableRecord
100
AcDbLayerTableRecord
  2
LAYER-065
 70
     0
 62
     7
  6
Continuous
370
    -3
390
F
  0
LAYER
  5
91
330
2
100
AcDbSymbolTableRecord
100
AcDbLayerTableRecord
  2
LAYER-066
 70
     0
 62
     2
  6
Continuous
370
    -3
390
F
  0
LAYER
  5
92
330
2
100
AcDbSymbolTableRecord
100
AcDbLayerTableRecord
  2
LAYER-067
 70
     0
 62
     2
  6
Continuous
370
    -3
390
F
  0
LAYER
  5
93
330
2
100
AcDbSymbolTableRecord
100
AcDbLayerTableRecord
  2
LAYER-068
 70
     0
 62
     7
  6
Continuous
370
    -3
390
F
  0
LAYER
  5
94
330
2
100
AcDbSymbolTableRecord
100
AcDbLayerTableRecord
  2
LAYER-069
 70
     0
 62
     7
  6
Continuous
370
    -3
390
F
  0
LAYER
  5
95
330
2
100
AcDbSymbolTableRecord
100
AcDbLayerTableRecord
  2
LAYER-070
 70
     0
 62
     7
  6
Continuous
370
    -3
390
F
  0
LAYER
  5
96
330
2
100
AcDbSymbolTableRecord
100
AcDbLayerTableRecord
  2
LAYER-071
 70
     0
 62
     7
  6
Continuous
370
    -3
390
F
  0
LAYER
  5
97
330
2
100
AcDbSymbolTableRecord
100
AcDbLayerTableRecord
  2
LAYER-072
 70
     0
 62
     7
  6
Continuous
370
    -3
390
F
  0
LAYER
  5
98
330
2
100
AcDbSymbolTableRecord
100
AcDbLayerTableRecord
  2
LAYER-073
 70
     0
 62
     7
  6
Continuous
370
    -3
390
F
  0
LAYER
  5
99
330
2
100
AcDbSymbolTableRecord
100
AcDbLayerTableRecord
  2
LAYER-074
 70
     0
 62
     7
  6
Continuous
370
    -3
390
F
  0
LAYER
  5
9A
330
2
100
AcDbSymbolTableRecord
100
AcDbLayerTableRecord
  2
LAYER-075
 70
     0
 62
     7
  6
Continuous
370
    -3
390
F
  0
LAYER
  5
9B
330
2
100
AcDbSymbolTableRecord
100
AcDbLayerTableRecord
  2
LAYER-076
 70
     0
 62
     7
  6
Continuous
370
    -3
390
F
  0
LAYER
  5
9C
330
2
100
AcDbSymbolTableRecord
100
AcDbLayerTableRecord
  2
LAYER-077
 70
     0
 62
     7
  6
Continuous
370
    -3
390
F
  0
LAYER
  5
9D
330
2
100
AcDbSymbolTableRecord
100
AcDbLayerTableRecord
  2
LAYER-078
 70
     0
 62
     7
  6
Continuous
370
    -3
390
F
  0
LAYER
  5
9E
330
2
100
AcDbSymbolTableRecord
100
AcDbLayerTableRecord
  2
LAYER-079
 70
     0
 62
     7
  6
Continuous
370
    -3
390
F
  0
LAYER
  5
9F
330
2
100
AcDbSymbolTableRecord
100
AcDbLayerTableRecord
  2
LAYER-080
 70
     0
 62
     2
  6
Continuous
370
    -3
390
F
  0
LAYER
  5
A0
330
2
100
AcDbSymbolTableRecord
100
AcDbLayerTableRecord
  2
LAYER-081
 70
     0
 62
     7
  6
Continuous
370
    -3
390
F
  0
LAYER
  5
A1
330
2
100
AcDbSymbolTableRecord
100
AcDbLayerTableRecord
  2
LAYER-082
 70
     0
 62
     7
  6
Continuous
370
    -3
390
F
  0
LAYER
  5
A2
330
2
100
AcDbSymbolTableRecord
100
AcDbLayerTableRecord
  2
LAYER-083
 70
     0
 62
     7
  6
Continuous
370
    -3
390
F
  0
LAYER
  5
A3
330
2
100
AcDbSymbolTableRecord
100
AcDbLayerTableRecord
  2
LAYER-084
 70
     0
 62
     7
  6
Continuous
370
    -3
390
F
  0
LAYER
  5
A4
330
2
100
AcDbSymbolTableRecord
100
AcDbLayerTableRecord
  2
LAYER-085
 70
     0
 62
     7
  6
Continuous
370
    -3
390
F
  0
LAYER
  5
A5
330
2
100
AcDbSymbolTableRecord
100
AcDbLayerTableRecord
  2
LAYER-086
 70
     0
 62
     7
  6
Continuous
370
    -3
390
F
  0
LAYER
  5
A6
330
2
100
AcDbSymbolTableRecord
100
AcDbLayerTableRecord
  2
LAYER-087
 70
     0
 62
     7
  6
Continuous
370
    -3
390
F
  0
LAYER
  5
A7
330
2
100
AcDbSymbolTableRecord
100
AcDbLayerTableRecord
  2
LAYER-088
 70
     0
 62
     7
  6
Continuous
370
    -3
390
F
  0
LAYER
  5
A8
330
2
100
AcDbSymbolTableRecord
100
AcDbLayerTableRecord
  2
LAYER-089
 70
     0
 62
     7
  6
Continuous
370
    -3
390
F
  0
LAYER
  5
A9
330
2
100
AcDbSymbolTableRecord
100
AcDbLayerTableRecord
  2
LAYER-090
 70
     0
 62
     7
  6
Continuous
370
    -3
390
F
  0
LAYER
  5
AA
330
2
100
AcDbSymbolTableRecord
100
AcDbLayerTableRecord
  2
LAYER-091
 70
     0
 62
     7
  6
Continuous
370
    -3
390
F
  0
LAYER
  5
AB
330
2
100
AcDbSymbolTableRecord
100
AcDbLayerTableRecord
  2
LAYER-092
 70
     0
 62
     7
  6
Continuous
370
    -3
390
F
  0
LAYER
  5
AC
330
2
100
AcDbSymbolTableRecord
100
AcDbLayerTableRecord
  2
LAYER-093
 70
     0
 62
     7
  6
Continuous
370
    -3
390
F
  0
LAYER
  5
AD
330
2
100
AcDbSymbolTableRecord
100
AcDbLayerTableRecord
  2
LAYER-094
 70
     0
 62
     7
  6
Continuous
370
    -3
390
F
  0
LAYER
  5
AE
330
2
100
AcDbSymbolTableRecord
100
AcDbLayerTableRecord
  2
LAYER-095
 70
     0
 62
     7
  6
Continuous
370
    -3
390
F
  0
LAYER
  5
AF
330
2
100
AcDbSymbolTableRecord
100
AcDbLayerTableRecord
  2
LAYER-096
 70
     0
 62
     7
  6
Continuous
370
    -3
390
F
  0
LAYER
  5
B0
330
2
100
AcDbSymbolTableRecord
100
AcDbLayerTableRecord
  2
LAYER-097
 70
     0
 62
     7
  6
Continuous
370
    -3
390
F
  0
LAYER
  5
B1
330
2
100
AcDbSymbolTableRecord
100
AcDbLayerTableRecord
  2
LAYER-098
 70
     0
 62
     7
  6
Continuous
370
    -3
390
F
  0
LAYER
  5
B2
330
2
100
AcDbSymbolTableRecord
100
AcDbLayerTableRecord
  2
LAYER-099
 70
     0
 62
     7
  6
Continuous
370
    -3
390
F
  0
LAYER
  5
B3
330
2
100
AcDbSymbolTableRecord
100
AcDbLayerTableRecord
  2
LAYER-100
 70
     0
 62
     7
  6
Continuous
370
    -3
390
F
  0
LAYER
  5
B4
330
2
100
AcDbSymbolTableRecord
100
AcDbLayerTableRecord
  2
LAYER-101
 70
     0
 62
     7
  6
Continuous
370
    -3
390
F
  0
LAYER
  5
B5
330
2
100
AcDbSymbolTableRecord
100
AcDbLayerTableRecord
  2
LAYER-102
 70
     0
 62
     7
  6
Continuous
370
    -3
390
F
  0
LAYER
  5
B6
330
2
100
AcDbSymbolTableRecord
100
AcDbLayerTableRecord
  2
LAYER-103
 70
     0
 62
     7
  6
Continuous
370
    -3
390
F
  0
LAYER
  5
B7
330
2
100
AcDbSymbolTableRecord
100
AcDbLayerTableRecord
  2
LAYER-104
 70
     0
 62
     7
  6
Continuous
370
    -3
390
F
  0
LAYER
  5
B8
330
2
100
AcDbSymbolTableRecord
100
AcDbLayerTableRecord
  2
LAYER-105
 70
     0
 62
     7
  6
Continuous
370
    -3
390
F
  0
LAYER
  5
B9
330
2
100
AcDbSymbolTableRecord
100
AcDbLayerTableRecord
  2
LAYER-106
 70
     0
 62
     7
  6
Continuous
370
    -3
390
F
  0
LAYER
  5
BA
330
2
100
AcDbSymbolTableRecord
100
AcDbLayerTableRecord
  2
LAYER-107
 70
     0
 62
     7
  6
Continuous
370
    -3
390
F
  0
LAYER
  5
BB
330
2
100
AcDbSymbolTableRecord
100
AcDbLayerTableRecord
  2
LAYER-108
 70
     0
 62
     7
  6
Continuous
370
    -3
390
F
  0
LAYER
  5
BC
330
2
100
AcDbSymbolTableRecord
100
AcDbLayerTableRecord
  2
LAYER-109
 70
     0
 62
     7
  6
Continuous
370
    -3
390
F
  0
LAYER
  5
BD
330
2
100
AcDbSymbolTableRecord
100
AcDbLayerTableRecord
  2
LAYER-110
 70
     0
 62
     7
  6
Continuous
370
    -3
390
F
  0
LAYER
  5
BE
330
2
100
AcDbSymbolTableRecord
100
AcDbLayerTableRecord
  2
LAYER-111
 70
     0
 62
     7
  6
Continuous
370
    -3
390
F
  0
LAYER
  5
BF
330
2
100
AcDbSymbolTableRecord
100
AcDbLayerTableRecord
  2
LAYER-112
 70
     0
 62
     7
  6
Continuous
370
    -3
390
F
  0
LAYER
  5
C0
330
2
100
AcDbSymbolTableRecord
100
AcDbLayerTableRecord
  2
LAYER-113
 70
     0
 62
     7
  6
Continuous
370
    -3
390
F
  0
LAYER
  5
C1
330
2
100
AcDbSymbolTableRecord
100
AcDbLayerTableRecord
  2
LAYER-114
 70
     0
 62
     7
  6
Continuous
370
    -3
390
F
  0
LAYER
  5
C2
330
2
100
AcDbSymbolTableRecord
100
AcDbLayerTableRecord
  2
LAYER-115
 70
     0
 62
     7
  6
Continuous
370
    -3
390
F
  0
LAYER
  5
C3
330
2
100
AcDbSymbolTableRecord
100
AcDbLayerTableRecord
  2
LAYER-116
 70
     0
 62
     7
  6
Continuous
370
    -3
390
F
  0
LAYER
  5
C4
330
2
100
AcDbSymbolTableRecord
100
AcDbLayerTableRecord
  2
LAYER-117
 70
     0
 62
     7
  6
Continuous
370
    -3
390
F
  0
LAYER
  5
C5
330
2
100
AcDbSymbolTableRecord
100
AcDbLayerTableRecord
  2
LAYER-118
 70
     0
 62
     7
  6
Continuous
370
    -3
390
F
  0
LAYER
  5
C6
330
2
100
AcDbSymbolTableRecord
100
AcDbLayerTableRecord
  2
LAYER-119
 70
     0
 62
     7
  6
Continuous
370
    -3
390
F
  0
LAYER
  5
C7
330
2
100
AcDbSymbolTableRecord
100
AcDbLayerTableRecord
  2
LAYER-120
 70
     0
 62
     7
  6
Continuous
370
    -3
390
F
  0
LAYER
  5
C8
330
2
100
AcDbSymbolTableRecord
100
AcDbLayerTableRecord
  2
LAYER-121
 70
     0
 62
     7
  6
Continuous
370
    -3
390
F
  0
LAYER
  5
C9
330
2
100
AcDbSymbolTableRecord
100
AcDbLayerTableRecord
  2
LAYER-122
 70
     0
 62
     7
  6
Continuous
370
    -3
390
F
  0
LAYER
  5
CA
330
2
100
AcDbSymbolTableRecord
100
AcDbLayerTableRecord
  2
LAYER-123
 70
     0
 62
     7
  6
Continuous
370
    -3
390
F
  0
LAYER
  5
CB
330
2
100
AcDbSymbolTableRecord
100
AcDbLayerTableRecord
  2
LAYER-124
 70
     0
 62
     7
  6
Continuous
370
    -3
390
F
  0
LAYER
  5
CC
330
2
100
AcDbSymbolTableRecord
100
AcDbLayerTableRecord
  2
LAYER-125
 70
     0
 62
     7
  6
Continuous
370
    -3
390
F
  0
LAYER
  5
CD
330
2
100
AcDbSymbolTableRecord
100
AcDbLayerTableRecord
  2
LAYER-126
 70
     0
 62
     7
  6
Continuous
370
    -3
390
F
  0
LAYER
  5
CE
330
2
100
AcDbSymbolTableRecord
100
AcDbLayerTableRecord
  2
LAYER-127
 70
     0
 62
     7
  6
Continuous
370
    -3
390
F
  0
LAYER
  5
CF
330
2
100
AcDbSymbolTableRecord
100
AcDbLayerTableRecord
  2
LAYER-128
 70
     0
 62
     7
  6
Continuous
370
    -3
390
F
  0
LAYER
  5
D0
330
2
100
AcDbSymbolTableRecord
100
AcDbLayerTableRecord
  2
LAYER-129
 70
     0
 62
     7
  6
Continuous
370
    -3
390
F
  0
LAYER
  5
D1
330
2
100
AcDbSymbolTableRecord
100
AcDbLayerTableRecord
  2
LAYER-130
 70
     0
 62
     7
  6
Continuous
370
    -3
390
F
  0
LAYER
  5
D2
330
2
100
AcDbSymbolTableRecord
100
AcDbLayerTableRecord
  2
LAYER-131
 70
     0
 62
     7
  6
Continuous
370
    -3
390
F
  0
LAYER
  5
D3
330
2
100
AcDbSymbolTableRecord
100
AcDbLayerTableRecord
  2
LAYER-132
 70
     0
 62
     7
  6
Continuous
370
    -3
390
F
  0
LAYER
  5
D4
330
2
100
AcDbSymbolTableRecord
100
AcDbLayerTableRecord
  2
LAYER-133
 70
     0
 62
     7
  6
Continuous
370
    -3
390
F
  0
LAYER
  5
D5
330
2
100
AcDbSymbolTableRecord
100
AcDbLayerTableRecord
  2
LAYER-134
 70
     0
 62
     7
  6
Continuous
370
    -3
390
F
  0
LAYER
  5
D6
330
2
100
AcDbSymbolTableRecord
100
AcDbLayerTableRecord
  2
LAYER-135
 70
     0
 62
    -4
  6
Continuous
370
    -3
390
F
  0
LAYER
  5
D7
330
2
100
AcDbSymbolTableRecord
100
AcDbLayerTableRecord
  2
LAYER-136
 70
     0
 62
    -3
  6
Continuous
370
    -3
390
F
  0
LAYER
  5
D8
330
2
100
AcDbSymbolTableRecord
100
AcDbLayerTableRecord
  2
LAYER-137
 70
     0
 62
    -1
  6
Continuous
370
    -3
390
F
  0
LAYER
  5
D9
330
2
100
AcDbSymbolTableRecord
100
AcDbLayerTableRecord
  2
LAYER-138
 70
     0
 62
     7
  6
Continuous
370
    -3
390
F
  0
LAYER
  5
DA
330
2
100
AcDbSymbolTableRecord
100
AcDbLayerTableRecord
  2
LAYER-139
 70
     0
 62
     7
  6
Continuous
370
    -3
390
F
  0
LAYER
  5
DB
330
2
100
AcDbSymbolTableRecord
100
AcDbLayerTableRecord
  2
LAYER-140
 70
     0
 62
     7
  6
Continuous
370
    -3
390
F
  0
LAYER
  5
DC
330
2
100
AcDbSymbolTableRecord
100
AcDbLayerTableRecord
  2
LAYER-141
 70
     0
 62
     7
  6
Continuous
370
    -3
390
F
  0
LAYER
  5
DD
330
2
100
AcDbSymbolTableRecord
100
AcDbLayerTableRecord
  2
LAYER-142
 70
     0
 62
     3
  6
Continuous
370
    -3
390
F
  0
LAYER
  5
DE
330
2
100
AcDbSymbolTableRecord
100
AcDbLayerTableRecord
  2
LAYER-143
 70
     0
 62
     7
  6
Continuous
370
    -3
390
F
  0
LAYER
  5
DF
330
2
100
AcDbSymbolTableRecord
100
AcDbLayerTableRecord
  2
LAYER-144
 70
     0
 62
     7
  6
Continuous
370
    -3
390
F
  0
LAYER
  5
E0
330
2
100
AcDbSymbolTableRecord
100
AcDbLayerTableRecord
  2
LAYER-145
 70
     0
 62
     3
  6
Continuous
370
    -3
390
F
  0
LAYER
  5
E1
330
2
100
AcDbSymbolTableRecord
100
AcDbLayerTableRecord
  2
LAYER-146
 70
     0
 62
     7
  6
Continuous
370
    -3
390
F
  0
LAYER
  5
E2
330
2
100
AcDbSymbolTableRecord
100
AcDbLayerTableRecord
  2
LAYER-147
 70
     0
 62
     7
  6
Continuous
370
    -3
390
F
  0
LAYER
  5
E3
330
2
100
AcDbSymbolTableRecord
100
AcDbLayerTableRecord
  2
LAYER-148
 70
     0
 62
     7
  6
Continuous
370
    -3
390
F
  0
LAYER
  5
E4
330
2
100
AcDbSymbolTableRecord
100
AcDbLayerTableRecord
  2
LAYER-149
 70
     0
 62
     7
  6
Continuous
370
    -3
390
F
  0
LAYER
  5
E5
330
2
100
AcDbSymbolTableRecord
100
AcDbLayerTableRecord
  2
LAYER-150
 70
     0
 62
     7
  6
Continuous
370
    -3
390
F
  0
LAYER
  5
E6
330
2
100
AcDbSymbolTableRecord
100
AcDbLayerTableRecord
  2
LAYER-151
 70
     0
 62
     7
  6
Continuous
370
    -3
390
F
  0
LAYER
  5
E7
330
2
100
AcDbSymbolTableRecord
100
AcDbLayerTableRecord
  2
LAYER-152
 70
     0
 62
     7
  6
Continuous
370
    -3
390
F
  0
LAYER
  5
E8
330
2
100
AcDbSymbolTableRecord
100
AcDbLayerTableRecord
  2
LAYER-153
 70
     0
 62
     7
  6
Continuous
370
    -3
390
F
  0
LAYER
  5
E9
330
2
100
AcDbSymbolTableRecord
100
AcDbLayerTableRecord
  2
LAYER-154
 70
     0
 62
     7
  6
Continuous
370
    -3
390
F
  0
LAYER
  5
EA
330
2
100
AcDbSymbolTableRecord
100
AcDbLayerTableRecord
  2
LAYER-155
 70
     0
 62
     7
  6
Continuous
370
    -3
390
F
  0
LAYER
  5
EB
330
2
100
AcDbSymbolTableRecord
100
AcDbLayerTableRecord
  2
LAYER-156
 70
     0
 62
     7
  6
Continuous
370
    -3
390
F
  0
LAYER
  5
EC
330
2
100
AcDbSymbolTableRecord
100
AcDbLayerTableRecord
  2
LAYER-157
 70
     0
 62
     7
  6
Continuous
370
    -3
390
F
  0
LAYER
  5
ED
330
2
100
AcDbSymbolTableRecord
100
AcDbLayerTableRecord
  2
LAYER-158
 70
     0
 62
     7
  6
Continuous
370
    -3
390
F
  0
LAYER
  5
EE
330
2
100
AcDbSymbolTableRecord
100
AcDbLayerTableRecord
  2
LAYER-159
 70
     0
 62
     7
  6
Continuous
370
    -3
390
F
  0
LAYER
  5
EF
330
2
100
AcDbSymbolTableRecord
100
AcDbLayerTableRecord
  2
LAYER-160
 70
     0
 62
     7
  6
Continuous
370
    -3
390
F
  0
LAYER
  5
F0
330
2
100
AcDbSymbolTableRecord
100
AcDbLayerTableRecord
  2
LAYER-161
 70
     0
 62
     7
  6
Continuous
370
    -3
390
F
  0
LAYER
  5
F1
330
2
100
AcDbSymbolTableRecord
100
AcDbLayerTableRecord
  2
LAYER-162
 70
     0
 62
     7
  6
Continuous
370
    -3
390
F
  0
LAYER
  5
F2
330
2
100
AcDbSymbolTableRecord
100
AcDbLayerTableRecord
  2
LAYER-163
 70
     0
 62
     7
  6
Continuous
370
    -3
390
F
  0
LAYER
  5
F3
330
2
100
AcDbSymbolTableRecord
100
AcDbLayerTableRecord
  2
LAYER-164
 70
     0
 62
     7
  6
Continuous
370
    -3
390
F
  0
LAYER
  5
F4
330
2
100
AcDbSymbolTableRecord
100
AcDbLayerTableRecord
  2
LAYER-165
 70
     0
 62
     7
  6
Continuous
370
    -3
390
F
  0
LAYER
  5
F5
330
2
100
AcDbSymbolTableRecord
100
AcDbLayerTableRecord
  2
LAYER-166
 70
     0
 62
     7
  6
Continuous
370
    -3
390
F
  0
LAYER
  5
F6
330
2
100
AcDbSymbolTableRecord
100
AcDbLayerTableRecord
  2
LAYER-167
 70
     0
 62
     7
  6
Continuous
370
    -3
390
F
  0
LAYER
  5
F7
330
2
100
AcDbSymbolTableRecord
100
AcDbLayerTableRecord
  2
LAYER-168
 70
     0
 62
     7
  6
Continuous
370
    -3
390
F
  0
LAYER
  5
F8
330
2
100
AcDbSymbolTableRecord
100
AcDbLayerTableRecord
  2
LAYER-169
 70
     0
 62
     7
  6
Continuous
370
    -3
390
F
  0
LAYER
  5
F9
330
2
100
AcDbSymbolTableRecord
100
AcDbLayerTableRecord
  2
LAYER-170
 70
     0
 62
     7
  6
Continuous
370
    -3
390
F
  0
LAYER
  5
FA
330
2
100
AcDbSymbolTableRecord
100
AcDbLayerTableRecord
  2
LAYER-171
 70
     0
 62
     7
  6
Continuous
370
    -3
390
F
  0
LAYER
  5
FB
330
2
100
AcDbSymbolTableRecord
100
AcDbLayerTableRecord
  2
LAYER-172
 70
     0
 62
     7
  6
Continuous
370
    -3
390
F
  0
LAYER
  5
FC
330
2
100
AcDbSymbolTableRecord
100
AcDbLayerTableRecord
  2
LAYER-173
 70
     0
 62
     7
  6
Continuous
370
    -3
390
F
  0
LAYER
  5
FD
330
2
100
AcDbSymbolTableRecord
100
AcDbLayerTableRecord
  2
LAYER-174
 70
     0
 62
     7
  6
Continuous
370
    -3
390
F
  0
LAYER
  5
FE
330
2
100
AcDbSymbolTableRecord
100
AcDbLayerTableRecord
  2
LAYER-175
 70
     0
 62
     7
  6
Continuous
370
    -3
390
F
  0
LAYER
  5
FF
330
2
100
AcDbSymbolTableRecord
100
AcDbLayerTableRecord
  2
LAYER-176
 70
     0
 62
     7
  6
Continuous
370
    -3
390
F
  0
LAYER
  5
100
330
2
100
AcDbSymbolTableRecord
100
AcDbLayerTableRecord
  2
LAYER-177
 70
     0
 62
     7
  6
Continuous
370
    -3
390
F
  0
LAYER
  5
101
330
2
100
AcDbSymbolTableRecord
100
AcDbLayerTableRecord
  2
LAYER-178
 70
     0
 62
     7
  6
Continuous
370
    -3
390
F
  0
LAYER
  5
102
330
2
100
AcDbSymbolTableRecord
100
AcDbLayerTableRecord
  2
LAYER-179
 70
     0
 62
     7
  6
Continuous
370
    -3
390
F
  0
LAYER
  5
103
330
2
100
AcDbSymbolTableRecord
100
AcDbLayerTableRecord
  2
LAYER-180
 70
     0
 62
     7
  6
Continuous
370
    -3
390
F
  0
LAYER
  5
104
330
2
100
AcDbSymbolTableRecord
100
AcDbLayerTableRecord
  2
LAYER-181
 70
     0
 62
     7
  6
Continuous
370
    -3
390
F
  0
LAYER
  5
105
330
2
100
AcDbSymbolTableRecord
100
AcDbLayerTableRecord
  2
LAYER-182
 70
     0
 62
     7
  6
Continuous
370
    -3
390
F
  0
LAYER
  5
106
330
2
100
AcDbSymbolTableRecord
100
AcDbLayerTableRecord
  2
LAYER-183
 70
     0
 62
     7
  6
Continuous
370
    -3
390
F
  0
LAYER
  5
107
330
2
100
AcDbSymbolTableRecord
100
AcDbLayerTableRecord
  2
LAYER-184
 70
     0
 62
     7
  6
Continuous
370
    -3
390
F
  0
LAYER
  5
108
330
2
100
AcDbSymbolTableRecord
100
AcDbLayerTableRecord
  2
LAYER-185
 70
     0
 62
     7
  6
Continuous
370
    -3
390
F
  0
LAYER
  5
109
330
2
100
AcDbSymbolTableRecord
100
AcDbLayerTableRecord
  2
LAYER-186
 70
     0
 62
     7
  6
Continuous
370
    -3
390
F
  0
LAYER
  5
10A
330
2
100
AcDbSymbolTableRecord
100
AcDbLayerTableRecord
  2
LAYER-187
 70
     0
 62
     7
  6
Continuous
370
    -3
390
F
  0
LAYER
  5
10B
330
2
100
AcDbSymbolTableRecord
100
AcDbLayerTableRecord
  2
LAYER-188
 70
     0
 62
     7
  6
Continuous
370
    -3
390
F
  0
LAYER
  5
10C
330
2
100
AcDbSymbolTableRecord
100
AcDbLayerTableRecord
  2
LAYER-189
 70
     0
 62
     7
  6
Continuous
370
    -3
390
F
  0
LAYER
  5
10D
330
2
100
AcDbSymbolTableRecord
100
AcDbLayerTableRecord
  2
LAYER-190
 70
     0
 62
     7
  6
Continuous
370
    -3
390
F
  0
LAYER
  5
10E
330
2
100
AcDbSymbolTableRecord
100
AcDbLayerTableRecord
  2
LAYER-191
 70
     0
 62
     7
  6
Continuous
370
    -3
390
F
  0
LAYER
  5
10F
330
2
100
AcDbSymbolTableRecord
100
AcDbLayerTableRecord
  2
LAYER-192
 70
     0
 62
     7
  6
Continuous
370
    -3
390
F
  0
LAYER
  5
110
330
2
100
AcDbSymbolTableRecord
100
AcDbLayerTableRecord
  2
LAYER-193
 70
     0
 62
     7
  6
Continuous
370
    -3
390
F
  0
LAYER
  5
111
330
2
100
AcDbSymbolTableRecord
100
AcDbLayerTableRecord
  2
LAYER-194
 70
     0
 62
     2
  6
Continuous
370
    -3
390
F
  0
LAYER
  5
112
330
2
100
AcDbSymbolTableRecord
100
AcDbLayerTableRecord
  2
LAYER-195
 70
     0
 62
     2
  6
Continuous
370
    -3
390
F
  0
LAYER
  5
113
330
2
100
AcDbSymbolTableRecord
100
AcDbLayerTableRecord
  2
LAYER-196
 70
     0
 62
     2
  6
Continuous
370
    -3
390
F
  0
LAYER
  5
114
330
2
100
AcDbSymbolTableRecord
100
AcDbLayerTableRecord
  2
LAYER-197
 70
     0
 62
     7
  6
Continuous
370
    -3
390
F
  0
LAYER
  5
115
330
2
100
AcDbSymbolTableRecord
100
AcDbLayerTableRecord
  2
LAYER-198
 70
     0
 62
     7
  6
Continuous
370
    -3
390
F
  0
LAYER
  5
116
330
2
100
AcDbSymbolTableRecord
100
AcDbLayerTableRecord
  2
LAYER-199
 70
     0
 62
     4
  6
Continuous
370
    -3
390
F
  0
LAYER
  5
117
330
2
100
AcDbSymbolTableRecord
100
AcDbLayerTableRecord
  2
LAYER-200
 70
     0
 62
     1
  6
Continuous
370
    -3
390
F
  0
LAYER
  5
118
330
2
100
AcDbSymbolTableRecord
100
AcDbLayerTableRecord
  2
LAYER-201
 70
     0
 62
     1
  6
Continuous
370
    -3
390
F
  0
LAYER
  5
119
330
2
100
AcDbSymbolTableRecord
100
AcDbLayerTableRecord
  2
LAYER-202
 70
     0
 62
     2
  6
Continuous
370
    -3
390
F
  0
LAYER
  5
11A
330
2
100
AcDbSymbolTableRecord
100
AcDbLayerTableRecord
  2
LAYER-203
 70
     0
 62
     2
  6
Continuous
370
    -3
390
F
  0
LAYER
  5
11B
330
2
100
AcDbSymbolTableRecord
100
AcDbLayerTableRecord
  2
LAYER-204
 70
     0
 62
     7
  6
Continuous
370
    -3
390
F
  0
LAYER
  5
11C
330
2
100
AcDbSymbolTableRecord
100
AcDbLayerTableRecord
  2
LAYER-205
 70
     0
 62
     7
  6
Continuous
370
    -3
390
F
  0
LAYER
  5
11D
330
2
100
AcDbSymbolTableRecord
100
AcDbLayerTableRecord
  2
LAYER-206
 70
     0
 62
     7
  6
Continuous
370
    -3
390
F
  0
LAYER
  5
11E
330
2
100
AcDbSymbolTableRecord
100
AcDbLayerTableRecord
  2
LAYER-207
 70
     0
 62
    -7
  6
Continuous
370
    -3
390
F
  0
LAYER
  5
11F
330
2
100
AcDbSymbolTableRecord
100
AcDbLayerTableRecord
  2
LAYER-208
 70
     0
 62
     2
  6
Continuous
370
    -3
390
F
  0
LAYER
  5
120
330
2
100
AcDbSymbolTableRecord
100
AcDbLayerTableRecord
  2
LAYER-209
 70
     0
 62
     7
  6
Continuous
370
    -3
390
F
  0
LAYER
  5
121
330
2
100
AcDbSymbolTableRecord
100
AcDbLayerTableRecord
  2
LAYER-210
 70
     0
 62
     2
  6
Continuous
290
     0
370
    -3
390
F
  0
LAYER
  5
122
330
2
100
AcDbSymbolTableRecord
100
AcDbLayerTableRecord
  2
LAYER-211
 70
     0
 62
     7
  6
Continuous
370
    -3
390
F
  0
LAYER
  5
123
330
2
100
AcDbSymbolTableRecord
100
AcDbLayerTableRecord
  2
LAYER-212
 70
     0
 62
     7
  6
Continuous
370
    -3
390
F
  0
LAYER
  5
124
330
2
100
AcDbSymbolTableRecord
100
AcDbLayerTableRecord
  2
LAYER-213
 70
     0
 62
     2
  6
Continuous
370
    -3
390
F
  0
LAYER
  5
125
330
2
100
AcDbSymbolTableRecord
100
AcDbLayerTableRecord
  2
LAYER-214
 70
     0
 62
     7
  6
Continuous
370
    -3
390
F
  0
LAYER
  5
126
330
2
100
AcDbSymbolTableRecord
100
AcDbLayerTableRecord
  2
LAYER-215
 70
     0
 62
     7
  6
Continuous
370
    -3
390
F
  0
LAYER
  5
127
330
2
100
AcDbSymbolTableRecord
100
AcDbLayerTableRecord
  2
LAYER-216
 70
     0
 62
     4
  6
Continuous
370
    -3
390
F
  0
LAYER
  5
128
330
2
100
AcDbSymbolTableRecord
100
AcDbLayerTableRecord
  2
LAYER-217
 70
     0
 62
     7
  6
Continuous
370
    -3
390
F
  0
LAYER
  5
129
330
2
100
AcDbSymbolTableRecord
100
AcDbLayerTableRecord
  2
LAYER-218
 70
     0
 62
     7
  6
Continuous
370
    -3
390
F
  0
LAYER
  5
12A
330
2
100
AcDbSymbolTableRecord
100
AcDbLayerTableRecord
  2
LAYER-219
 70
     0
 62
     7
  6
Continuous
370
    -3
390
F
  0
LAYER
  5
12B
330
2
100
AcDbSymbolTableRecord
100
AcDbLayerTableRecord
  2
LAYER-220
 70
     0
 62
     4
  6
Continuous
370
    -3
390
F
  0
LAYER
  5
12C
330
2
100
AcDbSymbolTableRecord
100
AcDbLayerTableRecord
  2
LAYER-221
 70
     0
 62
    -7
  6
Continuous
290
     0
370
    -3
390
F
  0
LAYER
  5
12D
330
2
100
AcDbSymbolTableRecord
100
AcDbLayerTableRecord
  2
LAYER-222
 70
     0
 62
    -4
  6
Continuous
290
     0
370
    -3
390
F
  0
LAYER
  5
12E
330
2
100
AcDbSymbolTableRecord
100
AcDbLayerTableRecord
  2
LAYER-223
 70
     0
 62
    -1
  6
Continuous
290
     0
370
    -3
390
F
  0
LAYER
  5
12F
330
2
100
AcDbSymbolTableRecord
100
AcDbLayerTableRecord
  2
LAYER-224
 70
     0
 62
    -1
  6
Continuous
290
     0
370
    -3
390
F
  0
LAYER
  5
130
330
2
100
AcDbSymbolTableRecord
100
AcDbLayerTableRecord
  2
LAYER-225
 70
     0
 62
     7
  6
Continuous
370
    -3
390
F
  0
LAYER
  5
131
330
2
100
AcDbSymbolTableRecord
100
AcDbLayerTableRecord
  2
LAYER-226
 70
     0
 62
     2
  6
Continuous
370
    -3
390
F
  0
LAYER
  5
132
330
2
100
AcDbSymbolTableRecord
100
AcDbLayerTableRecord
  2
LAYER-227
 70
     0
 62
     7
  6
Continuous
370
    -3
390
F
  0
LAYER
  5
133
330
2
100
AcDbSymbolTableRecord
100
AcDbLayerTableRecord
  2
LAYER-228
 70
     0
 62
     7
  6
Continuous
370
    -3
390
F
  0
LAYER
  5
134
330
2
100
AcDbSymbolTableRecord
100
AcDbLayerTableRecord
  2
LAYER-229
 70
     0
 62
     7
  6
Continuous
370
    -3
390
F
  0
LAYER
  5
135
330
2
100
AcDbSymbolTableRecord
100
AcDbLayerTableRecord
  2
LAYER-230
 70
     0
 62
     7
  6
Continuous
370
    -3
390
F
  0
LAYER
  5
136
330
2
100
AcDbSymbolTableRecord
100
AcDbLayerTableRecord
  2
LAYER-231
 70
     0
 62
     7
  6
Continuous
370
    -3
390
F
  0
LAYER
  5
137
330
2
100
AcDbSymbolTableRecord
100
AcDbLayerTableRecord
  2
LAYER-232
 70
     0
 62
     7
  6
Continuous
370
    -3
390
F
  0
LAYER
  5
138
330
2
100
AcDbSymbolTableRecord
100
AcDbLayerTableRecord
  2
LAYER-233
 70
     0
 62
     7
  6
Continuous
370
    -3
390
F
  0
LAYER
  5
139
330
2
100
AcDbSymbolTableRecord
100
AcDbLayerTableRecord
  2
LAYER-234
 70
     0
 62
     7
  6
Continuous
370
    -3
390
F
  0
LAYER
  5
13A
330
2
100
AcDbSymbolTableRecord
100
AcDbLayerTableRecord
  2
LAYER-235
 70
     0
 62
     7
  6
Continuous
370
    -3
390
F
  0
LAYER
  5
13B
330
2
100
AcDbSymbolTableRecord
100
AcDbLayerTableRecord
  2
LAYER-236
 70
     0
 62
     7
  6
Continuous
370
    -3
390
F
  0
LAYER
  5
13C
330
2
100
AcDbSymbolTableRecord
100
AcDbLayerTableRecord
  2
LAYER-237
 70
     0
 62
     7
  6
Continuous
370
    -3
390
F
  0
LAYER
  5
13D
330
2
100
AcDbSymbolTableRecord
100
AcDbLayerTableRecord
  2
LAYER-238
 70
     0
 62
     7
  6
Continuous
370
    -3
390
F
  0
LAYER
  5
13E
330
2
100
AcDbSymbolTableRecord
100
AcDbLayerTableRecord
  2
LAYER-239
 70
     0
 62
     7
  6
Continuous
370
    -3
390
F
  0
LAYER
  5
13F
330
2
100
AcDbSymbolTableRecord
100
AcDbLayerTableRecord
  2
LAYER-240
 70
     0
 62
     7
  6
Continuous
370
    -3
390
F
  0
LAYER
  5
140
330
2
100
AcDbSymbolTableRecord
100
AcDbLayerTableRecord
  2
LAYER-241
 70
     0
 62
     7
  6
Continuous
370
    -3
390
F
  0
LAYER
  5
141
330
2
100
AcDbSymbolTableRecord
100
AcDbLayerTableRecord
  2
LAYER-242
 70
     0
 62
     7
  6
Continuous
370
    -3
390
F
  0
LAYER
  5
142
330
2
100
AcDbSymbolTableRecord
100
AcDbLayerTableRecord
  2
LAYER-243
 70
     0
 62
     7
  6
Continuous
370
    -3
390
F
  0
LAYER
  5
143
330
2
100
AcDbSymbolTableRecord
100
AcDbLayerTableRecord
  2
LAYER-244
 70
     0
 62
     7
  6
Continuous
370
    -3
390
F
  0
LAYER
  5
144
330
2
100
AcDbSymbolTableRecord
100
AcDbLayerTableRecord
  2
LAYER-245
 70
     0
 62
     7
  6
Continuous
370
    -3
390
F
  0
LAYER
  5
145
330
2
100
AcDbSymbolTableRecord
100
AcDbLayerTableRecord
  2
LAYER-246
 70
     0
 62
     7
  6
Continuous
370
    -3
390
F
  0
LAYER
  5
146
330
2
100
AcDbSymbolTableRecord
100
AcDbLayerTableRecord
  2
LAYER-247
 70
     0
 62
     7
  6
Continuous
370
    -3
390
F
  0
LAYER
  5
147
330
2
100
AcDbSymbolTableRecord
100
AcDbLayerTableRecord
  2
LAYER-248
 70
     0
 62
     7
  6
Continuous
370
    -3
390
F
  0
LAYER
  5
148
330
2
100
AcDbSymbolTableRecord
100
AcDbLayerTableRecord
  2
LAYER-249
 70
     0
 62
     7
  6
Continuous
370
    -3
390
F
  0
LAYER
  5
149
330
2
100
AcDbSymbolTableRecord
100
AcDbLayerTableRecord
  2
LAYER-250
 70
     0
 62
     7
  6
Continuous
370
    -3
390
F
  0
LAYER
  5
14A
330
2
100
AcDbSymbolTableRecord
100
AcDbLayerTableRecord
  2
LAYER-251
 70
     0
 62
     7
  6
Continuous
370
    -3
390
F
  0
LAYER
  5
14B
330
2
100
AcDbSymbolTableRecord
100
AcDbLayerTableRecord
  2
LAYER-252
 70
     0
 62
     7
  6
Continuous
370
    -3
390
F
  0
LAYER
  5
14C
330
2
100
AcDbSymbolTableRecord
100
AcDbLayerTableRecord
  2
LAYER-253
 70
     0
 62
     7
  6
Continuous
370
    -3
390
F
  0
LAYER
  5
14D
330
2
100
AcDbSymbolTableRecord
100
AcDbLayerTableRecord
  2
LAYER-254
 70
     0
 62
     7
  6
Continuous
370
    -3
390
F
  0
LAYER
  5
14E
330
2
100
AcDbSymbolTableRecord
100
AcDbLayerTableRecord
  2
LAYER-255
 70
     0
 62
     7
  6
Continuous
370
    -3
390
F
  0
LAYER
  5
14F
330
2
100
AcDbSymbolTableRecord
100
AcDbLayerTableRecord
  2
LAYER-256
 70
     0
 62
     7
  6
Continuous
370
    -3
390
F
  0
LAYER
  5
150
330
2
100
AcDbSymbolTableRecord
100
AcDbLayerTableRecord
  2
SUPLINE
 70
     0
 62
    -7
  6
Continuous
290
     0
370
    -3
390
F
  0
LAYER
  5
151
330
2
100
AcDbSymbolTableRecord
100
AcDbLayerTableRecord
  2
FRAMELAYER-001
 70
     0
 62
     7
  6
Continuous
370
    -3
390
F
  0
LAYER
  5
152
330
2
100
AcDbSymbolTableRecord
100
AcDbLayerTableRecord
  2
FRAMELAYER-002
 70
     0
 62
     7
  6
Continuous
370
    -3
390
F
  0
LAYER
  5
153
330
2
100
AcDbSymbolTableRecord
100
AcDbLayerTableRecord
  2
FRAMELAYER-003
 70
     0
 62
     7
  6
Continuous
370
    -3
390
F
  0
LAYER
  5
154
330
2
100
AcDbSymbolTableRecord
100
AcDbLayerTableRecord
  2
FRAMELAYER-004
 70
     0
 62
     7
  6
Continuous
370
    -3
390
F
  0
LAYER
  5
155
330
2
100
AcDbSymbolTableRecord
100
AcDbLayerTableRecord
  2
FRAMELAYER-005
 70
     0
 62
     7
  6
Continuous
370
    -3
390
F
  0
LAYER
  5
156
330
2
100
AcDbSymbolTableRecord
100
AcDbLayerTableRecord
  2
FRAMELAYER-006
 70
     0
 62
     7
  6
Continuous
370
    -3
390
F
  0
LAYER
  5
157
330
2
100
AcDbSymbolTableRecord
100
AcDbLayerTableRecord
  2
FRAMELAYER-007
 70
     0
 62
     7
  6
Continuous
370
    -3
390
F
  0
LAYER
  5
158
330
2
100
AcDbSymbolTableRecord
100
AcDbLayerTableRecord
  2
FRAMELAYER-008
 70
     0
 62
     7
  6
Continuous
370
    -3
390
F
  0
LAYER
  5
159
330
2
100
AcDbSymbolTableRecord
100
AcDbLayerTableRecord
  2
FRAMELAYER-009
 70
     0
 62
     7
  6
Continuous
370
    -3
390
F
  0
LAYER
  5
15A
330
2
100
AcDbSymbolTableRecord
100
AcDbLayerTableRecord
  2
FRAMELAYER-010
 70
     0
 62
     7
  6
Continuous
370
    -3
390
F
  0
LAYER
  5
15B
330
2
100
AcDbSymbolTableRecord
100
AcDbLayerTableRecord
  2
FRAMELAYER-011
 70
     0
 62
     7
  6
Continuous
370
    -3
390
F
  0
LAYER
  5
15C
330
2
100
AcDbSymbolTableRecord
100
AcDbLayerTableRecord
  2
FRAMELAYER-012
 70
     0
 62
     7
  6
Continuous
370
    -3
390
F
  0
LAYER
  5
15D
330
2
100
AcDbSymbolTableRecord
100
AcDbLayerTableRecord
  2
FRAMELAYER-013
 70
     0
 62
     7
  6
Continuous
370
    -3
390
F
  0
LAYER
  5
15E
330
2
100
AcDbSymbolTableRecord
100
AcDbLayerTableRecord
  2
FRAMELAYER-014
 70
     0
 62
     7
  6
Continuous
370
    -3
390
F
  0
LAYER
  5
15F
330
2
100
AcDbSymbolTableRecord
100
AcDbLayerTableRecord
  2
FRAMELAYER-015
 70
     0
 62
    -7
  6
Continuous
370
    -3
390
F
  0
LAYER
  5
160
330
2
100
AcDbSymbolTableRecord
100
AcDbLayerTableRecord
  2
FRAMELAYER-016
 70
     0
 62
     4
  6
Continuous
370
    -3
390
F
  0
LAYER
  5
161
330
2
100
AcDbSymbolTableRecord
100
AcDbLayerTableRecord
  2
FRAMELAYER-017
 70
     0
 62
     7
  6
Continuous
370
    -3
390
F
  0
LAYER
  5
162
330
2
100
AcDbSymbolTableRecord
100
AcDbLayerTableRecord
  2
FRAMELAYER-018
 70
     0
 62
     2
  6
Continuous
370
    -3
390
F
  0
LAYER
  5
163
330
2
100
AcDbSymbolTableRecord
100
AcDbLayerTableRecord
  2
FRAMELAYER-019
 70
     0
 62
     3
  6
Continuous
370
    -3
390
F
  0
LAYER
  5
164
330
2
100
AcDbSymbolTableRecord
100
AcDbLayerTableRecord
  2
FRAMELAYER-020
 70
     0
 62
     2
  6
Continuous
370
    -3
390
F
  0
LAYER
  5
165
330
2
100
AcDbSymbolTableRecord
100
AcDbLayerTableRecord
  2
FRAMELAYER-021
 70
     0
 62
     7
  6
Continuous
370
    -3
390
F
  0
LAYER
  5
166
330
2
100
AcDbSymbolTableRecord
100
AcDbLayerTableRecord
  2
FRAMELAYER-022
 70
     0
 62
     4
  6
Continuous
370
    -3
390
F
  0
LAYER
  5
167
330
2
100
AcDbSymbolTableRecord
100
AcDbLayerTableRecord
  2
FRAMELAYER-023
 70
     0
 62
     4
  6
Continuous
370
    -3
390
F
  0
LAYER
  5
168
330
2
100
AcDbSymbolTableRecord
100
AcDbLayerTableRecord
  2
FRAMELAYER-024
 70
     0
 62
     7
  6
Continuous
370
    -3
390
F
  0
LAYER
  5
169
330
2
100
AcDbSymbolTableRecord
100
AcDbLayerTableRecord
  2
FRAMELAYER-025
 70
     0
 62
     7
  6
Continuous
370
    -3
390
F
  0
LAYER
  5
16A
330
2
100
AcDbSymbolTableRecord
100
AcDbLayerTableRecord
  2
FRAMELAYER-026
 70
     0
 62
    -7
  6
Continuous
370
    -3
390
F
  0
LAYER
  5
16B
330
2
100
AcDbSymbolTableRecord
100
AcDbLayerTableRecord
  2
FRAMELAYER-027
 70
     0
 62
     7
  6
Continuous
370
    -3
390
F
  0
LAYER
  5
16C
330
2
100
AcDbSymbolTableRecord
100
AcDbLayerTableRecord
  2
FRAMELAYER-028
 70
     0
 62
     7
  6
Continuous
370
    -3
390
F
  0
LAYER
  5
16D
330
2
100
AcDbSymbolTableRecord
100
AcDbLayerTableRecord
  2
FRAMELAYER-029
 70
     0
 62
     7
  6
Continuous
370
    -3
390
F
  0
LAYER
  5
16E
330
2
100
AcDbSymbolTableRecord
100
AcDbLayerTableRecord
  2
FRAMELAYER-030
 70
     0
 62
     2
  6
Continuous
370
    -3
390
F
  0
LAYER
  5
16F
330
2
100
AcDbSymbolTableRecord
100
AcDbLayerTableRecord
  2
FRAMELAYER-031
 70
     0
 62
     7
  6
Continuous
370
    -3
390
F
  0
LAYER
  5
170
330
2
100
AcDbSymbolTableRecord
100
AcDbLayerTableRecord
  2
FRAMELAYER-032
 70
     0
 62
     2
  6
Continuous
370
    -3
390
F
  0
LAYER
  5
171
330
2
100
AcDbSymbolTableRecord
100
AcDbLayerTableRecord
  2
FRAMELAYER-033
 70
     0
 62
     7
  6
Continuous
370
    -3
390
F
  0
LAYER
  5
172
330
2
100
AcDbSymbolTableRecord
100
AcDbLayerTableRecord
  2
FRAMELAYER-034
 70
     0
 62
     7
  6
Continuous
370
    -3
390
F
  0
LAYER
  5
173
330
2
100
AcDbSymbolTableRecord
100
AcDbLayerTableRecord
  2
FRAMELAYER-035
 70
     0
 62
     3
  6
Continuous
370
    -3
390
F
  0
LAYER
  5
174
330
2
100
AcDbSymbolTableRecord
100
AcDbLayerTableRecord
  2
FRAMELAYER-036
 70
     0
 62
     2
  6
Continuous
370
    -3
390
F
  0
LAYER
  5
175
330
2
100
AcDbSymbolTableRecord
100
AcDbLayerTableRecord
  2
FRAMELAYER-037
 70
     0
 62
     7
  6
Continuous
370
    -3
390
F
  0
LAYER
  5
176
330
2
100
AcDbSymbolTableRecord
100
AcDbLayerTableRecord
  2
FRAMELAYER-038
 70
     0
 62
     7
  6
Continuous
370
    -3
390
F
  0
LAYER
  5
177
330
2
100
AcDbSymbolTableRecord
100
AcDbLayerTableRecord
  2
FRAMELAYER-039
 70
     0
 62
     7
  6
Continuous
370
    -3
390
F
  0
LAYER
  5
178
330
2
100
AcDbSymbolTableRecord
100
AcDbLayerTableRecord
  2
FRAMELAYER-040
 70
     0
 62
     7
  6
Continuous
370
    -3
390
F
  0
LAYER
  5
179
330
2
100
AcDbSymbolTableRecord
100
AcDbLayerTableRecord
  2
FRAMELAYER-041
 70
     0
 62
     7
  6
Continuous
370
    -3
390
F
  0
LAYER
  5
17A
330
2
100
AcDbSymbolTableRecord
100
AcDbLayerTableRecord
  2
FRAMELAYER-042
 70
     0
 62
     7
  6
Continuous
370
    -3
390
F
  0
LAYER
  5
17B
330
2
100
AcDbSymbolTableRecord
100
AcDbLayerTableRecord
  2
FRAMELAYER-043
 70
     0
 62
     7
  6
Continuous
370
    -3
390
F
  0
LAYER
  5
17C
330
2
100
AcDbSymbolTableRecord
100
AcDbLayerTableRecord
  2
FRAMELAYER-044
 70
     0
 62
     7
  6
Continuous
370
    -3
390
F
  0
LAYER
  5
17D
330
2
100
AcDbSymbolTableRecord
100
AcDbLayerTableRecord
  2
FRAMELAYER-045
 70
     0
 62
     7
  6
Continuous
370
    -3
390
F
  0
LAYER
  5
17E
330
2
100
AcDbSymbolTableRecord
100
AcDbLayerTableRecord
  2
FRAMELAYER-046
 70
     0
 62
     7
  6
Continuous
370
    -3
390
F
  0
LAYER
  5
17F
330
2
100
AcDbSymbolTableRecord
100
AcDbLayerTableRecord
  2
FRAMELAYER-047
 70
     0
 62
     7
  6
Continuous
370
    -3
390
F
  0
LAYER
  5
180
330
2
100
AcDbSymbolTableRecord
100
AcDbLayerTableRecord
  2
FRAMELAYER-048
 70
     0
 62
     2
  6
Continuous
370
    -3
390
F
  0
LAYER
  5
181
330
2
100
AcDbSymbolTableRecord
100
AcDbLayerTableRecord
  2
FRAMELAYER-049
 70
     0
 62
     3
  6
Continuous
370
    -3
390
F
  0
LAYER
  5
182
330
2
100
AcDbSymbolTableRecord
100
AcDbLayerTableRecord
  2
FRAMELAYER-050
 70
     0
 62
     7
  6
Continuous
370
    -3
390
F
  0
LAYER
  5
183
330
2
100
AcDbSymbolTableRecord
100
AcDbLayerTableRecord
  2
FRAMELAYER-051
 70
     0
 62
     2
  6
Continuous
370
    -3
390
F
  0
LAYER
  5
184
330
2
100
AcDbSymbolTableRecord
100
AcDbLayerTableRecord
  2
FRAMELAYER-052
 70
     0
 62
     7
  6
Continuous
370
    -3
390
F
  0
LAYER
  5
185
330
2
100
AcDbSymbolTableRecord
100
AcDbLayerTableRecord
  2
FRAMELAYER-053
 70
     0
 62
     7
  6
Continuous
370
    -3
390
F
  0
LAYER
  5
186
330
2
100
AcDbSymbolTableRecord
100
AcDbLayerTableRecord
  2
FRAMELAYER-054
 70
     0
 62
     7
  6
Continuous
370
    -3
390
F
  0
LAYER
  5
187
330
2
100
AcDbSymbolTableRecord
100
AcDbLayerTableRecord
  2
FRAMELAYER-055
 70
     0
 62
     7
  6
Continuous
370
    -3
390
F
  0
LAYER
  5
188
330
2
100
AcDbSymbolTableRecord
100
AcDbLayerTableRecord
  2
FRAMELAYER-056
 70
     0
 62
     7
  6
Continuous
370
    -3
390
F
  0
LAYER
  5
189
330
2
100
AcDbSymbolTableRecord
100
AcDbLayerTableRecord
  2
FRAMELAYER-057
 70
     0
 62
     7
  6
Continuous
370
    -3
390
F
  0
LAYER
  5
18A
330
2
100
AcDbSymbolTableRecord
100
AcDbLayerTableRecord
  2
FRAMELAYER-058
 70
     0
 62
     7
  6
Continuous
370
    -3
390
F
  0
LAYER
  5
18B
330
2
100
AcDbSymbolTableRecord
100
AcDbLayerTableRecord
  2
FRAMELAYER-059
 70
     0
 62
     7
  6
Continuous
370
    -3
390
F
  0
LAYER
  5
18C
330
2
100
AcDbSymbolTableRecord
100
AcDbLayerTableRecord
  2
FRAMELAYER-060
 70
     0
 62
     7
  6
Continuous
370
    -3
390
F
  0
LAYER
  5
18D
330
2
100
AcDbSymbolTableRecord
100
AcDbLayerTableRecord
  2
FRAMELAYER-061
 70
     0
 62
     7
  6
Continuous
370
    -3
390
F
  0
LAYER
  5
18E
330
2
100
AcDbSymbolTableRecord
100
AcDbLayerTableRecord
  2
FRAMELAYER-062
 70
     0
 62
     7
  6
Continuous
370
    -3
390
F
  0
LAYER
  5
18F
330
2
100
AcDbSymbolTableRecord
100
AcDbLayerTableRecord
  2
FRAMELAYER-063
 70
     0
 62
     7
  6
Continuous
370
    -3
390
F
  0
LAYER
  5
190
330
2
100
AcDbSymbolTableRecord
100
AcDbLayerTableRecord
  2
FRAMELAYER-064
 70
     0
 62
     2
  6
Continuous
370
    -3
390
F
  0
LAYER
  5
191
330
2
100
AcDbSymbolTableRecord
100
AcDbLayerTableRecord
  2
FRAMELAYER-065
 70
     0
 62
     7
  6
Continuous
370
    -3
390
F
  0
LAYER
  5
192
330
2
100
AcDbSymbolTableRecord
100
AcDbLayerTableRecord
  2
FRAMELAYER-066
 70
     0
 62
     2
  6
Continuous
370
    -3
390
F
  0
LAYER
  5
193
330
2
100
AcDbSymbolTableRecord
100
AcDbLayerTableRecord
  2
FRAMELAYER-067
 70
     0
 62
     2
  6
Continuous
370
    -3
390
F
  0
LAYER
  5
194
330
2
100
AcDbSymbolTableRecord
100
AcDbLayerTableRecord
  2
FRAMELAYER-068
 70
     0
 62
     7
  6
Continuous
370
    -3
390
F
  0
LAYER
  5
195
330
2
100
AcDbSymbolTableRecord
100
AcDbLayerTableRecord
  2
FRAMELAYER-069
 70
     0
 62
     7
  6
Continuous
370
    -3
390
F
  0
LAYER
  5
196
330
2
100
AcDbSymbolTableRecord
100
AcDbLayerTableRecord
  2
FRAMELAYER-070
 70
     0
 62
     7
  6
Continuous
370
    -3
390
F
  0
LAYER
  5
197
330
2
100
AcDbSymbolTableRecord
100
AcDbLayerTableRecord
  2
FRAMELAYER-071
 70
     0
 62
     7
  6
Continuous
370
    -3
390
F
  0
LAYER
  5
198
330
2
100
AcDbSymbolTableRecord
100
AcDbLayerTableRecord
  2
FRAMELAYER-072
 70
     0
 62
     7
  6
Continuous
370
    -3
390
F
  0
LAYER
  5
199
330
2
100
AcDbSymbolTableRecord
100
AcDbLayerTableRecord
  2
FRAMELAYER-073
 70
     0
 62
     7
  6
Continuous
370
    -3
390
F
  0
LAYER
  5
19A
330
2
100
AcDbSymbolTableRecord
100
AcDbLayerTableRecord
  2
FRAMELAYER-074
 70
     0
 62
     7
  6
Continuous
370
    -3
390
F
  0
LAYER
  5
19B
330
2
100
AcDbSymbolTableRecord
100
AcDbLayerTableRecord
  2
FRAMELAYER-075
 70
     0
 62
     7
  6
Continuous
370
    -3
390
F
  0
LAYER
  5
19C
330
2
100
AcDbSymbolTableRecord
100
AcDbLayerTableRecord
  2
FRAMELAYER-076
 70
     0
 62
     7
  6
Continuous
370
    -3
390
F
  0
LAYER
  5
19D
330
2
100
AcDbSymbolTableRecord
100
AcDbLayerTableRecord
  2
FRAMELAYER-077
 70
     0
 62
     7
  6
Continuous
370
    -3
390
F
  0
LAYER
  5
19E
330
2
100
AcDbSymbolTableRecord
100
AcDbLayerTableRecord
  2
FRAMELAYER-078
 70
     0
 62
     7
  6
Continuous
370
    -3
390
F
  0
LAYER
  5
19F
330
2
100
AcDbSymbolTableRecord
100
AcDbLayerTableRecord
  2
FRAMELAYER-079
 70
     0
 62
     7
  6
Continuous
370
    -3
390
F
  0
LAYER
  5
1A0
330
2
100
AcDbSymbolTableRecord
100
AcDbLayerTableRecord
  2
FRAMELAYER-080
 70
     0
 62
     2
  6
Continuous
370
    -3
390
F
  0
LAYER
  5
1A1
330
2
100
AcDbSymbolTableRecord
100
AcDbLayerTableRecord
  2
FRAMELAYER-081
 70
     0
 62
     7
  6
Continuous
370
    -3
390
F
  0
LAYER
  5
1A2
330
2
100
AcDbSymbolTableRecord
100
AcDbLayerTableRecord
  2
FRAMELAYER-082
 70
     0
 62
     7
  6
Continuous
370
    -3
390
F
  0
LAYER
  5
1A3
330
2
100
AcDbSymbolTableRecord
100
AcDbLayerTableRecord
  2
FRAMELAYER-083
 70
     0
 62
     7
  6
Continuous
370
    -3
390
F
  0
LAYER
  5
1A4
330
2
100
AcDbSymbolTableRecord
100
AcDbLayerTableRecord
  2
FRAMELAYER-084
 70
     0
 62
     7
  6
Continuous
370
    -3
390
F
  0
LAYER
  5
1A5
330
2
100
AcDbSymbolTableRecord
100
AcDbLayerTableRecord
  2
FRAMELAYER-085
 70
     0
 62
     7
  6
Continuous
370
    -3
390
F
  0
LAYER
  5
1A6
330
2
100
AcDbSymbolTableRecord
100
AcDbLayerTableRecord
  2
FRAMELAYER-086
 70
     0
 62
     7
  6
Continuous
370
    -3
390
F
  0
LAYER
  5
1A7
330
2
100
AcDbSymbolTableRecord
100
AcDbLayerTableRecord
  2
FRAMELAYER-087
 70
     0
 62
     7
  6
Continuous
370
    -3
390
F
  0
LAYER
  5
1A8
330
2
100
AcDbSymbolTableRecord
100
AcDbLayerTableRecord
  2
FRAMELAYER-088
 70
     0
 62
     7
  6
Continuous
370
    -3
390
F
  0
LAYER
  5
1A9
330
2
100
AcDbSymbolTableRecord
100
AcDbLayerTableRecord
  2
FRAMELAYER-089
 70
     0
 62
     7
  6
Continuous
370
    -3
390
F
  0
LAYER
  5
1AA
330
2
100
AcDbSymbolTableRecord
100
AcDbLayerTableRecord
  2
FRAMELAYER-090
 70
     0
 62
     7
  6
Continuous
370
    -3
390
F
  0
LAYER
  5
1AB
330
2
100
AcDbSymbolTableRecord
100
AcDbLayerTableRecord
  2
FRAMELAYER-091
 70
     0
 62
     7
  6
Continuous
370
    -3
390
F
  0
LAYER
  5
1AC
330
2
100
AcDbSymbolTableRecord
100
AcDbLayerTableRecord
  2
FRAMELAYER-092
 70
     0
 62
     7
  6
Continuous
370
    -3
390
F
  0
LAYER
  5
1AD
330
2
100
AcDbSymbolTableRecord
100
AcDbLayerTableRecord
  2
FRAMELAYER-093
 70
     0
 62
     7
  6
Continuous
370
    -3
390
F
  0
LAYER
  5
1AE
330
2
100
AcDbSymbolTableRecord
100
AcDbLayerTableRecord
  2
FRAMELAYER-094
 70
     0
 62
     7
  6
Continuous
370
    -3
390
F
  0
LAYER
  5
1AF
330
2
100
AcDbSymbolTableRecord
100
AcDbLayerTableRecord
  2
FRAMELAYER-095
 70
     0
 62
     7
  6
Continuous
370
    -3
390
F
  0
LAYER
  5
1B0
330
2
100
AcDbSymbolTableRecord
100
AcDbLayerTableRecord
  2
FRAMELAYER-096
 70
     0
 62
     7
  6
Continuous
370
    -3
390
F
  0
LAYER
  5
1B1
330
2
100
AcDbSymbolTableRecord
100
AcDbLayerTableRecord
  2
FRAMELAYER-097
 70
     0
 62
     7
  6
Continuous
370
    -3
390
F
  0
LAYER
  5
1B2
330
2
100
AcDbSymbolTableRecord
100
AcDbLayerTableRecord
  2
FRAMELAYER-098
 70
     0
 62
     7
  6
Continuous
370
    -3
390
F
  0
LAYER
  5
1B3
330
2
100
AcDbSymbolTableRecord
100
AcDbLayerTableRecord
  2
FRAMELAYER-099
 70
     0
 62
     7
  6
Continuous
370
    -3
390
F
  0
LAYER
  5
1B4
330
2
100
AcDbSymbolTableRecord
100
AcDbLayerTableRecord
  2
FRAMELAYER-100
 70
     0
 62
     7
  6
Continuous
370
    -3
390
F
  0
LAYER
  5
1B5
330
2
100
AcDbSymbolTableRecord
100
AcDbLayerTableRecord
  2
FRAMELAYER-101
 70
     0
 62
     7
  6
Continuous
370
    -3
390
F
  0
LAYER
  5
1B6
330
2
100
AcDbSymbolTableRecord
100
AcDbLayerTableRecord
  2
FRAMELAYER-102
 70
     0
 62
     7
  6
Continuous
370
    -3
390
F
  0
LAYER
  5
1B7
330
2
100
AcDbSymbolTableRecord
100
AcDbLayerTableRecord
  2
FRAMELAYER-103
 70
     0
 62
     7
  6
Continuous
370
    -3
390
F
  0
LAYER
  5
1B8
330
2
100
AcDbSymbolTableRecord
100
AcDbLayerTableRecord
  2
FRAMELAYER-104
 70
     0
 62
     7
  6
Continuous
370
    -3
390
F
  0
LAYER
  5
1B9
330
2
100
AcDbSymbolTableRecord
100
AcDbLayerTableRecord
  2
FRAMELAYER-105
 70
     0
 62
     7
  6
Continuous
370
    -3
390
F
  0
LAYER
  5
1BA
330
2
100
AcDbSymbolTableRecord
100
AcDbLayerTableRecord
  2
FRAMELAYER-106
 70
     0
 62
     7
  6
Continuous
370
    -3
390
F
  0
LAYER
  5
1BB
330
2
100
AcDbSymbolTableRecord
100
AcDbLayerTableRecord
  2
FRAMELAYER-107
 70
     0
 62
     7
  6
Continuous
370
    -3
390
F
  0
LAYER
  5
1BC
330
2
100
AcDbSymbolTableRecord
100
AcDbLayerTableRecord
  2
FRAMELAYER-108
 70
     0
 62
     7
  6
Continuous
370
    -3
390
F
  0
LAYER
  5
1BD
330
2
100
AcDbSymbolTableRecord
100
AcDbLayerTableRecord
  2
FRAMELAYER-109
 70
     0
 62
     7
  6
Continuous
370
    -3
390
F
  0
LAYER
  5
1BE
330
2
100
AcDbSymbolTableRecord
100
AcDbLayerTableRecord
  2
FRAMELAYER-110
 70
     0
 62
     7
  6
Continuous
370
    -3
390
F
  0
LAYER
  5
1BF
330
2
100
AcDbSymbolTableRecord
100
AcDbLayerTableRecord
  2
FRAMELAYER-111
 70
     0
 62
     7
  6
Continuous
370
    -3
390
F
  0
LAYER
  5
1C0
330
2
100
AcDbSymbolTableRecord
100
AcDbLayerTableRecord
  2
FRAMELAYER-112
 70
     0
 62
     7
  6
Continuous
370
    -3
390
F
  0
LAYER
  5
1C1
330
2
100
AcDbSymbolTableRecord
100
AcDbLayerTableRecord
  2
FRAMELAYER-113
 70
     0
 62
     7
  6
Continuous
370
    -3
390
F
  0
LAYER
  5
1C2
330
2
100
AcDbSymbolTableRecord
100
AcDbLayerTableRecord
  2
FRAMELAYER-114
 70
     0
 62
     7
  6
Continuous
370
    -3
390
F
  0
LAYER
  5
1C3
330
2
100
AcDbSymbolTableRecord
100
AcDbLayerTableRecord
  2
FRAMELAYER-115
 70
     0
 62
     7
  6
Continuous
370
    -3
390
F
  0
LAYER
  5
1C4
330
2
100
AcDbSymbolTableRecord
100
AcDbLayerTableRecord
  2
FRAMELAYER-116
 70
     0
 62
     7
  6
Continuous
370
    -3
390
F
  0
LAYER
  5
1C5
330
2
100
AcDbSymbolTableRecord
100
AcDbLayerTableRecord
  2
FRAMELAYER-117
 70
     0
 62
     7
  6
Continuous
370
    -3
390
F
  0
LAYER
  5
1C6
330
2
100
AcDbSymbolTableRecord
100
AcDbLayerTableRecord
  2
FRAMELAYER-118
 70
     0
 62
     7
  6
Continuous
370
    -3
390
F
  0
LAYER
  5
1C7
330
2
100
AcDbSymbolTableRecord
100
AcDbLayerTableRecord
  2
FRAMELAYER-119
 70
     0
 62
     7
  6
Continuous
370
    -3
390
F
  0
LAYER
  5
1C8
330
2
100
AcDbSymbolTableRecord
100
AcDbLayerTableRecord
  2
FRAMELAYER-120
 70
     0
 62
     7
  6
Continuous
370
    -3
390
F
  0
LAYER
  5
1C9
330
2
100
AcDbSymbolTableRecord
100
AcDbLayerTableRecord
  2
FRAMELAYER-121
 70
     0
 62
     7
  6
Continuous
370
    -3
390
F
  0
LAYER
  5
1CA
330
2
100
AcDbSymbolTableRecord
100
AcDbLayerTableRecord
  2
FRAMELAYER-122
 70
     0
 62
     7
  6
Continuous
370
    -3
390
F
  0
LAYER
  5
1CB
330
2
100
AcDbSymbolTableRecord
100
AcDbLayerTableRecord
  2
FRAMELAYER-123
 70
     0
 62
     7
  6
Continuous
370
    -3
390
F
  0
LAYER
  5
1CC
330
2
100
AcDbSymbolTableRecord
100
AcDbLayerTableRecord
  2
FRAMELAYER-124
 70
     0
 62
     7
  6
Continuous
370
    -3
390
F
  0
LAYER
  5
1CD
330
2
100
AcDbSymbolTableRecord
100
AcDbLayerTableRecord
  2
FRAMELAYER-125
 70
     0
 62
     7
  6
Continuous
370
    -3
390
F
  0
LAYER
  5
1CE
330
2
100
AcDbSymbolTableRecord
100
AcDbLayerTableRecord
  2
FRAMELAYER-126
 70
     0
 62
     7
  6
Continuous
370
    -3
390
F
  0
LAYER
  5
1CF
330
2
100
AcDbSymbolTableRecord
100
AcDbLayerTableRecord
  2
FRAMELAYER-127
 70
     0
 62
     7
  6
Continuous
370
    -3
390
F
  0
LAYER
  5
1D0
330
2
100
AcDbSymbolTableRecord
100
AcDbLayerTableRecord
  2
FRAMELAYER-128
 70
     0
 62
     7
  6
Continuous
370
    -3
390
F
  0
LAYER
  5
1D1
330
2
100
AcDbSymbolTableRecord
100
AcDbLayerTableRecord
  2
FRAMELAYER-129
 70
     0
 62
     7
  6
Continuous
370
    -3
390
F
  0
LAYER
  5
1D2
330
2
100
AcDbSymbolTableRecord
100
AcDbLayerTableRecord
  2
FRAMELAYER-130
 70
     0
 62
     7
  6
Continuous
370
    -3
390
F
  0
LAYER
  5
1D3
330
2
100
AcDbSymbolTableRecord
100
AcDbLayerTableRecord
  2
FRAMELAYER-131
 70
     0
 62
     7
  6
Continuous
370
    -3
390
F
  0
LAYER
  5
1D4
330
2
100
AcDbSymbolTableRecord
100
AcDbLayerTableRecord
  2
FRAMELAYER-132
 70
     0
 62
     7
  6
Continuous
370
    -3
390
F
  0
LAYER
  5
1D5
330
2
100
AcDbSymbolTableRecord
100
AcDbLayerTableRecord
  2
FRAMELAYER-133
 70
     0
 62
     7
  6
Continuous
370
    -3
390
F
  0
LAYER
  5
1D6
330
2
100
AcDbSymbolTableRecord
100
AcDbLayerTableRecord
  2
FRAMELAYER-134
 70
     0
 62
     7
  6
Continuous
370
    -3
390
F
  0
LAYER
  5
1D7
330
2
100
AcDbSymbolTableRecord
100
AcDbLayerTableRecord
  2
FRAMELAYER-135
 70
     0
 62
    -4
  6
Continuous
370
    -3
390
F
  0
LAYER
  5
1D8
330
2
100
AcDbSymbolTableRecord
100
AcDbLayerTableRecord
  2
FRAMELAYER-136
 70
     0
 62
    -3
  6
Continuous
370
    -3
390
F
  0
LAYER
  5
1D9
330
2
100
AcDbSymbolTableRecord
100
AcDbLayerTableRecord
  2
FRAMELAYER-137
 70
     0
 62
    -1
  6
Continuous
370
    -3
390
F
  0
LAYER
  5
1DA
330
2
100
AcDbSymbolTableRecord
100
AcDbLayerTableRecord
  2
FRAMELAYER-138
 70
     0
 62
     7
  6
Continuous
370
    -3
390
F
  0
LAYER
  5
1DB
330
2
100
AcDbSymbolTableRecord
100
AcDbLayerTableRecord
  2
FRAMELAYER-139
 70
     0
 62
     7
  6
Continuous
370
    -3
390
F
  0
LAYER
  5
1DC
330
2
100
AcDbSymbolTableRecord
100
AcDbLayerTableRecord
  2
FRAMELAYER-140
 70
     0
 62
     7
  6
Continuous
370
    -3
390
F
  0
LAYER
  5
1DD
330
2
100
AcDbSymbolTableRecord
100
AcDbLayerTableRecord
  2
FRAMELAYER-141
 70
     0
 62
     7
  6
Continuous
370
    -3
390
F
  0
LAYER
  5
1DE
330
2
100
AcDbSymbolTableRecord
100
AcDbLayerTableRecord
  2
FRAMELAYER-142
 70
     0
 62
     3
  6
Continuous
370
    -3
390
F
  0
LAYER
  5
1DF
330
2
100
AcDbSymbolTableRecord
100
AcDbLayerTableRecord
  2
FRAMELAYER-143
 70
     0
 62
     7
  6
Continuous
370
    -3
390
F
  0
LAYER
  5
1E0
330
2
100
AcDbSymbolTableRecord
100
AcDbLayerTableRecord
  2
FRAMELAYER-144
 70
     0
 62
     7
  6
Continuous
370
    -3
390
F
  0
LAYER
  5
1E1
330
2
100
AcDbSymbolTableRecord
100
AcDbLayerTableRecord
  2
FRAMELAYER-145
 70
     0
 62
     3
  6
Continuous
370
    -3
390
F
  0
LAYER
  5
1E2
330
2
100
AcDbSymbolTableRecord
100
AcDbLayerTableRecord
  2
FRAMELAYER-146
 70
     0
 62
     7
  6
Continuous
370
    -3
390
F
  0
LAYER
  5
1E3
330
2
100
AcDbSymbolTableRecord
100
AcDbLayerTableRecord
  2
FRAMELAYER-147
 70
     0
 62
     7
  6
Continuous
370
    -3
390
F
  0
LAYER
  5
1E4
330
2
100
AcDbSymbolTableRecord
100
AcDbLayerTableRecord
  2
FRAMELAYER-148
 70
     0
 62
     7
  6
Continuous
370
    -3
390
F
  0
LAYER
  5
1E5
330
2
100
AcDbSymbolTableRecord
100
AcDbLayerTableRecord
  2
FRAMELAYER-149
 70
     0
 62
     7
  6
Continuous
370
    -3
390
F
  0
LAYER
  5
1E6
330
2
100
AcDbSymbolTableRecord
100
AcDbLayerTableRecord
  2
FRAMELAYER-150
 70
     0
 62
     7
  6
Continuous
370
    -3
390
F
  0
LAYER
  5
1E7
330
2
100
AcDbSymbolTableRecord
100
AcDbLayerTableRecord
  2
FRAMELAYER-151
 70
     0
 62
     7
  6
Continuous
370
    -3
390
F
  0
LAYER
  5
1E8
330
2
100
AcDbSymbolTableRecord
100
AcDbLayerTableRecord
  2
FRAMELAYER-152
 70
     0
 62
     7
  6
Continuous
370
    -3
390
F
  0
LAYER
  5
1E9
330
2
100
AcDbSymbolTableRecord
100
AcDbLayerTableRecord
  2
FRAMELAYER-153
 70
     0
 62
     7
  6
Continuous
370
    -3
390
F
  0
LAYER
  5
1EA
330
2
100
AcDbSymbolTableRecord
100
AcDbLayerTableRecord
  2
FRAMELAYER-154
 70
     0
 62
     7
  6
Continuous
370
    -3
390
F
  0
LAYER
  5
1EB
330
2
100
AcDbSymbolTableRecord
100
AcDbLayerTableRecord
  2
FRAMELAYER-155
 70
     0
 62
     7
  6
Continuous
370
    -3
390
F
  0
LAYER
  5
1EC
330
2
100
AcDbSymbolTableRecord
100
AcDbLayerTableRecord
  2
FRAMELAYER-156
 70
     0
 62
     7
  6
Continuous
370
    -3
390
F
  0
LAYER
  5
1ED
330
2
100
AcDbSymbolTableRecord
100
AcDbLayerTableRecord
  2
FRAMELAYER-157
 70
     0
 62
     7
  6
Continuous
370
    -3
390
F
  0
LAYER
  5
1EE
330
2
100
AcDbSymbolTableRecord
100
AcDbLayerTableRecord
  2
FRAMELAYER-158
 70
     0
 62
     7
  6
Continuous
370
    -3
390
F
  0
LAYER
  5
1EF
330
2
100
AcDbSymbolTableRecord
100
AcDbLayerTableRecord
  2
FRAMELAYER-159
 70
     0
 62
     7
  6
Continuous
370
    -3
390
F
  0
LAYER
  5
1F0
330
2
100
AcDbSymbolTableRecord
100
AcDbLayerTableRecord
  2
FRAMELAYER-160
 70
     0
 62
     7
  6
Continuous
370
    -3
390
F
  0
LAYER
  5
1F1
330
2
100
AcDbSymbolTableRecord
100
AcDbLayerTableRecord
  2
FRAMELAYER-161
 70
     0
 62
     7
  6
Continuous
370
    -3
390
F
  0
LAYER
  5
1F2
330
2
100
AcDbSymbolTableRecord
100
AcDbLayerTableRecord
  2
FRAMELAYER-162
 70
     0
 62
     7
  6
Continuous
370
    -3
390
F
  0
LAYER
  5
1F3
330
2
100
AcDbSymbolTableRecord
100
AcDbLayerTableRecord
  2
FRAMELAYER-163
 70
     0
 62
     7
  6
Continuous
370
    -3
390
F
  0
LAYER
  5
1F4
330
2
100
AcDbSymbolTableRecord
100
AcDbLayerTableRecord
  2
FRAMELAYER-164
 70
     0
 62
     7
  6
Continuous
370
    -3
390
F
  0
LAYER
  5
1F5
330
2
100
AcDbSymbolTableRecord
100
AcDbLayerTableRecord
  2
FRAMELAYER-165
 70
     0
 62
     7
  6
Continuous
370
    -3
390
F
  0
LAYER
  5
1F6
330
2
100
AcDbSymbolTableRecord
100
AcDbLayerTableRecord
  2
FRAMELAYER-166
 70
     0
 62
     7
  6
Continuous
370
    -3
390
F
  0
LAYER
  5
1F7
330
2
100
AcDbSymbolTableRecord
100
AcDbLayerTableRecord
  2
FRAMELAYER-167
 70
     0
 62
     7
  6
Continuous
370
    -3
390
F
  0
LAYER
  5
1F8
330
2
100
AcDbSymbolTableRecord
100
AcDbLayerTableRecord
  2
FRAMELAYER-168
 70
     0
 62
     7
  6
Continuous
370
    -3
390
F
  0
LAYER
  5
1F9
330
2
100
AcDbSymbolTableRecord
100
AcDbLayerTableRecord
  2
FRAMELAYER-169
 70
     0
 62
     7
  6
Continuous
370
    -3
390
F
  0
LAYER
  5
1FA
330
2
100
AcDbSymbolTableRecord
100
AcDbLayerTableRecord
  2
FRAMELAYER-170
 70
     0
 62
     7
  6
Continuous
370
    -3
390
F
  0
LAYER
  5
1FB
330
2
100
AcDbSymbolTableRecord
100
AcDbLayerTableRecord
  2
FRAMELAYER-171
 70
     0
 62
     7
  6
Continuous
370
    -3
390
F
  0
LAYER
  5
1FC
330
2
100
AcDbSymbolTableRecord
100
AcDbLayerTableRecord
  2
FRAMELAYER-172
 70
     0
 62
     7
  6
Continuous
370
    -3
390
F
  0
LAYER
  5
1FD
330
2
100
AcDbSymbolTableRecord
100
AcDbLayerTableRecord
  2
FRAMELAYER-173
 70
     0
 62
     7
  6
Continuous
370
    -3
390
F
  0
LAYER
  5
1FE
330
2
100
AcDbSymbolTableRecord
100
AcDbLayerTableRecord
  2
FRAMELAYER-174
 70
     0
 62
     7
  6
Continuous
370
    -3
390
F
  0
LAYER
  5
1FF
330
2
100
AcDbSymbolTableRecord
100
AcDbLayerTableRecord
  2
FRAMELAYER-175
 70
     0
 62
     7
  6
Continuous
370
    -3
390
F
  0
LAYER
  5
200
330
2
100
AcDbSymbolTableRecord
100
AcDbLayerTableRecord
  2
FRAMELAYER-176
 70
     0
 62
     7
  6
Continuous
370
    -3
390
F
  0
LAYER
  5
201
330
2
100
AcDbSymbolTableRecord
100
AcDbLayerTableRecord
  2
FRAMELAYER-177
 70
     0
 62
     7
  6
Continuous
370
    -3
390
F
  0
LAYER
  5
202
330
2
100
AcDbSymbolTableRecord
100
AcDbLayerTableRecord
  2
FRAMELAYER-178
 70
     0
 62
     7
  6
Continuous
370
    -3
390
F
  0
LAYER
  5
203
330
2
100
AcDbSymbolTableRecord
100
AcDbLayerTableRecord
  2
FRAMELAYER-179
 70
     0
 62
     7
  6
Continuous
370
    -3
390
F
  0
LAYER
  5
204
330
2
100
AcDbSymbolTableRecord
100
AcDbLayerTableRecord
  2
FRAMELAYER-180
 70
     0
 62
     7
  6
Continuous
370
    -3
390
F
  0
LAYER
  5
205
330
2
100
AcDbSymbolTableRecord
100
AcDbLayerTableRecord
  2
FRAMELAYER-181
 70
     0
 62
     7
  6
Continuous
370
    -3
390
F
  0
LAYER
  5
206
330
2
100
AcDbSymbolTableRecord
100
AcDbLayerTableRecord
  2
FRAMELAYER-182
 70
     0
 62
     7
  6
Continuous
370
    -3
390
F
  0
LAYER
  5
207
330
2
100
AcDbSymbolTableRecord
100
AcDbLayerTableRecord
  2
FRAMELAYER-183
 70
     0
 62
     7
  6
Continuous
370
    -3
390
F
  0
LAYER
  5
208
330
2
100
AcDbSymbolTableRecord
100
AcDbLayerTableRecord
  2
FRAMELAYER-184
 70
     0
 62
     7
  6
Continuous
370
    -3
390
F
  0
LAYER
  5
209
330
2
100
AcDbSymbolTableRecord
100
AcDbLayerTableRecord
  2
FRAMELAYER-185
 70
     0
 62
     7
  6
Continuous
370
    -3
390
F
  0
LAYER
  5
20A
330
2
100
AcDbSymbolTableRecord
100
AcDbLayerTableRecord
  2
FRAMELAYER-186
 70
     0
 62
     7
  6
Continuous
370
    -3
390
F
  0
LAYER
  5
20B
330
2
100
AcDbSymbolTableRecord
100
AcDbLayerTableRecord
  2
FRAMELAYER-187
 70
     0
 62
     7
  6
Continuous
370
    -3
390
F
  0
LAYER
  5
20C
330
2
100
AcDbSymbolTableRecord
100
AcDbLayerTableRecord
  2
FRAMELAYER-188
 70
     0
 62
     7
  6
Continuous
370
    -3
390
F
  0
LAYER
  5
20D
330
2
100
AcDbSymbolTableRecord
100
AcDbLayerTableRecord
  2
FRAMELAYER-189
 70
     0
 62
     7
  6
Continuous
370
    -3
390
F
  0
LAYER
  5
20E
330
2
100
AcDbSymbolTableRecord
100
AcDbLayerTableRecord
  2
FRAMELAYER-190
 70
     0
 62
     7
  6
Continuous
370
    -3
390
F
  0
LAYER
  5
20F
330
2
100
AcDbSymbolTableRecord
100
AcDbLayerTableRecord
  2
FRAMELAYER-191
 70
     0
 62
     7
  6
Continuous
370
    -3
390
F
  0
LAYER
  5
210
330
2
100
AcDbSymbolTableRecord
100
AcDbLayerTableRecord
  2
FRAMELAYER-192
 70
     0
 62
     7
  6
Continuous
370
    -3
390
F
  0
LAYER
  5
211
330
2
100
AcDbSymbolTableRecord
100
AcDbLayerTableRecord
  2
FRAMELAYER-193
 70
     0
 62
     7
  6
Continuous
370
    -3
390
F
  0
LAYER
  5
212
330
2
100
AcDbSymbolTableRecord
100
AcDbLayerTableRecord
  2
FRAMELAYER-194
 70
     0
 62
     2
  6
Continuous
370
    -3
390
F
  0
LAYER
  5
213
330
2
100
AcDbSymbolTableRecord
100
AcDbLayerTableRecord
  2
FRAMELAYER-195
 70
     0
 62
     2
  6
Continuous
370
    -3
390
F
  0
LAYER
  5
214
330
2
100
AcDbSymbolTableRecord
100
AcDbLayerTableRecord
  2
FRAMELAYER-196
 70
     0
 62
     2
  6
Continuous
370
    -3
390
F
  0
LAYER
  5
215
330
2
100
AcDbSymbolTableRecord
100
AcDbLayerTableRecord
  2
FRAMELAYER-197
 70
     0
 62
     7
  6
Continuous
370
    -3
390
F
  0
LAYER
  5
216
330
2
100
AcDbSymbolTableRecord
100
AcDbLayerTableRecord
  2
FRAMELAYER-198
 70
     0
 62
     7
  6
Continuous
370
    -3
390
F
  0
LAYER
  5
217
330
2
100
AcDbSymbolTableRecord
100
AcDbLayerTableRecord
  2
FRAMELAYER-199
 70
     0
 62
     4
  6
Continuous
370
    -3
390
F
  0
LAYER
  5
218
330
2
100
AcDbSymbolTableRecord
100
AcDbLayerTableRecord
  2
FRAMELAYER-200
 70
     0
 62
     1
  6
Continuous
370
    -3
390
F
  0
LAYER
  5
219
330
2
100
AcDbSymbolTableRecord
100
AcDbLayerTableRecord
  2
FRAMELAYER-201
 70
     0
 62
     1
  6
Continuous
370
    -3
390
F
  0
LAYER
  5
21A
330
2
100
AcDbSymbolTableRecord
100
AcDbLayerTableRecord
  2
FRAMELAYER-202
 70
     0
 62
     2
  6
Continuous
370
    -3
390
F
  0
LAYER
  5
21B
330
2
100
AcDbSymbolTableRecord
100
AcDbLayerTableRecord
  2
FRAMELAYER-203
 70
     0
 62
     2
  6
Continuous
370
    -3
390
F
  0
LAYER
  5
21C
330
2
100
AcDbSymbolTableRecord
100
AcDbLayerTableRecord
  2
FRAMELAYER-204
 70
     0
 62
     7
  6
Continuous
370
    -3
390
F
  0
LAYER
  5
21D
330
2
100
AcDbSymbolTableRecord
100
AcDbLayerTableRecord
  2
FRAMELAYER-205
 70
     0
 62
     7
  6
Continuous
370
    -3
390
F
  0
LAYER
  5
21E
330
2
100
AcDbSymbolTableRecord
100
AcDbLayerTableRecord
  2
FRAMELAYER-206
 70
     0
 62
     7
  6
Continuous
370
    -3
390
F
  0
LAYER
  5
21F
330
2
100
AcDbSymbolTableRecord
100
AcDbLayerTableRecord
  2
FRAMELAYER-207
 70
     0
 62
    -7
  6
Continuous
370
    -3
390
F
  0
LAYER
  5
220
330
2
100
AcDbSymbolTableRecord
100
AcDbLayerTableRecord
  2
FRAMELAYER-208
 70
     0
 62
     2
  6
Continuous
370
    -3
390
F
  0
LAYER
  5
221
330
2
100
AcDbSymbolTableRecord
100
AcDbLayerTableRecord
  2
FRAMELAYER-209
 70
     0
 62
     7
  6
Continuous
370
    -3
390
F
  0
LAYER
  5
222
330
2
100
AcDbSymbolTableRecord
100
AcDbLayerTableRecord
  2
FRAMELAYER-210
 70
     0
 62
     2
  6
Continuous
290
     0
370
    -3
390
F
  0
LAYER
  5
223
330
2
100
AcDbSymbolTableRecord
100
AcDbLayerTableRecord
  2
FRAMELAYER-211
 70
     0
 62
     7
  6
Continuous
370
    -3
390
F
  0
LAYER
  5
224
330
2
100
AcDbSymbolTableRecord
100
AcDbLayerTableRecord
  2
FRAMELAYER-212
 70
     0
 62
     7
  6
Continuous
370
    -3
390
F
  0
LAYER
  5
225
330
2
100
AcDbSymbolTableRecord
100
AcDbLayerTableRecord
  2
FRAMELAYER-213
 70
     0
 62
     2
  6
Continuous
370
    -3
390
F
  0
LAYER
  5
226
330
2
100
AcDbSymbolTableRecord
100
AcDbLayerTableRecord
  2
FRAMELAYER-214
 70
     0
 62
     7
  6
Continuous
370
    -3
390
F
  0
LAYER
  5
227
330
2
100
AcDbSymbolTableRecord
100
AcDbLayerTableRecord
  2
FRAMELAYER-215
 70
     0
 62
     7
  6
Continuous
370
    -3
390
F
  0
LAYER
  5
228
330
2
100
AcDbSymbolTableRecord
100
AcDbLayerTableRecord
  2
FRAMELAYER-216
 70
     0
 62
     4
  6
Continuous
370
    -3
390
F
  0
LAYER
  5
229
330
2
100
AcDbSymbolTableRecord
100
AcDbLayerTableRecord
  2
FRAMELAYER-217
 70
     0
 62
     7
  6
Continuous
370
    -3
390
F
  0
LAYER
  5
22A
330
2
100
AcDbSymbolTableRecord
100
AcDbLayerTableRecord
  2
FRAMELAYER-218
 70
     0
 62
     7
  6
Continuous
370
    -3
390
F
  0
LAYER
  5
22B
330
2
100
AcDbSymbolTableRecord
100
AcDbLayerTableRecord
  2
FRAMELAYER-219
 70
     0
 62
     7
  6
Continuous
370
    -3
390
F
  0
LAYER
  5
22C
330
2
100
AcDbSymbolTableRecord
100
AcDbLayerTableRecord
  2
FRAMELAYER-220
 70
     0
 62
     4
  6
Continuous
370
    -3
390
F
  0
LAYER
  5
22D
330
2
100
AcDbSymbolTableRecord
100
AcDbLayerTableRecord
  2
FRAMELAYER-221
 70
     0
 62
    -7
  6
Continuous
290
     0
370
    -3
390
F
  0
LAYER
  5
22E
330
2
100
AcDbSymbolTableRecord
100
AcDbLayerTableRecord
  2
FRAMELAYER-222
 70
     0
 62
    -4
  6
Continuous
290
     0
370
    -3
390
F
  0
LAYER
  5
22F
330
2
100
AcDbSymbolTableRecord
100
AcDbLayerTableRecord
  2
FRAMELAYER-223
 70
     0
 62
    -1
  6
Continuous
290
     0
370
    -3
390
F
  0
LAYER
  5
230
330
2
100
AcDbSymbolTableRecord
100
AcDbLayerTableRecord
  2
FRAMELAYER-224
 70
     0
 62
    -1
  6
Continuous
290
     0
370
    -3
390
F
  0
LAYER
  5
231
330
2
100
AcDbSymbolTableRecord
100
AcDbLayerTableRecord
  2
FRAMELAYER-225
 70
     0
 62
     7
  6
Continuous
370
    -3
390
F
  0
LAYER
  5
232
330
2
100
AcDbSymbolTableRecord
100
AcDbLayerTableRecord
  2
FRAMELAYER-226
 70
     0
 62
     2
  6
Continuous
370
    -3
390
F
  0
LAYER
  5
233
330
2
100
AcDbSymbolTableRecord
100
AcDbLayerTableRecord
  2
FRAMELAYER-227
 70
     0
 62
     7
  6
Continuous
370
    -3
390
F
  0
LAYER
  5
234
330
2
100
AcDbSymbolTableRecord
100
AcDbLayerTableRecord
  2
FRAMELAYER-228
 70
     0
 62
     7
  6
Continuous
370
    -3
390
F
  0
LAYER
  5
235
330
2
100
AcDbSymbolTableRecord
100
AcDbLayerTableRecord
  2
FRAMELAYER-229
 70
     0
 62
     7
  6
Continuous
370
    -3
390
F
  0
LAYER
  5
236
330
2
100
AcDbSymbolTableRecord
100
AcDbLayerTableRecord
  2
FRAMELAYER-230
 70
     0
 62
     7
  6
Continuous
370
    -3
390
F
  0
LAYER
  5
237
330
2
100
AcDbSymbolTableRecord
100
AcDbLayerTableRecord
  2
FRAMELAYER-231
 70
     0
 62
     7
  6
Continuous
370
    -3
390
F
  0
LAYER
  5
238
330
2
100
AcDbSymbolTableRecord
100
AcDbLayerTableRecord
  2
FRAMELAYER-232
 70
     0
 62
     7
  6
Continuous
370
    -3
390
F
  0
LAYER
  5
239
330
2
100
AcDbSymbolTableRecord
100
AcDbLayerTableRecord
  2
FRAMELAYER-233
 70
     0
 62
     7
  6
Continuous
370
    -3
390
F
  0
LAYER
  5
23A
330
2
100
AcDbSymbolTableRecord
100
AcDbLayerTableRecord
  2
FRAMELAYER-234
 70
     0
 62
     7
  6
Continuous
370
    -3
390
F
  0
LAYER
  5
23B
330
2
100
AcDbSymbolTableRecord
100
AcDbLayerTableRecord
  2
FRAMELAYER-235
 70
     0
 62
     7
  6
Continuous
370
    -3
390
F
  0
LAYER
  5
23C
330
2
100
AcDbSymbolTableRecord
100
AcDbLayerTableRecord
  2
FRAMELAYER-236
 70
     0
 62
     7
  6
Continuous
370
    -3
390
F
  0
LAYER
  5
23D
330
2
100
AcDbSymbolTableRecord
100
AcDbLayerTableRecord
  2
FRAMELAYER-237
 70
     0
 62
     7
  6
Continuous
370
    -3
390
F
  0
LAYER
  5
23E
330
2
100
AcDbSymbolTableRecord
100
AcDbLayerTableRecord
  2
FRAMELAYER-238
 70
     0
 62
     7
  6
Continuous
370
    -3
390
F
  0
LAYER
  5
23F
330
2
100
AcDbSymbolTableRecord
100
AcDbLayerTableRecord
  2
FRAMELAYER-239
 70
     0
 62
     7
  6
Continuous
370
    -3
390
F
  0
LAYER
  5
240
330
2
100
AcDbSymbolTableRecord
100
AcDbLayerTableRecord
  2
FRAMELAYER-240
 70
     0
 62
     7
  6
Continuous
370
    -3
390
F
  0
LAYER
  5
241
330
2
100
AcDbSymbolTableRecord
100
AcDbLayerTableRecord
  2
FRAMELAYER-241
 70
     0
 62
     7
  6
Continuous
370
    -3
390
F
  0
LAYER
  5
242
330
2
100
AcDbSymbolTableRecord
100
AcDbLayerTableRecord
  2
FRAMELAYER-242
 70
     0
 62
     7
  6
Continuous
370
    -3
390
F
  0
LAYER
  5
243
330
2
100
AcDbSymbolTableRecord
100
AcDbLayerTableRecord
  2
FRAMELAYER-243
 70
     0
 62
     7
  6
Continuous
370
    -3
390
F
  0
LAYER
  5
244
330
2
100
AcDbSymbolTableRecord
100
AcDbLayerTableRecord
  2
FRAMELAYER-244
 70
     0
 62
     7
  6
Continuous
370
    -3
390
F
  0
LAYER
  5
245
330
2
100
AcDbSymbolTableRecord
100
AcDbLayerTableRecord
  2
FRAMELAYER-245
 70
     0
 62
     7
  6
Continuous
370
    -3
390
F
  0
LAYER
  5
246
330
2
100
AcDbSymbolTableRecord
100
AcDbLayerTableRecord
  2
FRAMELAYER-246
 70
     0
 62
     7
  6
Continuous
370
    -3
390
F
  0
LAYER
  5
247
330
2
100
AcDbSymbolTableRecord
100
AcDbLayerTableRecord
  2
FRAMELAYER-247
 70
     0
 62
     7
  6
Continuous
370
    -3
390
F
  0
LAYER
  5
248
330
2
100
AcDbSymbolTableRecord
100
AcDbLayerTableRecord
  2
FRAMELAYER-248
 70
     0
 62
     7
  6
Continuous
370
    -3
390
F
  0
LAYER
  5
249
330
2
100
AcDbSymbolTableRecord
100
AcDbLayerTableRecord
  2
FRAMELAYER-249
 70
     0
 62
     7
  6
Continuous
370
    -3
390
F
  0
LAYER
  5
24A
330
2
100
AcDbSymbolTableRecord
100
AcDbLayerTableRecord
  2
FRAMELAYER-250
 70
     0
 62
     7
  6
Continuous
370
    -3
390
F
  0
LAYER
  5
24B
330
2
100
AcDbSymbolTableRecord
100
AcDbLayerTableRecord
  2
FRAMELAYER-251
 70
     0
 62
     7
  6
Continuous
370
    -3
390
F
  0
LAYER
  5
24C
330
2
100
AcDbSymbolTableRecord
100
AcDbLayerTableRecord
  2
FRAMELAYER-252
 70
     0
 62
     7
  6
Continuous
370
    -3
390
F
  0
LAYER
  5
24D
330
2
100
AcDbSymbolTableRecord
100
AcDbLayerTableRecord
  2
FRAMELAYER-253
 70
     0
 62
     7
  6
Continuous
370
    -3
390
F
  0
LAYER
  5
24E
330
2
100
AcDbSymbolTableRecord
100
AcDbLayerTableRecord
  2
FRAMELAYER-254
 70
     0
 62
     7
  6
Continuous
370
    -3
390
F
  0
LAYER
  5
24F
330
2
100
AcDbSymbolTableRecord
100
AcDbLayerTableRecord
  2
FRAMELAYER-255
 70
     0
 62
     7
  6
Continuous
370
    -3
390
F
  0
LAYER
  5
250
330
2
100
AcDbSymbolTableRecord
100
AcDbLayerTableRecord
  2
FRAMELAYER-256
 70
     0
 62
     7
  6
Continuous
370
    -3
390
F
  0
ENDTAB
  0
TABLE
  2
STYLE
  5
3
330
0
100
AcDbSymbolTable
 70
     7
  0
STYLE
  5
11
330
3
100
AcDbSymbolTableRecord
100
AcDbTextStyleTableRecord
  2
Standard
 70
     0
 40
0.0
 41
1.0
 50
0.0
 71
     0
 42
2.5
  3
txt
  4

  0
STYLE
  5
31
330
3
100
AcDbSymbolTableRecord
100
AcDbTextStyleTableRecord
  2
STANDARD2
 70
     0
 40
0.0
 41
1.0
 50
0.0
 71
     0
 42
4.0
  3
MS Mincho.ttf
  4

1001
ACAD
1000
MS Mincho
1071
    32785
  0
STYLE
  5
32
330
3
100
AcDbSymbolTableRecord
100
AcDbTextStyleTableRecord
  2
STRING_H
 70
     0
 40
0.0
 41
1.0
 50
0.0
 71
     0
 42
4.0
  3
MS Mincho.ttf
  4

1001
ACAD
1000
MS Mincho
1071
    32785
  0
STYLE
  5
33
330
3
100
AcDbSymbolTableRecord
100
AcDbTextStyleTableRecord
  2
STRING_H_ITALIC
 70
     0
 40
0.0
 41
1.0
 50
15.0
 71
     0
 42
4.0
  3
MS Mincho.ttf
  4

1001
ACAD
1000
MS Mincho
1071
    32785
  0
STYLE
  5
34
330
3
100
AcDbSymbolTableRecord
100
AcDbTextStyleTableRecord
  2
STRING_V
 70
     0
 40
0.0
 41
1.0
 50
0.0
 71
     0
 42
4.0
  3
@MS Mincho.ttf
  4

1001
ACAD
1000
@MS Mincho
1071
    32785
  0
STYLE
  5
35
330
3
100
AcDbSymbolTableRecord
100
AcDbTextStyleTableRecord
  2
STRING_V_ITALIC
 70
     0
 40
0.0
 41
1.0
 50
15.0
 71
     0
 42
4.0
  3
@MS Mincho.ttf
  4

1001
ACAD
1000
@MS Mincho
1071
    32785
  0
STYLE
  5
36
330
3
100
AcDbSymbolTableRecord
100
AcDbTextStyleTableRecord
  2

 70
     1
 40
0.0
 41
1.0
 50
0.0
 71
     0
 42
0.2
  3
ltypeshp.shx
  4

  0
ENDTAB
  0
TABLE
  2
VIEW
  5
6
330
0
100
AcDbSymbolTable
 70
     0
  0
ENDTAB
  0
TABLE
  2
UCS
  5
7
330
0
100
AcDbSymbolTable
 70
     0
  0
ENDTAB
  0
TABLE
  2
APPID
  5
9
330
0
100
AcDbSymbolTable
 70
     1
  0
APPID
  5
12
330
9
100
AcDbSymbolTableRecord
100
AcDbRegAppTableRecord
  2
ACAD
 70
     0
  0
ENDTAB
  0
TABLE
  2
DIMSTYLE
  5
A
330
0
100
AcDbSymbolTable
 70
     2
100
AcDbDimStyleTable
  0
DIMSTYLE
105
27
330
A
100
AcDbSymbolTableRecord
100
AcDbDimStyleTableRecord
  2
ISO-25
 70
     0
 41
2.5
 42
0.625
 43
3.75
 44
1.25
 73
     0
 74
     0
 77
     1
 78
     8
140
2.5
141
2.5
143
0.03937007874016
147
0.625
171
     3
172
     1
271
     2
272
     2
274
     3
283
     0
284
     8
340
11
  0
DIMSTYLE
105
251
102
{ACAD_REACTORS
330
45B
330
465
330
46F
330
479
330
485
330
48F
102
}
330
A
100
AcDbSymbolTableRecord
100
AcDbDimStyleTableRecord
  2
DIO_DIMSTYLE
 70
     0
 41
4.0
 42
1.0
 43
3.75
 44
1.0
 45
0.1
 73
     0
 74
     0
 77
     1
 78
     8
 79
     2
140
3.0
141
2.5
143
0.03937007874016
147
0.5
171
     3
172
     1
173
     1
179
     1
271
     1
272
     1
274
     3
283
     0
284
     8
288
     1
289
     0
340
31
  0
ENDTAB
  0
TABLE
  2
BLOCK_RECORD
  5
1
330
0
100
AcDbSymbolTable
 70
     8
  0
BLOCK_RECORD
  5
1F
330
1
100
AcDbSymbolTableRecord
100
AcDbBlockTableRecord
  2
*Model_Space
340
22
  0
BLOCK_RECORD
  5
1B
330
1
100
AcDbSymbolTableRecord
100
AcDbBlockTableRecord
  2
*Paper_Space
340
1E
  0
BLOCK_RECORD
  5
23
330
1
100
AcDbSymbolTableRecord
100
AcDbBlockTableRecord
  2
*Paper_Space0
340
26
  0
BLOCK_RECORD
  5
44C
330
1
100
AcDbSymbolTableRecord
100
AcDbBlockTableRecord
  2
_OPEN
340
0
102
{BLKREFS
331
455
331
456
331
45F
331
460
331
469
331
46A
331
473
331
474
331
47D
331
47E
331
489
331
48A
102
}
  0
BLOCK_RECORD
  5
452
330
1
100
AcDbSymbolTableRecord
100
AcDbBlockTableRecord
  2
*D02
340
0
  0
BLOCK_RECORD
  5
45C
330
1
100
AcDbSymbolTableRecord
100
AcDbBlockTableRecord
  2
*D13
340
0
  0
BLOCK_RECORD
  5
466
330
1
100
AcDbSymbolTableRecord
100
AcDbBlockTableRecord
  2
*D24
340
0
  0
BLOCK_RECORD
  5
470
330
1
100
AcDbSymbolTableRecord
100
AcDbBlockTableRecord
  2
*D35
340
0
  0
BLOCK_RECORD
  5
47A
330
1
100
AcDbSymbolTableRecord
100
AcDbBlockTableRecord
  2
*D46
340
0
  0
BLOCK_RECORD
  5
486
330
1
100
AcDbSymbolTableRecord
100
AcDbBlockTableRecord
  2
*D57
340
0
  0
ENDTAB
  0
ENDSEC
  0
SECTION
  2
BLOCKS
  0
BLOCK
  5
20
330
1F
100
AcDbEntity
  8
0
100
AcDbBlockBegin
  2
*Model_Space
 70
     0
 71
     0
 10
0.0
 20
0.0
 30
0.0
  3
*Model_Space
  1

  0
ENDBLK
  5
21
330
1F
100
AcDbEntity
  8
0
100
AcDbBlockEnd
  0
BLOCK
  5
1C
330
1B
100
AcDbEntity
 67
     1
  8
0
100
AcDbBlockBegin
  2
*Paper_Space
 70
     0
 71
     0
 10
0.0
 20
0.0
 30
0.0
  3
*Paper_Space
  1

  0
ENDBLK
  5
1D
330
1B
100
AcDbEntity
 67
     1
  8
0
100
AcDbBlockEnd
  0
BLOCK
  5
24
330
23
100
AcDbEntity
  8
0
100
AcDbBlockBegin
  2
*Paper_Space0
 70
     0
 71
     0
 10
0.0
 20
0.0
 30
0.0
  3
*Paper_Space0
  1

  0
ENDBLK
  5
25
330
23
100
AcDbEntity
  8
0
100
AcDbBlockEnd
  0
BLOCK
  5
44D
330
44C
100
AcDbEntity
  8
0
100
AcDbBlockBegin
  2
_OPEN
 70
     0
 71
     0
 10
0.0
 20
0.0
 30
0.0
  3
_OPEN
  1

  0
LINE
  5
44F
330
44C
100
AcDbEntity
  8
LAYER-035
  6
Continuous
 62
     0
100
AcDbLine
 10
0.0
 20
0.0
 30
0.0
 11
-1.0
 21
0.0
 31
0.0
  0
LINE
  5
450
330
44C
100
AcDbEntity
  8
LAYER-035
  6
Continuous
 62
     0
100
AcDbLine
 10
0.0
 20
0.0
 30
0.0
 11
-1.0
 21
0.1666250109338451
 31
0.0
  0
LINE
  5
451
330
44C
100
AcDbEntity
  8
LAYER-035
  6
Continuous
 62
     0
100
AcDbLine
 10
0.0
 20
0.0
 30
0.0
 11
-1.0
 21
-0.1666250109338451
 31
0.0
  0
ENDBLK
  5
44E
330
44C
100
AcDbEntity
  8
0
100
AcDbBlockEnd
  0
BLOCK
  5
453
330
452
100
AcDbEntity
  8
0
100
AcDbBlockBegin
  2
*D02
 70
     1
 71
     0
 10
0.0
 20
0.0
 30
0.0
  3
*D02
  1

  0
INSERT
  5
455
330
452
100
AcDbEntity
  8
LAYER-035
  6
Continuous
 62
     5
100
AcDbBlockReference
  2
_OPEN
 10
-215.588873573778
 20
122.9160824171275
 30
0.0
 41
4.0
 42
4.0
 43
4.0
  0
INSERT
  5
456
330
452
100
AcDbEntity
  8
LAYER-035
  6
Continuous
 62
     5
100
AcDbBlockReference
  2
_OPEN
 10
-365.588873573778
 20
122.9160824171275
 30
0.0
 41
4.0
 42
4.0
 43
4.0
 50
180.0
  0
LINE
  5
457
330
452
100
AcDbEntity
  8
LAYER-035
  6
Continuous
 62
     5
100
AcDbLine
 10
-215.588873573778
 20
94.34405327558554
 30
0.0
 11
-215.588873573778
 21
123.9160824171275
 31
0.0
  0
LINE
  5
458
330
452
100
AcDbEntity
  8
LAYER-035
  6
Continuous
 62
     5
100
AcDbLine
 10
-365.588873573778
 20
94.34405327558554
 30
0.0
 11
-365.588873573778
 21
123.9160824171275
 31
0.0
  0
LINE
  5
459
330
452
100
AcDbEntity
  8
LAYER-035
  6
Continuous
 62
     5
100
AcDbLine
 10
-215.588873573778
 20
122.9160824171275
 30
0.0
 11
-365.588873573778
 21
122.9160824171275
 31
0.0
  0
MTEXT
  5
45A
330
452
100
AcDbEntity
  8
LAYER-036
  6
Continuous
 62
     5
100
AcDbMText
 10
-290.588873573778
 20
123.4160824171275
 30
0.0
 40
4.0
 41
0.0
 71
     8
 72
     1
  1
150
  7
STRING_H
 73
     1
 44
1.0
  0
ENDBLK
  5
454
330
452
100
AcDbEntity
  8
0
100
AcDbBlockEnd
  0
BLOCK
  5
45D
330
45C
100
AcDbEntity
  8
0
100
AcDbBlockBegin
  2
*D13
 70
     1
 71
     0
 10
0.0
 20
0.0
 30
0.0
  3
*D13
  1

  0
INSERT
  5
45F
330
45C
100
AcDbEntity
  8
LAYER-035
  6
Continuous
 62
     5
100
AcDbBlockReference
  2
_OPEN
 10
-189.3866704474446
 20
103.8440532755855
 30
0.0
 41
4.0
 42
4.0
 43
4.0
 50
90.0
  0
INSERT
  5
460
330
45C
100
AcDbEntity
  8
LAYER-035
  6
Continuous
 62
     5
100
AcDbBlockReference
  2
_OPEN
 10
-189.3866704474446
 20
-96.15594672441446
 30
0.0
 41
4.0
 42
4.0
 43
4.0
 50
-90.0
  0
LINE
  5
461
330
45C
100
AcDbEntity
  8
LAYER-035
  6
Continuous
 62
     5
100
AcDbLine
 10
-226.588873573778
 20
103.8440532755855
 30
0.0
 11
-188.3866704474446
 21
103.8440532755855
 31
0.0
  0
LINE
  5
462
330
45C
100
AcDbEntity
  8
LAYER-035
  6
Continuous
 62
     5
100
AcDbLine
 10
-226.5888705739627
 20
-96.15594672441443
 30
0.0
 11
-188.3866704474446
 21
-96.15594672441446
 31
0.0
  0
LINE
  5
463
330
45C
100
AcDbEntity
  8
LAYER-035
  6
Continuous
 62
     5
100
AcDbLine
 10
-189.3866704474446
 20
103.8440532755855
 30
0.0
 11
-189.3866704474446
 21
-96.15594672441446
 31
0.0
  0
MTEXT
  5
464
330
45C
100
AcDbEntity
  8
LAYER-036
  6
Continuous
 62
     5
100
AcDbMText
 10
-189.8866704474446
 20
3.844053275585537
 30
0.0
 40
4.0
 41
0.0
 71
     8
 72
     1
  1
200
  7
STRING_H
 11
6.123031769111886E-17
 21
1.0
 31
0.0
 73
     1
 44
1.0
  0
ENDBLK
  5
45E
330
45C
100
AcDbEntity
  8
0
100
AcDbBlockEnd
  0
BLOCK
  5
467
330
466
100
AcDbEntity
  8
0
100
AcDbBlockBegin
  2
*D24
 70
     1
 71
     0
 10
0.0
 20
0.0
 30
0.0
  3
*D24
  1

  0
INSERT
  5
469
330
466
100
AcDbEntity
  8
LAYER-035
  6
Continuous
 62
     5
100
AcDbBlockReference
  2
_OPEN
 10
55.14896638406043
 20
122.9160824171275
 30
0.0
 41
4.0
 42
4.0
 43
4.0
  0
INSERT
  5
46A
330
466
100
AcDbEntity
  8
LAYER-035
  6
Continuous
 62
     5
100
AcDbBlockReference
  2
_OPEN
 10
-69.85103361593957
 20
122.9160824171275
 30
0.0
 41
4.0
 42
4.0
 43
4.0
 50
180.0
  0
LINE
  5
46B
330
466
100
AcDbEntity
  8
LAYER-035
  6
Continuous
 62
     5
100
AcDbLine
 10
55.14896638406043
 20
95.33185838563907
 30
0.0
 11
55.14896638406043
 21
123.9160824171275
 31
0.0
  0
LINE
  5
46C
330
466
100
AcDbEntity
  8
LAYER-035
  6
Continuous
 62
     5
100
AcDbLine
 10
-69.85103361593957
 20
88.42941909057646
 30
0.0
 11
-69.85103361593957
 21
123.9160824171275
 31
0.0
  0
LINE
  5
46D
330
466
100
AcDbEntity
  8
LAYER-035
  6
Continuous
 62
     5
100
AcDbLine
 10
55.14896638406043
 20
122.9160824171275
 30
0.0
 11
-69.85103361593957
 21
122.9160824171275
 31
0.0
  0
MTEXT
  5
46E
330
466
100
AcDbEntity
  8
LAYER-036
  6
Continuous
 62
     5
100
AcDbMText
 10
-7.351033615939571
 20
123.4160824171275
 30
0.0
 40
4.0
 41
0.0
 71
     8
 72
     1
  1
125
  7
STRING_H
 73
     1
 44
1.0
  0
ENDBLK
  5
468
330
466
100
AcDbEntity
  8
0
100
AcDbBlockEnd
  0
BLOCK
  5
471
330
470
100
AcDbEntity
  8
0
100
AcDbBlockBegin
  2
*D35
 70
     1
 71
     0
 10
0.0
 20
0.0
 30
0.0
  3
*D35
  1

  0
INSERT
  5
473
330
470
100
AcDbEntity
  8
LAYER-035
  6
Continuous
 62
     5
100
AcDbBlockReference
  2
_OPEN
 10
167.9539901107193
 20
122.9160824171275
 30
0.0
 41
4.0
 42
4.0
 43
4.0
 50
180.0
  0
INSERT
  5
474
330
470
100
AcDbEntity
  8
LAYER-035
  6
Continuous
 62
     5
100
AcDbBlockReference
  2
_OPEN
 10
217.9539901107193
 20
122.9160824171275
 30
0.0
 41
4.0
 42
4.0
 43
4.0
  0
LINE
  5
475
330
470
100
AcDbEntity
  8
LAYER-035
  6
Continuous
 62
     5
100
AcDbLine
 10
167.9539901107193
 20
88.08297143235512
 30
0.0
 11
167.9539901107193
 21
123.9160824171275
 31
0.0
  0
LINE
  5
476
330
470
100
AcDbEntity
  8
LAYER-035
  6
Continuous
 62
     5
100
AcDbLine
 10
217.9539901107193
 20
88.40417053553196
 30
0.0
 11
217.9539901107193
 21
123.9160824171275
 31
0.0
  0
LINE
  5
477
330
470
100
AcDbEntity
  8
LAYER-035
  6
Continuous
 62
     5
100
AcDbLine
 10
167.9539901107193
 20
122.9160824171275
 30
0.0
 11
217.9539901107193
 21
122.9160824171275
 31
0.0
  0
MTEXT
  5
478
330
470
100
AcDbEntity
  8
LAYER-036
  6
Continuous
 62
     5
100
AcDbMText
 10
192.9539901107193
 20
123.4160824171275
 30
0.0
 40
4.0
 41
0.0
 71
     8
 72
     1
  1
50
  7
STRING_H
 73
     1
 44
1.0
  0
ENDBLK
  5
472
330
470
100
AcDbEntity
  8
0
100
AcDbBlockEnd
  0
BLOCK
  5
47B
330
47A
100
AcDbEntity
  8
0
100
AcDbBlockBegin
  2
*D46
 70
     1
 71
     0
 10
0.0
 20
0.0
 30
0.0
  3
*D46
  1

  0
INSERT
  5
47D
330
47A
100
AcDbEntity
  8
LAYER-035
  6
Continuous
 62
     5
100
AcDbBlockReference
  2
_OPEN
 10
213.2039901107193
 20
99.23569928531043
 30
0.0
 41
4.0
 42
4.0
 43
4.0
  0
INSERT
  5
47E
330
47A
100
AcDbEntity
  8
LAYER-035
  6
Continuous
 62
     5
100
AcDbBlockReference
  2
_OPEN
 10
222.7039901107193
 20
99.23569928531043
 30
0.0
 41
4.0
 42
4.0
 43
4.0
 50
180.0
  0
LINE
  5
47F
330
47A
100
AcDbEntity
  8
LAYER-035
  6
Continuous
 62
     5
100
AcDbLine
 10
213.2039901107193
 20
89.84405327559168
 30
0.0
 11
213.2039901107193
 21
100.2356992853104
 31
0.0
  0
LINE
  5
480
330
47A
100
AcDbEntity
  8
LAYER-035
  6
Continuous
 62
     5
100
AcDbLine
 10
222.7039901107193
 20
89.84405327559168
 30
0.0
 11
222.7039901107193
 21
100.2356992853104
 31
0.0
  0
LINE
  5
481
330
47A
100
AcDbEntity
  8
LAYER-035
  6
Continuous
 62
     5
100
AcDbLine
 10
213.2039901107193
 20
99.23569928531043
 30
0.0
 11
222.7039901107193
 21
99.23569928531043
 31
0.0
  0
LINE
  5
482
330
47A
100
AcDbEntity
  8
LAYER-035
  6
Continuous
 62
     5
100
AcDbLine
 10
222.7039901107193
 20
99.23569928531043
 30
0.0
 11
240.2807358831135
 21
99.23569928531043
 31
0.0
  0
LINE
  5
483
330
47A
100
AcDbEntity
  8
LAYER-035
  6
Continuous
 62
     5
100
AcDbLine
 10
213.2039901107193
 20
99.23569928531043
 30
0.0
 11
205.2039901107193
 21
99.23569928531043
 31
0.0
  0
MTEXT
  5
484
330
47A
100
AcDbEntity
  8
LAYER-036
  6
Continuous
 62
     5
100
AcDbMText
 10
228.2807358831135
 20
99.73569928531043
 30
0.0
 40
4.0
 41
0.0
 71
     7
 72
     1
  1
9.5
  7
STRING_H
 73
     1
 44
1.0
  0
ENDBLK
  5
47C
330
47A
100
AcDbEntity
  8
0
100
AcDbBlockEnd
  0
BLOCK
  5
487
330
486
100
AcDbEntity
  8
0
100
AcDbBlockBegin
  2
*D57
 70
     1
 71
     0
 10
0.0
 20
0.0
 30
0.0
  3
*D57
  1

  0
INSERT
  5
489
330
486
100
AcDbEntity
  8
LAYER-035
  6
Continuous
 62
     5
100
AcDbBlockReference
  2
_OPEN
 10
282.4170864100934
 20
81.34405327558557
 30
0.0
 41
4.0
 42
4.0
 43
4.0
 50
90.0
  0
INSERT
  5
48A
330
486
100
AcDbEntity
  8
LAYER-035
  6
Continuous
 62
     5
100
AcDbBlockReference
  2
_OPEN
 10
282.4170864100934
 20
-73.65594672441443
 30
0.0
 41
4.0
 42
4.0
 43
4.0
 50
-90.0
  0
LINE
  5
48B
330
486
100
AcDbEntity
  8
LAYER-035
  6
Continuous
 62
     5
100
AcDbLine
 10
234.1042827223429
 20
81.34405327558554
 30
0.0
 11
283.4170864100934
 21
81.34405327558557
 31
0.0
  0
LINE
  5
48C
330
486
100
AcDbEntity
  8
LAYER-035
  6
Continuous
 62
     5
100
AcDbLine
 10
233.4618748797963
 20
-73.65594672441443
 30
0.0
 11
283.4170864100934
 21
-73.65594672441443
 31
0.0
  0
LINE
  5
48D
330
486
100
AcDbEntity
  8
LAYER-035
  6
Continuous
 62
     5
100
AcDbLine
 10
282.4170864100934
 20
81.34405327558557
 30
0.0
 11
282.4170864100934
 21
-73.65594672441443
 31
0.0
  0
MTEXT
  5
48E
330
486
100
AcDbEntity
  8
LAYER-036
  6
Continuous
 62
     5
100
AcDbMText
 10
281.9170864100934
 20
3.844053275585566
 30
0.0
 40
4.0
 41
0.0
 71
     8
 72
     1
  1
155
  7
STRING_H
 11
6.123031769111886E-17
 21
1.0
 31
0.0
 73
     1
 44
1.0
  0
ENDBLK
  5
488
330
486
100
AcDbEntity
  8
0
100
AcDbBlockEnd
  0
ENDSEC
  0
SECTION
  2
ENTITIES
  0
LINE
  5
252
330
1F
100
AcDbEntity
  8
LAYER-033
  6
Continuous
 62
     1
100
AcDbLine
 10
-80.71560684896083
 20
-235.2017527596956
 30
0.0
 11
46.02860642751431
 21
-235.2017527596956
 31
0.0
  0
LINE
  5
253
330
1F
100
AcDbEntity
  8
LAYER-033
  6
Continuous
 62
     1
100
AcDbLine
 10
-80.71560684896083
 20
-243.287202861
 30
0.0
 11
-22.64859653968249
 21
-243.287202861
 31
0.0
  0
LINE
  5
254
330
1F
100
AcDbEntity
  8
LAYER-033
  6
Continuous
 62
     1
100
AcDbLine
 10
-80.71560684896083
 20
-227.1163026583913
 30
0.0
 11
-22.64859653968249
 21
-227.1163026583913
 31
0.0
  0
LINE
  5
255
330
1F
100
AcDbEntity
  8
LAYER-006
  6
Continuous
 62
     4
100
AcDbLine
 10
-352.988879573778
 20
103.8440562766291
 30
0.0
 11
-357.4888765737782
 21
99.34405327558554
 31
0.0
  0
LINE
  5
256
330
1F
100
AcDbEntity
  8
LAYER-006
  6
Continuous
 62
     4
100
AcDbLine
 10
-328.9888765737779
 20
103.8440562766291
 30
0.0
 11
-333.4888735737781
 21
99.34405327558554
 31
0.0
  0
LINE
  5
257
330
1F
100
AcDbEntity
  8
LAYER-006
  6
Continuous
 62
     4
100
AcDbLine
 10
-301.9888765737779
 20
103.8440562766291
 30
0.0
 11
-306.4888735737781
 21
99.34405327558554
 31
0.0
  0
LINE
  5
258
330
1F
100
AcDbEntity
  8
LAYER-006
  6
Continuous
 62
     4
100
AcDbLine
 10
-277.988879573778
 20
103.8440562766291
 30
0.0
 11
-282.488876573778
 21
99.34405327558554
 31
0.0
  0
LINE
  5
259
330
1F
100
AcDbEntity
  8
LAYER-006
  6
Continuous
 62
     4
100
AcDbLine
 10
-250.9888765737778
 20
103.8440562766291
 30
0.0
 11
-255.488873573778
 21
99.34405327558554
 31
0.0
  0
LINE
  5
25A
330
1F
100
AcDbEntity
  8
LAYER-006
  6
Continuous
 62
     4
100
AcDbLine
 10
-226.9888765737779
 20
103.8440562766291
 30
0.0
 11
-231.4888735737781
 21
99.34405327558554
 31
0.0
  0
LINE
  5
25B
330
1F
100
AcDbEntity
  8
LAYER-006
  6
Continuous
 62
     1
100
AcDbLine
 10
-50.82664383604674
 20
103.8440532755855
 30
0.0
 11
29.78311017347141
 21
103.8440532755855
 31
0.0
  0
LINE
  5
25C
330
1F
100
AcDbEntity
  8
LAYER-007
  6
CENTER
 62
     4
100
AcDbLine
 10
217.9539901107193
 20
87.40417053553196
 30
0.0
 11
217.9539901107193
 21
69.45956761318558
 31
0.0
  0
LINE
  5
25D
330
1F
100
AcDbEntity
  8
LAYER-007
  6
CENTER
 62
     4
100
AcDbLine
 10
167.9539901107193
 20
87.08297143235512
 30
0.0
 11
167.9539901107193
 21
69.45956761318558
 31
0.0
  0
LINE
  5
25E
330
1F
100
AcDbEntity
  8
LAYER-006
  6
Continuous
 62
     4
100
AcDbLine
 10
-355.6888735737781
 20
103.2440532766292
 30
0.0
 11
-357.1888735737782
 21
101.7440532765855
 31
0.0
  0
LINE
  5
25F
330
1F
100
AcDbEntity
  8
LAYER-006
  6
Continuous
 62
     4
100
AcDbLine
 10
-351.4888795749596
 20
103.2440532766292
 30
0.0
 11
-355.3888765737782
 21
99.34405327558554
 31
0.0
  0
LINE
  5
260
330
1F
100
AcDbEntity
  8
LAYER-006
  6
Continuous
 62
     4
100
AcDbLine
 10
-331.6888705737779
 20
103.2440532766292
 30
0.0
 11
-333.1888705737781
 21
101.7440532765855
 31
0.0
  0
LINE
  5
261
330
1F
100
AcDbEntity
  8
LAYER-006
  6
Continuous
 62
     4
100
AcDbLine
 10
-327.488876573778
 20
103.2440532766292
 30
0.0
 11
-331.388873573778
 21
99.34405327558554
 31
0.0
  0
LINE
  5
262
330
1F
100
AcDbEntity
  8
LAYER-006
  6
Continuous
 62
     4
100
AcDbLine
 10
-304.688870573778
 20
103.2440532766292
 30
0.0
 11
-306.1888705737781
 21
101.7440532765855
 31
0.0
  0
LINE
  5
263
330
1F
100
AcDbEntity
  8
LAYER-006
  6
Continuous
 62
     4
100
AcDbLine
 10
-300.488876573778
 20
103.2440532766292
 30
0.0
 11
-304.388873573778
 21
99.34405327558554
 31
0.0
  0
LINE
  5
264
330
1F
100
AcDbEntity
  8
LAYER-006
  6
Continuous
 62
     4
100
AcDbLine
 10
-280.6888735737779
 20
103.2440532766292
 30
0.0
 11
-282.188873573778
 21
101.7440532765855
 31
0.0
  0
LINE
  5
265
330
1F
100
AcDbEntity
  8
LAYER-006
  6
Continuous
 62
     4
100
AcDbLine
 10
-276.4888795749597
 20
103.2440532766292
 30
0.0
 11
-280.388876573778
 21
99.34405327558554
 31
0.0
  0
LINE
  5
266
330
1F
100
AcDbEntity
  8
LAYER-006
  6
Continuous
 62
     4
100
AcDbLine
 10
-253.6888705737779
 20
103.2440532766292
 30
0.0
 11
-255.188870573778
 21
101.7440532765855
 31
0.0
  0
LINE
  5
267
330
1F
100
AcDbEntity
  8
LAYER-006
  6
Continuous
 62
     4
100
AcDbLine
 10
-249.4888765737779
 20
103.2440532766292
 30
0.0
 11
-253.388873573778
 21
99.34405327558554
 31
0.0
  0
LINE
  5
268
330
1F
100
AcDbEntity
  8
LAYER-006
  6
Continuous
 62
     4
100
AcDbLine
 10
-229.688870573778
 20
103.2440532766292
 30
0.0
 11
-231.1888705737781
 21
101.7440532765855
 31
0.0
  0
LINE
  5
269
330
1F
100
AcDbEntity
  8
LAYER-006
  6
Continuous
 62
     4
100
AcDbLine
 10
-225.488876573778
 20
103.2440532766292
 30
0.0
 11
-229.3888735737781
 21
99.34405327558554
 31
0.0
  0
LINE
  5
26A
330
1F
100
AcDbEntity
  8
LAYER-006
  6
Continuous
 62
     4
100
AcDbLine
 10
-350.2888765737781
 20
102.3440562766292
 30
0.0
 11
-353.2888765737782
 21
99.34405327558554
 31
0.0
  0
LINE
  5
26B
330
1F
100
AcDbEntity
  8
LAYER-006
  6
Continuous
 62
     4
100
AcDbLine
 10
-326.288873573778
 20
102.3440562766292
 30
0.0
 11
-329.288873573778
 21
99.34405327558554
 31
0.0
  0
LINE
  5
26C
330
1F
100
AcDbEntity
  8
LAYER-006
  6
Continuous
 62
     4
100
AcDbLine
 10
-299.288873573778
 20
102.3440562766292
 30
0.0
 11
-302.2888735737781
 21
99.34405327558554
 31
0.0
  0
LINE
  5
26D
330
1F
100
AcDbEntity
  8
LAYER-006
  6
Continuous
 62
     4
100
AcDbLine
 10
-275.2888765737779
 20
102.3440562766292
 30
0.0
 11
-278.2888765737779
 21
99.34405327558554
 31
0.0
  0
LINE
  5
26E
330
1F
100
AcDbEntity
  8
LAYER-006
  6
Continuous
 62
     4
100
AcDbLine
 10
-248.2888735737779
 20
102.3440562766292
 30
0.0
 11
-251.288873573778
 21
99.34405327558554
 31
0.0
  0
LINE
  5
26F
330
1F
100
AcDbEntity
  8
LAYER-006
  6
Continuous
 62
     4
100
AcDbLine
 10
-224.288873573778
 20
102.3440562766292
 30
0.0
 11
-227.2888735737781
 21
99.34405327558554
 31
0.0
  0
LINE
  5
270
330
1F
100
AcDbEntity
  8
LAYER-006
  6
Continuous
 62
     4
100
AcDbLine
 10
-349.3888765737781
 20
101.1440562766292
 30
0.0
 11
-351.1888735737781
 21
99.34405327558554
 31
0.0
  0
LINE
  5
271
330
1F
100
AcDbEntity
  8
LAYER-006
  6
Continuous
 62
     4
100
AcDbLine
 10
-325.3888735737779
 20
101.1440562766292
 30
0.0
 11
-327.188870573778
 21
99.34405327558554
 31
0.0
  0
LINE
  5
272
330
1F
100
AcDbEntity
  8
LAYER-006
  6
Continuous
 62
     4
100
AcDbLine
 10
-298.388873573778
 20
101.1440562766292
 30
0.0
 11
-300.188870573778
 21
99.34405327558554
 31
0.0
  0
LINE
  5
273
330
1F
100
AcDbEntity
  8
LAYER-006
  6
Continuous
 62
     4
100
AcDbLine
 10
-274.3888765737779
 20
101.1440562766292
 30
0.0
 11
-276.1888735737779
 21
99.34405327558554
 31
0.0
  0
LINE
  5
274
330
1F
100
AcDbEntity
  8
LAYER-006
  6
Continuous
 62
     4
100
AcDbLine
 10
-247.3888735737779
 20
101.1440562766292
 30
0.0
 11
-249.1888705737779
 21
99.34405327558554
 31
0.0
  0
LINE
  5
275
330
1F
100
AcDbEntity
  8
LAYER-006
  6
Continuous
 62
     4
100
AcDbLine
 10
-223.388873573778
 20
101.1440562766292
 30
0.0
 11
-225.188870573778
 21
99.34405327558554
 31
0.0
  0
LINE
  5
276
330
1F
100
AcDbEntity
  8
LAYER-007
  6
CENTER
 62
     4
100
AcDbLine
 10
192.9539901107193
 20
96.71425230926226
 30
0.0
 11
192.9539901107193
 21
-89.6685501764145
 31
0.0
  0
LINE
  5
277
330
1F
100
AcDbEntity
  8
LAYER-006
  6
Continuous
 62
     4
100
AcDbLine
 10
-349.0888765737782
 20
99.64405627662927
 30
0.0
 11
-353.2888765737782
 21
103.8440562766291
 31
0.0
  0
LINE
  5
278
330
1F
100
AcDbEntity
  8
LAYER-006
  6
Continuous
 62
     4
100
AcDbLine
 10
-325.088873573778
 20
99.64405627662927
 30
0.0
 11
-329.288873573778
 21
103.8440562766291
 31
0.0
  0
LINE
  5
279
330
1F
100
AcDbEntity
  8
LAYER-006
  6
Continuous
 62
     4
100
AcDbLine
 10
-298.088873573778
 20
99.64405627662927
 30
0.0
 11
-302.2888735737781
 21
103.8440562766291
 31
0.0
  0
LINE
  5
27A
330
1F
100
AcDbEntity
  8
LAYER-006
  6
Continuous
 62
     4
100
AcDbLine
 10
-274.088876573778
 20
99.64405627662927
 30
0.0
 11
-278.2888765737779
 21
103.8440562766291
 31
0.0
  0
LINE
  5
27B
330
1F
100
AcDbEntity
  8
LAYER-006
  6
Continuous
 62
     4
100
AcDbLine
 10
-247.088873573778
 20
99.64405627662927
 30
0.0
 11
-251.288873573778
 21
103.8440562766291
 31
0.0
  0
LINE
  5
27C
330
1F
100
AcDbEntity
  8
LAYER-006
  6
Continuous
 62
     4
100
AcDbLine
 10
-223.088873573778
 20
99.64405627662927
 30
0.0
 11
-227.2888735737781
 21
103.8440562766291
 31
0.0
  0
LINE
  5
27D
330
1F
100
AcDbEntity
  8
LAYER-006
  6
Continuous
 62
     4
100
AcDbLine
 10
-357.1888735737782
 20
99.34405327558554
 30
0.0
 11
-358.0888765737781
 21
100.2440532766291
 31
0.0
  0
LINE
  5
27E
330
1F
100
AcDbEntity
  8
LAYER-006
  6
Continuous
 62
     4
100
AcDbLine
 10
-355.088876573778
 20
99.34405327558554
 30
0.0
 11
-357.4888765737782
 21
101.4440562766291
 31
0.0
  0
ARC
  5
27F
330
1F
100
AcDbEntity
  8
LAYER-006
  6
Continuous
 62
     1
100
AcDbCircle
 10
-353.5888765737781
 20
99.34405327558554
 30
0.0
 40
4.500000000000001
100
AcDbArc
 50
0.0233390132880546
 51
179.9893829867116
  0
LINE
  5
280
330
1F
100
AcDbEntity
  8
LAYER-006
  6
Continuous
 62
     4
100
AcDbLine
 10
-352.988879573778
 20
99.34405327558554
 30
0.0
 11
-356.5888765737781
 21
102.6440562766291
 31
0.0
  0
LINE
  5
281
330
1F
100
AcDbEntity
  8
LAYER-006
  6
Continuous
 62
     4
100
AcDbLine
 10
-350.8888765737783
 20
99.34405327558554
 30
0.0
 11
-355.088876573778
 21
103.5440532766291
 31
0.0
  0
LINE
  5
282
330
1F
100
AcDbEntity
  8
LAYER-006
  6
Continuous
 62
     1
100
AcDbLine
 10
-349.0888765737782
 20
99.34405327558554
 30
0.0
 11
-358.0888765737781
 21
99.34405327558554
 31
0.0
  0
LINE
  5
283
330
1F
100
AcDbEntity
  8
LAYER-006
  6
Continuous
 62
     4
100
AcDbLine
 10
-333.1888705737781
 20
99.34405327558554
 30
0.0
 11
-334.0888735737779
 21
100.2440532766291
 31
0.0
  0
LINE
  5
284
330
1F
100
AcDbEntity
  8
LAYER-006
  6
Continuous
 62
     4
100
AcDbLine
 10
-331.0888735737779
 20
99.34405327558554
 30
0.0
 11
-333.4888735737781
 21
101.4440562766291
 31
0.0
  0
ARC
  5
285
330
1F
100
AcDbEntity
  8
LAYER-006
  6
Continuous
 62
     1
100
AcDbCircle
 10
-329.588873573778
 20
99.34405327558554
 30
0.0
 40
4.500000000000001
100
AcDbArc
 50
0.0233390132912236
 51
179.9893829867116
  0
LINE
  5
286
330
1F
100
AcDbEntity
  8
LAYER-006
  6
Continuous
 62
     4
100
AcDbLine
 10
-328.9888765737779
 20
99.34405327558554
 30
0.0
 11
-332.588873573778
 21
102.6440562766291
 31
0.0
  0
LINE
  5
287
330
1F
100
AcDbEntity
  8
LAYER-006
  6
Continuous
 62
     4
100
AcDbLine
 10
-326.888873573778
 20
99.34405327558554
 30
0.0
 11
-331.0888735737779
 21
103.5440532766291
 31
0.0
  0
LINE
  5
288
330
1F
100
AcDbEntity
  8
LAYER-006
  6
Continuous
 62
     1
100
AcDbLine
 10
-325.088873573778
 20
99.34405327558554
 30
0.0
 11
-334.0888735737779
 21
99.34405327558554
 31
0.0
  0
LINE
  5
289
330
1F
100
AcDbEntity
  8
LAYER-006
  6
Continuous
 62
     4
100
AcDbLine
 10
-306.1888705737781
 20
99.34405327558554
 30
0.0
 11
-307.088873573778
 21
100.2440532766291
 31
0.0
  0
LINE
  5
28A
330
1F
100
AcDbEntity
  8
LAYER-006
  6
Continuous
 62
     4
100
AcDbLine
 10
-304.0888735737779
 20
99.34405327558554
 30
0.0
 11
-306.4888735737781
 21
101.4440562766291
 31
0.0
  0
ARC
  5
28B
330
1F
100
AcDbEntity
  8
LAYER-006
  6
Continuous
 62
     1
100
AcDbCircle
 10
-302.588873573778
 20
99.34405327558554
 30
0.0
 40
4.500000000000001
100
AcDbArc
 50
0.0233390132912236
 51
179.9893829867116
  0
LINE
  5
28C
330
1F
100
AcDbEntity
  8
LAYER-006
  6
Continuous
 62
     4
100
AcDbLine
 10
-301.9888765737779
 20
99.34405327558554
 30
0.0
 11
-305.588873573778
 21
102.6440562766291
 31
0.0
  0
LINE
  5
28D
330
1F
100
AcDbEntity
  8
LAYER-006
  6
Continuous
 62
     4
100
AcDbLine
 10
-299.8888735737781
 20
99.34405327558554
 30
0.0
 11
-304.0888735737779
 21
103.5440532766291
 31
0.0
  0
LINE
  5
28E
330
1F
100
AcDbEntity
  8
LAYER-006
  6
Continuous
 62
     1
100
AcDbLine
 10
-298.088873573778
 20
99.34405327558554
 30
0.0
 11
-307.088873573778
 21
99.34405327558554
 31
0.0
  0
LINE
  5
28F
330
1F
100
AcDbEntity
  8
LAYER-006
  6
Continuous
 62
     4
100
AcDbLine
 10
-282.188873573778
 20
99.34405327558554
 30
0.0
 11
-283.0888765737778
 21
100.2440532766291
 31
0.0
  0
LINE
  5
290
330
1F
100
AcDbEntity
  8
LAYER-006
  6
Continuous
 62
     4
100
AcDbLine
 10
-280.0888765737778
 20
99.34405327558554
 30
0.0
 11
-282.488876573778
 21
101.4440562766291
 31
0.0
  0
ARC
  5
291
330
1F
100
AcDbEntity
  8
LAYER-006
  6
Continuous
 62
     1
100
AcDbCircle
 10
-278.5888765737781
 20
99.34405327558554
 30
0.0
 40
4.500000000000001
100
AcDbArc
 50
0.0233390132880541
 51
179.9893829867116
  0
LINE
  5
292
330
1F
100
AcDbEntity
  8
LAYER-006
  6
Continuous
 62
     4
100
AcDbLine
 10
-277.988879573778
 20
99.34405327558554
 30
0.0
 11
-281.5888765737781
 21
102.6440562766291
 31
0.0
  0
LINE
  5
293
330
1F
100
AcDbEntity
  8
LAYER-006
  6
Continuous
 62
     4
100
AcDbLine
 10
-275.888876573778
 20
99.34405327558554
 30
0.0
 11
-280.0888765737778
 21
103.5440532766291
 31
0.0
  0
LINE
  5
294
330
1F
100
AcDbEntity
  8
LAYER-006
  6
Continuous
 62
     1
100
AcDbLine
 10
-274.088876573778
 20
99.34405327558554
 30
0.0
 11
-283.0888765737778
 21
99.34405327558554
 31
0.0
  0
LINE
  5
295
330
1F
100
AcDbEntity
  8
LAYER-006
  6
Continuous
 62
     4
100
AcDbLine
 10
-255.188870573778
 20
99.34405327558554
 30
0.0
 11
-256.0888735737779
 21
100.2440532766291
 31
0.0
  0
LINE
  5
296
330
1F
100
AcDbEntity
  8
LAYER-006
  6
Continuous
 62
     4
100
AcDbLine
 10
-253.0888735737778
 20
99.34405327558554
 30
0.0
 11
-255.488873573778
 21
101.4440562766291
 31
0.0
  0
ARC
  5
297
330
1F
100
AcDbEntity
  8
LAYER-006
  6
Continuous
 62
     1
100
AcDbCircle
 10
-251.588873573778
 20
99.34405327558554
 30
0.0
 40
4.500000000000001
100
AcDbArc
 50
0.0233390132912233
 51
179.9893829867092
  0
LINE
  5
298
330
1F
100
AcDbEntity
  8
LAYER-006
  6
Continuous
 62
     4
100
AcDbLine
 10
-250.9888765737778
 20
99.34405327558554
 30
0.0
 11
-254.588873573778
 21
102.6440562766291
 31
0.0
  0
LINE
  5
299
330
1F
100
AcDbEntity
  8
LAYER-006
  6
Continuous
 62
     4
100
AcDbLine
 10
-248.888873573778
 20
99.34405327558554
 30
0.0
 11
-253.0888735737778
 21
103.5440532766291
 31
0.0
  0
LINE
  5
29A
330
1F
100
AcDbEntity
  8
LAYER-006
  6
Continuous
 62
     1
100
AcDbLine
 10
-247.088873573778
 20
99.34405327558554
 30
0.0
 11
-256.0888735737779
 21
99.34405327558554
 31
0.0
  0
LINE
  5
29B
330
1F
100
AcDbEntity
  8
LAYER-006
  6
Continuous
 62
     4
100
AcDbLine
 10
-231.1888705737781
 20
99.34405327558554
 30
0.0
 11
-232.088873573778
 21
100.2440532766291
 31
0.0
  0
LINE
  5
29C
330
1F
100
AcDbEntity
  8
LAYER-006
  6
Continuous
 62
     4
100
AcDbLine
 10
-229.0888735737779
 20
99.34405327558554
 30
0.0
 11
-231.4888735737781
 21
101.4440562766291
 31
0.0
  0
ARC
  5
29D
330
1F
100
AcDbEntity
  8
LAYER-006
  6
Continuous
 62
     1
100
AcDbCircle
 10
-227.588873573778
 20
99.34405327558554
 30
0.0
 40
4.500000000000001
100
AcDbArc
 50
0.0233390132912233
 51
179.9893829867092
  0
LINE
  5
29E
330
1F
100
AcDbEntity
  8
LAYER-006
  6
Continuous
 62
     4
100
AcDbLine
 10
-226.9888765737779
 20
99.34405327558554
 30
0.0
 11
-230.588873573778
 21
102.6440562766291
 31
0.0
  0
LINE
  5
29F
330
1F
100
AcDbEntity
  8
LAYER-006
  6
Continuous
 62
     4
100
AcDbLine
 10
-224.8888735737781
 20
99.34405327558554
 30
0.0
 11
-229.0888735737779
 21
103.5440532766291
 31
0.0
  0
LINE
  5
2A0
330
1F
100
AcDbEntity
  8
LAYER-006
  6
Continuous
 62
     1
100
AcDbLine
 10
-223.088873573778
 20
99.34405327558554
 30
0.0
 11
-232.088873573778
 21
99.34405327558554
 31
0.0
  0
LINE
  5
2A1
330
1F
100
AcDbEntity
  8
LAYER-006
  6
Continuous
 62
     1
100
AcDbLine
 10
-65.09493617096632
 20
100.1123424397734
 30
0.0
 11
-65.09493617096632
 21
92.18551336481815
 31
0.0
  0
LINE
  5
2A2
330
1F
100
AcDbEntity
  8
LAYER-006
  6
Continuous
 62
     1
100
AcDbLine
 10
-65.09493617096632
 20
100.1123424397734
 30
0.0
 11
-52.41200965103764
 21
100.1123424397734
 31
0.0
  0
LINE
  5
2A3
330
1F
100
AcDbEntity
  8
LAYER-007
  6
HIDDEN
 62
     4
100
AcDbLine
 10
-57.16810709601094
 20
100.1123424397734
 30
0.0
 11
-57.16810709601094
 21
90.60014754982697
 31
0.0
  0
LINE
  5
2A4
330
1F
100
AcDbEntity
  8
LAYER-007
  6
HIDDEN
 62
     4
100
AcDbLine
 10
-53.99737546602881
 20
100.1123424397734
 30
0.0
 11
-53.99737546602881
 21
91.55136703882167
 31
0.0
  0
LINE
  5
2A5
330
1F
100
AcDbEntity
  8
LAYER-006
  6
Continuous
 62
     1
100
AcDbLine
 10
-52.41200965103764
 20
100.1123424397734
 30
0.0
 11
-52.41200965103764
 21
92.18551336481815
 31
0.0
  0
ARC
  5
2A6
330
1F
100
AcDbEntity
  8
LAYER-006
  6
Continuous
 62
     1
100
AcDbCircle
 10
-50.82664383604674
 20
99.0879558306122
 30
0.0
 40
4.756097444973231
100
AcDbArc
 50
90.01166999975843
 51
180.0233389999999
  0
ARC
  5
2A7
330
1F
100
AcDbEntity
  8
LAYER-006
  6
Continuous
 62
     1
100
AcDbCircle
 10
29.78311017347141
 20
94.33185838563907
 30
0.0
 40
9.512194889946461
100
AcDbArc
 50
269.9777129971632
 51
90.00105199999877
  0
LINE
  5
2A8
330
1F
100
AcDbEntity
  8
LAYER-006
  6
Continuous
 62
     1
100
AcDbLine
 10
53.14896638406043
 20
88.84405327558554
 30
0.0
 11
55.14896638406043
 21
88.84405327558554
 31
0.0
  0
LINE
  5
2A9
330
1F
100
AcDbEntity
  8
LAYER-006
  6
PHANTOM
 62
     1
100
AcDbLine
 10
126.7863131789043
 20
88.84405327559168
 30
0.0
 11
163.2039901107193
 21
88.84405327559168
 31
0.0
  0
LINE
  5
2AA
330
1F
100
AcDbEntity
  8
LAYER-006
  6
PHANTOM
 62
     1
100
AcDbLine
 10
222.7039901107193
 20
88.84405327559168
 30
0.0
 11
258.4792656229273
 21
88.84405327559168
 31
0.0
  0
LINE
  5
2AB
330
1F
100
AcDbEntity
  8
LAYER-006
  6
Continuous
 62
     1
100
AcDbLine
 10
-365.588873573778
 20
93.34405327558554
 30
0.0
 11
-358.088873573778
 21
93.34405327558554
 31
0.0
  0
LINE
  5
2AC
330
1F
100
AcDbEntity
  8
LAYER-006
  6
Continuous
 62
     1
100
AcDbLine
 10
-349.0888735737781
 20
93.34405327558554
 30
0.0
 11
-334.0888735737781
 21
93.34405327558554
 31
0.0
  0
LINE
  5
2AD
330
1F
100
AcDbEntity
  8
LAYER-006
  6
Continuous
 62
     1
100
AcDbLine
 10
-325.088876573778
 20
93.34405327558554
 30
0.0
 11
-307.088870573778
 21
93.34405327558554
 31
0.0
  0
LINE
  5
2AE
330
1F
100
AcDbEntity
  8
LAYER-006
  6
Continuous
 62
     1
100
AcDbLine
 10
-298.088873573778
 20
93.34405327558554
 30
0.0
 11
-283.088873573778
 21
93.34405327558554
 31
0.0
  0
LINE
  5
2AF
330
1F
100
AcDbEntity
  8
LAYER-006
  6
Continuous
 62
     1
100
AcDbLine
 10
-274.0888735737781
 20
93.34405327558554
 30
0.0
 11
-256.0888735737781
 21
93.34405327558554
 31
0.0
  0
LINE
  5
2B0
330
1F
100
AcDbEntity
  8
LAYER-006
  6
Continuous
 62
     1
100
AcDbLine
 10
-247.088870573778
 20
93.34405327558554
 30
0.0
 11
-232.088870573778
 21
93.34405327558554
 31
0.0
  0
LINE
  5
2B1
330
1F
100
AcDbEntity
  8
LAYER-006
  6
Continuous
 62
     1
100
AcDbLine
 10
-223.088873573778
 20
93.34405327558554
 30
0.0
 11
-215.588873573778
 21
93.34405327558554
 31
0.0
  0
LINE
  5
2B2
330
1F
100
AcDbEntity
  8
LAYER-006
  6
Continuous
 62
     1
100
AcDbLine
 10
-215.588873573778
 20
93.34405327558554
 30
0.0
 11
-215.588873573778
 21
67.84405027662928
 31
0.0
  0
LINE
  5
2B3
330
1F
100
AcDbEntity
  8
LAYER-007
  6
HIDDEN
 62
     4
100
AcDbLine
 10
-356.8888765737781
 20
92.14405627662927
 30
0.0
 11
-356.8888765737781
 21
99.34405327558554
 31
0.0
  0
LINE
  5
2B4
330
1F
100
AcDbEntity
  8
LAYER-007
  6
HIDDEN
 62
     4
100
AcDbLine
 10
-350.2888765737781
 20
92.14405627662927
 30
0.0
 11
-350.2888765737781
 21
99.34405327558554
 31
0.0
  0
LINE
  5
2B5
330
1F
100
AcDbEntity
  8
LAYER-007
  6
HIDDEN
 62
     4
100
AcDbLine
 10
-349.0888765737782
 20
92.14405627662927
 30
0.0
 11
-358.0888765737781
 21
92.14405627662927
 31
0.0
  0
LINE
  5
2B6
330
1F
100
AcDbEntity
  8
LAYER-007
  6
HIDDEN
 62
     4
100
AcDbLine
 10
-332.8888735737779
 20
92.14405627662927
 30
0.0
 11
-332.8888735737779
 21
99.34405327558554
 31
0.0
  0
LINE
  5
2B7
330
1F
100
AcDbEntity
  8
LAYER-007
  6
HIDDEN
 62
     4
100
AcDbLine
 10
-326.288873573778
 20
92.14405627662927
 30
0.0
 11
-326.288873573778
 21
99.34405327558554
 31
0.0
  0
LINE
  5
2B8
330
1F
100
AcDbEntity
  8
LAYER-007
  6
HIDDEN
 62
     4
100
AcDbLine
 10
-325.088873573778
 20
92.14405627662927
 30
0.0
 11
-334.0888735737779
 21
92.14405627662927
 31
0.0
  0
LINE
  5
2B9
330
1F
100
AcDbEntity
  8
LAYER-007
  6
HIDDEN
 62
     4
100
AcDbLine
 10
-305.888873573778
 20
92.14405627662927
 30
0.0
 11
-305.888873573778
 21
99.34405327558554
 31
0.0
  0
LINE
  5
2BA
330
1F
100
AcDbEntity
  8
LAYER-007
  6
HIDDEN
 62
     4
100
AcDbLine
 10
-299.288873573778
 20
92.14405627662927
 30
0.0
 11
-299.288873573778
 21
99.34405327558554
 31
0.0
  0
LINE
  5
2BB
330
1F
100
AcDbEntity
  8
LAYER-007
  6
HIDDEN
 62
     4
100
AcDbLine
 10
-298.088873573778
 20
92.14405627662927
 30
0.0
 11
-307.088873573778
 21
92.14405627662927
 31
0.0
  0
LINE
  5
2BC
330
1F
100
AcDbEntity
  8
LAYER-007
  6
HIDDEN
 62
     4
100
AcDbLine
 10
-281.8888765737779
 20
92.14405627662927
 30
0.0
 11
-281.8888765737779
 21
99.34405327558554
 31
0.0
  0
LINE
  5
2BD
330
1F
100
AcDbEntity
  8
LAYER-007
  6
HIDDEN
 62
     4
100
AcDbLine
 10
-275.2888765737779
 20
92.14405627662927
 30
0.0
 11
-275.2888765737779
 21
99.34405327558554
 31
0.0
  0
LINE
  5
2BE
330
1F
100
AcDbEntity
  8
LAYER-007
  6
HIDDEN
 62
     4
100
AcDbLine
 10
-274.088876573778
 20
92.14405627662927
 30
0.0
 11
-283.0888765737778
 21
92.14405627662927
 31
0.0
  0
LINE
  5
2BF
330
1F
100
AcDbEntity
  8
LAYER-007
  6
HIDDEN
 62
     4
100
AcDbLine
 10
-254.8888735737779
 20
92.14405627662927
 30
0.0
 11
-254.8888735737779
 21
99.34405327558554
 31
0.0
  0
LINE
  5
2C0
330
1F
100
AcDbEntity
  8
LAYER-007
  6
HIDDEN
 62
     4
100
AcDbLine
 10
-248.2888735737779
 20
92.14405627662927
 30
0.0
 11
-248.2888735737779
 21
99.34405327558554
 31
0.0
  0
LINE
  5
2C1
330
1F
100
AcDbEntity
  8
LAYER-007
  6
HIDDEN
 62
     4
100
AcDbLine
 10
-247.088873573778
 20
92.14405627662927
 30
0.0
 11
-256.0888735737779
 21
92.14405627662927
 31
0.0
  0
LINE
  5
2C2
330
1F
100
AcDbEntity
  8
LAYER-007
  6
HIDDEN
 62
     4
100
AcDbLine
 10
-230.888873573778
 20
92.14405627662927
 30
0.0
 11
-230.888873573778
 21
99.34405327558554
 31
0.0
  0
LINE
  5
2C3
330
1F
100
AcDbEntity
  8
LAYER-007
  6
HIDDEN
 62
     4
100
AcDbLine
 10
-224.288873573778
 20
92.14405627662927
 30
0.0
 11
-224.288873573778
 21
99.34405327558554
 31
0.0
  0
LINE
  5
2C4
330
1F
100
AcDbEntity
  8
LAYER-007
  6
HIDDEN
 62
     4
100
AcDbLine
 10
-223.088873573778
 20
92.14405627662927
 30
0.0
 11
-232.088873573778
 21
92.14405627662927
 31
0.0
  0
LINE
  5
2C5
330
1F
100
AcDbEntity
  8
LAYER-006
  6
Continuous
 62
     1
100
AcDbLine
 10
-65.09493617096632
 20
92.18551336481815
 30
0.0
 11
-60.33883872599301
 21
90.60014754982697
 31
0.0
  0
LINE
  5
2C6
330
1F
100
AcDbEntity
  8
LAYER-006
  6
Continuous
 62
     1
100
AcDbLine
 10
-57.16810709601094
 20
90.60014754982697
 30
0.0
 11
-52.41200965103764
 21
92.18551336481815
 31
0.0
  0
LINE
  5
2C7
330
1F
100
AcDbEntity
  8
LAYER-006
  6
Continuous
 62
     1
100
AcDbLine
 10
-50.82664383604674
 20
90.60014754982697
 30
0.0
 11
-34.97298568613599
 21
90.60014754982697
 31
0.0
  0
LINE
  5
2C8
330
1F
100
AcDbEntity
  8
LAYER-006
  6
Continuous
 62
     1
100
AcDbLine
 10
-63.50957035597526
 20
89.01478173483599
 30
0.0
 11
-60.33883872599301
 21
89.01478173483599
 31
0.0
  0
LINE
  5
2C9
330
1F
100
AcDbEntity
  8
LAYER-006
  6
Continuous
 62
     1
100
AcDbLine
 10
-63.50957035597526
 20
89.01478173483599
 30
0.0
 11
-63.50957035597526
 21
82.67332164560332
 31
0.0
  0
LINE
  5
2CA
330
1F
100
AcDbEntity
  8
LAYER-006
  6
Continuous
 62
     1
100
AcDbLine
 10
-57.16810709601094
 20
89.01478173483599
 30
0.0
 11
-50.82664383604674
 21
89.01478173483599
 31
0.0
  0
LINE
  5
2CB
330
1F
100
AcDbEntity
  8
LAYER-006
  6
Continuous
 62
     1
100
AcDbLine
 10
-53.99737546602881
 20
89.01478173483599
 30
0.0
 11
-53.99737546602881
 21
82.67332164560332
 31
0.0
  0
LINE
  5
2CC
330
1F
100
AcDbEntity
  8
LAYER-006
  6
Continuous
 62
     1
100
AcDbLine
 10
-34.97298568613599
 20
89.01478173483599
 30
0.0
 11
-31.80225405615386
 21
89.01478173483599
 31
0.0
  0
LINE
  5
2CD
330
1F
100
AcDbEntity
  8
LAYER-006
  6
Continuous
 62
     1
100
AcDbLine
 10
-31.80225405615386
 20
89.01478173483599
 30
0.0
 11
-31.80225405615386
 21
82.67332164560332
 31
0.0
  0
LINE
  5
2CE
330
1F
100
AcDbEntity
  8
LAYER-007
  6
CENTER
 62
     4
100
AcDbLine
 10
155.3733192317963
 20
81.34405327558554
 30
0.0
 11
233.1042827223429
 21
81.34405327558554
 31
0.0
  0
LINE
  5
2CF
330
1F
100
AcDbEntity
  8
LAYER-006
  6
Continuous
 62
     1
100
AcDbLine
 10
-69.85103361593957
 20
87.42941909057646
 30
0.0
 11
-60.33883872599301
 21
87.42941909057646
 31
0.0
  0
LINE
  5
2D0
330
1F
100
AcDbEntity
  8
LAYER-006
  6
Continuous
 62
     1
100
AcDbLine
 10
-69.85103361593957
 20
87.42941909057646
 30
0.0
 11
-69.85103361593957
 21
84.2586874605943
 31
0.0
  0
LINE
  5
2D1
330
1F
100
AcDbEntity
  8
LAYER-006
  6
Continuous
 62
     1
100
AcDbLine
 10
-57.16810709601094
 20
87.42941909057646
 30
0.0
 11
-50.82664383604674
 21
87.42941909057646
 31
0.0
  0
LINE
  5
2D2
330
1F
100
AcDbEntity
  8
LAYER-006
  6
Continuous
 62
     1
100
AcDbLine
 10
-34.97298568613599
 20
87.42941909057646
 30
0.0
 11
-31.80225405615386
 21
87.42941909057646
 31
0.0
  0
LINE
  5
2D3
330
1F
100
AcDbEntity
  8
LAYER-006
  6
Continuous
 62
     1
100
AcDbLine
 10
-358.0888765737781
 20
85.84405327558554
 30
0.0
 11
-358.0888765737781
 21
99.34405327558554
 31
0.0
  0
ARC
  5
2D4
330
1F
100
AcDbEntity
  8
LAYER-006
  6
Continuous
 62
     1
100
AcDbCircle
 10
-353.5888765737781
 20
85.84405327558554
 30
0.0
 40
4.500000000000001
100
AcDbArc
 50
180.0
 51
0.023339013286969
  0
CIRCLE
  5
2D5
330
1F
100
AcDbEntity
  8
LAYER-006
  6
Continuous
 62
     1
100
AcDbCircle
 10
-353.5888765737781
 20
85.84405327558554
 30
0.0
 40
1.5
  0
LINE
  5
2D6
330
1F
100
AcDbEntity
  8
LAYER-006
  6
Continuous
 62
     1
100
AcDbLine
 10
-349.0888765737782
 20
85.84405327558554
 30
0.0
 11
-349.0888765737782
 21
99.34405327558554
 31
0.0
  0
LINE
  5
2D7
330
1F
100
AcDbEntity
  8
LAYER-006
  6
Continuous
 62
     1
100
AcDbLine
 10
-334.0888735737779
 20
85.84405327558554
 30
0.0
 11
-334.0888735737779
 21
99.34405327558554
 31
0.0
  0
ARC
  5
2D8
330
1F
100
AcDbEntity
  8
LAYER-006
  6
Continuous
 62
     1
100
AcDbCircle
 10
-329.588873573778
 20
85.84405327558554
 30
0.0
 40
4.500000000000001
100
AcDbArc
 50
180.0
 51
0.023339013290138
  0
CIRCLE
  5
2D9
330
1F
100
AcDbEntity
  8
LAYER-006
  6
Continuous
 62
     1
100
AcDbCircle
 10
-329.588873573778
 20
85.84405327558554
 30
0.0
 40
1.5
  0
LINE
  5
2DA
330
1F
100
AcDbEntity
  8
LAYER-006
  6
Continuous
 62
     1
100
AcDbLine
 10
-325.088873573778
 20
85.84405327558554
 30
0.0
 11
-325.088873573778
 21
99.34405327558554
 31
0.0
  0
LINE
  5
2DB
330
1F
100
AcDbEntity
  8
LAYER-006
  6
Continuous
 62
     1
100
AcDbLine
 10
-307.088873573778
 20
85.84405327558554
 30
0.0
 11
-307.088873573778
 21
99.34405327558554
 31
0.0
  0
ARC
  5
2DC
330
1F
100
AcDbEntity
  8
LAYER-006
  6
Continuous
 62
     1
100
AcDbCircle
 10
-302.588873573778
 20
85.84405327558554
 30
0.0
 40
4.500000000000001
100
AcDbArc
 50
180.0
 51
0.023339013290138
  0
CIRCLE
  5
2DD
330
1F
100
AcDbEntity
  8
LAYER-006
  6
Continuous
 62
     1
100
AcDbCircle
 10
-302.588873573778
 20
85.84405327558554
 30
0.0
 40
1.5
  0
LINE
  5
2DE
330
1F
100
AcDbEntity
  8
LAYER-006
  6
Continuous
 62
     1
100
AcDbLine
 10
-298.088873573778
 20
85.84405327558554
 30
0.0
 11
-298.088873573778
 21
99.34405327558554
 31
0.0
  0
LINE
  5
2DF
330
1F
100
AcDbEntity
  8
LAYER-006
  6
Continuous
 62
     1
100
AcDbLine
 10
-283.0888765737778
 20
85.84405327558554
 30
0.0
 11
-283.0888765737778
 21
99.34405327558554
 31
0.0
  0
ARC
  5
2E0
330
1F
100
AcDbEntity
  8
LAYER-006
  6
Continuous
 62
     1
100
AcDbCircle
 10
-278.5888765737781
 20
85.84405327558554
 30
0.0
 40
4.500000000000001
100
AcDbArc
 50
180.0
 51
0.0233390132869684
  0
CIRCLE
  5
2E1
330
1F
100
AcDbEntity
  8
LAYER-006
  6
Continuous
 62
     1
100
AcDbCircle
 10
-278.5888765737781
 20
85.84405327558554
 30
0.0
 40
1.5
  0
LINE
  5
2E2
330
1F
100
AcDbEntity
  8
LAYER-006
  6
Continuous
 62
     1
100
AcDbLine
 10
-274.088876573778
 20
85.84405327558554
 30
0.0
 11
-274.088876573778
 21
99.34405327558554
 31
0.0
  0
LINE
  5
2E3
330
1F
100
AcDbEntity
  8
LAYER-006
  6
Continuous
 62
     1
100
AcDbLine
 10
-256.0888735737779
 20
85.84405327558554
 30
0.0
 11
-256.0888735737779
 21
99.34405327558554
 31
0.0
  0
ARC
  5
2E4
330
1F
100
AcDbEntity
  8
LAYER-006
  6
Continuous
 62
     1
100
AcDbCircle
 10
-251.588873573778
 20
85.84405327558554
 30
0.0
 40
4.500000000000001
100
AcDbArc
 50
180.0
 51
0.0233390132901377
  0
CIRCLE
  5
2E5
330
1F
100
AcDbEntity
  8
LAYER-006
  6
Continuous
 62
     1
100
AcDbCircle
 10
-251.588873573778
 20
85.84405327558554
 30
0.0
 40
1.5
  0
LINE
  5
2E6
330
1F
100
AcDbEntity
  8
LAYER-006
  6
Continuous
 62
     1
100
AcDbLine
 10
-247.088873573778
 20
85.84405327558554
 30
0.0
 11
-247.088873573778
 21
99.34405327558554
 31
0.0
  0
LINE
  5
2E7
330
1F
100
AcDbEntity
  8
LAYER-006
  6
Continuous
 62
     1
100
AcDbLine
 10
-232.088873573778
 20
85.84405327558554
 30
0.0
 11
-232.088873573778
 21
99.34405327558554
 31
0.0
  0
ARC
  5
2E8
330
1F
100
AcDbEntity
  8
LAYER-006
  6
Continuous
 62
     1
100
AcDbCircle
 10
-227.588873573778
 20
85.84405327558554
 30
0.0
 40
4.500000000000001
100
AcDbArc
 50
180.0
 51
0.0233390132901377
  0
CIRCLE
  5
2E9
330
1F
100
AcDbEntity
  8
LAYER-006
  6
Continuous
 62
     1
100
AcDbCircle
 10
-227.588873573778
 20
85.84405327558554
 30
0.0
 40
1.5
  0
LINE
  5
2EA
330
1F
100
AcDbEntity
  8
LAYER-006
  6
Continuous
 62
     1
100
AcDbLine
 10
-223.088873573778
 20
85.84405327558554
 30
0.0
 11
-223.088873573778
 21
99.34405327558554
 31
0.0
  0
LINE
  5
2EB
330
1F
100
AcDbEntity
  8
LAYER-006
  6
Continuous
 62
     1
100
AcDbLine
 10
29.78311017347141
 20
84.81966666642424
 30
0.0
 11
29.78311017347141
 21
-77.131553774
 31
0.0
  0
LINE
  5
2EC
330
1F
100
AcDbEntity
  8
LAYER-006
  6
Continuous
 62
     1
100
AcDbLine
 10
29.78311017347141
 20
84.81966666642424
 30
0.0
 11
-28.63152242581526
 21
84.81966666642424
 31
0.0
  0
LINE
  5
2ED
330
1F
100
AcDbEntity
  8
LAYER-006
  6
Continuous
 62
     1
100
AcDbLine
 10
-69.85103361593957
 20
84.2586874605943
 30
0.0
 11
-60.33883872599301
 21
84.2586874605943
 31
0.0
  0
LINE
  5
2EE
330
1F
100
AcDbEntity
  8
LAYER-006
  6
Continuous
 62
     1
100
AcDbLine
 10
-57.16810709601094
 20
84.2586874605943
 30
0.0
 11
-50.82664383604674
 21
84.2586874605943
 31
0.0
  0
LINE
  5
2EF
330
1F
100
AcDbEntity
  8
LAYER-006
  6
Continuous
 62
     1
100
AcDbLine
 10
-34.97298568613599
 20
84.2586874605943
 30
0.0
 11
-31.80225405615386
 21
84.2586874605943
 31
0.0
  0
LINE
  5
2F0
330
1F
100
AcDbEntity
  8
LAYER-006
  6
Continuous
 62
     1
100
AcDbLine
 10
-63.50957035597526
 20
82.67332164560332
 30
0.0
 11
-60.33883872599301
 21
82.67332164560332
 31
0.0
  0
LINE
  5
2F1
330
1F
100
AcDbEntity
  8
LAYER-006
  6
Continuous
 62
     1
100
AcDbLine
 10
-57.16810709601094
 20
82.67332164560332
 30
0.0
 11
-50.82664383604674
 21
82.67332164560332
 31
0.0
  0
LINE
  5
2F2
330
1F
100
AcDbEntity
  8
LAYER-006
  6
Continuous
 62
     1
100
AcDbLine
 10
-34.97298568613599
 20
82.67332164560332
 30
0.0
 11
-31.80225405615386
 21
82.67332164560332
 31
0.0
  0
LINE
  5
2F3
330
1F
100
AcDbEntity
  8
LAYER-006
  6
Continuous
 62
     1
100
AcDbLine
 10
-60.33883872599301
 20
81.0879558306122
 30
0.0
 11
-60.33883872599301
 21
90.60014754982697
 31
0.0
  0
LINE
  5
2F4
330
1F
100
AcDbEntity
  8
LAYER-006
  6
Continuous
 62
     1
100
AcDbLine
 10
-60.33883872599301
 20
81.0879558306122
 30
0.0
 11
-57.16810709601094
 21
81.0879558306122
 31
0.0
  0
LINE
  5
2F5
330
1F
100
AcDbEntity
  8
LAYER-006
  6
Continuous
 62
     1
100
AcDbLine
 10
-58.75347291100212
 20
81.0879558306122
 30
0.0
 11
-58.75347291100212
 21
100.1123424397734
 31
0.0
  0
LINE
  5
2F6
330
1F
100
AcDbEntity
  8
LAYER-006
  6
Continuous
 62
     1
100
AcDbLine
 10
-57.16810709601094
 20
81.0879558306122
 30
0.0
 11
-57.16810709601094
 21
90.60014754982697
 31
0.0
  0
LINE
  5
2F7
330
1F
100
AcDbEntity
  8
LAYER-007
  6
Continuous
 62
     4
100
AcDbLine
 10
-354.878873573778
 20
78.38786827704359
 30
0.0
 11
-355.8988765737781
 21
75.50787127787226
 31
0.0
  0
LINE
  5
2F8
330
1F
100
AcDbEntity
  8
LAYER-007
  6
Continuous
 62
     4
100
AcDbLine
 10
-351.1438705737781
 20
78.38786827704359
 30
0.0
 11
-352.3288765737781
 21
75.67287127658554
 31
0.0
  0
LINE
  5
2F9
330
1F
100
AcDbEntity
  8
LAYER-007
  6
Continuous
 62
     4
100
AcDbLine
 10
-330.9088735737781
 20
78.37287127662921
 30
0.0
 11
-330.3838765737781
 21
78.20786827658554
 31
0.0
  0
LINE
  5
2FA
330
1F
100
AcDbEntity
  8
LAYER-007
  6
Continuous
 62
     4
100
AcDbLine
 10
-327.443876573778
 20
78.37287127662921
 30
0.0
 11
-332.4688765737781
 21
72.31286827558554
 31
0.0
  0
LINE
  5
2FB
330
1F
100
AcDbEntity
  8
LAYER-007
  6
Continuous
 62
     4
100
AcDbLine
 10
-254.078873573778
 20
78.37287127662921
 30
0.0
 11
-253.943870573778
 21
77.68286827662908
 31
0.0
  0
LINE
  5
2FC
330
1F
100
AcDbEntity
  8
LAYER-007
  6
Continuous
 62
     4
100
AcDbLine
 10
-249.4138705735121
 20
78.37287127662921
 30
0.0
 11
-249.128870573778
 21
78.02787127662927
 31
0.0
  0
LINE
  5
2FD
330
1F
100
AcDbEntity
  8
LAYER-007
  6
Continuous
 62
     4
100
AcDbLine
 10
-226.5988705737781
 20
78.35786827662909
 30
0.0
 11
-225.818870573778
 21
78.22286827688623
 31
0.0
  0
LINE
  5
2FE
330
1F
100
AcDbEntity
  8
LAYER-007
  6
Continuous
 62
     4
100
AcDbLine
 10
-304.4938735727266
 20
78.34286827662925
 30
0.0
 11
-304.148873573778
 21
78.17786827662931
 31
0.0
  0
LINE
  5
2FF
330
1F
100
AcDbEntity
  8
LAYER-007
  6
Continuous
 62
     4
100
AcDbLine
 10
-279.683873573778
 20
78.34286827662925
 30
0.0
 11
-280.5988705737781
 21
76.15286827662925
 31
0.0
  0
LINE
  5
300
330
1F
100
AcDbEntity
  8
LAYER-007
  6
Continuous
 62
     4
100
AcDbLine
 10
-300.9538705738153
 20
78.26786827662912
 30
0.0
 11
-300.623873573778
 21
77.66787127662926
 31
0.0
  0
LINE
  5
301
330
1F
100
AcDbEntity
  8
LAYER-007
  6
Continuous
 62
     4
100
AcDbLine
 10
-331.253873573778
 20
78.20786827658554
 30
0.0
 11
-330.9088735737781
 21
78.37287127662921
 31
0.0
  0
LINE
  5
302
330
1F
100
AcDbEntity
  8
LAYER-007
  6
Continuous
 62
     4
100
AcDbLine
 10
-330.3838765737781
 20
78.20786827658554
 30
0.0
 11
-330.218876573778
 21
76.12287127662913
 31
0.0
  0
LINE
  5
303
330
1F
100
AcDbEntity
  8
LAYER-007
  6
Continuous
 62
     4
100
AcDbLine
 10
-225.818870573778
 20
78.22286827688623
 30
0.0
 11
-225.4288735738153
 21
77.71287127662927
 31
0.0
  0
LINE
  5
304
330
1F
100
AcDbEntity
  8
LAYER-007
  6
Continuous
 62
     4
100
AcDbLine
 10
-304.148873573778
 20
78.17786827662931
 30
0.0
 11
-303.983870573778
 21
77.66787127662926
 31
0.0
  0
LINE
  5
305
330
1F
100
AcDbEntity
  8
LAYER-007
  6
Continuous
 62
     4
100
AcDbLine
 10
-276.5788765737781
 20
78.08786827662931
 30
0.0
 11
-278.003873573778
 21
75.23787127662916
 31
0.0
  0
LINE
  5
306
330
1F
100
AcDbEntity
  8
LAYER-007
  6
Continuous
 62
     4
100
AcDbLine
 10
-227.633870573778
 20
78.1028712766292
 30
0.0
 11
-226.5988705737781
 21
78.35786827662909
 31
0.0
  0
LINE
  5
307
330
1F
100
AcDbEntity
  8
LAYER-007
  6
Continuous
 62
     4
100
AcDbLine
 10
-251.828873573778
 20
78.02787127662927
 30
0.0
 11
-252.3538705737781
 21
74.0678682766293
 31
0.0
  0
LINE
  5
308
330
1F
100
AcDbEntity
  8
LAYER-007
  6
Continuous
 62
     4
100
AcDbLine
 10
-249.128870573778
 20
78.02787127662927
 30
0.0
 11
-248.723870573778
 21
77.86286827662909
 31
0.0
  0
LINE
  5
309
330
1F
100
AcDbEntity
  8
LAYER-007
  6
Continuous
 62
     4
100
AcDbLine
 10
-225.4288735738153
 20
77.71287127662927
 30
0.0
 11
-225.698873572778
 21
76.79786827558553
 31
0.0
  0
LINE
  5
30A
330
1F
100
AcDbEntity
  8
LAYER-007
  6
Continuous
 62
     4
100
AcDbLine
 10
-303.983870573778
 20
77.66787127662926
 30
0.0
 11
-304.4938735727266
 21
76.15286827662925
 31
0.0
  0
LINE
  5
30B
330
1F
100
AcDbEntity
  8
LAYER-007
  6
Continuous
 62
     4
100
AcDbLine
 10
-300.623873573778
 20
77.66787127662926
 30
0.0
 11
-300.278870573778
 21
77.50286827662907
 31
0.0
  0
LINE
  5
30C
330
1F
100
AcDbEntity
  8
LAYER-007
  6
Continuous
 62
     4
100
AcDbLine
 10
-253.943870573778
 20
77.68286827662908
 30
0.0
 11
-254.2438705724212
 21
73.88786827662929
 31
0.0
  0
LINE
  5
30D
330
1F
100
AcDbEntity
  8
LAYER-007
  6
Continuous
 62
     4
100
AcDbLine
 10
-300.278870573778
 20
77.50286827662907
 30
0.0
 11
-299.768873573778
 21
77.32286827662907
 31
0.0
  0
LINE
  5
30E
330
1F
100
AcDbEntity
  8
LAYER-007
  6
Continuous
 62
     4
100
AcDbLine
 10
-228.2938705737781
 20
77.44287127662926
 30
0.0
 11
-227.633870573778
 21
78.1028712766292
 31
0.0
  0
LINE
  5
30F
330
1F
100
AcDbEntity
  8
LAYER-007
  6
Continuous
 62
     4
100
AcDbLine
 10
-225.698873572778
 20
76.79786827558553
 30
0.0
 11
-226.7338705737779
 21
75.88286827762053
 31
0.0
  0
LINE
  5
310
330
1F
100
AcDbEntity
  8
LAYER-007
  6
Continuous
 62
     4
100
AcDbLine
 10
-277.8838735737782
 20
76.40786827662919
 30
0.0
 11
-276.5788765737781
 21
78.08786827662931
 31
0.0
  0
LINE
  5
311
330
1F
100
AcDbEntity
  8
LAYER-007
  6
Continuous
 62
     4
100
AcDbLine
 10
-304.4938735727266
 20
76.15286827662925
 30
0.0
 11
-305.003870573778
 21
74.45786827662926
 31
0.0
  0
LINE
  5
312
330
1F
100
AcDbEntity
  8
LAYER-007
  6
Continuous
 62
     4
100
AcDbLine
 10
-301.4638705737781
 20
76.15286827662925
 30
0.0
 11
-300.9538705738153
 21
78.26786827662912
 31
0.0
  0
LINE
  5
313
330
1F
100
AcDbEntity
  8
LAYER-007
  6
Continuous
 62
     4
100
AcDbLine
 10
-280.5988705737781
 20
76.15286827662925
 30
0.0
 11
-280.718873573778
 21
75.4928712766291
 31
0.0
  0
LINE
  5
314
330
1F
100
AcDbEntity
  8
LAYER-007
  6
Continuous
 62
     4
100
AcDbLine
 10
-330.218876573778
 20
76.12287127662913
 30
0.0
 11
-329.858876573778
 21
73.87287127662927
 31
0.0
  0
LINE
  5
315
330
1F
100
AcDbEntity
  8
LAYER-007
  6
Continuous
 62
     4
100
AcDbLine
 10
-226.7338705737779
 20
75.88286827762053
 30
0.0
 11
-227.903873573778
 21
75.50787127787226
 31
0.0
  0
LINE
  5
316
330
1F
100
AcDbEntity
  8
LAYER-007
  6
Continuous
 62
     4
100
AcDbLine
 10
-226.5988705737781
 20
75.88286827762053
 30
0.0
 11
-226.088870573778
 21
75.76287127594219
 31
0.0
  0
LINE
  5
317
330
1F
100
AcDbEntity
  8
LAYER-007
  6
Continuous
 62
     4
100
AcDbLine
 10
-249.9388675737781
 20
75.7928682759422
 30
0.0
 11
-249.4138705735121
 21
78.37287127662921
 31
0.0
  0
LINE
  5
318
330
1F
100
AcDbEntity
  8
LAYER-007
  6
Continuous
 62
     4
100
AcDbLine
 10
-226.088870573778
 20
75.76287127594219
 30
0.0
 11
-225.9538705738153
 21
75.23787127662916
 31
0.0
  0
LINE
  5
319
330
1F
100
AcDbEntity
  8
LAYER-007
  6
Continuous
 62
     4
100
AcDbLine
 10
-352.3288765737781
 20
75.67287127658554
 30
0.0
 11
-353.0188735737781
 21
72.7928682759422
 31
0.0
  0
LINE
  5
31A
330
1F
100
AcDbEntity
  8
LAYER-007
  6
Continuous
 62
     4
100
AcDbLine
 10
-278.648876573778
 20
75.62787127662912
 30
0.0
 11
-277.8838735737782
 21
76.40786827662919
 31
0.0
  0
LINE
  5
31B
330
1F
100
AcDbEntity
  8
LAYER-007
  6
Continuous
 62
     4
100
AcDbLine
 10
-277.1038765737781
 20
75.62787127662912
 30
0.0
 11
-276.4588735737781
 21
76.01786827662923
 31
0.0
  0
LINE
  5
31C
330
1F
100
AcDbEntity
  8
LAYER-007
  6
Continuous
 62
     4
100
AcDbLine
 10
-355.8988765737781
 20
75.50787127787226
 30
0.0
 11
-356.4088735737781
 21
73.48286827662906
 31
0.0
  0
LINE
  5
31D
330
1F
100
AcDbEntity
  8
LAYER-007
  6
Continuous
 62
     4
100
AcDbLine
 10
-227.903873573778
 20
75.50787127787226
 30
0.0
 11
-226.5988705737781
 21
75.88286827762053
 31
0.0
  0
LINE
  5
31E
330
1F
100
AcDbEntity
  8
LAYER-007
  6
Continuous
 62
     4
100
AcDbLine
 10
-280.718873573778
 20
75.4928712766291
 30
0.0
 11
-280.3288765737781
 21
74.98286827662921
 31
0.0
  0
LINE
  5
31F
330
1F
100
AcDbEntity
  8
LAYER-007
  6
Continuous
 62
     4
100
AcDbLine
 10
-278.003873573778
 20
75.23787127662916
 30
0.0
 11
-279.953873573778
 21
72.40287127662927
 31
0.0
  0
LINE
  5
320
330
1F
100
AcDbEntity
  8
LAYER-007
  6
Continuous
 62
     4
100
AcDbLine
 10
-225.9538705738153
 20
75.23787127662916
 30
0.0
 11
-226.8688705737781
 21
73.55787127662924
 31
0.0
  0
LINE
  5
321
330
1F
100
AcDbEntity
  8
LAYER-007
  6
Continuous
 62
     4
100
AcDbLine
 10
-279.293873573778
 20
75.1178682766292
 30
0.0
 11
-278.648876573778
 21
75.62787127662912
 31
0.0
  0
LINE
  5
322
330
1F
100
AcDbEntity
  8
LAYER-007
  6
Continuous
 62
     4
100
AcDbLine
 10
-278.2588705737779
 20
75.1178682766292
 30
0.0
 11
-277.1038765737781
 21
75.62787127662912
 31
0.0
  0
LINE
  5
323
330
1F
100
AcDbEntity
  8
LAYER-007
  6
Continuous
 62
     4
100
AcDbLine
 10
-280.3288765737781
 20
74.98286827662921
 30
0.0
 11
-279.293873573778
 21
75.1178682766292
 31
0.0
  0
LINE
  5
324
330
1F
100
AcDbEntity
  8
LAYER-007
  6
Continuous
 62
     4
100
AcDbLine
 10
-225.9538705738153
 20
74.98286827662921
 30
0.0
 11
-225.4288735738153
 21
75.50787127787226
 31
0.0
  0
LINE
  5
325
330
1F
100
AcDbEntity
  8
LAYER-007
  6
Continuous
 62
     4
100
AcDbLine
 10
-279.293873573778
 20
74.72786827662927
 30
0.0
 11
-278.2588705737779
 21
75.1178682766292
 31
0.0
  0
LINE
  5
326
330
1F
100
AcDbEntity
  8
LAYER-007
  6
Continuous
 62
     4
100
AcDbLine
 10
-352.8388735737781
 20
74.66787127662923
 30
0.0
 11
-351.1438705737781
 21
78.38786827704359
 31
0.0
  0
LINE
  5
327
330
1F
100
AcDbEntity
  8
LAYER-007
  6
Continuous
 62
     4
100
AcDbLine
 10
-305.003870573778
 20
74.45786827662926
 30
0.0
 11
-305.3338735737781
 21
73.1228712766293
 31
0.0
  0
LINE
  5
328
330
1F
100
AcDbEntity
  8
LAYER-007
  6
Continuous
 62
     4
100
AcDbLine
 10
-302.3038705737781
 20
74.45786827662926
 30
0.0
 11
-301.4638705737781
 21
76.15286827662925
 31
0.0
  0
LINE
  5
329
330
1F
100
AcDbEntity
  8
LAYER-007
  6
Continuous
 62
     4
100
AcDbLine
 10
-252.518870573778
 20
74.4128682765506
 30
0.0
 11
-251.828873573778
 21
78.02787127662927
 31
0.0
  0
LINE
  5
32A
330
1F
100
AcDbEntity
  8
LAYER-007
  6
Continuous
 62
     4
100
AcDbLine
 10
-227.1238735737781
 20
74.33786827662931
 30
0.0
 11
-225.9538705738153
 21
74.98286827662921
 31
0.0
  0
LINE
  5
32B
330
1F
100
AcDbEntity
  8
LAYER-007
  6
Continuous
 62
     4
100
AcDbLine
 10
-252.3538705737781
 20
74.0678682766293
 30
0.0
 11
-252.518870573778
 21
72.6878682766291
 31
0.0
  0
LINE
  5
32C
330
1F
100
AcDbEntity
  8
LAYER-007
  6
Continuous
 62
     4
100
AcDbLine
 10
-254.2438705724212
 20
73.88786827662929
 30
0.0
 11
-254.423870573778
 21
72.6878682766291
 31
0.0
  0
LINE
  5
32D
330
1F
100
AcDbEntity
  8
LAYER-007
  6
Continuous
 62
     4
100
AcDbLine
 10
-329.858876573778
 20
73.87287127662927
 30
0.0
 11
-329.3488735737781
 21
72.82286827662912
 31
0.0
  0
LINE
  5
32E
330
1F
100
AcDbEntity
  8
LAYER-007
  6
Continuous
 62
     4
100
AcDbLine
 10
-280.3288765737781
 20
73.69287127662926
 30
0.0
 11
-279.293873573778
 21
74.72786827662927
 31
0.0
  0
LINE
  5
32F
330
1F
100
AcDbEntity
  8
LAYER-007
  6
Continuous
 62
     4
100
AcDbLine
 10
-226.8688705737781
 20
73.55787127662924
 30
0.0
 11
-228.4138705735121
 21
72.64287127662914
 31
0.0
  0
LINE
  5
330
330
1F
100
AcDbEntity
  8
LAYER-007
  6
Continuous
 62
     4
100
AcDbLine
 10
-356.4088735737781
 20
73.48286827662906
 30
0.0
 11
-356.2288735737781
 21
72.67287127658554
 31
0.0
  0
LINE
  5
331
330
1F
100
AcDbEntity
  8
LAYER-007
  6
Continuous
 62
     4
100
AcDbLine
 10
-353.6338735737781
 20
73.48286827662906
 30
0.0
 11
-352.8388735737781
 21
74.66787127662923
 31
0.0
  0
LINE
  5
332
330
1F
100
AcDbEntity
  8
LAYER-007
  6
Continuous
 62
     4
100
AcDbLine
 10
-229.193873573778
 20
73.42287127662925
 30
0.0
 11
-227.1238735737781
 21
74.33786827662931
 31
0.0
  0
LINE
  5
333
330
1F
100
AcDbEntity
  8
LAYER-007
  6
Continuous
 62
     4
100
AcDbLine
 10
-305.3338735737781
 20
73.1228712766293
 30
0.0
 11
-305.1688735734911
 21
72.77786827662911
 31
0.0
  0
LINE
  5
334
330
1F
100
AcDbEntity
  8
LAYER-007
  6
Continuous
 62
     4
100
AcDbLine
 10
-280.718873573778
 20
73.04786827662912
 30
0.0
 11
-280.3288765737781
 21
73.69287127662926
 31
0.0
  0
LINE
  5
335
330
1F
100
AcDbEntity
  8
LAYER-007
  6
Continuous
 62
     4
100
AcDbLine
 10
-303.4888735737781
 20
72.94287127662929
 30
0.0
 11
-302.3038705737781
 21
74.45786827662926
 31
0.0
  0
LINE
  5
336
330
1F
100
AcDbEntity
  8
LAYER-007
  6
Continuous
 62
     4
100
AcDbLine
 10
-329.3488735737781
 20
72.82286827662912
 30
0.0
 11
-328.298873573778
 21
72.31286827558554
 31
0.0
  0
LINE
  5
337
330
1F
100
AcDbEntity
  8
LAYER-007
  6
Continuous
 62
     4
100
AcDbLine
 10
-353.0188735737781
 20
72.7928682759422
 30
0.0
 11
-352.673873573778
 21
72.46287127662913
 31
0.0
  0
LINE
  5
338
330
1F
100
AcDbEntity
  8
LAYER-007
  6
Continuous
 62
     4
100
AcDbLine
 10
-305.1688735734911
 20
72.77786827662911
 30
0.0
 11
-304.778870573778
 21
72.44787127662906
 31
0.0
  0
LINE
  5
339
330
1F
100
AcDbEntity
  8
LAYER-007
  6
Continuous
 62
     4
100
AcDbLine
 10
-254.423870573778
 20
72.6878682766291
 30
0.0
 11
-254.078873573778
 21
72.34286827662916
 31
0.0
  0
LINE
  5
33A
330
1F
100
AcDbEntity
  8
LAYER-007
  6
Continuous
 62
     4
100
AcDbLine
 10
-252.518870573778
 20
72.6878682766291
 30
0.0
 11
-252.0538675737781
 21
72.34286827662916
 31
0.0
  0
LINE
  5
33B
330
1F
100
AcDbEntity
  8
LAYER-007
  6
Continuous
 62
     4
100
AcDbLine
 10
-251.0188705737781
 20
72.6878682766291
 30
0.0
 11
-249.9388675737781
 21
75.7928682759422
 31
0.0
  0
LINE
  5
33C
330
1F
100
AcDbEntity
  8
LAYER-007
  6
Continuous
 62
     4
100
AcDbLine
 10
-356.2288735737781
 20
72.67287127658554
 30
0.0
 11
-355.3888735737781
 21
72.46287127662913
 31
0.0
  0
LINE
  5
33D
330
1F
100
AcDbEntity
  8
LAYER-007
  6
Continuous
 62
     4
100
AcDbLine
 10
-354.5338765737781
 20
72.62787127662907
 30
0.0
 11
-353.6338735737781
 21
73.48286827662906
 31
0.0
  0
LINE
  5
33E
330
1F
100
AcDbEntity
  8
LAYER-007
  6
Continuous
 62
     4
100
AcDbLine
 10
-351.8188735737782
 20
72.62787127662907
 30
0.0
 11
-350.813873573778
 21
73.13786827662912
 31
0.0
  0
LINE
  5
33F
330
1F
100
AcDbEntity
  8
LAYER-007
  6
Continuous
 62
     4
100
AcDbLine
 10
-229.7188735737779
 20
72.64287127662914
 30
0.0
 11
-229.193873573778
 21
73.42287127662925
 31
0.0
  0
LINE
  5
340
330
1F
100
AcDbEntity
  8
LAYER-007
  6
Continuous
 62
     4
100
AcDbLine
 10
-228.4138705735121
 20
72.64287127662914
 30
0.0
 11
-229.193873573778
 21
72.38786827704359
 31
0.0
  0
LINE
  5
341
330
1F
100
AcDbEntity
  8
LAYER-007
  6
Continuous
 62
     4
100
AcDbLine
 10
-304.148873573778
 20
72.61286827662917
 30
0.0
 11
-303.4888735737781
 21
72.94287127662929
 31
0.0
  0
LINE
  5
342
330
1F
100
AcDbEntity
  8
LAYER-007
  6
Continuous
 62
     4
100
AcDbLine
 10
-280.5988705737781
 20
72.52286827662917
 30
0.0
 11
-280.718873573778
 21
73.04786827662912
 31
0.0
  0
LINE
  5
343
330
1F
100
AcDbEntity
  8
LAYER-007
  6
Continuous
 62
     4
100
AcDbLine
 10
-253.2988705737782
 20
72.50787127787226
 30
0.0
 11
-252.518870573778
 21
74.4128682765506
 31
0.0
  0
LINE
  5
344
330
1F
100
AcDbEntity
  8
LAYER-007
  6
Continuous
 62
     4
100
AcDbLine
 10
-327.443876573778
 20
72.47786827662918
 30
0.0
 11
-326.738876573778
 21
73.34787127662909
 31
0.0
  0
LINE
  5
345
330
1F
100
AcDbEntity
  8
LAYER-007
  6
Continuous
 62
     4
100
AcDbLine
 10
-355.3888735737781
 20
72.46287127662913
 30
0.0
 11
-354.5338765737781
 21
72.62787127662907
 31
0.0
  0
LINE
  5
346
330
1F
100
AcDbEntity
  8
LAYER-007
  6
Continuous
 62
     4
100
AcDbLine
 10
-352.673873573778
 20
72.46287127662913
 30
0.0
 11
-351.8188735737782
 21
72.62787127662907
 31
0.0
  0
LINE
  5
347
330
1F
100
AcDbEntity
  8
LAYER-007
  6
Continuous
 62
     4
100
AcDbLine
 10
-304.778870573778
 20
72.44787127662906
 30
0.0
 11
-304.148873573778
 21
72.61286827662917
 31
0.0
  0
LINE
  5
348
330
1F
100
AcDbEntity
  8
LAYER-007
  6
Continuous
 62
     4
100
AcDbLine
 10
-279.953873573778
 20
72.40287127662927
 30
0.0
 11
-280.5988705737781
 21
72.52286827662917
 31
0.0
  0
LINE
  5
349
330
1F
100
AcDbEntity
  8
LAYER-007
  6
Continuous
 62
     4
100
AcDbLine
 10
-229.193873573778
 20
72.38786827704359
 30
0.0
 11
-229.7188735737779
 21
72.64287127662914
 31
0.0
  0
LINE
  5
34A
330
1F
100
AcDbEntity
  8
LAYER-007
  6
Continuous
 62
     4
100
AcDbLine
 10
-254.078873573778
 20
72.34286827662916
 30
0.0
 11
-253.2988705737782
 21
72.50787127787226
 31
0.0
  0
LINE
  5
34B
330
1F
100
AcDbEntity
  8
LAYER-007
  6
Continuous
 62
     4
100
AcDbLine
 10
-252.0538675737781
 20
72.34286827662916
 30
0.0
 11
-251.0188705737781
 21
72.6878682766291
 31
0.0
  0
LINE
  5
34C
330
1F
100
AcDbEntity
  8
LAYER-007
  6
Continuous
 62
     4
100
AcDbLine
 10
-328.298873573778
 20
72.31286827558554
 30
0.0
 11
-327.443876573778
 21
72.47786827662918
 31
0.0
  0
LINE
  5
34D
330
1F
100
AcDbEntity
  8
LAYER-006
  6
Continuous
 62
     1
100
AcDbLine
 10
-365.588873573778
 20
69.34405027662908
 30
0.0
 11
-215.588873573778
 21
69.34405027662908
 31
0.0
  0
LINE
  5
34E
330
1F
100
AcDbEntity
  8
LAYER-006
  6
Continuous
 62
     1
100
AcDbLine
 10
-53.99737546602881
 20
69.34405027558535
 30
0.0
 11
-28.63152242581526
 21
69.34405027558535
 31
0.0
  0
LINE
  5
34F
330
1F
100
AcDbEntity
  8
LAYER-006
  6
Continuous
 62
     1
100
AcDbLine
 10
-53.99737546602881
 20
69.34405027558535
 30
0.0
 11
-53.99737546602881
 21
-61.65594672441443
 31
0.0
  0
LINE
  5
350
330
1F
100
AcDbEntity
  8
LAYER-006
  6
PHANTOM
 62
     1
100
AcDbLine
 10
126.7863131789043
 20
55.84405327559168
 30
0.0
 11
258.4792656229273
 21
55.84405327559168
 31
0.0
  0
LINE
  5
351
330
1F
100
AcDbEntity
  8
LAYER-006
  6
Continuous
 62
     1
100
AcDbLine
 10
-365.588873573778
 20
67.84405027662928
 30
0.0
 11
-365.588873573778
 21
93.34405327558554
 31
0.0
  0
LINE
  5
352
330
1F
100
AcDbEntity
  8
LAYER-006
  6
Continuous
 62
     1
100
AcDbLine
 10
-362.588873573778
 20
67.84405027662928
 30
0.0
 11
-362.588873573778
 21
-60.15594672441446
 31
0.0
  0
LINE
  5
353
330
1F
100
AcDbEntity
  8
LAYER-006
  6
Continuous
 62
     1
100
AcDbLine
 10
-352.0888735737782
 20
67.84405027662928
 30
0.0
 11
-352.0888735737782
 21
-60.15594672441446
 31
0.0
  0
LINE
  5
354
330
1F
100
AcDbEntity
  8
LAYER-006
  6
Continuous
 62
     1
100
AcDbLine
 10
-229.088870573778
 20
67.84405027662928
 30
0.0
 11
-229.088870573778
 21
-60.15594672441446
 31
0.0
  0
LINE
  5
355
330
1F
100
AcDbEntity
  8
LAYER-006
  6
Continuous
 62
     1
100
AcDbLine
 10
-218.5888735737781
 20
67.84405027662928
 30
0.0
 11
-218.5888735737781
 21
-60.15594672441446
 31
0.0
  0
LINE
  5
356
330
1F
100
AcDbEntity
  8
LAYER-006
  6
Continuous
 62
     1
100
AcDbLine
 10
-215.588873573778
 20
67.84405027662928
 30
0.0
 11
-365.588873573778
 21
67.84405027662928
 31
0.0
  0
LINE
  5
357
330
1F
100
AcDbEntity
  8
LAYER-006
  6
Continuous
 62
     1
100
AcDbLine
 10
-53.99737546602881
 20
67.75868446059428
 30
0.0
 11
-28.63152242581526
 21
67.75868446059428
 31
0.0
  0
LINE
  5
358
330
1F
100
AcDbEntity
  8
LAYER-006
  6
Continuous
 62
     1
100
AcDbLine
 10
29.78311017347141
 20
53.84405327558554
 30
0.0
 11
55.14896638406043
 21
53.84405327558554
 31
0.0
  0
LINE
  5
359
330
1F
100
AcDbEntity
  8
LAYER-006
  6
PHANTOM
 62
     1
100
AcDbLine
 10
258.4792656229273
 20
53.84405327559168
 30
0.0
 11
126.7863131789043
 21
53.84405327559168
 31
0.0
  0
LINE
  5
35A
330
1F
100
AcDbEntity
  8
LAYER-006
  6
Continuous
 62
     1
100
AcDbLine
 10
-352.0888735737782
 20
65.44405327655056
 30
0.0
 11
-322.088876573778
 21
65.44405327655056
 31
0.0
  0
LINE
  5
35B
330
1F
100
AcDbEntity
  8
LAYER-006
  6
Continuous
 62
     1
100
AcDbLine
 10
37.70993924842696
 20
51.30747114233145
 30
0.0
 11
55.14896638406043
 21
51.30747114233145
 31
0.0
  0
LINE
  5
35C
330
1F
100
AcDbEntity
  8
LAYER-006
  6
Continuous
 62
     1
100
AcDbLine
 10
-352.0888735737782
 20
63.04405327662906
 30
0.0
 11
-325.088876573778
 21
63.04405327662906
 31
0.0
  0
LINE
  5
35D
330
1F
100
AcDbEntity
  8
LAYER-006
  6
Continuous
 62
     1
100
AcDbLine
 10
39.61238139714794
 20
48.77088583834572
 30
0.0
 11
55.14896638406043
 21
48.77088583834572
 31
0.0
  0
LINE
  5
35E
330
1F
100
AcDbEntity
  8
LAYER-006
  6
Continuous
 62
     1
100
AcDbLine
 10
40.56359771541082
 20
47.1855200233546
 30
0.0
 11
55.14896638406043
 21
47.1855200233546
 31
0.0
  0
LINE
  5
35F
330
1F
100
AcDbEntity
  8
LAYER-006
  6
Continuous
 62
     1
100
AcDbLine
 10
-352.0888735737782
 20
60.64405627662916
 30
0.0
 11
-328.0888765737781
 21
60.64405627662916
 31
0.0
  0
LINE
  5
360
330
1F
100
AcDbEntity
  8
LAYER-006
  6
Continuous
 62
     1
100
AcDbLine
 10
42.14896353040194
 20
44.64893154863722
 30
0.0
 11
55.14896638406043
 21
44.64893154863722
 31
0.0
  0
LINE
  5
361
330
1F
100
AcDbEntity
  8
LAYER-006
  6
Continuous
 62
     1
100
AcDbLine
 10
-352.0888735737782
 20
58.24405327662916
 30
0.0
 11
-331.0888735737781
 21
58.24405327662916
 31
0.0
  0
LINE
  5
362
330
1F
100
AcDbEntity
  8
LAYER-006
  6
Continuous
 62
     1
100
AcDbLine
 10
44.05140567770081
 20
42.11234941538319
 30
0.0
 11
55.14896638406043
 21
42.11234941538319
 31
0.0
  0
LINE
  5
363
330
1F
100
AcDbEntity
  8
LAYER-006
  6
Continuous
 62
     1
100
AcDbLine
 10
-352.0888735737782
 20
55.84405327558554
 30
0.0
 11
-334.0888735737781
 21
55.84405327558554
 31
0.0
  0
LINE
  5
364
330
1F
100
AcDbEntity
  8
LAYER-006
  6
Continuous
 62
     1
100
AcDbLine
 10
45.63677149439519
 20
39.57576411158485
 30
0.0
 11
55.14896638406043
 21
39.57576411158485
 31
0.0
  0
LINE
  5
365
330
1F
100
AcDbEntity
  8
LAYER-006
  6
Continuous
 62
     1
100
AcDbLine
 10
-352.0888735737782
 20
53.44405627662908
 30
0.0
 11
-337.0888735737782
 21
53.44405627662908
 31
0.0
  0
LINE
  5
366
330
1F
100
AcDbEntity
  8
LAYER-006
  6
Continuous
 62
     1
100
AcDbLine
 10
-320.5888765737781
 20
18.84405327558554
 30
0.0
 11
-260.588873573778
 21
18.84405327558554
 31
0.0
  0
LINE
  5
367
330
1F
100
AcDbEntity
  8
LAYER-006
  6
Continuous
 62
     1
100
AcDbLine
 10
-260.588873573778
 20
18.84405327558554
 30
0.0
 11
-260.588873573778
 21
-11.15594972441437
 31
0.0
  0
LINE
  5
368
330
1F
100
AcDbEntity
  8
LAYER-007
  6
CENTER
 62
     4
100
AcDbLine
 10
118.1138506685042
 20
3.844053275585537
 30
0.0
 11
267.1517249213041
 21
3.844053275585537
 31
0.0
  0
LINE
  5
369
330
1F
100
AcDbEntity
  8
LAYER-006
  6
Continuous
 62
     1
100
AcDbLine
 10
-320.5888765737781
 20
-11.15594972441437
 30
0.0
 11
-320.5888765737781
 21
18.84405327558554
 31
0.0
  0
LINE
  5
36A
330
1F
100
AcDbEntity
  8
LAYER-006
  6
Continuous
 62
     1
100
AcDbLine
 10
-260.588873573778
 20
-11.15594972441437
 30
0.0
 11
-320.5888765737781
 21
-11.15594972441437
 31
0.0
  0
LINE
  5
36B
330
1F
100
AcDbEntity
  8
LAYER-006
  6
Continuous
 62
     1
100
AcDbLine
 10
-229.088870573778
 20
-45.75594672441463
 30
0.0
 11
-244.088870573778
 21
-45.75594672441463
 31
0.0
  0
LINE
  5
36C
330
1F
100
AcDbEntity
  8
LAYER-006
  6
Continuous
 62
     1
100
AcDbLine
 10
-44.48518057608243
 20
-45.80229174523532
 30
0.0
 11
-53.99737546602881
 21
-45.80229174523532
 31
0.0
  0
LINE
  5
36D
330
1F
100
AcDbEntity
  8
LAYER-006
  6
Continuous
 62
     1
100
AcDbLine
 10
-229.088870573778
 20
-48.15594972441446
 30
0.0
 11
-247.088870573778
 21
-48.15594972441446
 31
0.0
  0
LINE
  5
36E
330
1F
100
AcDbEntity
  8
LAYER-006
  6
Continuous
 62
     1
100
AcDbLine
 10
-42.89981476109136
 20
-48.33887387857254
 30
0.0
 11
-53.99737546602881
 21
-48.33887387857254
 31
0.0
  0
LINE
  5
36F
330
1F
100
AcDbEntity
  8
LAYER-006
  6
Continuous
 62
     1
100
AcDbLine
 10
-229.088870573778
 20
-50.55594672449314
 30
0.0
 11
-250.088870573778
 21
-50.55594672449314
 31
0.0
  0
LINE
  5
370
330
1F
100
AcDbEntity
  8
LAYER-006
  6
Continuous
 62
     1
100
AcDbLine
 10
-40.99737578310203
 20
-50.8754591824752
 30
0.0
 11
-53.99737546602881
 21
-50.8754591824752
 31
0.0
  0
LINE
  5
371
330
1F
100
AcDbEntity
  8
LAYER-006
  6
Continuous
 62
     1
100
AcDbLine
 10
-229.088870573778
 20
-52.95594672441447
 30
0.0
 11
-253.088870573778
 21
-52.95594672441447
 31
0.0
  0
LINE
  5
372
330
1F
100
AcDbEntity
  8
LAYER-006
  6
Continuous
 62
     1
100
AcDbLine
 10
-39.41200996811085
 20
-53.41204765719249
 30
0.0
 11
-53.99737546602881
 21
-53.41204765719249
 31
0.0
  0
LINE
  5
373
330
1F
100
AcDbEntity
  8
LAYER-006
  6
Continuous
 62
     1
100
AcDbLine
 10
-229.088870573778
 20
-55.35594972441447
 30
0.0
 11
-256.0888735737781
 21
-55.35594972441447
 31
0.0
  0
LINE
  5
374
330
1F
100
AcDbEntity
  8
LAYER-006
  6
Continuous
 62
     1
100
AcDbLine
 10
-38.46079047911621
 20
-54.99741347041444
 30
0.0
 11
-53.99737546602881
 21
-54.99741347041444
 31
0.0
  0
LINE
  5
375
330
1F
100
AcDbEntity
  8
LAYER-006
  6
Continuous
 62
     1
100
AcDbLine
 10
-229.088870573778
 20
-57.75594672441457
 30
0.0
 11
-259.0888735737781
 21
-57.75594672441457
 31
0.0
  0
LINE
  5
376
330
1F
100
AcDbEntity
  8
LAYER-006
  6
Continuous
 62
     1
100
AcDbLine
 10
-36.55835150093958
 20
-57.533995605
 30
0.0
 11
-53.99737546602881
 21
-57.533995605
 31
0.0
  0
LINE
  5
377
330
1F
100
AcDbEntity
  8
LAYER-006
  6
Continuous
 62
     1
100
AcDbLine
 10
-365.588873573778
 20
-60.15594672441446
 30
0.0
 11
-215.588873573778
 21
-60.15594672441446
 31
0.0
  0
LINE
  5
378
330
1F
100
AcDbEntity
  8
LAYER-006
  6
Continuous
 62
     1
100
AcDbLine
 10
-215.588873573778
 20
-60.15594672441446
 30
0.0
 11
-215.588873573778
 21
-85.65594672441458
 31
0.0
  0
LINE
  5
379
330
1F
100
AcDbEntity
  8
LAYER-006
  6
Continuous
 62
     1
100
AcDbLine
 10
-53.99737546602881
 20
-60.07058090942337
 30
0.0
 11
-28.63152242581526
 21
-60.07058090942337
 31
0.0
  0
LINE
  5
37A
330
1F
100
AcDbEntity
  8
LAYER-006
  6
Continuous
 62
     1
100
AcDbLine
 10
29.78311017347141
 20
-46.15594672441446
 30
0.0
 11
55.14896638406043
 21
-46.15594672441446
 31
0.0
  0
LINE
  5
37B
330
1F
100
AcDbEntity
  8
LAYER-006
  6
PHANTOM
 62
     1
100
AcDbLine
 10
126.7863131789043
 20
-46.15594672441446
 30
0.0
 11
258.4792656229273
 21
-46.15594672441446
 31
0.0
  0
LINE
  5
37C
330
1F
100
AcDbEntity
  8
LAYER-006
  6
Continuous
 62
     1
100
AcDbLine
 10
-365.588873573778
 20
-61.65594672441443
 30
0.0
 11
-215.588873573778
 21
-61.65594672441443
 31
0.0
  0
LINE
  5
37D
330
1F
100
AcDbEntity
  8
LAYER-006
  6
Continuous
 62
     1
100
AcDbLine
 10
-53.99737546602881
 20
-61.65594672441443
 30
0.0
 11
-28.63152242581526
 21
-61.65594672441443
 31
0.0
  0
LINE
  5
37E
330
1F
100
AcDbEntity
  8
LAYER-006
  6
PHANTOM
 62
     1
100
AcDbLine
 10
126.4651140757274
 20
-48.15594672441446
 30
0.0
 11
258.4792656229273
 21
-48.15594672441446
 31
0.0
  0
LINE
  5
37F
330
1F
100
AcDbEntity
  8
LAYER-007
  6
CENTER
 62
     4
100
AcDbLine
 10
167.9539901107193
 20
-61.77146427403764
 30
0.0
 11
167.9539901107193
 21
-78.15277913721448
 31
0.0
  0
LINE
  5
380
330
1F
100
AcDbEntity
  8
LAYER-007
  6
CENTER
 62
     4
100
AcDbLine
 10
217.9539901107193
 20
-61.77146427403764
 30
0.0
 11
217.9539901107193
 21
-78.15277913721448
 31
0.0
  0
LINE
  5
381
330
1F
100
AcDbEntity
  8
LAYER-006
  6
Continuous
 62
     1
100
AcDbLine
 10
-60.33883872599301
 20
-73.39984927906659
 30
0.0
 11
-60.33883872599301
 21
-82.91204416901309
 31
0.0
  0
LINE
  5
382
330
1F
100
AcDbEntity
  8
LAYER-006
  6
Continuous
 62
     1
100
AcDbLine
 10
-60.33883872599301
 20
-73.39984927906659
 30
0.0
 11
-57.16810709601094
 21
-73.39984927906659
 31
0.0
  0
LINE
  5
383
330
1F
100
AcDbEntity
  8
LAYER-006
  6
Continuous
 62
     1
100
AcDbLine
 10
-58.75347291100212
 20
-73.39984927906659
 30
0.0
 11
-58.75347291100212
 21
-92.42423905895953
 31
0.0
  0
LINE
  5
384
330
1F
100
AcDbEntity
  8
LAYER-006
  6
Continuous
 62
     1
100
AcDbLine
 10
-57.16810709601094
 20
-73.39984927906659
 30
0.0
 11
-57.16810709601094
 21
-82.91204416901309
 31
0.0
  0
LINE
  5
385
330
1F
100
AcDbEntity
  8
LAYER-006
  6
Continuous
 62
     1
100
AcDbLine
 10
-63.50957035597526
 20
-74.98521509405765
 30
0.0
 11
-60.33883872599301
 21
-74.98521509405765
 31
0.0
  0
LINE
  5
386
330
1F
100
AcDbEntity
  8
LAYER-006
  6
Continuous
 62
     1
100
AcDbLine
 10
-57.16810709601094
 20
-74.98521509405765
 30
0.0
 11
-50.82664383604674
 21
-74.98521509405765
 31
0.0
  0
LINE
  5
387
330
1F
100
AcDbEntity
  8
LAYER-006
  6
Continuous
 62
     1
100
AcDbLine
 10
-34.97298568613599
 20
-74.98521509405765
 30
0.0
 11
-31.80225405652857
 21
-74.98521509405765
 31
0.0
  0
LINE
  5
388
330
1F
100
AcDbEntity
  8
LAYER-006
  6
Continuous
 62
     1
100
AcDbLine
 10
-69.85103361593957
 20
-76.57058090904877
 30
0.0
 11
-60.33883872599301
 21
-76.57058090904877
 31
0.0
  0
LINE
  5
389
330
1F
100
AcDbEntity
  8
LAYER-006
  6
Continuous
 62
     1
100
AcDbLine
 10
-57.16810709601094
 20
-76.57058090904877
 30
0.0
 11
-50.82664383604674
 21
-76.57058090904877
 31
0.0
  0
LINE
  5
38A
330
1F
100
AcDbEntity
  8
LAYER-006
  6
Continuous
 62
     1
100
AcDbLine
 10
-34.97298568613599
 20
-76.57058090904877
 30
0.0
 11
-31.80225405652857
 21
-76.57058090904877
 31
0.0
  0
LINE
  5
38B
330
1F
100
AcDbEntity
  8
LAYER-006
  6
Continuous
 62
     1
100
AcDbLine
 10
-358.088873573778
 20
-78.15594672441446
 30
0.0
 11
-358.088873573778
 21
-91.65594672441443
 31
0.0
  0
ARC
  5
38C
330
1F
100
AcDbEntity
  8
LAYER-006
  6
Continuous
 62
     1
100
AcDbCircle
 10
-353.588873573778
 20
-78.15594672441446
 30
0.0
 40
4.500000000000001
100
AcDbArc
 50
0.0
 51
180.0233389982515
  0
CIRCLE
  5
38D
330
1F
100
AcDbEntity
  8
LAYER-006
  6
Continuous
 62
     1
100
AcDbCircle
 10
-353.588873573778
 20
-78.15594672441446
 30
0.0
 40
1.5
  0
LINE
  5
38E
330
1F
100
AcDbEntity
  8
LAYER-006
  6
Continuous
 62
     1
100
AcDbLine
 10
-349.0888735737781
 20
-78.15594672441446
 30
0.0
 11
-349.0888735737781
 21
-91.65594672441443
 31
0.0
  0
LINE
  5
38F
330
1F
100
AcDbEntity
  8
LAYER-006
  6
Continuous
 62
     1
100
AcDbLine
 10
-334.0888735737781
 20
-78.15594672441446
 30
0.0
 11
-334.0888735737781
 21
-91.65594672441443
 31
0.0
  0
ARC
  5
390
330
1F
100
AcDbEntity
  8
LAYER-006
  6
Continuous
 62
     1
100
AcDbCircle
 10
-329.588873573778
 20
-78.15594672441446
 30
0.0
 40
4.500000000000001
100
AcDbArc
 50
0.0
 51
180.0233389982515
  0
CIRCLE
  5
391
330
1F
100
AcDbEntity
  8
LAYER-006
  6
Continuous
 62
     1
100
AcDbCircle
 10
-329.588873573778
 20
-78.15594672441446
 30
0.0
 40
1.5
  0
LINE
  5
392
330
1F
100
AcDbEntity
  8
LAYER-006
  6
Continuous
 62
     1
100
AcDbLine
 10
-325.0888735737782
 20
-78.15594672441446
 30
0.0
 11
-325.0888735737782
 21
-91.65594672441443
 31
0.0
  0
LINE
  5
393
330
1F
100
AcDbEntity
  8
LAYER-006
  6
Continuous
 62
     1
100
AcDbLine
 10
-307.088870573778
 20
-78.15594672441446
 30
0.0
 11
-307.088870573778
 21
-91.65594672441443
 31
0.0
  0
ARC
  5
394
330
1F
100
AcDbEntity
  8
LAYER-006
  6
Continuous
 62
     1
100
AcDbCircle
 10
-302.5888705739628
 20
-78.15594672441446
 30
0.0
 40
4.500000000000001
100
AcDbArc
 50
0.0
 51
180.0233389982525
  0
CIRCLE
  5
395
330
1F
100
AcDbEntity
  8
LAYER-006
  6
Continuous
 62
     1
100
AcDbCircle
 10
-302.5888705739628
 20
-78.15594672441446
 30
0.0
 40
1.5
  0
LINE
  5
396
330
1F
100
AcDbEntity
  8
LAYER-006
  6
Continuous
 62
     1
100
AcDbLine
 10
-298.088870573778
 20
-78.15594672441446
 30
0.0
 11
-298.088870573778
 21
-91.65594672441443
 31
0.0
  0
LINE
  5
397
330
1F
100
AcDbEntity
  8
LAYER-006
  6
Continuous
 62
     1
100
AcDbLine
 10
-283.088873573778
 20
-78.15594672441446
 30
0.0
 11
-283.088873573778
 21
-91.65594672441443
 31
0.0
  0
ARC
  5
398
330
1F
100
AcDbEntity
  8
LAYER-006
  6
Continuous
 62
     1
100
AcDbCircle
 10
-278.5888735737781
 20
-78.15594672441446
 30
0.0
 40
4.500000000000001
100
AcDbArc
 50
0.0
 51
180.0233389982515
  0
CIRCLE
  5
399
330
1F
100
AcDbEntity
  8
LAYER-006
  6
Continuous
 62
     1
100
AcDbCircle
 10
-278.5888735737781
 20
-78.15594672441446
 30
0.0
 40
1.5
  0
LINE
  5
39A
330
1F
100
AcDbEntity
  8
LAYER-006
  6
Continuous
 62
     1
100
AcDbLine
 10
-274.0888735737781
 20
-78.15594672441446
 30
0.0
 11
-274.0888735737781
 21
-91.65594672441443
 31
0.0
  0
LINE
  5
39B
330
1F
100
AcDbEntity
  8
LAYER-006
  6
Continuous
 62
     1
100
AcDbLine
 10
-256.0888735737781
 20
-78.15594672441446
 30
0.0
 11
-256.0888735737781
 21
-91.65594672441443
 31
0.0
  0
ARC
  5
39C
330
1F
100
AcDbEntity
  8
LAYER-006
  6
Continuous
 62
     1
100
AcDbCircle
 10
-251.5888735737781
 20
-78.15594672441446
 30
0.0
 40
4.500000000000001
100
AcDbArc
 50
0.0
 51
180.0233389982515
  0
CIRCLE
  5
39D
330
1F
100
AcDbEntity
  8
LAYER-006
  6
Continuous
 62
     1
100
AcDbCircle
 10
-251.5888735737781
 20
-78.15594672441446
 30
0.0
 40
1.5
  0
LINE
  5
39E
330
1F
100
AcDbEntity
  8
LAYER-006
  6
Continuous
 62
     1
100
AcDbLine
 10
-247.0888735737782
 20
-78.15594672441446
 30
0.0
 11
-247.0888735737782
 21
-91.65594672441443
 31
0.0
  0
LINE
  5
39F
330
1F
100
AcDbEntity
  8
LAYER-006
  6
Continuous
 62
     1
100
AcDbLine
 10
-232.088870573778
 20
-78.15594672441446
 30
0.0
 11
-232.088870573778
 21
-91.65594672441443
 31
0.0
  0
ARC
  5
3A0
330
1F
100
AcDbEntity
  8
LAYER-006
  6
Continuous
 62
     1
100
AcDbCircle
 10
-227.5888705739627
 20
-78.15594672441446
 30
0.0
 40
4.500000000000001
100
AcDbArc
 50
0.0
 51
180.0233389982525
  0
CIRCLE
  5
3A1
330
1F
100
AcDbEntity
  8
LAYER-006
  6
Continuous
 62
     1
100
AcDbCircle
 10
-227.5888705739627
 20
-78.15594672441446
 30
0.0
 40
1.5
  0
LINE
  5
3A2
330
1F
100
AcDbEntity
  8
LAYER-006
  6
Continuous
 62
     1
100
AcDbLine
 10
-223.088870573778
 20
-78.15594672441446
 30
0.0
 11
-223.088870573778
 21
-91.65594672441443
 31
0.0
  0
LINE
  5
3A3
330
1F
100
AcDbEntity
  8
LAYER-006
  6
Continuous
 62
     1
100
AcDbLine
 10
-28.63152242581526
 20
-77.131553774
 30
0.0
 11
-28.63152242581526
 21
84.81966666642424
 31
0.0
  0
LINE
  5
3A4
330
1F
100
AcDbEntity
  8
LAYER-006
  6
Continuous
 62
     1
100
AcDbLine
 10
29.78311017347141
 20
-77.131553774
 30
0.0
 11
-28.63152242581526
 21
-77.131553774
 31
0.0
  0
LINE
  5
3A5
330
1F
100
AcDbEntity
  8
LAYER-006
  6
Continuous
 62
     1
100
AcDbLine
 10
-69.85103361593957
 20
-79.7413125390309
 30
0.0
 11
-60.33883872599301
 21
-79.7413125390309
 31
0.0
  0
LINE
  5
3A6
330
1F
100
AcDbEntity
  8
LAYER-006
  6
Continuous
 62
     1
100
AcDbLine
 10
-69.85103361593957
 20
-79.7413125390309
 30
0.0
 11
-69.85103361593957
 21
-76.57058090904877
 31
0.0
  0
LINE
  5
3A7
330
1F
100
AcDbEntity
  8
LAYER-006
  6
Continuous
 62
     1
100
AcDbLine
 10
-57.16810709601094
 20
-79.7413125390309
 30
0.0
 11
-50.82664383604674
 21
-79.7413125390309
 31
0.0
  0
LINE
  5
3A8
330
1F
100
AcDbEntity
  8
LAYER-006
  6
Continuous
 62
     1
100
AcDbLine
 10
-34.97298568613599
 20
-79.7413125390309
 30
0.0
 11
-31.80225405652857
 21
-79.7413125390309
 31
0.0
  0
LINE
  5
3A9
330
1F
100
AcDbEntity
  8
LAYER-006
  6
Continuous
 62
     1
100
AcDbLine
 10
-63.50957035597526
 20
-81.32667835402197
 30
0.0
 11
-60.33883872599301
 21
-81.32667835402197
 31
0.0
  0
LINE
  5
3AA
330
1F
100
AcDbEntity
  8
LAYER-006
  6
Continuous
 62
     1
100
AcDbLine
 10
-63.50957035597526
 20
-81.32667835402197
 30
0.0
 11
-63.50957035597526
 21
-74.98521509405765
 31
0.0
  0
LINE
  5
3AB
330
1F
100
AcDbEntity
  8
LAYER-006
  6
Continuous
 62
     1
100
AcDbLine
 10
-57.16810709601094
 20
-81.32667835402197
 30
0.0
 11
-50.82664383604674
 21
-81.32667835402197
 31
0.0
  0
LINE
  5
3AC
330
1F
100
AcDbEntity
  8
LAYER-006
  6
Continuous
 62
     1
100
AcDbLine
 10
-53.99737546602881
 20
-81.32667835402197
 30
0.0
 11
-53.99737546602881
 21
-74.98521509405765
 31
0.0
  0
LINE
  5
3AD
330
1F
100
AcDbEntity
  8
LAYER-006
  6
Continuous
 62
     1
100
AcDbLine
 10
-34.97298568613599
 20
-81.32667835402197
 30
0.0
 11
-31.80225405652857
 21
-81.32667835402197
 31
0.0
  0
LINE
  5
3AE
330
1F
100
AcDbEntity
  8
LAYER-006
  6
Continuous
 62
     1
100
AcDbLine
 10
-31.80225405652857
 20
-81.32667835402197
 30
0.0
 11
-31.80225405652857
 21
-74.98521509405765
 31
0.0
  0
LINE
  5
3AF
330
1F
100
AcDbEntity
  8
LAYER-007
  6
CENTER
 62
     4
100
AcDbLine
 10
155.3733192317963
 20
-73.65594672441443
 30
0.0
 11
232.4618748797963
 21
-73.65594672441443
 31
0.0
  0
LINE
  5
3B0
330
1F
100
AcDbEntity
  8
LAYER-006
  6
Continuous
 62
     1
100
AcDbLine
 10
-57.16810709601094
 20
-82.91204416901309
 30
0.0
 11
-52.41200965103764
 21
-84.49740998400409
 31
0.0
  0
LINE
  5
3B1
330
1F
100
AcDbEntity
  8
LAYER-006
  6
Continuous
 62
     1
100
AcDbLine
 10
-50.82664383604674
 20
-82.91204416901309
 30
0.0
 11
-34.97298568613599
 21
-82.91204416901309
 31
0.0
  0
LINE
  5
3B2
330
1F
100
AcDbEntity
  8
LAYER-006
  6
Continuous
 62
     1
100
AcDbLine
 10
-65.09493617096632
 20
-84.49740998400409
 30
0.0
 11
-60.33883872599301
 21
-82.91204416901309
 31
0.0
  0
LINE
  5
3B3
330
1F
100
AcDbEntity
  8
LAYER-007
  6
HIDDEN
 62
     4
100
AcDbLine
 10
-358.088873573778
 20
-84.45594972441464
 30
0.0
 11
-349.0888735737781
 21
-84.45594972441464
 31
0.0
  0
LINE
  5
3B4
330
1F
100
AcDbEntity
  8
LAYER-007
  6
HIDDEN
 62
     4
100
AcDbLine
 10
-356.8888735737781
 20
-84.45594972441464
 30
0.0
 11
-356.8888735737781
 21
-91.65594672441443
 31
0.0
  0
LINE
  5
3B5
330
1F
100
AcDbEntity
  8
LAYER-007
  6
HIDDEN
 62
     4
100
AcDbLine
 10
-350.2888735737781
 20
-84.45594972441464
 30
0.0
 11
-350.2888735737781
 21
-91.65594672441443
 31
0.0
  0
LINE
  5
3B6
330
1F
100
AcDbEntity
  8
LAYER-007
  6
HIDDEN
 62
     4
100
AcDbLine
 10
-334.0888735737781
 20
-84.45594972441464
 30
0.0
 11
-325.0888735737782
 21
-84.45594972441464
 31
0.0
  0
LINE
  5
3B7
330
1F
100
AcDbEntity
  8
LAYER-007
  6
HIDDEN
 62
     4
100
AcDbLine
 10
-332.8888735737781
 20
-84.45594972441464
 30
0.0
 11
-332.8888735737781
 21
-91.65594672441443
 31
0.0
  0
LINE
  5
3B8
330
1F
100
AcDbEntity
  8
LAYER-007
  6
HIDDEN
 62
     4
100
AcDbLine
 10
-326.2888735737782
 20
-84.45594972441464
 30
0.0
 11
-326.2888735737782
 21
-91.65594672441443
 31
0.0
  0
LINE
  5
3B9
330
1F
100
AcDbEntity
  8
LAYER-007
  6
HIDDEN
 62
     4
100
AcDbLine
 10
-307.088870573778
 20
-84.45594972441464
 30
0.0
 11
-298.088870573778
 21
-84.45594972441464
 31
0.0
  0
LINE
  5
3BA
330
1F
100
AcDbEntity
  8
LAYER-007
  6
HIDDEN
 62
     4
100
AcDbLine
 10
-305.8888705737782
 20
-84.45594972441464
 30
0.0
 11
-305.8888705737782
 21
-91.65594672441443
 31
0.0
  0
LINE
  5
3BB
330
1F
100
AcDbEntity
  8
LAYER-007
  6
HIDDEN
 62
     4
100
AcDbLine
 10
-299.2888705737782
 20
-84.45594972441464
 30
0.0
 11
-299.2888705737782
 21
-91.65594672441443
 31
0.0
  0
LINE
  5
3BC
330
1F
100
AcDbEntity
  8
LAYER-007
  6
HIDDEN
 62
     4
100
AcDbLine
 10
-283.088873573778
 20
-84.45594972441464
 30
0.0
 11
-274.0888735737781
 21
-84.45594972441464
 31
0.0
  0
LINE
  5
3BD
330
1F
100
AcDbEntity
  8
LAYER-007
  6
HIDDEN
 62
     4
100
AcDbLine
 10
-281.888873573778
 20
-84.45594972441464
 30
0.0
 11
-281.888873573778
 21
-91.65594672441443
 31
0.0
  0
LINE
  5
3BE
330
1F
100
AcDbEntity
  8
LAYER-007
  6
HIDDEN
 62
     4
100
AcDbLine
 10
-275.2888735737781
 20
-84.45594972441464
 30
0.0
 11
-275.2888735737781
 21
-91.65594672441443
 31
0.0
  0
LINE
  5
3BF
330
1F
100
AcDbEntity
  8
LAYER-007
  6
HIDDEN
 62
     4
100
AcDbLine
 10
-256.0888735737781
 20
-84.45594972441464
 30
0.0
 11
-247.0888735737782
 21
-84.45594972441464
 31
0.0
  0
LINE
  5
3C0
330
1F
100
AcDbEntity
  8
LAYER-007
  6
HIDDEN
 62
     4
100
AcDbLine
 10
-254.8888735737781
 20
-84.45594972441464
 30
0.0
 11
-254.8888735737781
 21
-91.65594672441443
 31
0.0
  0
LINE
  5
3C1
330
1F
100
AcDbEntity
  8
LAYER-007
  6
HIDDEN
 62
     4
100
AcDbLine
 10
-248.2888735737781
 20
-84.45594972441464
 30
0.0
 11
-248.2888735737781
 21
-91.65594672441443
 31
0.0
  0
LINE
  5
3C2
330
1F
100
AcDbEntity
  8
LAYER-007
  6
HIDDEN
 62
     4
100
AcDbLine
 10
-232.088870573778
 20
-84.45594972441464
 30
0.0
 11
-223.088870573778
 21
-84.45594972441464
 31
0.0
  0
LINE
  5
3C3
330
1F
100
AcDbEntity
  8
LAYER-007
  6
HIDDEN
 62
     4
100
AcDbLine
 10
-230.8888705737779
 20
-84.45594972441464
 30
0.0
 11
-230.8888705737779
 21
-91.65594672441443
 31
0.0
  0
LINE
  5
3C4
330
1F
100
AcDbEntity
  8
LAYER-007
  6
HIDDEN
 62
     4
100
AcDbLine
 10
-224.288870573778
 20
-84.45594972441464
 30
0.0
 11
-224.288870573778
 21
-91.65594672441443
 31
0.0
  0
LINE
  5
3C5
330
1F
100
AcDbEntity
  8
LAYER-006
  6
Continuous
 62
     1
100
AcDbLine
 10
-365.588873573778
 20
-85.65594672441458
 30
0.0
 11
-365.588873573778
 21
-60.15594672441446
 31
0.0
  0
LINE
  5
3C6
330
1F
100
AcDbEntity
  8
LAYER-006
  6
Continuous
 62
     1
100
AcDbLine
 10
-365.588873573778
 20
-85.65594672441458
 30
0.0
 11
-358.088873573778
 21
-85.65594672441458
 31
0.0
  0
LINE
  5
3C7
330
1F
100
AcDbEntity
  8
LAYER-006
  6
Continuous
 62
     1
100
AcDbLine
 10
-349.0888735737781
 20
-85.65594672441458
 30
0.0
 11
-334.0888735737781
 21
-85.65594672441458
 31
0.0
  0
LINE
  5
3C8
330
1F
100
AcDbEntity
  8
LAYER-006
  6
Continuous
 62
     1
100
AcDbLine
 10
-325.088876573778
 20
-85.65594672441458
 30
0.0
 11
-307.088870573778
 21
-85.65594672441458
 31
0.0
  0
LINE
  5
3C9
330
1F
100
AcDbEntity
  8
LAYER-006
  6
Continuous
 62
     1
100
AcDbLine
 10
-298.088873573778
 20
-85.65594672441458
 30
0.0
 11
-283.088873573778
 21
-85.65594672441458
 31
0.0
  0
LINE
  5
3CA
330
1F
100
AcDbEntity
  8
LAYER-006
  6
Continuous
 62
     1
100
AcDbLine
 10
-274.0888735737781
 20
-85.65594672441458
 30
0.0
 11
-256.0888735737781
 21
-85.65594672441458
 31
0.0
  0
LINE
  5
3CB
330
1F
100
AcDbEntity
  8
LAYER-006
  6
Continuous
 62
     1
100
AcDbLine
 10
-247.088870573778
 20
-85.65594672441458
 30
0.0
 11
-232.088870573778
 21
-85.65594672441458
 31
0.0
  0
LINE
  5
3CC
330
1F
100
AcDbEntity
  8
LAYER-006
  6
Continuous
 62
     1
100
AcDbLine
 10
-223.088873573778
 20
-85.65594672441458
 30
0.0
 11
-215.588873573778
 21
-85.65594672441458
 31
0.0
  0
ARC
  5
3CD
330
1F
100
AcDbEntity
  8
LAYER-006
  6
Continuous
 62
     1
100
AcDbCircle
 10
29.78311017347141
 20
-86.64374866373635
 30
0.0
 40
9.512194889946461
100
AcDbArc
 50
269.9777129971624
 51
90.00105199999879
  0
LINE
  5
3CE
330
1F
100
AcDbEntity
  8
LAYER-006
  6
Continuous
 62
     1
100
AcDbLine
 10
53.14896638406043
 20
-81.15594672441446
 30
0.0
 11
53.14896638406043
 21
-48.15594672441446
 31
0.0
  0
LINE
  5
3CF
330
1F
100
AcDbEntity
  8
LAYER-006
  6
Continuous
 62
     1
100
AcDbLine
 10
53.14896638406043
 20
-81.15594672441446
 30
0.0
 11
55.14896638406043
 21
-81.15594672441446
 31
0.0
  0
LINE
  5
3D0
330
1F
100
AcDbEntity
  8
LAYER-006
  6
PHANTOM
 62
     1
100
AcDbLine
 10
126.4651140757274
 20
-81.15594672441446
 30
0.0
 11
163.2039901107193
 21
-81.15594672441446
 31
0.0
  0
LINE
  5
3D1
330
1F
100
AcDbEntity
  8
LAYER-006
  6
PHANTOM
 62
     1
100
AcDbLine
 10
222.7039901107193
 20
-81.15594672441446
 30
0.0
 11
258.8004679383429
 21
-81.15594672441446
 31
0.0
  0
LINE
  5
3D2
330
1F
100
AcDbEntity
  8
LAYER-006
  6
Continuous
 62
     1
100
AcDbLine
 10
-358.088873573778
 20
-91.65594672441443
 30
0.0
 11
-349.0888735737781
 21
-91.65594672441443
 31
0.0
  0
LINE
  5
3D3
330
1F
100
AcDbEntity
  8
LAYER-006
  6
Continuous
 62
     4
100
AcDbLine
 10
-356.288873573778
 20
-91.65594672441443
 30
0.0
 11
-352.0888735737782
 21
-95.85594672441448
 31
0.0
  0
LINE
  5
3D4
330
1F
100
AcDbEntity
  8
LAYER-006
  6
Continuous
 62
     4
100
AcDbLine
 10
-354.1888705737781
 20
-91.65594672441443
 30
0.0
 11
-350.588873573778
 21
-94.95594972441447
 31
0.0
  0
ARC
  5
3D5
330
1F
100
AcDbEntity
  8
LAYER-006
  6
Continuous
 62
     1
100
AcDbCircle
 10
-353.588873573778
 20
-91.65594672441443
 30
0.0
 40
4.500000000000001
100
AcDbArc
 50
180.0233390000011
 51
359.9893829999993
  0
LINE
  5
3D6
330
1F
100
AcDbEntity
  8
LAYER-006
  6
Continuous
 62
     4
100
AcDbLine
 10
-352.0888735737782
 20
-91.65594672441443
 30
0.0
 11
-349.688873573778
 21
-93.75594972441451
 31
0.0
  0
LINE
  5
3D7
330
1F
100
AcDbEntity
  8
LAYER-006
  6
Continuous
 62
     4
100
AcDbLine
 10
-349.988876573778
 20
-91.65594672441443
 30
0.0
 11
-349.0888735737781
 21
-92.55594672400008
 31
0.0
  0
LINE
  5
3D8
330
1F
100
AcDbEntity
  8
LAYER-006
  6
Continuous
 62
     1
100
AcDbLine
 10
-334.0888735737781
 20
-91.65594672441443
 30
0.0
 11
-325.0888735737782
 21
-91.65594672441443
 31
0.0
  0
LINE
  5
3D9
330
1F
100
AcDbEntity
  8
LAYER-006
  6
Continuous
 62
     4
100
AcDbLine
 10
-332.2888735737781
 20
-91.65594672441443
 30
0.0
 11
-328.0888735737782
 21
-95.85594672441448
 31
0.0
  0
LINE
  5
3DA
330
1F
100
AcDbEntity
  8
LAYER-006
  6
Continuous
 62
     4
100
AcDbLine
 10
-330.1888705737782
 20
-91.65594672441443
 30
0.0
 11
-326.588873573778
 21
-94.95594972441447
 31
0.0
  0
ARC
  5
3DB
330
1F
100
AcDbEntity
  8
LAYER-006
  6
Continuous
 62
     1
100
AcDbCircle
 10
-329.588873573778
 20
-91.65594672441443
 30
0.0
 40
4.500000000000001
100
AcDbArc
 50
180.0233390000011
 51
359.9893829999993
  0
LINE
  5
3DC
330
1F
100
AcDbEntity
  8
LAYER-006
  6
Continuous
 62
     4
100
AcDbLine
 10
-328.0888735737782
 20
-91.65594672441443
 30
0.0
 11
-325.6888735737781
 21
-93.75594972441451
 31
0.0
  0
LINE
  5
3DD
330
1F
100
AcDbEntity
  8
LAYER-006
  6
Continuous
 62
     4
100
AcDbLine
 10
-325.988876573778
 20
-91.65594672441443
 30
0.0
 11
-325.0888735737782
 21
-92.55594672400008
 31
0.0
  0
LINE
  5
3DE
330
1F
100
AcDbEntity
  8
LAYER-006
  6
Continuous
 62
     1
100
AcDbLine
 10
-307.088870573778
 20
-91.65594672441443
 30
0.0
 11
-298.088870573778
 21
-91.65594672441443
 31
0.0
  0
LINE
  5
3DF
330
1F
100
AcDbEntity
  8
LAYER-006
  6
Continuous
 62
     4
100
AcDbLine
 10
-305.2888705737781
 20
-91.65594672441443
 30
0.0
 11
-301.088870573778
 21
-95.85594672441448
 31
0.0
  0
LINE
  5
3E0
330
1F
100
AcDbEntity
  8
LAYER-006
  6
Continuous
 62
     4
100
AcDbLine
 10
-303.1888675737782
 20
-91.65594672441443
 30
0.0
 11
-299.5888705739628
 21
-94.95594972441447
 31
0.0
  0
ARC
  5
3E1
330
1F
100
AcDbEntity
  8
LAYER-006
  6
Continuous
 62
     1
100
AcDbCircle
 10
-302.5888705739628
 20
-91.65594672441443
 30
0.0
 40
4.500000000000001
100
AcDbArc
 50
180.023339000002
 51
359.9893829999991
  0
LINE
  5
3E2
330
1F
100
AcDbEntity
  8
LAYER-006
  6
Continuous
 62
     4
100
AcDbLine
 10
-301.088870573778
 20
-91.65594672441443
 30
0.0
 11
-298.6888705737781
 21
-93.75594972441451
 31
0.0
  0
LINE
  5
3E3
330
1F
100
AcDbEntity
  8
LAYER-006
  6
Continuous
 62
     4
100
AcDbLine
 10
-298.9888735737781
 20
-91.65594672441443
 30
0.0
 11
-298.088870573778
 21
-92.55594672400008
 31
0.0
  0
LINE
  5
3E4
330
1F
100
AcDbEntity
  8
LAYER-006
  6
Continuous
 62
     1
100
AcDbLine
 10
-283.088873573778
 20
-91.65594672441443
 30
0.0
 11
-274.0888735737781
 21
-91.65594672441443
 31
0.0
  0
LINE
  5
3E5
330
1F
100
AcDbEntity
  8
LAYER-006
  6
Continuous
 62
     4
100
AcDbLine
 10
-281.288873573778
 20
-91.65594672441443
 30
0.0
 11
-277.0888735737782
 21
-95.85594672441448
 31
0.0
  0
LINE
  5
3E6
330
1F
100
AcDbEntity
  8
LAYER-006
  6
Continuous
 62
     4
100
AcDbLine
 10
-279.1888705737781
 20
-91.65594672441443
 30
0.0
 11
-275.588873573778
 21
-94.95594972441447
 31
0.0
  0
ARC
  5
3E7
330
1F
100
AcDbEntity
  8
LAYER-006
  6
Continuous
 62
     1
100
AcDbCircle
 10
-278.5888735737781
 20
-91.65594672441443
 30
0.0
 40
4.500000000000001
100
AcDbArc
 50
180.0233390000011
 51
359.9893829999993
  0
LINE
  5
3E8
330
1F
100
AcDbEntity
  8
LAYER-006
  6
Continuous
 62
     4
100
AcDbLine
 10
-277.0888735737782
 20
-91.65594672441443
 30
0.0
 11
-274.688873573778
 21
-93.75594972441451
 31
0.0
  0
LINE
  5
3E9
330
1F
100
AcDbEntity
  8
LAYER-006
  6
Continuous
 62
     4
100
AcDbLine
 10
-274.988876573778
 20
-91.65594672441443
 30
0.0
 11
-274.0888735737781
 21
-92.55594672400008
 31
0.0
  0
LINE
  5
3EA
330
1F
100
AcDbEntity
  8
LAYER-006
  6
Continuous
 62
     1
100
AcDbLine
 10
-256.0888735737781
 20
-91.65594672441443
 30
0.0
 11
-247.0888735737782
 21
-91.65594672441443
 31
0.0
  0
LINE
  5
3EB
330
1F
100
AcDbEntity
  8
LAYER-006
  6
Continuous
 62
     4
100
AcDbLine
 10
-254.288873573778
 20
-91.65594672441443
 30
0.0
 11
-250.0888735737782
 21
-95.85594672441448
 31
0.0
  0
LINE
  5
3EC
330
1F
100
AcDbEntity
  8
LAYER-006
  6
Continuous
 62
     4
100
AcDbLine
 10
-252.1888705737782
 20
-91.65594672441443
 30
0.0
 11
-248.5888735737781
 21
-94.95594972441447
 31
0.0
  0
ARC
  5
3ED
330
1F
100
AcDbEntity
  8
LAYER-006
  6
Continuous
 62
     1
100
AcDbCircle
 10
-251.5888735737781
 20
-91.65594672441443
 30
0.0
 40
4.500000000000001
100
AcDbArc
 50
180.0233390000011
 51
359.9893829999993
  0
LINE
  5
3EE
330
1F
100
AcDbEntity
  8
LAYER-006
  6
Continuous
 62
     4
100
AcDbLine
 10
-250.0888735737782
 20
-91.65594672441443
 30
0.0
 11
-247.688873573778
 21
-93.75594972441451
 31
0.0
  0
LINE
  5
3EF
330
1F
100
AcDbEntity
  8
LAYER-006
  6
Continuous
 62
     4
100
AcDbLine
 10
-247.988876573778
 20
-91.65594672441443
 30
0.0
 11
-247.0888735737782
 21
-92.55594672400008
 31
0.0
  0
LINE
  5
3F0
330
1F
100
AcDbEntity
  8
LAYER-006
  6
Continuous
 62
     1
100
AcDbLine
 10
-232.088870573778
 20
-91.65594672441443
 30
0.0
 11
-223.088870573778
 21
-91.65594672441443
 31
0.0
  0
LINE
  5
3F1
330
1F
100
AcDbEntity
  8
LAYER-006
  6
Continuous
 62
     4
100
AcDbLine
 10
-230.2888705737778
 20
-91.65594672441443
 30
0.0
 11
-226.088870573778
 21
-95.85594672441448
 31
0.0
  0
LINE
  5
3F2
330
1F
100
AcDbEntity
  8
LAYER-006
  6
Continuous
 62
     4
100
AcDbLine
 10
-228.188867573778
 20
-91.65594672441443
 30
0.0
 11
-224.5888705739627
 21
-94.95594972441447
 31
0.0
  0
ARC
  5
3F3
330
1F
100
AcDbEntity
  8
LAYER-006
  6
Continuous
 62
     1
100
AcDbCircle
 10
-227.5888705739627
 20
-91.65594672441443
 30
0.0
 40
4.500000000000001
100
AcDbArc
 50
180.023339000002
 51
359.9893829999991
  0
LINE
  5
3F4
330
1F
100
AcDbEntity
  8
LAYER-006
  6
Continuous
 62
     4
100
AcDbLine
 10
-226.088870573778
 20
-91.65594672441443
 30
0.0
 11
-223.6888705737779
 21
-93.75594972441451
 31
0.0
  0
LINE
  5
3F5
330
1F
100
AcDbEntity
  8
LAYER-006
  6
Continuous
 62
     4
100
AcDbLine
 10
-223.9888735737779
 20
-91.65594672441443
 30
0.0
 11
-223.088870573778
 21
-92.55594672400008
 31
0.0
  0
LINE
  5
3F6
330
1F
100
AcDbEntity
  8
LAYER-006
  6
Continuous
 62
     1
100
AcDbLine
 10
-65.09493617096632
 20
-92.42423905895953
 30
0.0
 11
-65.09493617096632
 21
-84.49740998400409
 31
0.0
  0
LINE
  5
3F7
330
1F
100
AcDbEntity
  8
LAYER-006
  6
Continuous
 62
     1
100
AcDbLine
 10
-65.09493617096632
 20
-92.42423905895953
 30
0.0
 11
-52.41200965103764
 21
-92.42423905895953
 31
0.0
  0
LINE
  5
3F8
330
1F
100
AcDbEntity
  8
LAYER-007
  6
HIDDEN
 62
     4
100
AcDbLine
 10
-57.16810709601094
 20
-92.42423905895953
 30
0.0
 11
-57.16810709601094
 21
-82.91204416901309
 31
0.0
  0
LINE
  5
3F9
330
1F
100
AcDbEntity
  8
LAYER-007
  6
HIDDEN
 62
     4
100
AcDbLine
 10
-53.99737546602881
 20
-92.42423905895953
 30
0.0
 11
-53.99737546602881
 21
-83.86326682873937
 31
0.0
  0
LINE
  5
3FA
330
1F
100
AcDbEntity
  8
LAYER-006
  6
Continuous
 62
     1
100
AcDbLine
 10
-52.41200965103764
 20
-92.42423905895953
 30
0.0
 11
-52.41200965103764
 21
-84.49740998400409
 31
0.0
  0
LINE
  5
3FB
330
1F
100
AcDbEntity
  8
LAYER-006
  6
Continuous
 62
     4
100
AcDbLine
 10
-358.088873573778
 20
-91.95594972441464
 30
0.0
 11
-353.888873573778
 21
-96.15594972441443
 31
0.0
  0
LINE
  5
3FC
330
1F
100
AcDbEntity
  8
LAYER-006
  6
Continuous
 62
     4
100
AcDbLine
 10
-334.0888735737781
 20
-91.95594972441464
 30
0.0
 11
-329.8888735737781
 21
-96.15594972441443
 31
0.0
  0
LINE
  5
3FD
330
1F
100
AcDbEntity
  8
LAYER-006
  6
Continuous
 62
     4
100
AcDbLine
 10
-307.088870573778
 20
-91.95594972441464
 30
0.0
 11
-302.8888705737781
 21
-96.15594972441443
 31
0.0
  0
LINE
  5
3FE
330
1F
100
AcDbEntity
  8
LAYER-006
  6
Continuous
 62
     4
100
AcDbLine
 10
-283.088873573778
 20
-91.95594972441464
 30
0.0
 11
-278.888873573778
 21
-96.15594972441443
 31
0.0
  0
LINE
  5
3FF
330
1F
100
AcDbEntity
  8
LAYER-006
  6
Continuous
 62
     4
100
AcDbLine
 10
-256.0888735737781
 20
-91.95594972441464
 30
0.0
 11
-251.8888735737781
 21
-96.15594972441443
 31
0.0
  0
LINE
  5
400
330
1F
100
AcDbEntity
  8
LAYER-006
  6
Continuous
 62
     4
100
AcDbLine
 10
-232.088870573778
 20
-91.95594972441464
 30
0.0
 11
-227.8888705737779
 21
-96.15594972441443
 31
0.0
  0
LINE
  5
401
330
1F
100
AcDbEntity
  8
LAYER-006
  6
Continuous
 62
     4
100
AcDbLine
 10
-357.7888735737781
 20
-93.45594972441455
 30
0.0
 11
-355.988876573778
 21
-91.65594672441443
 31
0.0
  0
LINE
  5
402
330
1F
100
AcDbEntity
  8
LAYER-006
  6
Continuous
 62
     4
100
AcDbLine
 10
-333.7888735737782
 20
-93.45594972441455
 30
0.0
 11
-331.9888765737782
 21
-91.65594672441443
 31
0.0
  0
LINE
  5
403
330
1F
100
AcDbEntity
  8
LAYER-006
  6
Continuous
 62
     4
100
AcDbLine
 10
-306.7888705737782
 20
-93.45594972441455
 30
0.0
 11
-304.9888735737782
 21
-91.65594672441443
 31
0.0
  0
LINE
  5
404
330
1F
100
AcDbEntity
  8
LAYER-006
  6
Continuous
 62
     4
100
AcDbLine
 10
-282.7888735737781
 20
-93.45594972441455
 30
0.0
 11
-280.988876573778
 21
-91.65594672441443
 31
0.0
  0
LINE
  5
405
330
1F
100
AcDbEntity
  8
LAYER-006
  6
Continuous
 62
     4
100
AcDbLine
 10
-255.7888735737781
 20
-93.45594972441455
 30
0.0
 11
-253.9888765737781
 21
-91.65594672441443
 31
0.0
  0
LINE
  5
406
330
1F
100
AcDbEntity
  8
LAYER-006
  6
Continuous
 62
     4
100
AcDbLine
 10
-231.788870573778
 20
-93.45594972441455
 30
0.0
 11
-229.9888735737779
 21
-91.65594672441443
 31
0.0
  0
LINE
  5
407
330
1F
100
AcDbEntity
  8
LAYER-006
  6
Continuous
 62
     4
100
AcDbLine
 10
-356.8888735737781
 20
-94.65594972441454
 30
0.0
 11
-353.888873573778
 21
-91.65594672441443
 31
0.0
  0
LINE
  5
408
330
1F
100
AcDbEntity
  8
LAYER-006
  6
Continuous
 62
     4
100
AcDbLine
 10
-332.8888735737781
 20
-94.65594972441454
 30
0.0
 11
-329.8888735737781
 21
-91.65594672441443
 31
0.0
  0
LINE
  5
409
330
1F
100
AcDbEntity
  8
LAYER-006
  6
Continuous
 62
     4
100
AcDbLine
 10
-305.8888705737782
 20
-94.65594972441454
 30
0.0
 11
-302.8888705737781
 21
-91.65594672441443
 31
0.0
  0
LINE
  5
40A
330
1F
100
AcDbEntity
  8
LAYER-006
  6
Continuous
 62
     4
100
AcDbLine
 10
-281.888873573778
 20
-94.65594972441454
 30
0.0
 11
-278.888873573778
 21
-91.65594672441443
 31
0.0
  0
LINE
  5
40B
330
1F
100
AcDbEntity
  8
LAYER-006
  6
Continuous
 62
     4
100
AcDbLine
 10
-254.8888735737781
 20
-94.65594972441454
 30
0.0
 11
-251.8888735737781
 21
-91.65594672441443
 31
0.0
  0
LINE
  5
40C
330
1F
100
AcDbEntity
  8
LAYER-006
  6
Continuous
 62
     4
100
AcDbLine
 10
-230.8888705737779
 20
-94.65594972441454
 30
0.0
 11
-227.8888705737779
 21
-91.65594672441443
 31
0.0
  0
LINE
  5
40D
330
1F
100
AcDbEntity
  8
LAYER-006
  6
Continuous
 62
     4
100
AcDbLine
 10
-355.6888705737781
 20
-95.55594672400008
 30
0.0
 11
-351.788873573778
 21
-91.65594672441443
 31
0.0
  0
LINE
  5
40E
330
1F
100
AcDbEntity
  8
LAYER-006
  6
Continuous
 62
     4
100
AcDbLine
 10
-351.4888765737781
 20
-95.55594672400008
 30
0.0
 11
-349.988876573778
 21
-94.05594672342318
 31
0.0
  0
LINE
  5
40F
330
1F
100
AcDbEntity
  8
LAYER-006
  6
Continuous
 62
     4
100
AcDbLine
 10
-331.6888705737781
 20
-95.55594672400008
 30
0.0
 11
-327.7888735737781
 21
-91.65594672441443
 31
0.0
  0
LINE
  5
410
330
1F
100
AcDbEntity
  8
LAYER-006
  6
Continuous
 62
     4
100
AcDbLine
 10
-327.4888765737782
 20
-95.55594672400008
 30
0.0
 11
-325.988876573778
 21
-94.05594672342318
 31
0.0
  0
LINE
  5
411
330
1F
100
AcDbEntity
  8
LAYER-006
  6
Continuous
 62
     4
100
AcDbLine
 10
-304.6888675737781
 20
-95.55594672400008
 30
0.0
 11
-300.7888705737781
 21
-91.65594672441443
 31
0.0
  0
LINE
  5
412
330
1F
100
AcDbEntity
  8
LAYER-006
  6
Continuous
 62
     4
100
AcDbLine
 10
-300.4888735737782
 20
-95.55594672400008
 30
0.0
 11
-298.9888735737781
 21
-94.05594672342318
 31
0.0
  0
LINE
  5
413
330
1F
100
AcDbEntity
  8
LAYER-006
  6
Continuous
 62
     4
100
AcDbLine
 10
-280.6888705737781
 20
-95.55594672400008
 30
0.0
 11
-276.788873573778
 21
-91.65594672441443
 31
0.0
  0
LINE
  5
414
330
1F
100
AcDbEntity
  8
LAYER-006
  6
Continuous
 62
     4
100
AcDbLine
 10
-276.4888765737781
 20
-95.55594672400008
 30
0.0
 11
-274.988876573778
 21
-94.05594672342318
 31
0.0
  0
LINE
  5
415
330
1F
100
AcDbEntity
  8
LAYER-006
  6
Continuous
 62
     4
100
AcDbLine
 10
-253.6888705737781
 20
-95.55594672400008
 30
0.0
 11
-249.7888735737781
 21
-91.65594672441443
 31
0.0
  0
LINE
  5
416
330
1F
100
AcDbEntity
  8
LAYER-006
  6
Continuous
 62
     4
100
AcDbLine
 10
-249.4888765737782
 20
-95.55594672400008
 30
0.0
 11
-247.988876573778
 21
-94.05594672342318
 31
0.0
  0
LINE
  5
417
330
1F
100
AcDbEntity
  8
LAYER-006
  6
Continuous
 62
     4
100
AcDbLine
 10
-229.6888675737779
 20
-95.55594672400008
 30
0.0
 11
-225.7888705737779
 21
-91.65594672441443
 31
0.0
  0
LINE
  5
418
330
1F
100
AcDbEntity
  8
LAYER-006
  6
Continuous
 62
     4
100
AcDbLine
 10
-225.488873573778
 20
-95.55594672400008
 30
0.0
 11
-223.9888735737779
 21
-94.05594672342318
 31
0.0
  0
LINE
  5
419
330
1F
100
AcDbEntity
  8
LAYER-006
  6
Continuous
 62
     4
100
AcDbLine
 10
-354.1888705737781
 20
-96.15594972441443
 30
0.0
 11
-349.688873573778
 21
-91.65594672441443
 31
0.0
  0
LINE
  5
41A
330
1F
100
AcDbEntity
  8
LAYER-006
  6
Continuous
 62
     4
100
AcDbLine
 10
-330.1888705737782
 20
-96.15594972441443
 30
0.0
 11
-325.6888735737781
 21
-91.65594672441443
 31
0.0
  0
LINE
  5
41B
330
1F
100
AcDbEntity
  8
LAYER-006
  6
Continuous
 62
     4
100
AcDbLine
 10
-303.1888675737782
 20
-96.15594972441443
 30
0.0
 11
-298.6888705737781
 21
-91.65594672441443
 31
0.0
  0
LINE
  5
41C
330
1F
100
AcDbEntity
  8
LAYER-006
  6
Continuous
 62
     4
100
AcDbLine
 10
-279.1888705737781
 20
-96.15594972441443
 30
0.0
 11
-274.688873573778
 21
-91.65594672441443
 31
0.0
  0
LINE
  5
41D
330
1F
100
AcDbEntity
  8
LAYER-006
  6
Continuous
 62
     4
100
AcDbLine
 10
-252.1888705737782
 20
-96.15594972441443
 30
0.0
 11
-247.688873573778
 21
-91.65594672441443
 31
0.0
  0
LINE
  5
41E
330
1F
100
AcDbEntity
  8
LAYER-006
  6
Continuous
 62
     4
100
AcDbLine
 10
-228.188867573778
 20
-96.15594972441443
 30
0.0
 11
-223.6888705737779
 21
-91.65594672441443
 31
0.0
  0
LINE
  5
41F
330
1F
100
AcDbEntity
  8
LAYER-006
  6
Continuous
 62
     1
100
AcDbLine
 10
-50.82664383604674
 20
-96.15594672441443
 30
0.0
 11
29.78311017347141
 21
-96.15594672441443
 31
0.0
  0
LINE
  5
420
330
1F
100
AcDbEntity
  8
LAYER-007
  6
Continuous
 62
     1
100
AcDbLine
 10
179.2487931800641
 20
-129.308746275
 30
0.0
 11
204.6487931803549
 21
-129.308746275
 31
0.0
  0
LINE
  5
421
330
1F
100
AcDbEntity
  8
LAYER-007
  6
CENTER
 62
     4
100
AcDbLine
 10
-260.588873573778
 20
3.844053275585537
 30
0.0
 11
-215.588873573778
 21
3.844053275585537
 31
0.0
  0
LINE
  5
422
330
1F
100
AcDbEntity
  8
LAYER-007
  6
CENTER
 62
     4
100
AcDbLine
 10
-365.588873573778
 20
3.844053275585537
 30
0.0
 11
-320.5888765737781
 21
3.844053275585537
 31
0.0
  0
LINE
  5
423
330
1F
100
AcDbEntity
  8
LAYER-007
  6
CENTER
 62
     4
100
AcDbLine
 10
-290.588873573778
 20
98.74405627662904
 30
0.0
 11
-290.588873573778
 21
18.84405327558554
 31
0.0
  0
LINE
  5
424
330
1F
100
AcDbEntity
  8
LAYER-007
  6
CENTER
 62
     4
100
AcDbLine
 10
-290.588873573778
 20
-11.15594972441437
 30
0.0
 11
-290.588873573778
 21
-72.4559497244145
 31
0.0
  0
LINE
  5
425
330
1F
100
AcDbEntity
  8
LAYER-007
  6
CENTER
 62
     4
100
AcDbLine
 10
-61.60713137798592
 20
3.844053275585537
 30
0.0
 11
55.14896638406043
 21
3.844053275585537
 31
0.0
  0
LINE
  5
426
330
1F
100
AcDbEntity
  8
LAYER-007
  6
CENTER
 62
     4
100
AcDbLine
 10
-69.85103361593957
 20
85.84405327558554
 30
0.0
 11
-30.21688824116268
 21
85.84405327558554
 31
0.0
  0
LINE
  5
427
330
1F
100
AcDbEntity
  8
LAYER-007
  6
CENTER
 62
     4
100
AcDbLine
 10
-69.85103361593957
 20
-78.15594672441446
 30
0.0
 11
-30.53396140416083
 21
-78.15594672441446
 31
0.0
  0
LINE
  5
428
330
1F
100
AcDbEntity
  8
LAYER-006
  6
Continuous
 62
     1
100
AcDbLine
 10
-34.97298568613599
 20
90.60014754982697
 30
0.0
 11
-34.97298568613599
 21
69.34405027558535
 31
0.0
  0
LINE
  5
429
330
1F
100
AcDbEntity
  8
LAYER-006
  6
Continuous
 62
     1
100
AcDbLine
 10
-50.82664383604674
 20
90.60014754982697
 30
0.0
 11
-50.82664383604674
 21
69.34405027558535
 31
0.0
  0
ARC
  5
42A
330
1F
100
AcDbEntity
  8
LAYER-006
  6
Continuous
 62
     1
100
AcDbCircle
 10
-50.82664383604674
 20
-91.3998461087096
 30
0.0
 40
4.756097444973231
100
AcDbArc
 50
192.438126509727
 51
269.9777130000009
  0
LINE
  5
42B
330
1F
100
AcDbEntity
  8
LAYER-006
  6
Continuous
 62
     1
100
AcDbLine
 10
-34.97298568613599
 20
-82.91204416901309
 30
0.0
 11
-34.97298568613599
 21
-61.65594672441443
 31
0.0
  0
LINE
  5
42C
330
1F
100
AcDbEntity
  8
LAYER-006
  6
Continuous
 62
     1
100
AcDbLine
 10
-50.82664383604674
 20
-82.91204416901309
 30
0.0
 11
-50.82664383604674
 21
-61.65594672441443
 31
0.0
  0
LINE
  5
42D
330
1F
100
AcDbEntity
  8
LAYER-006
  6
PHANTOM
 62
     1
100
AcDbLine
 10
172.7039901107193
 20
88.84405327559168
 30
0.0
 11
213.2039901107193
 21
88.84405327559168
 31
0.0
  0
LINE
  5
42E
330
1F
100
AcDbEntity
  8
LAYER-006
  6
PHANTOM
 62
     1
100
AcDbLine
 10
172.7039901107193
 20
-81.15594672441446
 30
0.0
 11
213.2039901107193
 21
-81.15594672441446
 31
0.0
  0
LINE
  5
42F
330
1F
100
AcDbEntity
  8
LAYER-006
  6
Continuous
 62
     1
100
AcDbLine
 10
53.14896638406043
 20
88.84405327558554
 30
0.0
 11
53.14896638406043
 21
55.84405327558554
 31
0.0
  0
LINE
  5
430
330
1F
100
AcDbEntity
  8
LAYER-006
  6
Continuous
 62
     1
100
AcDbLine
 10
29.78311017347141
 20
55.84405327558554
 30
0.0
 11
53.14896638406043
 21
55.84405327558554
 31
0.0
  0
LINE
  5
431
330
1F
100
AcDbEntity
  8
LAYER-006
  6
Continuous
 62
     1
100
AcDbLine
 10
29.78311017347141
 20
-48.15594672441446
 30
0.0
 11
53.14896638406043
 21
-48.15594672441446
 31
0.0
  0
LINE
  5
432
330
1F
100
AcDbEntity
  8
LAYER-006
  6
PHANTOM
 62
     1
100
AcDbLine
 10
258.4792656229273
 20
88.84405327559171
 30
0.0
 11
258.4792656229273
 21
-81.15594672440832
 31
0.0
  0
LINE
  5
433
330
1F
100
AcDbEntity
  8
LAYER-006
  6
PHANTOM
 62
     1
100
AcDbLine
 10
126.7863131789043
 20
-81.15594672440832
 30
0.0
 11
126.7863131789043
 21
88.84405327559168
 31
0.0
  0
LINE
  5
434
330
1F
100
AcDbEntity
  8
LAYER-006
  6
Continuous
 62
     1
100
AcDbLine
 10
55.14896638406043
 20
88.84405327558554
 30
0.0
 11
55.14896638406043
 21
-81.15594672441446
 31
0.0
  0
LINE
  5
435
330
1F
100
AcDbEntity
  8
LAYER-033
  6
PHANTOM
 62
     1
100
AcDbLine
 10
222.7039901107193
 20
88.84405327559168
 30
0.0
 11
222.7039901107193
 21
81.34405327558554
 31
0.0
  0
LINE
  5
436
330
1F
100
AcDbEntity
  8
LAYER-033
  6
PHANTOM
 62
     1
100
AcDbLine
 10
213.2039901107193
 20
88.84405327559168
 30
0.0
 11
213.2039901107193
 21
81.34405327558554
 31
0.0
  0
ARC
  5
437
330
1F
100
AcDbEntity
  8
LAYER-033
  6
PHANTOM
 62
     1
100
AcDbCircle
 10
217.9539901107193
 20
81.34405327558554
 30
0.0
 40
4.75
100
AcDbArc
 50
180.0
 51
0.0
  0
LINE
  5
438
330
1F
100
AcDbEntity
  8
LAYER-033
  6
PHANTOM
 62
     1
100
AcDbLine
 10
172.7039901107193
 20
88.84405327559168
 30
0.0
 11
172.7039901107193
 21
81.34405327558554
 31
0.0
  0
LINE
  5
439
330
1F
100
AcDbEntity
  8
LAYER-033
  6
PHANTOM
 62
     1
100
AcDbLine
 10
163.2039901107193
 20
88.84405327559168
 30
0.0
 11
163.2039901107193
 21
81.34405327558554
 31
0.0
  0
ARC
  5
43A
330
1F
100
AcDbEntity
  8
LAYER-033
  6
PHANTOM
 62
     1
100
AcDbCircle
 10
167.9539901107193
 20
81.34405327558554
 30
0.0
 40
4.75
100
AcDbArc
 50
180.0
 51
0.0
  0
LINE
  5
43B
330
1F
100
AcDbEntity
  8
LAYER-033
  6
PHANTOM
 62
     1
100
AcDbLine
 10
222.7039901107193
 20
-73.65594672475245
 30
0.0
 11
222.7039901107193
 21
-81.15594672441446
 31
0.0
  0
LINE
  5
43C
330
1F
100
AcDbEntity
  8
LAYER-033
  6
PHANTOM
 62
     1
100
AcDbLine
 10
213.2039901107193
 20
-73.65594672441442
 30
0.0
 11
213.2039901107193
 21
-81.15594672441446
 31
0.0
  0
ARC
  5
43D
330
1F
100
AcDbEntity
  8
LAYER-033
  6
PHANTOM
 62
     1
100
AcDbCircle
 10
217.9539901107193
 20
-73.65594672441443
 30
0.0
 40
4.75
100
AcDbArc
 50
0.0
 51
180.0
  0
LINE
  5
43E
330
1F
100
AcDbEntity
  8
LAYER-033
  6
PHANTOM
 62
     1
100
AcDbLine
 10
172.7039901107193
 20
-73.65594672441443
 30
0.0
 11
172.7039901107193
 21
-81.15594672441446
 31
0.0
  0
LINE
  5
43F
330
1F
100
AcDbEntity
  8
LAYER-033
  6
PHANTOM
 62
     1
100
AcDbLine
 10
163.2039901107193
 20
-73.65594672441443
 30
0.0
 11
163.2039901107193
 21
-81.15594672441446
 31
0.0
  0
ARC
  5
440
330
1F
100
AcDbEntity
  8
LAYER-033
  6
PHANTOM
 62
     1
100
AcDbCircle
 10
167.9539901107193
 20
-73.65594672441443
 30
0.0
 40
4.75
100
AcDbArc
 50
0.0
 51
180.0
  0
TEXT
  5
441
330
1F
100
AcDbEntity
  8
LAYER-033
  6
Continuous
 62
     7
100
AcDbText
 10
-78.59006319201528
 20
-233.7017527596956
 30
0.0
 40
4.0
  1
４００／４４０Ｖ　５０／６０Ｈｚ　５．５～７．５ｋＷ
  7
STRING_H
 11
-78.59006319201528
 21
-231.7017527596956
 31
0.0
100
AcDbText
 73
     2
  0
TEXT
  5
442
330
1F
100
AcDbEntity
  8
LAYER-033
  6
Continuous
 62
     7
100
AcDbText
 10
-78.59006319201528
 20
-241.7872028606628
 30
0.0
 40
4.0
  1
質　　量　　１２㎏
  7
STRING_H
 11
-78.59006319201528
 21
-239.7872028606628
 31
0.0
100
AcDbText
 73
     2
  0
TEXT
  5
443
330
1F
100
AcDbEntity
  8
LAYER-033
  6
Continuous
 62
     7
100
AcDbText
 10
-78.59006319201528
 20
-225.6163026583913
 30
0.0
 40
4.0
  1
ＫＲ－１Ｐ(低　圧)
  7
STRING_H
 11
-78.59006319201528
 21
-223.6163026583913
 31
0.0
100
AcDbText
 73
     2
  0
TEXT
  5
444
330
1F
100
AcDbEntity
  8
LAYER-007
  6
Continuous
 62
     4
100
AcDbText
 10
-308.1593960880327
 20
-1.855949724414543
 30
0.0
 40
12.149997
  1
N P
 41
1.666666
  7
STRING_H
 11
-308.1593960880327
 21
-1.855949724414543
 31
0.0
100
AcDbText
 73
     1
  0
TEXT
  5
445
330
1F
100
AcDbEntity
  8
LAYER-007
  6
Continuous
 62
     4
100
AcDbText
 10
-356.1173307268094
 20
-72.37884639677
 30
0.0
 40
8.25
  1
R
 41
1.272727272727273
  7
STRING_H
 11
-356.1173307268094
 21
-72.37884639677
 31
0.0
100
AcDbText
 73
     1
  0
TEXT
  5
446
330
1F
100
AcDbEntity
  8
LAYER-007
  6
Continuous
 62
     4
100
AcDbText
 10
-332.1182472471898
 20
-72.37884649010442
 30
0.0
 40
8.25
  1
U
 41
1.272727272727273
  7
STRING_H
 11
-332.1182472471898
 21
-72.37884649010442
 31
0.0
100
AcDbText
 73
     1
  0
TEXT
  5
447
330
1F
100
AcDbEntity
  8
LAYER-007
  6
Continuous
 62
     4
100
AcDbText
 10
-305.1173277268094
 20
-72.37884639677
 30
0.0
 40
8.25
  1
S
 41
1.272727272727273
  7
STRING_H
 11
-305.1173277268094
 21
-72.37884639677
 31
0.0
100
AcDbText
 73
     1
  0
TEXT
  5
448
330
1F
100
AcDbEntity
  8
LAYER-007
  6
Continuous
 62
     4
100
AcDbText
 10
-281.1182472471897
 20
-72.37884649010442
 30
0.0
 40
8.25
  1
V
 41
1.272727272727273
  7
STRING_H
 11
-281.1182472471897
 21
-72.37884649010442
 31
0.0
100
AcDbText
 73
     1
  0
TEXT
  5
449
330
1F
100
AcDbEntity
  8
LAYER-007
  6
Continuous
 62
     4
100
AcDbText
 10
-254.1173307268094
 20
-72.37884639677
 30
0.0
 40
8.25
  1
T
 41
1.272727272727273
  7
STRING_H
 11
-254.1173307268094
 21
-72.37884639677
 31
0.0
100
AcDbText
 73
     1
  0
TEXT
  5
44A
330
1F
100
AcDbEntity
  8
LAYER-007
  6
Continuous
 62
     4
100
AcDbText
 10
-230.1182442471896
 20
-72.37884649010442
 30
0.0
 40
8.25
  1
W
 41
1.272727272727273
  7
STRING_H
 11
-230.1182442471896
 21
-72.37884649010442
 31
0.0
100
AcDbText
 73
     1
  0
TEXT
  5
44B
330
1F
100
AcDbEntity
  8
LAYER-008
  6
Continuous
 62
     4
100
AcDbText
 10
182.2487931800641
 20
-128.008748275
 30
0.0
 40
3.0
  1
取付穴寸法
 41
1.111111
  7
STRING_H
 11
182.2487931800641
 21
-128.008748275
 31
0.0
100
AcDbText
 73
     1
  0
DIMENSION
  5
45B
330
1F
100
AcDbEntity
  8
LAYER-035
  6
Continuous
 62
     5
100
AcDbDimension
  2
*D02
 10
-365.588873573778
 20
122.9160824171275
 30
0.0
 11
-290.588873573778
 21
122.9160824171275
 31
0.0
 70
   129
  1
<>
 71
     0
 42
0.0
  3
DIO_DIMSTYLE
100
AcDbAlignedDimension
 13
-215.588873573778
 23
93.34405327558554
 33
0.0
 14
-365.588873573778
 24
93.34405327558554
 34
0.0
1001
ACAD
1000
DSTYLE
1002
{
1070
    41
1040
4.0
1070
    44
1040
1.0
1070
    42
1040
1.0
1070
     6
1000
_OPEN
1070
     7
1000
_OPEN
1070
   173
1070
     1
1070
   140
1040
4.0
1070
   178
1070
     5
1070
   147
1040
0.5
1002
}
  0
DIMENSION
  5
465
330
1F
100
AcDbEntity
  8
LAYER-035
  6
Continuous
 62
     5
100
AcDbDimension
  2
*D13
 10
-189.3866704474446
 20
-96.15594672441446
 30
0.0
 11
-189.3866704474446
 21
3.844053275585537
 31
0.0
 70
   128
  1
<>
 71
     0
 42
0.0
  3
DIO_DIMSTYLE
100
AcDbAlignedDimension
 13
-227.588873573778
 23
103.8440532755855
 33
0.0
 14
-227.5888705739627
 24
-96.15594672441443
 34
0.0
 50
90.0
100
AcDbRotatedDimension
1001
ACAD
1000
DSTYLE
1002
{
1070
    41
1040
4.0
1070
    44
1040
1.0
1070
    42
1040
1.0
1070
     6
1000
_OPEN
1070
     7
1000
_OPEN
1070
   173
1070
     1
1070
   140
1040
4.0
1070
   178
1070
     5
1070
   147
1040
0.5
1002
}
  0
DIMENSION
  5
46F
330
1F
100
AcDbEntity
  8
LAYER-035
  6
Continuous
 62
     5
100
AcDbDimension
  2
*D24
 10
-69.85103361593957
 20
122.9160824171275
 30
0.0
 11
-7.351033615939571
 21
122.9160824171275
 31
0.0
 70
   128
  1
<>
 71
     0
 42
0.0
  3
DIO_DIMSTYLE
100
AcDbAlignedDimension
 13
55.14896638406043
 23
94.33185838563907
 33
0.0
 14
-69.85103361593957
 24
87.42941909057646
 34
0.0
100
AcDbRotatedDimension
1001
ACAD
1000
DSTYLE
1002
{
1070
    41
1040
4.0
1070
    44
1040
1.0
1070
    42
1040
1.0
1070
     6
1000
_OPEN
1070
     7
1000
_OPEN
1070
   173
1070
     1
1070
   140
1040
4.0
1070
   178
1070
     5
1070
   147
1040
0.5
1002
}
  0
DIMENSION
  5
479
330
1F
100
AcDbEntity
  8
LAYER-035
  6
Continuous
 62
     5
100
AcDbDimension
  2
*D35
 10
217.9539901107193
 20
122.9160824171275
 30
0.0
 11
192.9539901107193
 21
122.9160824171275
 31
0.0
 70
   128
  1
<>
 71
     0
 42
0.0
  3
DIO_DIMSTYLE
100
AcDbAlignedDimension
 13
167.9539901107193
 23
87.08297143235512
 33
0.0
 14
217.9539901107193
 24
87.40417053553196
 34
0.0
 50
180.0
100
AcDbRotatedDimension
1001
ACAD
1000
DSTYLE
1002
{
1070
    41
1040
4.0
1070
    44
1040
1.0
1070
    42
1040
1.0
1070
     6
1000
_OPEN
1070
     7
1000
_OPEN
1070
   173
1070
     1
1070
   140
1040
4.0
1070
   178
1070
     5
1070
   147
1040
0.5
1002
}
  0
DIMENSION
  5
485
330
1F
100
AcDbEntity
  8
LAYER-035
  6
Continuous
 62
     5
100
AcDbDimension
  2
*D46
 10
222.7039901107193
 20
99.23569928531043
 30
0.0
 11
234.2807358831135
 21
99.23569928531043
 31
0.0
 70
   129
  1
<>
 71
     0
 42
0.0
  3
DIO_DIMSTYLE
100
AcDbAlignedDimension
 13
213.2039901107193
 23
88.84405327559168
 33
0.0
 14
222.7039901107193
 24
88.84405327559168
 34
0.0
1001
ACAD
1000
DSTYLE
1002
{
1070
    41
1040
4.0
1070
    44
1040
1.0
1070
    42
1040
1.0
1070
     6
1000
_OPEN
1070
     7
1000
_OPEN
1070
   173
1070
     1
1070
   140
1040
4.0
1070
   178
1070
     5
1070
   147
1040
0.5
1002
}
  0
DIMENSION
  5
48F
330
1F
100
AcDbEntity
  8
LAYER-035
  6
Continuous
 62
     5
100
AcDbDimension
  2
*D57
 10
282.4170864100934
 20
-73.65594672441443
 30
0.0
 11
282.4170864100934
 21
3.844053275585566
 31
0.0
 70
   128
  1
<>
 71
     0
 42
0.0
  3
DIO_DIMSTYLE
100
AcDbAlignedDimension
 13
233.1042827223429
 23
81.34405327558554
 33
0.0
 14
232.4618748797963
 24
-73.65594672441443
 34
0.0
 50
90.0
100
AcDbRotatedDimension
1001
ACAD
1000
DSTYLE
1002
{
1070
    41
1040
4.0
1070
    44
1040
1.0
1070
    42
1040
1.0
1070
     6
1000
_OPEN
1070
     7
1000
_OPEN
1070
   173
1070
     1
1070
   140
1040
4.0
1070
   178
1070
     5
1070
   147
1040
0.5
1002
}
  0
ENDSEC
  0
SECTION
  2
OBJECTS
  0
DICTIONARY
  5
C
330
0
100
AcDbDictionary
281
     1
  3
ACAD_GROUP
350
D
  3
ACAD_LAYOUT
350
1A
  3
ACAD_MLINESTYLE
350
17
  3
ACAD_PLOTSETTINGS
350
19
  3
ACAD_PLOTSTYLENAME
350
E
  0
DICTIONARY
  5
D
102
{ACAD_REACTORS
330
C
102
}
330
C
100
AcDbDictionary
281
     1
  0
DICTIONARY
  5
1A
102
{ACAD_REACTORS
330
C
102
}
330
C
100
AcDbDictionary
281
     1
  3
Model
350
22
  3
ﾚｲｱｳﾄ1
350
1E
  3
ﾚｲｱｳﾄ2
350
26
  0
DICTIONARY
  5
17
102
{ACAD_REACTORS
330
C
102
}
330
C
100
AcDbDictionary
281
     1
  3
Standard
350
18
  0
DICTIONARY
  5
19
102
{ACAD_REACTORS
330
C
102
}
330
C
100
AcDbDictionary
281
     1
  0
ACDBDICTIONARYWDFLT
  5
E
102
{ACAD_REACTORS
330
C
102
}
330
C
100
AcDbDictionary
281
     1
  3
Normal
350
F
100
AcDbDictionaryWithDefault
340
F
  0
LAYOUT
  5
22
102
{ACAD_REACTORS
330
1A
102
}
330
1A
100
AcDbPlotSettings
  1

  2
DWF ePlot.pc3
  4
ANSI_A_(8.50_x_11.00_Inches)
  6

 40
5.793749809265137
 41
17.79375076293945
 42
5.793746948242188
 43
17.79376220703125
 44
215.8999938964844
 45
279.3999938964844
 46
0.0
 47
0.0
 48
0.0
 49
0.0
140
0.0
141
0.0
142
1.0
143
39.26051453979704
 70
 11952
 72
     0
 73
     1
 74
     0
  7
acad.ctb
 75
     0
147
0.0254708837039396
148
-1793.922354682663
149
1.490346453088415
100
AcDbLayout
  1
Model
 70
     1
 71
     0
 10
-594.5
 20
-420.5
 11
594.5
 21
420.5
 12
0.0
 22
0.0
 32
0.0
 14
-594.5
 24
-420.5
 34
0.0
 15
594.5
 25
420.5
 35
0.0
146
0.0
 13
0.0
 23
0.0
 33
0.0
 16
1.0
 26
0.0
 36
0.0
 17
0.0
 27
1.0
 37
0.0
 76
     0
330
1F
  0
LAYOUT
  5
1E
102
{ACAD_REACTORS
330
1A
102
}
330
1A
100
AcDbPlotSettings
  1

  2
RICOH IPSiO NX700
  4

  6

 40
0.0
 41
0.0
 42
0.0
 43
0.0
 44
0.0
 45
0.0
 46
0.0
 47
0.0
 48
0.0
 49
0.0
140
0.0
141
0.0
142
1.0
143
1.0
 70
   688
 72
     0
 73
     0
 74
     5
  7
acad.ctb
 75
    16
147
1.0
148
0.0
149
0.0
100
AcDbLayout
  1
ﾚｲｱｳﾄ1
 70
     1
 71
     1
 10
-594.5
 20
-420.5
 11
594.5
 21
420.5
 12
0.0
 22
0.0
 32
0.0
 14
-594.5
 24
-420.5
 34
0.0
 15
594.5
 25
420.5
 35
0.0
146
0.0
 13
0.0
 23
0.0
 33
0.0
 16
1.0
 26
0.0
 36
0.0
 17
0.0
 27
1.0
 37
0.0
 76
     0
330
1B
  0
LAYOUT
  5
26
102
{ACAD_REACTORS
330
1A
102
}
330
1A
100
AcDbPlotSettings
  1

  2
RICOH IPSiO NX700
  4

  6

 40
0.0
 41
0.0
 42
0.0
 43
0.0
 44
0.0
 45
0.0
 46
0.0
 47
0.0
 48
0.0
 49
0.0
140
0.0
141
0.0
142
1.0
143
1.0
 70
   688
 72
     0
 73
     0
 74
     5
  7
acad.ctb
 75
    16
147
1.0
148
0.0
149
0.0
100
AcDbLayout
  1
ﾚｲｱｳﾄ2
 70
     1
 71
     2
 10
0.0
 20
0.0
 11
12.0
 21
9.0
 12
0.0
 22
0.0
 32
0.0
 14
0.0
 24
0.0
 34
0.0
 15
0.0
 25
0.0
 35
0.0
146
0.0
 13
0.0
 23
0.0
 33
0.0
 16
1.0
 26
0.0
 36
0.0
 17
0.0
 27
1.0
 37
0.0
 76
     0
330
23
  0
MLINESTYLE
  5
18
102
{ACAD_REACTORS
330
17
102
}
330
17
100
AcDbMlineStyle
  2
STANDARD
 70
     0
  3

 62
   256
 51
90.0
 52
90.0
 71
     2
 49
0.5
 62
   256
  6
BYLAYER
 49
-0.5
 62
   256
  6
BYLAYER
  0
ACDBPLACEHOLDER
  5
F
102
{ACAD_REACTORS
330
E
102
}
330
E
  0
ENDSEC
  0
EOF
