  0
SECTION
  2
HEADER
  9
$ACADVER
  1
AC1015
  9
$ACADMAINTVER
 70
     6
  9
$DWGCODEPAGE
  3
ANSI_932
  9
$INSBASE
 10
0.0
 20
0.0
 30
0.0
  9
$EXTMIN
 10
-594.5
 20
-420.5
 30
0.0
  9
$EXTMAX
 10
594.5
 20
420.5
 30
0.0
  9
$LIMMIN
 10
-594.5
 20
-420.5
  9
$LIMMAX
 10
594.5
 20
420.5
  9
$ORTHOMODE
 70
     0
  9
$REGENMODE
 70
     1
  9
$FILLMODE
 70
     1
  9
$QTEXTMODE
 70
     0
  9
$MIRRTEXT
 70
     1
  9
$LTSCALE
 40
4.0
  9
$ATTMODE
 70
     1
  9
$TEXTSIZE
 40
2.5
  9
$TRACEWID
 40
1.0
  9
$TEXTSTYLE
  7
Standard
  9
$CLAYER
  8
0
  9
$CELTYPE
  6
ByLayer
  9
$CECOLOR
 62
   256
  9
$CELTSCALE
 40
1.0
  9
$DISPSILH
 70
     0
  9
$DIMSCALE
 40
1.0
  9
$DIMASZ
 40
4.0
  9
$DIMEXO
 40
1.0
  9
$DIMDLI
 40
3.75
  9
$DIMRND
 40
0.1
  9
$DIMDLE
 40
0.0
  9
$DIMEXE
 40
1.0
  9
$DIMTP
 40
0.0
  9
$DIMTM
 40
0.0
  9
$DIMTXT
 40
2.5
  9
$DIMCEN
 40
2.5
  9
$DIMTSZ
 40
0.0
  9
$DIMTOL
 70
     0
  9
$DIMLIM
 70
     0
  9
$DIMTIH
 70
     0
  9
$DIMTOH
 70
     0
  9
$DIMSE1
 70
     0
  9
$DIMSE2
 70
     0
  9
$DIMTAD
 70
     1
  9
$DIMZIN
 70
     8
  9
$DIMBLK
  1

  9
$DIMASO
 70
     1
  9
$DIMSHO
 70
     1
  9
$DIMPOST
  1

  9
$DIMAPOST
  1

  9
$DIMALT
 70
     0
  9
$DIMALTD
 70
     3
  9
$DIMALTF
 40
0.03937007874016
  9
$DIMLFAC
 40
1.0
  9
$DIMTOFL
 70
     1
  9
$DIMTVP
 40
0.0
  9
$DIMTIX
 70
     0
  9
$DIMSOXD
 70
     0
  9
$DIMSAH
 70
     1
  9
$DIMBLK1
  1

  9
$DIMBLK2
  1

  9
$DIMSTYLE
  2
ISO-25
  9
$DIMCLRD
 70
     0
  9
$DIMCLRE
 70
     0
  9
$DIMCLRT
 70
     0
  9
$DIMTFAC
 40
1.0
  9
$DIMGAP
 40
0.5
  9
$DIMJUST
 70
     0
  9
$DIMSD1
 70
     0
  9
$DIMSD2
 70
     0
  9
$DIMTOLJ
 70
     0
  9
$DIMTZIN
 70
     8
  9
$DIMALTZ
 70
     0
  9
$DIMALTTZ
 70
     0
  9
$DIMUPT
 70
     1
  9
$DIMDEC
 70
     1
  9
$DIMTDEC
 70
     2
  9
$DIMALTU
 70
     2
  9
$DIMALTTD
 70
     3
  9
$DIMTXSTY
  7
Standard
  9
$DIMAUNIT
 70
     0
  9
$DIMADEC
 70
     1
  9
$DIMALTRND
 40
0.0
  9
$DIMAZIN
 70
     2
  9
$DIMDSEP
 70
    46
  9
$DIMATFIT
 70
     0
  9
$DIMFRAC
 70
     0
  9
$DIMLDRBLK
  1

  9
$DIMLUNIT
 70
     2
  9
$DIMLWD
 70
    -2
  9
$DIMLWE
 70
    -2
  9
$DIMTMOVE
 70
     0
  9
$LUNITS
 70
     2
  9
$LUPREC
 70
     4
  9
$SKETCHINC
 40
1.0
  9
$FILLETRAD
 40
10.0
  9
$AUNITS
 70
     0
  9
$AUPREC
 70
     0
  9
$MENU
  1
.
  9
$ELEVATION
 40
0.0
  9
$PELEVATION
 40
0.0
  9
$THICKNESS
 40
0.0
  9
$LIMCHECK
 70
     0
  9
$CHAMFERA
 40
10.0
  9
$CHAMFERB
 40
10.0
  9
$CHAMFERC
 40
20.0
  9
$CHAMFERD
 40
0.0
  9
$SKPOLY
 70
     0
  9
$TDCREATE
 40
2455091.0
  9
$TDUCREATE
 40
2451562.87528772
  9
$TDUPDATE
 40
2455120.0
  9
$TDUUPDATE
 40
2452026.917654526
  9
$TDINDWG
 40
0.0010008681
  9
$TDUSRTIMER
 40
0.0009680671
  9
$USRTIMER
 70
     1
  9
$ANGBASE
 50
0.0
  9
$ANGDIR
 70
     0
  9
$PDMODE
 70
     0
  9
$PDSIZE
 40
0.0
  9
$PLINEWID
 40
0.0
  9
$SPLFRAME
 70
     0
  9
$SPLINETYPE
 70
     6
  9
$SPLINESEGS
 70
     8
  9
$HANDSEED
  5
46B
  9
$SURFTAB1
 70
     6
  9
$SURFTAB2
 70
     6
  9
$SURFTYPE
 70
     6
  9
$SURFU
 70
     6
  9
$SURFV
 70
     6
  9
$UCSBASE
  2

  9
$UCSNAME
  2

  9
$UCSORG
 10
0.0
 20
0.0
 30
0.0
  9
$UCSXDIR
 10
1.0
 20
0.0
 30
0.0
  9
$UCSYDIR
 10
0.0
 20
1.0
 30
0.0
  9
$UCSORTHOREF
  2

  9
$UCSORTHOVIEW
 70
     0
  9
$UCSORGTOP
 10
0.0
 20
0.0
 30
0.0
  9
$UCSORGBOTTOM
 10
0.0
 20
0.0
 30
0.0
  9
$UCSORGLEFT
 10
0.0
 20
0.0
 30
0.0
  9
$UCSORGRIGHT
 10
0.0
 20
0.0
 30
0.0
  9
$UCSORGFRONT
 10
0.0
 20
0.0
 30
0.0
  9
$UCSORGBACK
 10
0.0
 20
0.0
 30
0.0
  9
$PUCSBASE
  2

  9
$PUCSNAME
  2

  9
$PUCSORG
 10
0.0
 20
0.0
 30
0.0
  9
$PUCSXDIR
 10
1.0
 20
0.0
 30
0.0
  9
$PUCSYDIR
 10
0.0
 20
1.0
 30
0.0
  9
$PUCSORTHOREF
  2

  9
$PUCSORTHOVIEW
 70
     0
  9
$PUCSORGTOP
 10
0.0
 20
0.0
 30
0.0
  9
$PUCSORGBOTTOM
 10
0.0
 20
0.0
 30
0.0
  9
$PUCSORGLEFT
 10
0.0
 20
0.0
 30
0.0
  9
$PUCSORGRIGHT
 10
0.0
 20
0.0
 30
0.0
  9
$PUCSORGFRONT
 10
0.0
 20
0.0
 30
0.0
  9
$PUCSORGBACK
 10
0.0
 20
0.0
 30
0.0
  9
$USERI1
 70
     0
  9
$USERI2
 70
     0
  9
$USERI3
 70
     0
  9
$USERI4
 70
     0
  9
$USERI5
 70
     0
  9
$USERR1
 40
0.0
  9
$USERR2
 40
0.0
  9
$USERR3
 40
0.0
  9
$USERR4
 40
0.0
  9
$USERR5
 40
0.0
  9
$WORLDVIEW
 70
     1
  9
$SHADEDGE
 70
     3
  9
$SHADEDIF
 70
    70
  9
$TILEMODE
 70
     1
  9
$MAXACTVP
 70
    64
  9
$PINSBASE
 10
0.0
 20
0.0
 30
0.0
  9
$PLIMCHECK
 70
     0
  9
$PEXTMIN
 10
-594.5
 20
-420.5
 30
0.0
  9
$PEXTMAX
 10
594.5
 20
420.5
 30
0.0
  9
$PLIMMIN
 10
-594.5
 20
-420.5
  9
$PLIMMAX
 10
594.5
 20
420.5
  9
$UNITMODE
 70
     0
  9
$VISRETAIN
 70
     1
  9
$PLINEGEN
 70
     0
  9
$PSLTSCALE
 70
     1
  9
$TREEDEPTH
 70
  3020
  9
$CMLSTYLE
  2
Standard
  9
$CMLJUST
 70
     0
  9
$CMLSCALE
 40
20.0
  9
$PROXYGRAPHICS
 70
     1
  9
$MEASUREMENT
 70
     1
  9
$CELWEIGHT
370
    -1
  9
$ENDCAPS
280
     0
  9
$JOINSTYLE
280
     0
  9
$LWDISPLAY
290
     0
  9
$INSUNITS
 70
     4
  9
$HYPERLINKBASE
  1

  9
$STYLESHEET
  1

  9
$XEDIT
290
     1
  9
$CEPSNTYPE
380
     0
  9
$PSTYLEMODE
290
     1
  9
$FINGERPRINTGUID
  2
{B6423330-CE35-11D3-AA43-00E0292263AD}
  9
$VERSIONGUID
  2
{EAA0F794-BAE8-4B09-85E0-65C527BE2B8E}
  9
$EXTNAMES
290
     1
  9
$PSVPSCALE
 40
0.0
  9
$OLESTARTUP
290
     0
  0
ENDSEC
  0
SECTION
  2
CLASSES
  0
CLASS
  1
ACDBDICTIONARYWDFLT
  2
AcDbDictionaryWithDefault
  3
ObjectDBX Classes
 90
        0
280
     0
281
     0
  0
CLASS
  1
ACDBPLACEHOLDER
  2
AcDbPlaceHolder
  3
ObjectDBX Classes
 90
        0
280
     0
281
     0
  0
CLASS
  1
LAYOUT
  2
AcDbLayout
  3
ObjectDBX Classes
 90
        0
280
     0
281
     0
  0
ENDSEC
  0
SECTION
  2
TABLES
  0
TABLE
  2
VPORT
  5
8
330
0
100
AcDbSymbolTable
 70
     3
  0
VPORT
  5
30
330
8
100
AcDbSymbolTableRecord
100
AcDbViewportTableRecord
  2
*Active
 70
     0
 10
0.0
 20
0.0
 11
1.0
 21
1.0
 12
259.0560661764706
 22
148.5
 13
0.0
 23
0.0
 14
10.0
 24
10.0
 15
10.0
 25
10.0
 16
0.0
 26
0.0
 36
1.0
 17
0.0
 27
0.0
 37
0.0
 40
297.1173501144164
 41
1.268382352941176
 42
50.0
 43
0.0
 44
0.0
 50
0.0
 51
0.0
 71
     0
 72
   100
 73
     1
 74
     3
 75
     0
 76
     0
 77
     0
 78
     0
281
     0
 65
     1
110
0.0
120
0.0
130
0.0
111
1.0
121
0.0
131
0.0
112
0.0
122
1.0
132
0.0
 79
     0
146
0.0
  0
ENDTAB
  0
TABLE
  2
LTYPE
  5
5
330
0
100
AcDbSymbolTable
 70
    26
  0
LTYPE
  5
14
330
5
100
AcDbSymbolTableRecord
100
AcDbLinetypeTableRecord
  2
ByBlock
 70
     0
  3

 72
    65
 73
     0
 40
0.0
  0
LTYPE
  5
15
330
5
100
AcDbSymbolTableRecord
100
AcDbLinetypeTableRecord
  2
ByLayer
 70
     0
  3

 72
    65
 73
     0
 40
0.0
  0
LTYPE
  5
16
330
5
100
AcDbSymbolTableRecord
100
AcDbLinetypeTableRecord
  2
Continuous
 70
     0
  3
Solid line
 72
    65
 73
     0
 40
0.0
  0
LTYPE
  5
37
330
5
100
AcDbSymbolTableRecord
100
AcDbLinetypeTableRecord
  2
BORDER
 70
     0
  3
 __ __ . __ __ . __ __ . __ __ . __ __ . __ __
 72
    65
 73
     6
 40
1.75
 49
0.5
 74
     0
 49
-0.25
 74
     0
 49
0.5
 74
     0
 49
-0.25
 74
     0
 49
0.0
 74
     0
 49
-0.25
 74
     0
  0
LTYPE
  5
38
330
5
100
AcDbSymbolTableRecord
100
AcDbLinetypeTableRecord
  2
BORDER2
 70
     0
  3
__.__.__.__.__.__.__.__.__.__.__.__.__.__.__
 72
    65
 73
     6
 40
0.875
 49
0.25
 74
     0
 49
-0.125
 74
     0
 49
0.25
 74
     0
 49
-0.125
 74
     0
 49
0.0
 74
     0
 49
-0.125
 74
     0
  0
LTYPE
  5
39
330
5
100
AcDbSymbolTableRecord
100
AcDbLinetypeTableRecord
  2
BORDERX2
 70
     0
  3
____  ____  .  ____  ____  .  ____  ____  .
 72
    65
 73
     6
 40
3.5
 49
1.0
 74
     0
 49
-0.5
 74
     0
 49
1.0
 74
     0
 49
-0.5
 74
     0
 49
0.0
 74
     0
 49
-0.5
 74
     0
  0
LTYPE
  5
3A
330
5
100
AcDbSymbolTableRecord
100
AcDbLinetypeTableRecord
  2
CENTER
 70
     0
  3
____ _ ____ _ ____ _ ____ _ ____ _ ____ _ ____
 72
    65
 73
     4
 40
2.0
 49
1.25
 74
     0
 49
-0.25
 74
     0
 49
0.25
 74
     0
 49
-0.25
 74
     0
  0
LTYPE
  5
3B
330
5
100
AcDbSymbolTableRecord
100
AcDbLinetypeTableRecord
  2
CENTER2
 70
     0
  3
___ _ ___ _ ___ _ ___ _ ___ _ ___ _ ___ _ ___ 
 72
    65
 73
     4
 40
1.125
 49
0.75
 74
     0
 49
-0.125
 74
     0
 49
0.125
 74
     0
 49
-0.125
 74
     0
  0
LTYPE
  5
3C
330
5
100
AcDbSymbolTableRecord
100
AcDbLinetypeTableRecord
  2
CENTERX2
 70
     0
  3
________  __  ________  __  ________  __
 72
    65
 73
     4
 40
4.0
 49
2.5
 74
     0
 49
-0.5
 74
     0
 49
0.5
 74
     0
 49
-0.5
 74
     0
  0
LTYPE
  5
3D
330
5
100
AcDbSymbolTableRecord
100
AcDbLinetypeTableRecord
  2
DASHDOT
 70
     0
  3
__ . __ . __ . __ . __ . __ . __ . __ . __ .
 72
    65
 73
     4
 40
1.0
 49
0.5
 74
     0
 49
-0.25
 74
     0
 49
0.0
 74
     0
 49
-0.25
 74
     0
  0
LTYPE
  5
3E
330
5
100
AcDbSymbolTableRecord
100
AcDbLinetypeTableRecord
  2
DASHDOT2
 70
     0
  3
_._._._._._._._._._._._._._._._._._._._._._._.
 72
    65
 73
     4
 40
0.5
 49
0.25
 74
     0
 49
-0.125
 74
     0
 49
0.0
 74
     0
 49
-0.125
 74
     0
  0
LTYPE
  5
3F
330
5
100
AcDbSymbolTableRecord
100
AcDbLinetypeTableRecord
  2
DASHDOTX2
 70
     0
  3
____  .  ____  .  ____  .  ____  .  ____  .
 72
    65
 73
     4
 40
2.0
 49
1.0
 74
     0
 49
-0.5
 74
     0
 49
0.0
 74
     0
 49
-0.5
 74
     0
  0
LTYPE
  5
40
330
5
100
AcDbSymbolTableRecord
100
AcDbLinetypeTableRecord
  2
DASHED
 70
     0
  3
__ __ __ __ __ __ __ __ __ __ __ __ __ __ __
 72
    65
 73
     2
 40
0.75
 49
0.5
 74
     0
 49
-0.25
 74
     0
  0
LTYPE
  5
41
330
5
100
AcDbSymbolTableRecord
100
AcDbLinetypeTableRecord
  2
DASHED2
 70
     0
  3
_ _ _ _ _ _ _ _ _ _ _ _ _ _ _ _ _ _ _ _ _ _ _
 72
    65
 73
     2
 40
0.375
 49
0.25
 74
     0
 49
-0.125
 74
     0
  0
LTYPE
  5
42
330
5
100
AcDbSymbolTableRecord
100
AcDbLinetypeTableRecord
  2
DASHEDX2
 70
     0
  3
____  ____  ____  ____  ____  ____  ____  ____
 72
    65
 73
     2
 40
1.5
 49
1.0
 74
     0
 49
-0.5
 74
     0
  0
LTYPE
  5
43
330
5
100
AcDbSymbolTableRecord
100
AcDbLinetypeTableRecord
  2
DIVIDE
 70
     0
  3
____ . . ____ . . ____ . . ____ . . ____ . .
 72
    65
 73
     6
 40
1.25
 49
0.5
 74
     0
 49
-0.25
 74
     0
 49
0.0
 74
     0
 49
-0.25
 74
     0
 49
0.0
 74
     0
 49
-0.25
 74
     0
  0
LTYPE
  5
44
330
5
100
AcDbSymbolTableRecord
100
AcDbLinetypeTableRecord
  2
DIVIDE2
 70
     0
  3
__..__..__..__..__..__..__..__..__..__..__..__
 72
    65
 73
     6
 40
0.625
 49
0.25
 74
     0
 49
-0.125
 74
     0
 49
0.0
 74
     0
 49
-0.125
 74
     0
 49
0.0
 74
     0
 49
-0.125
 74
     0
  0
LTYPE
  5
45
330
5
100
AcDbSymbolTableRecord
100
AcDbLinetypeTableRecord
  2
DIVIDEX2
 70
     0
  3
________  .  .  ________  .  .  ________  .  .
 72
    65
 73
     6
 40
2.5
 49
1.0
 74
     0
 49
-0.5
 74
     0
 49
0.0
 74
     0
 49
-0.5
 74
     0
 49
0.0
 74
     0
 49
-0.5
 74
     0
  0
LTYPE
  5
46
330
5
100
AcDbSymbolTableRecord
100
AcDbLinetypeTableRecord
  2
DOT
 70
     0
  3
. . . . . . . . . . . . . . . . . . . . . . .
 72
    65
 73
     2
 40
0.25
 49
0.0
 74
     0
 49
-0.25
 74
     0
  0
LTYPE
  5
47
330
5
100
AcDbSymbolTableRecord
100
AcDbLinetypeTableRecord
  2
DOT2
 70
     0
  3
..............................................
 72
    65
 73
     2
 40
0.125
 49
0.0
 74
     0
 49
-0.125
 74
     0
  0
LTYPE
  5
48
330
5
100
AcDbSymbolTableRecord
100
AcDbLinetypeTableRecord
  2
DOTX2
 70
     0
  3
.  .  .  .  .  .  .  .  .  .  .  .  .  .  .  .
 72
    65
 73
     2
 40
0.5
 49
0.0
 74
     0
 49
-0.5
 74
     0
  0
LTYPE
  5
49
330
5
100
AcDbSymbolTableRecord
100
AcDbLinetypeTableRecord
  2
HIDDEN
 70
     0
  3
__ __ __ __ __ __ __ __ __ __ __ __ __ __ __
 72
    65
 73
     2
 40
0.375
 49
0.25
 74
     0
 49
-0.125
 74
     0
  0
LTYPE
  5
4A
330
5
100
AcDbSymbolTableRecord
100
AcDbLinetypeTableRecord
  2
HIDDEN2
 70
     0
  3
_ _ _ _ _ _ _ _ _ _ _ _ _ _ _ _ _ _ _ _ _ _ _
 72
    65
 73
     2
 40
0.1875
 49
0.125
 74
     0
 49
-0.0625
 74
     0
  0
LTYPE
  5
4B
330
5
100
AcDbSymbolTableRecord
100
AcDbLinetypeTableRecord
  2
HIDDENX2
 70
     0
  3
____ ____ ____ ____ ____ ____ ____ ____ ____
 72
    65
 73
     2
 40
0.75
 49
0.5
 74
     0
 49
-0.25
 74
     0
  0
LTYPE
  5
4C
330
5
100
AcDbSymbolTableRecord
100
AcDbLinetypeTableRecord
  2
PHANTOM
 70
     0
  3
______  __  __  ______  __  __  ______  __
 72
    65
 73
     6
 40
2.5
 49
1.25
 74
     0
 49
-0.25
 74
     0
 49
0.25
 74
     0
 49
-0.25
 74
     0
 49
0.25
 74
     0
 49
-0.25
 74
     0
  0
LTYPE
  5
4D
330
5
100
AcDbSymbolTableRecord
100
AcDbLinetypeTableRecord
  2
PHANTOM2
 70
     0
  3
___ _ _ ___ _ _ ___ _ _ ___ _ _ ___ _ _ ___ _
 72
    65
 73
     6
 40
1.25
 49
0.625
 74
     0
 49
-0.125
 74
     0
 49
0.125
 74
     0
 49
-0.125
 74
     0
 49
0.125
 74
     0
 49
-0.125
 74
     0
  0
LTYPE
  5
4E
330
5
100
AcDbSymbolTableRecord
100
AcDbLinetypeTableRecord
  2
PHANTOMX2
 70
     0
  3
____________    ____    ____    ____________
 72
    65
 73
     6
 40
5.0
 49
2.5
 74
     0
 49
-0.5
 74
     0
 49
0.5
 74
     0
 49
-0.5
 74
     0
 49
0.5
 74
     0
 49
-0.5
 74
     0
  0
LTYPE
  5
4F
330
5
100
AcDbSymbolTableRecord
100
AcDbLinetypeTableRecord
  2
CONTINUOUS2
 70
     0
  3
Solid line
 72
    65
 73
     0
 40
0.0
  0
ENDTAB
  0
TABLE
  2
LAYER
  5
2
330
0
100
AcDbSymbolTable
 70
   514
  0
LAYER
  5
10
330
2
100
AcDbSymbolTableRecord
100
AcDbLayerTableRecord
  2
0
 70
     0
 62
     7
  6
Continuous
370
    -3
390
F
  0
LAYER
  5
50
330
2
100
AcDbSymbolTableRecord
100
AcDbLayerTableRecord
  2
LAYER-001
 70
     0
 62
     7
  6
Continuous
370
    -3
390
F
  0
LAYER
  5
51
330
2
100
AcDbSymbolTableRecord
100
AcDbLayerTableRecord
  2
LAYER-002
 70
     0
 62
     7
  6
Continuous
370
    -3
390
F
  0
LAYER
  5
52
330
2
100
AcDbSymbolTableRecord
100
AcDbLayerTableRecord
  2
LAYER-003
 70
     0
 62
     7
  6
Continuous
370
    -3
390
F
  0
LAYER
  5
53
330
2
100
AcDbSymbolTableRecord
100
AcDbLayerTableRecord
  2
LAYER-004
 70
     0
 62
     7
  6
Continuous
370
    -3
390
F
  0
LAYER
  5
54
330
2
100
AcDbSymbolTableRecord
100
AcDbLayerTableRecord
  2
LAYER-005
 70
     0
 62
     7
  6
Continuous
370
    -3
390
F
  0
LAYER
  5
55
330
2
100
AcDbSymbolTableRecord
100
AcDbLayerTableRecord
  2
LAYER-006
 70
     0
 62
     7
  6
Continuous
370
    -3
390
F
  0
LAYER
  5
56
330
2
100
AcDbSymbolTableRecord
100
AcDbLayerTableRecord
  2
LAYER-007
 70
     0
 62
     7
  6
Continuous
370
    -3
390
F
  0
LAYER
  5
57
330
2
100
AcDbSymbolTableRecord
100
AcDbLayerTableRecord
  2
LAYER-008
 70
     0
 62
     7
  6
Continuous
370
    -3
390
F
  0
LAYER
  5
58
330
2
100
AcDbSymbolTableRecord
100
AcDbLayerTableRecord
  2
LAYER-009
 70
     0
 62
     7
  6
Continuous
370
    -3
390
F
  0
LAYER
  5
59
330
2
100
AcDbSymbolTableRecord
100
AcDbLayerTableRecord
  2
LAYER-010
 70
     0
 62
     7
  6
Continuous
370
    -3
390
F
  0
LAYER
  5
5A
330
2
100
AcDbSymbolTableRecord
100
AcDbLayerTableRecord
  2
LAYER-011
 70
     0
 62
     7
  6
Continuous
370
    -3
390
F
  0
LAYER
  5
5B
330
2
100
AcDbSymbolTableRecord
100
AcDbLayerTableRecord
  2
LAYER-012
 70
     0
 62
     7
  6
Continuous
370
    -3
390
F
  0
LAYER
  5
5C
330
2
100
AcDbSymbolTableRecord
100
AcDbLayerTableRecord
  2
LAYER-013
 70
     0
 62
     7
  6
Continuous
370
    -3
390
F
  0
LAYER
  5
5D
330
2
100
AcDbSymbolTableRecord
100
AcDbLayerTableRecord
  2
LAYER-014
 70
     0
 62
     7
  6
Continuous
370
    -3
390
F
  0
LAYER
  5
5E
330
2
100
AcDbSymbolTableRecord
100
AcDbLayerTableRecord
  2
LAYER-015
 70
     0
 62
    -7
  6
Continuous
370
    -3
390
F
  0
LAYER
  5
5F
330
2
100
AcDbSymbolTableRecord
100
AcDbLayerTableRecord
  2
LAYER-016
 70
     0
 62
     4
  6
Continuous
370
    -3
390
F
  0
LAYER
  5
60
330
2
100
AcDbSymbolTableRecord
100
AcDbLayerTableRecord
  2
LAYER-017
 70
     0
 62
     7
  6
Continuous
370
    -3
390
F
  0
LAYER
  5
61
330
2
100
AcDbSymbolTableRecord
100
AcDbLayerTableRecord
  2
LAYER-018
 70
     0
 62
     2
  6
Continuous
370
    -3
390
F
  0
LAYER
  5
62
330
2
100
AcDbSymbolTableRecord
100
AcDbLayerTableRecord
  2
LAYER-019
 70
     0
 62
     3
  6
Continuous
370
    -3
390
F
  0
LAYER
  5
63
330
2
100
AcDbSymbolTableRecord
100
AcDbLayerTableRecord
  2
LAYER-020
 70
     0
 62
     2
  6
Continuous
370
    -3
390
F
  0
LAYER
  5
64
330
2
100
AcDbSymbolTableRecord
100
AcDbLayerTableRecord
  2
LAYER-021
 70
     0
 62
     7
  6
Continuous
370
    -3
390
F
  0
LAYER
  5
65
330
2
100
AcDbSymbolTableRecord
100
AcDbLayerTableRecord
  2
LAYER-022
 70
     0
 62
     4
  6
Continuous
370
    -3
390
F
  0
LAYER
  5
66
330
2
100
AcDbSymbolTableRecord
100
AcDbLayerTableRecord
  2
LAYER-023
 70
     0
 62
     4
  6
Continuous
370
    -3
390
F
  0
LAYER
  5
67
330
2
100
AcDbSymbolTableRecord
100
AcDbLayerTableRecord
  2
LAYER-024
 70
     0
 62
     7
  6
Continuous
370
    -3
390
F
  0
LAYER
  5
68
330
2
100
AcDbSymbolTableRecord
100
AcDbLayerTableRecord
  2
LAYER-025
 70
     0
 62
     7
  6
Continuous
370
    -3
390
F
  0
LAYER
  5
69
330
2
100
AcDbSymbolTableRecord
100
AcDbLayerTableRecord
  2
LAYER-026
 70
     0
 62
    -7
  6
Continuous
370
    -3
390
F
  0
LAYER
  5
6A
330
2
100
AcDbSymbolTableRecord
100
AcDbLayerTableRecord
  2
LAYER-027
 70
     0
 62
     7
  6
Continuous
370
    -3
390
F
  0
LAYER
  5
6B
330
2
100
AcDbSymbolTableRecord
100
AcDbLayerTableRecord
  2
LAYER-028
 70
     0
 62
     7
  6
Continuous
370
    -3
390
F
  0
LAYER
  5
6C
330
2
100
AcDbSymbolTableRecord
100
AcDbLayerTableRecord
  2
LAYER-029
 70
     0
 62
     7
  6
Continuous
370
    -3
390
F
  0
LAYER
  5
6D
330
2
100
AcDbSymbolTableRecord
100
AcDbLayerTableRecord
  2
LAYER-030
 70
     0
 62
     2
  6
Continuous
370
    -3
390
F
  0
LAYER
  5
6E
330
2
100
AcDbSymbolTableRecord
100
AcDbLayerTableRecord
  2
LAYER-031
 70
     0
 62
     7
  6
Continuous
370
    -3
390
F
  0
LAYER
  5
6F
330
2
100
AcDbSymbolTableRecord
100
AcDbLayerTableRecord
  2
LAYER-032
 70
     0
 62
     2
  6
Continuous
370
    -3
390
F
  0
LAYER
  5
70
330
2
100
AcDbSymbolTableRecord
100
AcDbLayerTableRecord
  2
LAYER-033
 70
     0
 62
     7
  6
Continuous
370
    -3
390
F
  0
LAYER
  5
71
330
2
100
AcDbSymbolTableRecord
100
AcDbLayerTableRecord
  2
LAYER-034
 70
     0
 62
     7
  6
Continuous
370
    -3
390
F
  0
LAYER
  5
72
330
2
100
AcDbSymbolTableRecord
100
AcDbLayerTableRecord
  2
LAYER-035
 70
     0
 62
     3
  6
Continuous
370
    -3
390
F
  0
LAYER
  5
73
330
2
100
AcDbSymbolTableRecord
100
AcDbLayerTableRecord
  2
LAYER-036
 70
     0
 62
     2
  6
Continuous
370
    -3
390
F
  0
LAYER
  5
74
330
2
100
AcDbSymbolTableRecord
100
AcDbLayerTableRecord
  2
LAYER-037
 70
     0
 62
     7
  6
Continuous
370
    -3
390
F
  0
LAYER
  5
75
330
2
100
AcDbSymbolTableRecord
100
AcDbLayerTableRecord
  2
LAYER-038
 70
     0
 62
     7
  6
Continuous
370
    -3
390
F
  0
LAYER
  5
76
330
2
100
AcDbSymbolTableRecord
100
AcDbLayerTableRecord
  2
LAYER-039
 70
     0
 62
     7
  6
Continuous
370
    -3
390
F
  0
LAYER
  5
77
330
2
100
AcDbSymbolTableRecord
100
AcDbLayerTableRecord
  2
LAYER-040
 70
     0
 62
     7
  6
Continuous
370
    -3
390
F
  0
LAYER
  5
78
330
2
100
AcDbSymbolTableRecord
100
AcDbLayerTableRecord
  2
LAYER-041
 70
     0
 62
     7
  6
Continuous
370
    -3
390
F
  0
LAYER
  5
79
330
2
100
AcDbSymbolTableRecord
100
AcDbLayerTableRecord
  2
LAYER-042
 70
     0
 62
     7
  6
Continuous
370
    -3
390
F
  0
LAYER
  5
7A
330
2
100
AcDbSymbolTableRecord
100
AcDbLayerTableRecord
  2
LAYER-043
 70
     0
 62
     7
  6
Continuous
370
    -3
390
F
  0
LAYER
  5
7B
330
2
100
AcDbSymbolTableRecord
100
AcDbLayerTableRecord
  2
LAYER-044
 70
     0
 62
     7
  6
Continuous
370
    -3
390
F
  0
LAYER
  5
7C
330
2
100
AcDbSymbolTableRecord
100
AcDbLayerTableRecord
  2
LAYER-045
 70
     0
 62
     7
  6
Continuous
370
    -3
390
F
  0
LAYER
  5
7D
330
2
100
AcDbSymbolTableRecord
100
AcDbLayerTableRecord
  2
LAYER-046
 70
     0
 62
     7
  6
Continuous
370
    -3
390
F
  0
LAYER
  5
7E
330
2
100
AcDbSymbolTableRecord
100
AcDbLayerTableRecord
  2
LAYER-047
 70
     0
 62
     7
  6
Continuous
370
    -3
390
F
  0
LAYER
  5
7F
330
2
100
AcDbSymbolTableRecord
100
AcDbLayerTableRecord
  2
LAYER-048
 70
     0
 62
     2
  6
Continuous
370
    -3
390
F
  0
LAYER
  5
80
330
2
100
AcDbSymbolTableRecord
100
AcDbLayerTableRecord
  2
LAYER-049
 70
     0
 62
     3
  6
Continuous
370
    -3
390
F
  0
LAYER
  5
81
330
2
100
AcDbSymbolTableRecord
100
AcDbLayerTableRecord
  2
LAYER-050
 70
     0
 62
     7
  6
Continuous
370
    -3
390
F
  0
LAYER
  5
82
330
2
100
AcDbSymbolTableRecord
100
AcDbLayerTableRecord
  2
LAYER-051
 70
     0
 62
     2
  6
Continuous
370
    -3
390
F
  0
LAYER
  5
83
330
2
100
AcDbSymbolTableRecord
100
AcDbLayerTableRecord
  2
LAYER-052
 70
     0
 62
     7
  6
Continuous
370
    -3
390
F
  0
LAYER
  5
84
330
2
100
AcDbSymbolTableRecord
100
AcDbLayerTableRecord
  2
LAYER-053
 70
     0
 62
     7
  6
Continuous
370
    -3
390
F
  0
LAYER
  5
85
330
2
100
AcDbSymbolTableRecord
100
AcDbLayerTableRecord
  2
LAYER-054
 70
     0
 62
     7
  6
Continuous
370
    -3
390
F
  0
LAYER
  5
86
330
2
100
AcDbSymbolTableRecord
100
AcDbLayerTableRecord
  2
LAYER-055
 70
     0
 62
     7
  6
Continuous
370
    -3
390
F
  0
LAYER
  5
87
330
2
100
AcDbSymbolTableRecord
100
AcDbLayerTableRecord
  2
LAYER-056
 70
     0
 62
     7
  6
Continuous
370
    -3
390
F
  0
LAYER
  5
88
330
2
100
AcDbSymbolTableRecord
100
AcDbLayerTableRecord
  2
LAYER-057
 70
     0
 62
     7
  6
Continuous
370
    -3
390
F
  0
LAYER
  5
89
330
2
100
AcDbSymbolTableRecord
100
AcDbLayerTableRecord
  2
LAYER-058
 70
     0
 62
     7
  6
Continuous
370
    -3
390
F
  0
LAYER
  5
8A
330
2
100
AcDbSymbolTableRecord
100
AcDbLayerTableRecord
  2
LAYER-059
 70
     0
 62
     7
  6
Continuous
370
    -3
390
F
  0
LAYER
  5
8B
330
2
100
AcDbSymbolTableRecord
100
AcDbLayerTableRecord
  2
LAYER-060
 70
     0
 62
     7
  6
Continuous
370
    -3
390
F
  0
LAYER
  5
8C
330
2
100
AcDbSymbolTableRecord
100
AcDbLayerTableRecord
  2
LAYER-061
 70
     0
 62
     7
  6
Continuous
370
    -3
390
F
  0
LAYER
  5
8D
330
2
100
AcDbSymbolTableRecord
100
AcDbLayerTableRecord
  2
LAYER-062
 70
     0
 62
     7
  6
Continuous
370
    -3
390
F
  0
LAYER
  5
8E
330
2
100
AcDbSymbolTableRecord
100
AcDbLayerTableRecord
  2
LAYER-063
 70
     0
 62
     7
  6
Continuous
370
    -3
390
F
  0
LAYER
  5
8F
330
2
100
AcDbSymbolTableRecord
100
AcDbLayerTableRecord
  2
LAYER-064
 70
     0
 62
     2
  6
Continuous
370
    -3
390
F
  0
LAYER
  5
90
330
2
100
AcDbSymbolTableRecord
100
AcDbLayerTableRecord
  2
LAYER-065
 70
     0
 62
     7
  6
Continuous
370
    -3
390
F
  0
LAYER
  5
91
330
2
100
AcDbSymbolTableRecord
100
AcDbLayerTableRecord
  2
LAYER-066
 70
     0
 62
     2
  6
Continuous
370
    -3
390
F
  0
LAYER
  5
92
330
2
100
AcDbSymbolTableRecord
100
AcDbLayerTableRecord
  2
LAYER-067
 70
     0
 62
     2
  6
Continuous
370
    -3
390
F
  0
LAYER
  5
93
330
2
100
AcDbSymbolTableRecord
100
AcDbLayerTableRecord
  2
LAYER-068
 70
     0
 62
     7
  6
Continuous
370
    -3
390
F
  0
LAYER
  5
94
330
2
100
AcDbSymbolTableRecord
100
AcDbLayerTableRecord
  2
LAYER-069
 70
     0
 62
     7
  6
Continuous
370
    -3
390
F
  0
LAYER
  5
95
330
2
100
AcDbSymbolTableRecord
100
AcDbLayerTableRecord
  2
LAYER-070
 70
     0
 62
     7
  6
Continuous
370
    -3
390
F
  0
LAYER
  5
96
330
2
100
AcDbSymbolTableRecord
100
AcDbLayerTableRecord
  2
LAYER-071
 70
     0
 62
     7
  6
Continuous
370
    -3
390
F
  0
LAYER
  5
97
330
2
100
AcDbSymbolTableRecord
100
AcDbLayerTableRecord
  2
LAYER-072
 70
     0
 62
     7
  6
Continuous
370
    -3
390
F
  0
LAYER
  5
98
330
2
100
AcDbSymbolTableRecord
100
AcDbLayerTableRecord
  2
LAYER-073
 70
     0
 62
     7
  6
Continuous
370
    -3
390
F
  0
LAYER
  5
99
330
2
100
AcDbSymbolTableRecord
100
AcDbLayerTableRecord
  2
LAYER-074
 70
     0
 62
     7
  6
Continuous
370
    -3
390
F
  0
LAYER
  5
9A
330
2
100
AcDbSymbolTableRecord
100
AcDbLayerTableRecord
  2
LAYER-075
 70
     0
 62
     7
  6
Continuous
370
    -3
390
F
  0
LAYER
  5
9B
330
2
100
AcDbSymbolTableRecord
100
AcDbLayerTableRecord
  2
LAYER-076
 70
     0
 62
     7
  6
Continuous
370
    -3
390
F
  0
LAYER
  5
9C
330
2
100
AcDbSymbolTableRecord
100
AcDbLayerTableRecord
  2
LAYER-077
 70
     0
 62
     7
  6
Continuous
370
    -3
390
F
  0
LAYER
  5
9D
330
2
100
AcDbSymbolTableRecord
100
AcDbLayerTableRecord
  2
LAYER-078
 70
     0
 62
     7
  6
Continuous
370
    -3
390
F
  0
LAYER
  5
9E
330
2
100
AcDbSymbolTableRecord
100
AcDbLayerTableRecord
  2
LAYER-079
 70
     0
 62
     7
  6
Continuous
370
    -3
390
F
  0
LAYER
  5
9F
330
2
100
AcDbSymbolTableRecord
100
AcDbLayerTableRecord
  2
LAYER-080
 70
     0
 62
     2
  6
Continuous
370
    -3
390
F
  0
LAYER
  5
A0
330
2
100
AcDbSymbolTableRecord
100
AcDbLayerTableRecord
  2
LAYER-081
 70
     0
 62
     7
  6
Continuous
370
    -3
390
F
  0
LAYER
  5
A1
330
2
100
AcDbSymbolTableRecord
100
AcDbLayerTableRecord
  2
LAYER-082
 70
     0
 62
     7
  6
Continuous
370
    -3
390
F
  0
LAYER
  5
A2
330
2
100
AcDbSymbolTableRecord
100
AcDbLayerTableRecord
  2
LAYER-083
 70
     0
 62
     7
  6
Continuous
370
    -3
390
F
  0
LAYER
  5
A3
330
2
100
AcDbSymbolTableRecord
100
AcDbLayerTableRecord
  2
LAYER-084
 70
     0
 62
     7
  6
Continuous
370
    -3
390
F
  0
LAYER
  5
A4
330
2
100
AcDbSymbolTableRecord
100
AcDbLayerTableRecord
  2
LAYER-085
 70
     0
 62
     7
  6
Continuous
370
    -3
390
F
  0
LAYER
  5
A5
330
2
100
AcDbSymbolTableRecord
100
AcDbLayerTableRecord
  2
LAYER-086
 70
     0
 62
     7
  6
Continuous
370
    -3
390
F
  0
LAYER
  5
A6
330
2
100
AcDbSymbolTableRecord
100
AcDbLayerTableRecord
  2
LAYER-087
 70
     0
 62
     7
  6
Continuous
370
    -3
390
F
  0
LAYER
  5
A7
330
2
100
AcDbSymbolTableRecord
100
AcDbLayerTableRecord
  2
LAYER-088
 70
     0
 62
     7
  6
Continuous
370
    -3
390
F
  0
LAYER
  5
A8
330
2
100
AcDbSymbolTableRecord
100
AcDbLayerTableRecord
  2
LAYER-089
 70
     0
 62
     7
  6
Continuous
370
    -3
390
F
  0
LAYER
  5
A9
330
2
100
AcDbSymbolTableRecord
100
AcDbLayerTableRecord
  2
LAYER-090
 70
     0
 62
     7
  6
Continuous
370
    -3
390
F
  0
LAYER
  5
AA
330
2
100
AcDbSymbolTableRecord
100
AcDbLayerTableRecord
  2
LAYER-091
 70
     0
 62
     7
  6
Continuous
370
    -3
390
F
  0
LAYER
  5
AB
330
2
100
AcDbSymbolTableRecord
100
AcDbLayerTableRecord
  2
LAYER-092
 70
     0
 62
     7
  6
Continuous
370
    -3
390
F
  0
LAYER
  5
AC
330
2
100
AcDbSymbolTableRecord
100
AcDbLayerTableRecord
  2
LAYER-093
 70
     0
 62
     7
  6
Continuous
370
    -3
390
F
  0
LAYER
  5
AD
330
2
100
AcDbSymbolTableRecord
100
AcDbLayerTableRecord
  2
LAYER-094
 70
     0
 62
     7
  6
Continuous
370
    -3
390
F
  0
LAYER
  5
AE
330
2
100
AcDbSymbolTableRecord
100
AcDbLayerTableRecord
  2
LAYER-095
 70
     0
 62
     7
  6
Continuous
370
    -3
390
F
  0
LAYER
  5
AF
330
2
100
AcDbSymbolTableRecord
100
AcDbLayerTableRecord
  2
LAYER-096
 70
     0
 62
     7
  6
Continuous
370
    -3
390
F
  0
LAYER
  5
B0
330
2
100
AcDbSymbolTableRecord
100
AcDbLayerTableRecord
  2
LAYER-097
 70
     0
 62
     7
  6
Continuous
370
    -3
390
F
  0
LAYER
  5
B1
330
2
100
AcDbSymbolTableRecord
100
AcDbLayerTableRecord
  2
LAYER-098
 70
     0
 62
     7
  6
Continuous
370
    -3
390
F
  0
LAYER
  5
B2
330
2
100
AcDbSymbolTableRecord
100
AcDbLayerTableRecord
  2
LAYER-099
 70
     0
 62
     7
  6
Continuous
370
    -3
390
F
  0
LAYER
  5
B3
330
2
100
AcDbSymbolTableRecord
100
AcDbLayerTableRecord
  2
LAYER-100
 70
     0
 62
     7
  6
Continuous
370
    -3
390
F
  0
LAYER
  5
B4
330
2
100
AcDbSymbolTableRecord
100
AcDbLayerTableRecord
  2
LAYER-101
 70
     0
 62
     7
  6
Continuous
370
    -3
390
F
  0
LAYER
  5
B5
330
2
100
AcDbSymbolTableRecord
100
AcDbLayerTableRecord
  2
LAYER-102
 70
     0
 62
     7
  6
Continuous
370
    -3
390
F
  0
LAYER
  5
B6
330
2
100
AcDbSymbolTableRecord
100
AcDbLayerTableRecord
  2
LAYER-103
 70
     0
 62
     7
  6
Continuous
370
    -3
390
F
  0
LAYER
  5
B7
330
2
100
AcDbSymbolTableRecord
100
AcDbLayerTableRecord
  2
LAYER-104
 70
     0
 62
     7
  6
Continuous
370
    -3
390
F
  0
LAYER
  5
B8
330
2
100
AcDbSymbolTableRecord
100
AcDbLayerTableRecord
  2
LAYER-105
 70
     0
 62
     7
  6
Continuous
370
    -3
390
F
  0
LAYER
  5
B9
330
2
100
AcDbSymbolTableRecord
100
AcDbLayerTableRecord
  2
LAYER-106
 70
     0
 62
     7
  6
Continuous
370
    -3
390
F
  0
LAYER
  5
BA
330
2
100
AcDbSymbolTableRecord
100
AcDbLayerTableRecord
  2
LAYER-107
 70
     0
 62
     7
  6
Continuous
370
    -3
390
F
  0
LAYER
  5
BB
330
2
100
AcDbSymbolTableRecord
100
AcDbLayerTableRecord
  2
LAYER-108
 70
     0
 62
     7
  6
Continuous
370
    -3
390
F
  0
LAYER
  5
BC
330
2
100
AcDbSymbolTableRecord
100
AcDbLayerTableRecord
  2
LAYER-109
 70
     0
 62
     7
  6
Continuous
370
    -3
390
F
  0
LAYER
  5
BD
330
2
100
AcDbSymbolTableRecord
100
AcDbLayerTableRecord
  2
LAYER-110
 70
     0
 62
     7
  6
Continuous
370
    -3
390
F
  0
LAYER
  5
BE
330
2
100
AcDbSymbolTableRecord
100
AcDbLayerTableRecord
  2
LAYER-111
 70
     0
 62
     7
  6
Continuous
370
    -3
390
F
  0
LAYER
  5
BF
330
2
100
AcDbSymbolTableRecord
100
AcDbLayerTableRecord
  2
LAYER-112
 70
     0
 62
     7
  6
Continuous
370
    -3
390
F
  0
LAYER
  5
C0
330
2
100
AcDbSymbolTableRecord
100
AcDbLayerTableRecord
  2
LAYER-113
 70
     0
 62
     7
  6
Continuous
370
    -3
390
F
  0
LAYER
  5
C1
330
2
100
AcDbSymbolTableRecord
100
AcDbLayerTableRecord
  2
LAYER-114
 70
     0
 62
     7
  6
Continuous
370
    -3
390
F
  0
LAYER
  5
C2
330
2
100
AcDbSymbolTableRecord
100
AcDbLayerTableRecord
  2
LAYER-115
 70
     0
 62
     7
  6
Continuous
370
    -3
390
F
  0
LAYER
  5
C3
330
2
100
AcDbSymbolTableRecord
100
AcDbLayerTableRecord
  2
LAYER-116
 70
     0
 62
     7
  6
Continuous
370
    -3
390
F
  0
LAYER
  5
C4
330
2
100
AcDbSymbolTableRecord
100
AcDbLayerTableRecord
  2
LAYER-117
 70
     0
 62
     7
  6
Continuous
370
    -3
390
F
  0
LAYER
  5
C5
330
2
100
AcDbSymbolTableRecord
100
AcDbLayerTableRecord
  2
LAYER-118
 70
     0
 62
     7
  6
Continuous
370
    -3
390
F
  0
LAYER
  5
C6
330
2
100
AcDbSymbolTableRecord
100
AcDbLayerTableRecord
  2
LAYER-119
 70
     0
 62
     7
  6
Continuous
370
    -3
390
F
  0
LAYER
  5
C7
330
2
100
AcDbSymbolTableRecord
100
AcDbLayerTableRecord
  2
LAYER-120
 70
     0
 62
     7
  6
Continuous
370
    -3
390
F
  0
LAYER
  5
C8
330
2
100
AcDbSymbolTableRecord
100
AcDbLayerTableRecord
  2
LAYER-121
 70
     0
 62
     7
  6
Continuous
370
    -3
390
F
  0
LAYER
  5
C9
330
2
100
AcDbSymbolTableRecord
100
AcDbLayerTableRecord
  2
LAYER-122
 70
     0
 62
     7
  6
Continuous
370
    -3
390
F
  0
LAYER
  5
CA
330
2
100
AcDbSymbolTableRecord
100
AcDbLayerTableRecord
  2
LAYER-123
 70
     0
 62
     7
  6
Continuous
370
    -3
390
F
  0
LAYER
  5
CB
330
2
100
AcDbSymbolTableRecord
100
AcDbLayerTableRecord
  2
LAYER-124
 70
     0
 62
     7
  6
Continuous
370
    -3
390
F
  0
LAYER
  5
CC
330
2
100
AcDbSymbolTableRecord
100
AcDbLayerTableRecord
  2
LAYER-125
 70
     0
 62
     7
  6
Continuous
370
    -3
390
F
  0
LAYER
  5
CD
330
2
100
AcDbSymbolTableRecord
100
AcDbLayerTableRecord
  2
LAYER-126
 70
     0
 62
     7
  6
Continuous
370
    -3
390
F
  0
LAYER
  5
CE
330
2
100
AcDbSymbolTableRecord
100
AcDbLayerTableRecord
  2
LAYER-127
 70
     0
 62
     7
  6
Continuous
370
    -3
390
F
  0
LAYER
  5
CF
330
2
100
AcDbSymbolTableRecord
100
AcDbLayerTableRecord
  2
LAYER-128
 70
     0
 62
     7
  6
Continuous
370
    -3
390
F
  0
LAYER
  5
D0
330
2
100
AcDbSymbolTableRecord
100
AcDbLayerTableRecord
  2
LAYER-129
 70
     0
 62
     7
  6
Continuous
370
    -3
390
F
  0
LAYER
  5
D1
330
2
100
AcDbSymbolTableRecord
100
AcDbLayerTableRecord
  2
LAYER-130
 70
     0
 62
     7
  6
Continuous
370
    -3
390
F
  0
LAYER
  5
D2
330
2
100
AcDbSymbolTableRecord
100
AcDbLayerTableRecord
  2
LAYER-131
 70
     0
 62
     7
  6
Continuous
370
    -3
390
F
  0
LAYER
  5
D3
330
2
100
AcDbSymbolTableRecord
100
AcDbLayerTableRecord
  2
LAYER-132
 70
     0
 62
     7
  6
Continuous
370
    -3
390
F
  0
LAYER
  5
D4
330
2
100
AcDbSymbolTableRecord
100
AcDbLayerTableRecord
  2
LAYER-133
 70
     0
 62
     7
  6
Continuous
370
    -3
390
F
  0
LAYER
  5
D5
330
2
100
AcDbSymbolTableRecord
100
AcDbLayerTableRecord
  2
LAYER-134
 70
     0
 62
     7
  6
Continuous
370
    -3
390
F
  0
LAYER
  5
D6
330
2
100
AcDbSymbolTableRecord
100
AcDbLayerTableRecord
  2
LAYER-135
 70
     0
 62
    -4
  6
Continuous
370
    -3
390
F
  0
LAYER
  5
D7
330
2
100
AcDbSymbolTableRecord
100
AcDbLayerTableRecord
  2
LAYER-136
 70
     0
 62
    -3
  6
Continuous
370
    -3
390
F
  0
LAYER
  5
D8
330
2
100
AcDbSymbolTableRecord
100
AcDbLayerTableRecord
  2
LAYER-137
 70
     0
 62
    -1
  6
Continuous
370
    -3
390
F
  0
LAYER
  5
D9
330
2
100
AcDbSymbolTableRecord
100
AcDbLayerTableRecord
  2
LAYER-138
 70
     0
 62
     7
  6
Continuous
370
    -3
390
F
  0
LAYER
  5
DA
330
2
100
AcDbSymbolTableRecord
100
AcDbLayerTableRecord
  2
LAYER-139
 70
     0
 62
     7
  6
Continuous
370
    -3
390
F
  0
LAYER
  5
DB
330
2
100
AcDbSymbolTableRecord
100
AcDbLayerTableRecord
  2
LAYER-140
 70
     0
 62
     7
  6
Continuous
370
    -3
390
F
  0
LAYER
  5
DC
330
2
100
AcDbSymbolTableRecord
100
AcDbLayerTableRecord
  2
LAYER-141
 70
     0
 62
     7
  6
Continuous
370
    -3
390
F
  0
LAYER
  5
DD
330
2
100
AcDbSymbolTableRecord
100
AcDbLayerTableRecord
  2
LAYER-142
 70
     0
 62
     3
  6
Continuous
370
    -3
390
F
  0
LAYER
  5
DE
330
2
100
AcDbSymbolTableRecord
100
AcDbLayerTableRecord
  2
LAYER-143
 70
     0
 62
     7
  6
Continuous
370
    -3
390
F
  0
LAYER
  5
DF
330
2
100
AcDbSymbolTableRecord
100
AcDbLayerTableRecord
  2
LAYER-144
 70
     0
 62
     7
  6
Continuous
370
    -3
390
F
  0
LAYER
  5
E0
330
2
100
AcDbSymbolTableRecord
100
AcDbLayerTableRecord
  2
LAYER-145
 70
     0
 62
     3
  6
Continuous
370
    -3
390
F
  0
LAYER
  5
E1
330
2
100
AcDbSymbolTableRecord
100
AcDbLayerTableRecord
  2
LAYER-146
 70
     0
 62
     7
  6
Continuous
370
    -3
390
F
  0
LAYER
  5
E2
330
2
100
AcDbSymbolTableRecord
100
AcDbLayerTableRecord
  2
LAYER-147
 70
     0
 62
     7
  6
Continuous
370
    -3
390
F
  0
LAYER
  5
E3
330
2
100
AcDbSymbolTableRecord
100
AcDbLayerTableRecord
  2
LAYER-148
 70
     0
 62
     7
  6
Continuous
370
    -3
390
F
  0
LAYER
  5
E4
330
2
100
AcDbSymbolTableRecord
100
AcDbLayerTableRecord
  2
LAYER-149
 70
     0
 62
     7
  6
Continuous
370
    -3
390
F
  0
LAYER
  5
E5
330
2
100
AcDbSymbolTableRecord
100
AcDbLayerTableRecord
  2
LAYER-150
 70
     0
 62
     7
  6
Continuous
370
    -3
390
F
  0
LAYER
  5
E6
330
2
100
AcDbSymbolTableRecord
100
AcDbLayerTableRecord
  2
LAYER-151
 70
     0
 62
     7
  6
Continuous
370
    -3
390
F
  0
LAYER
  5
E7
330
2
100
AcDbSymbolTableRecord
100
AcDbLayerTableRecord
  2
LAYER-152
 70
     0
 62
     7
  6
Continuous
370
    -3
390
F
  0
LAYER
  5
E8
330
2
100
AcDbSymbolTableRecord
100
AcDbLayerTableRecord
  2
LAYER-153
 70
     0
 62
     7
  6
Continuous
370
    -3
390
F
  0
LAYER
  5
E9
330
2
100
AcDbSymbolTableRecord
100
AcDbLayerTableRecord
  2
LAYER-154
 70
     0
 62
     7
  6
Continuous
370
    -3
390
F
  0
LAYER
  5
EA
330
2
100
AcDbSymbolTableRecord
100
AcDbLayerTableRecord
  2
LAYER-155
 70
     0
 62
     7
  6
Continuous
370
    -3
390
F
  0
LAYER
  5
EB
330
2
100
AcDbSymbolTableRecord
100
AcDbLayerTableRecord
  2
LAYER-156
 70
     0
 62
     7
  6
Continuous
370
    -3
390
F
  0
LAYER
  5
EC
330
2
100
AcDbSymbolTableRecord
100
AcDbLayerTableRecord
  2
LAYER-157
 70
     0
 62
     7
  6
Continuous
370
    -3
390
F
  0
LAYER
  5
ED
330
2
100
AcDbSymbolTableRecord
100
AcDbLayerTableRecord
  2
LAYER-158
 70
     0
 62
     7
  6
Continuous
370
    -3
390
F
  0
LAYER
  5
EE
330
2
100
AcDbSymbolTableRecord
100
AcDbLayerTableRecord
  2
LAYER-159
 70
     0
 62
     7
  6
Continuous
370
    -3
390
F
  0
LAYER
  5
EF
330
2
100
AcDbSymbolTableRecord
100
AcDbLayerTableRecord
  2
LAYER-160
 70
     0
 62
     7
  6
Continuous
370
    -3
390
F
  0
LAYER
  5
F0
330
2
100
AcDbSymbolTableRecord
100
AcDbLayerTableRecord
  2
LAYER-161
 70
     0
 62
     7
  6
Continuous
370
    -3
390
F
  0
LAYER
  5
F1
330
2
100
AcDbSymbolTableRecord
100
AcDbLayerTableRecord
  2
LAYER-162
 70
     0
 62
     7
  6
Continuous
370
    -3
390
F
  0
LAYER
  5
F2
330
2
100
AcDbSymbolTableRecord
100
AcDbLayerTableRecord
  2
LAYER-163
 70
     0
 62
     7
  6
Continuous
370
    -3
390
F
  0
LAYER
  5
F3
330
2
100
AcDbSymbolTableRecord
100
AcDbLayerTableRecord
  2
LAYER-164
 70
     0
 62
     7
  6
Continuous
370
    -3
390
F
  0
LAYER
  5
F4
330
2
100
AcDbSymbolTableRecord
100
AcDbLayerTableRecord
  2
LAYER-165
 70
     0
 62
     7
  6
Continuous
370
    -3
390
F
  0
LAYER
  5
F5
330
2
100
AcDbSymbolTableRecord
100
AcDbLayerTableRecord
  2
LAYER-166
 70
     0
 62
     7
  6
Continuous
370
    -3
390
F
  0
LAYER
  5
F6
330
2
100
AcDbSymbolTableRecord
100
AcDbLayerTableRecord
  2
LAYER-167
 70
     0
 62
     7
  6
Continuous
370
    -3
390
F
  0
LAYER
  5
F7
330
2
100
AcDbSymbolTableRecord
100
AcDbLayerTableRecord
  2
LAYER-168
 70
     0
 62
     7
  6
Continuous
370
    -3
390
F
  0
LAYER
  5
F8
330
2
100
AcDbSymbolTableRecord
100
AcDbLayerTableRecord
  2
LAYER-169
 70
     0
 62
     7
  6
Continuous
370
    -3
390
F
  0
LAYER
  5
F9
330
2
100
AcDbSymbolTableRecord
100
AcDbLayerTableRecord
  2
LAYER-170
 70
     0
 62
     7
  6
Continuous
370
    -3
390
F
  0
LAYER
  5
FA
330
2
100
AcDbSymbolTableRecord
100
AcDbLayerTableRecord
  2
LAYER-171
 70
     0
 62
     7
  6
Continuous
370
    -3
390
F
  0
LAYER
  5
FB
330
2
100
AcDbSymbolTableRecord
100
AcDbLayerTableRecord
  2
LAYER-172
 70
     0
 62
     7
  6
Continuous
370
    -3
390
F
  0
LAYER
  5
FC
330
2
100
AcDbSymbolTableRecord
100
AcDbLayerTableRecord
  2
LAYER-173
 70
     0
 62
     7
  6
Continuous
370
    -3
390
F
  0
LAYER
  5
FD
330
2
100
AcDbSymbolTableRecord
100
AcDbLayerTableRecord
  2
LAYER-174
 70
     0
 62
     7
  6
Continuous
370
    -3
390
F
  0
LAYER
  5
FE
330
2
100
AcDbSymbolTableRecord
100
AcDbLayerTableRecord
  2
LAYER-175
 70
     0
 62
     7
  6
Continuous
370
    -3
390
F
  0
LAYER
  5
FF
330
2
100
AcDbSymbolTableRecord
100
AcDbLayerTableRecord
  2
LAYER-176
 70
     0
 62
     7
  6
Continuous
370
    -3
390
F
  0
LAYER
  5
100
330
2
100
AcDbSymbolTableRecord
100
AcDbLayerTableRecord
  2
LAYER-177
 70
     0
 62
     7
  6
Continuous
370
    -3
390
F
  0
LAYER
  5
101
330
2
100
AcDbSymbolTableRecord
100
AcDbLayerTableRecord
  2
LAYER-178
 70
     0
 62
     7
  6
Continuous
370
    -3
390
F
  0
LAYER
  5
102
330
2
100
AcDbSymbolTableRecord
100
AcDbLayerTableRecord
  2
LAYER-179
 70
     0
 62
     7
  6
Continuous
370
    -3
390
F
  0
LAYER
  5
103
330
2
100
AcDbSymbolTableRecord
100
AcDbLayerTableRecord
  2
LAYER-180
 70
     0
 62
     7
  6
Continuous
370
    -3
390
F
  0
LAYER
  5
104
330
2
100
AcDbSymbolTableRecord
100
AcDbLayerTableRecord
  2
LAYER-181
 70
     0
 62
     7
  6
Continuous
370
    -3
390
F
  0
LAYER
  5
105
330
2
100
AcDbSymbolTableRecord
100
AcDbLayerTableRecord
  2
LAYER-182
 70
     0
 62
     7
  6
Continuous
370
    -3
390
F
  0
LAYER
  5
106
330
2
100
AcDbSymbolTableRecord
100
AcDbLayerTableRecord
  2
LAYER-183
 70
     0
 62
     7
  6
Continuous
370
    -3
390
F
  0
LAYER
  5
107
330
2
100
AcDbSymbolTableRecord
100
AcDbLayerTableRecord
  2
LAYER-184
 70
     0
 62
     7
  6
Continuous
370
    -3
390
F
  0
LAYER
  5
108
330
2
100
AcDbSymbolTableRecord
100
AcDbLayerTableRecord
  2
LAYER-185
 70
     0
 62
     7
  6
Continuous
370
    -3
390
F
  0
LAYER
  5
109
330
2
100
AcDbSymbolTableRecord
100
AcDbLayerTableRecord
  2
LAYER-186
 70
     0
 62
     7
  6
Continuous
370
    -3
390
F
  0
LAYER
  5
10A
330
2
100
AcDbSymbolTableRecord
100
AcDbLayerTableRecord
  2
LAYER-187
 70
     0
 62
     7
  6
Continuous
370
    -3
390
F
  0
LAYER
  5
10B
330
2
100
AcDbSymbolTableRecord
100
AcDbLayerTableRecord
  2
LAYER-188
 70
     0
 62
     7
  6
Continuous
370
    -3
390
F
  0
LAYER
  5
10C
330
2
100
AcDbSymbolTableRecord
100
AcDbLayerTableRecord
  2
LAYER-189
 70
     0
 62
     7
  6
Continuous
370
    -3
390
F
  0
LAYER
  5
10D
330
2
100
AcDbSymbolTableRecord
100
AcDbLayerTableRecord
  2
LAYER-190
 70
     0
 62
     7
  6
Continuous
370
    -3
390
F
  0
LAYER
  5
10E
330
2
100
AcDbSymbolTableRecord
100
AcDbLayerTableRecord
  2
LAYER-191
 70
     0
 62
     7
  6
Continuous
370
    -3
390
F
  0
LAYER
  5
10F
330
2
100
AcDbSymbolTableRecord
100
AcDbLayerTableRecord
  2
LAYER-192
 70
     0
 62
     7
  6
Continuous
370
    -3
390
F
  0
LAYER
  5
110
330
2
100
AcDbSymbolTableRecord
100
AcDbLayerTableRecord
  2
LAYER-193
 70
     0
 62
     7
  6
Continuous
370
    -3
390
F
  0
LAYER
  5
111
330
2
100
AcDbSymbolTableRecord
100
AcDbLayerTableRecord
  2
LAYER-194
 70
     0
 62
     2
  6
Continuous
370
    -3
390
F
  0
LAYER
  5
112
330
2
100
AcDbSymbolTableRecord
100
AcDbLayerTableRecord
  2
LAYER-195
 70
     0
 62
     2
  6
Continuous
370
    -3
390
F
  0
LAYER
  5
113
330
2
100
AcDbSymbolTableRecord
100
AcDbLayerTableRecord
  2
LAYER-196
 70
     0
 62
     2
  6
Continuous
370
    -3
390
F
  0
LAYER
  5
114
330
2
100
AcDbSymbolTableRecord
100
AcDbLayerTableRecord
  2
LAYER-197
 70
     0
 62
     7
  6
Continuous
370
    -3
390
F
  0
LAYER
  5
115
330
2
100
AcDbSymbolTableRecord
100
AcDbLayerTableRecord
  2
LAYER-198
 70
     0
 62
     7
  6
Continuous
370
    -3
390
F
  0
LAYER
  5
116
330
2
100
AcDbSymbolTableRecord
100
AcDbLayerTableRecord
  2
LAYER-199
 70
     0
 62
     4
  6
Continuous
370
    -3
390
F
  0
LAYER
  5
117
330
2
100
AcDbSymbolTableRecord
100
AcDbLayerTableRecord
  2
LAYER-200
 70
     0
 62
     1
  6
Continuous
370
    -3
390
F
  0
LAYER
  5
118
330
2
100
AcDbSymbolTableRecord
100
AcDbLayerTableRecord
  2
LAYER-201
 70
     0
 62
     1
  6
Continuous
370
    -3
390
F
  0
LAYER
  5
119
330
2
100
AcDbSymbolTableRecord
100
AcDbLayerTableRecord
  2
LAYER-202
 70
     0
 62
     2
  6
Continuous
370
    -3
390
F
  0
LAYER
  5
11A
330
2
100
AcDbSymbolTableRecord
100
AcDbLayerTableRecord
  2
LAYER-203
 70
     0
 62
     2
  6
Continuous
370
    -3
390
F
  0
LAYER
  5
11B
330
2
100
AcDbSymbolTableRecord
100
AcDbLayerTableRecord
  2
LAYER-204
 70
     0
 62
     7
  6
Continuous
370
    -3
390
F
  0
LAYER
  5
11C
330
2
100
AcDbSymbolTableRecord
100
AcDbLayerTableRecord
  2
LAYER-205
 70
     0
 62
     7
  6
Continuous
370
    -3
390
F
  0
LAYER
  5
11D
330
2
100
AcDbSymbolTableRecord
100
AcDbLayerTableRecord
  2
LAYER-206
 70
     0
 62
     7
  6
Continuous
370
    -3
390
F
  0
LAYER
  5
11E
330
2
100
AcDbSymbolTableRecord
100
AcDbLayerTableRecord
  2
LAYER-207
 70
     0
 62
    -7
  6
Continuous
370
    -3
390
F
  0
LAYER
  5
11F
330
2
100
AcDbSymbolTableRecord
100
AcDbLayerTableRecord
  2
LAYER-208
 70
     0
 62
     2
  6
Continuous
370
    -3
390
F
  0
LAYER
  5
120
330
2
100
AcDbSymbolTableRecord
100
AcDbLayerTableRecord
  2
LAYER-209
 70
     0
 62
     7
  6
Continuous
370
    -3
390
F
  0
LAYER
  5
121
330
2
100
AcDbSymbolTableRecord
100
AcDbLayerTableRecord
  2
LAYER-210
 70
     0
 62
     2
  6
Continuous
290
     0
370
    -3
390
F
  0
LAYER
  5
122
330
2
100
AcDbSymbolTableRecord
100
AcDbLayerTableRecord
  2
LAYER-211
 70
     0
 62
     7
  6
Continuous
370
    -3
390
F
  0
LAYER
  5
123
330
2
100
AcDbSymbolTableRecord
100
AcDbLayerTableRecord
  2
LAYER-212
 70
     0
 62
     7
  6
Continuous
370
    -3
390
F
  0
LAYER
  5
124
330
2
100
AcDbSymbolTableRecord
100
AcDbLayerTableRecord
  2
LAYER-213
 70
     0
 62
     2
  6
Continuous
370
    -3
390
F
  0
LAYER
  5
125
330
2
100
AcDbSymbolTableRecord
100
AcDbLayerTableRecord
  2
LAYER-214
 70
     0
 62
     7
  6
Continuous
370
    -3
390
F
  0
LAYER
  5
126
330
2
100
AcDbSymbolTableRecord
100
AcDbLayerTableRecord
  2
LAYER-215
 70
     0
 62
     7
  6
Continuous
370
    -3
390
F
  0
LAYER
  5
127
330
2
100
AcDbSymbolTableRecord
100
AcDbLayerTableRecord
  2
LAYER-216
 70
     0
 62
     4
  6
Continuous
370
    -3
390
F
  0
LAYER
  5
128
330
2
100
AcDbSymbolTableRecord
100
AcDbLayerTableRecord
  2
LAYER-217
 70
     0
 62
     7
  6
Continuous
370
    -3
390
F
  0
LAYER
  5
129
330
2
100
AcDbSymbolTableRecord
100
AcDbLayerTableRecord
  2
LAYER-218
 70
     0
 62
     7
  6
Continuous
370
    -3
390
F
  0
LAYER
  5
12A
330
2
100
AcDbSymbolTableRecord
100
AcDbLayerTableRecord
  2
LAYER-219
 70
     0
 62
     7
  6
Continuous
370
    -3
390
F
  0
LAYER
  5
12B
330
2
100
AcDbSymbolTableRecord
100
AcDbLayerTableRecord
  2
LAYER-220
 70
     0
 62
     4
  6
Continuous
370
    -3
390
F
  0
LAYER
  5
12C
330
2
100
AcDbSymbolTableRecord
100
AcDbLayerTableRecord
  2
LAYER-221
 70
     0
 62
    -7
  6
Continuous
290
     0
370
    -3
390
F
  0
LAYER
  5
12D
330
2
100
AcDbSymbolTableRecord
100
AcDbLayerTableRecord
  2
LAYER-222
 70
     0
 62
    -4
  6
Continuous
290
     0
370
    -3
390
F
  0
LAYER
  5
12E
330
2
100
AcDbSymbolTableRecord
100
AcDbLayerTableRecord
  2
LAYER-223
 70
     0
 62
    -1
  6
Continuous
290
     0
370
    -3
390
F
  0
LAYER
  5
12F
330
2
100
AcDbSymbolTableRecord
100
AcDbLayerTableRecord
  2
LAYER-224
 70
     0
 62
    -1
  6
Continuous
290
     0
370
    -3
390
F
  0
LAYER
  5
130
330
2
100
AcDbSymbolTableRecord
100
AcDbLayerTableRecord
  2
LAYER-225
 70
     0
 62
     7
  6
Continuous
370
    -3
390
F
  0
LAYER
  5
131
330
2
100
AcDbSymbolTableRecord
100
AcDbLayerTableRecord
  2
LAYER-226
 70
     0
 62
     2
  6
Continuous
370
    -3
390
F
  0
LAYER
  5
132
330
2
100
AcDbSymbolTableRecord
100
AcDbLayerTableRecord
  2
LAYER-227
 70
     0
 62
     7
  6
Continuous
370
    -3
390
F
  0
LAYER
  5
133
330
2
100
AcDbSymbolTableRecord
100
AcDbLayerTableRecord
  2
LAYER-228
 70
     0
 62
     7
  6
Continuous
370
    -3
390
F
  0
LAYER
  5
134
330
2
100
AcDbSymbolTableRecord
100
AcDbLayerTableRecord
  2
LAYER-229
 70
     0
 62
     7
  6
Continuous
370
    -3
390
F
  0
LAYER
  5
135
330
2
100
AcDbSymbolTableRecord
100
AcDbLayerTableRecord
  2
LAYER-230
 70
     0
 62
     7
  6
Continuous
370
    -3
390
F
  0
LAYER
  5
136
330
2
100
AcDbSymbolTableRecord
100
AcDbLayerTableRecord
  2
LAYER-231
 70
     0
 62
     7
  6
Continuous
370
    -3
390
F
  0
LAYER
  5
137
330
2
100
AcDbSymbolTableRecord
100
AcDbLayerTableRecord
  2
LAYER-232
 70
     0
 62
     7
  6
Continuous
370
    -3
390
F
  0
LAYER
  5
138
330
2
100
AcDbSymbolTableRecord
100
AcDbLayerTableRecord
  2
LAYER-233
 70
     0
 62
     7
  6
Continuous
370
    -3
390
F
  0
LAYER
  5
139
330
2
100
AcDbSymbolTableRecord
100
AcDbLayerTableRecord
  2
LAYER-234
 70
     0
 62
     7
  6
Continuous
370
    -3
390
F
  0
LAYER
  5
13A
330
2
100
AcDbSymbolTableRecord
100
AcDbLayerTableRecord
  2
LAYER-235
 70
     0
 62
     7
  6
Continuous
370
    -3
390
F
  0
LAYER
  5
13B
330
2
100
AcDbSymbolTableRecord
100
AcDbLayerTableRecord
  2
LAYER-236
 70
     0
 62
     7
  6
Continuous
370
    -3
390
F
  0
LAYER
  5
13C
330
2
100
AcDbSymbolTableRecord
100
AcDbLayerTableRecord
  2
LAYER-237
 70
     0
 62
     7
  6
Continuous
370
    -3
390
F
  0
LAYER
  5
13D
330
2
100
AcDbSymbolTableRecord
100
AcDbLayerTableRecord
  2
LAYER-238
 70
     0
 62
     7
  6
Continuous
370
    -3
390
F
  0
LAYER
  5
13E
330
2
100
AcDbSymbolTableRecord
100
AcDbLayerTableRecord
  2
LAYER-239
 70
     0
 62
     7
  6
Continuous
370
    -3
390
F
  0
LAYER
  5
13F
330
2
100
AcDbSymbolTableRecord
100
AcDbLayerTableRecord
  2
LAYER-240
 70
     0
 62
     7
  6
Continuous
370
    -3
390
F
  0
LAYER
  5
140
330
2
100
AcDbSymbolTableRecord
100
AcDbLayerTableRecord
  2
LAYER-241
 70
     0
 62
     7
  6
Continuous
370
    -3
390
F
  0
LAYER
  5
141
330
2
100
AcDbSymbolTableRecord
100
AcDbLayerTableRecord
  2
LAYER-242
 70
     0
 62
     7
  6
Continuous
370
    -3
390
F
  0
LAYER
  5
142
330
2
100
AcDbSymbolTableRecord
100
AcDbLayerTableRecord
  2
LAYER-243
 70
     0
 62
     7
  6
Continuous
370
    -3
390
F
  0
LAYER
  5
143
330
2
100
AcDbSymbolTableRecord
100
AcDbLayerTableRecord
  2
LAYER-244
 70
     0
 62
     7
  6
Continuous
370
    -3
390
F
  0
LAYER
  5
144
330
2
100
AcDbSymbolTableRecord
100
AcDbLayerTableRecord
  2
LAYER-245
 70
     0
 62
     7
  6
Continuous
370
    -3
390
F
  0
LAYER
  5
145
330
2
100
AcDbSymbolTableRecord
100
AcDbLayerTableRecord
  2
LAYER-246
 70
     0
 62
     7
  6
Continuous
370
    -3
390
F
  0
LAYER
  5
146
330
2
100
AcDbSymbolTableRecord
100
AcDbLayerTableRecord
  2
LAYER-247
 70
     0
 62
     7
  6
Continuous
370
    -3
390
F
  0
LAYER
  5
147
330
2
100
AcDbSymbolTableRecord
100
AcDbLayerTableRecord
  2
LAYER-248
 70
     0
 62
     7
  6
Continuous
370
    -3
390
F
  0
LAYER
  5
148
330
2
100
AcDbSymbolTableRecord
100
AcDbLayerTableRecord
  2
LAYER-249
 70
     0
 62
     7
  6
Continuous
370
    -3
390
F
  0
LAYER
  5
149
330
2
100
AcDbSymbolTableRecord
100
AcDbLayerTableRecord
  2
LAYER-250
 70
     0
 62
     7
  6
Continuous
370
    -3
390
F
  0
LAYER
  5
14A
330
2
100
AcDbSymbolTableRecord
100
AcDbLayerTableRecord
  2
LAYER-251
 70
     0
 62
     7
  6
Continuous
370
    -3
390
F
  0
LAYER
  5
14B
330
2
100
AcDbSymbolTableRecord
100
AcDbLayerTableRecord
  2
LAYER-252
 70
     0
 62
     7
  6
Continuous
370
    -3
390
F
  0
LAYER
  5
14C
330
2
100
AcDbSymbolTableRecord
100
AcDbLayerTableRecord
  2
LAYER-253
 70
     0
 62
     7
  6
Continuous
370
    -3
390
F
  0
LAYER
  5
14D
330
2
100
AcDbSymbolTableRecord
100
AcDbLayerTableRecord
  2
LAYER-254
 70
     0
 62
     7
  6
Continuous
370
    -3
390
F
  0
LAYER
  5
14E
330
2
100
AcDbSymbolTableRecord
100
AcDbLayerTableRecord
  2
LAYER-255
 70
     0
 62
     7
  6
Continuous
370
    -3
390
F
  0
LAYER
  5
14F
330
2
100
AcDbSymbolTableRecord
100
AcDbLayerTableRecord
  2
LAYER-256
 70
     0
 62
     7
  6
Continuous
370
    -3
390
F
  0
LAYER
  5
150
330
2
100
AcDbSymbolTableRecord
100
AcDbLayerTableRecord
  2
SUPLINE
 70
     0
 62
    -7
  6
Continuous
290
     0
370
    -3
390
F
  0
LAYER
  5
151
330
2
100
AcDbSymbolTableRecord
100
AcDbLayerTableRecord
  2
FRAMELAYER-001
 70
     0
 62
     7
  6
Continuous
370
    -3
390
F
  0
LAYER
  5
152
330
2
100
AcDbSymbolTableRecord
100
AcDbLayerTableRecord
  2
FRAMELAYER-002
 70
     0
 62
     7
  6
Continuous
370
    -3
390
F
  0
LAYER
  5
153
330
2
100
AcDbSymbolTableRecord
100
AcDbLayerTableRecord
  2
FRAMELAYER-003
 70
     0
 62
     7
  6
Continuous
370
    -3
390
F
  0
LAYER
  5
154
330
2
100
AcDbSymbolTableRecord
100
AcDbLayerTableRecord
  2
FRAMELAYER-004
 70
     0
 62
     7
  6
Continuous
370
    -3
390
F
  0
LAYER
  5
155
330
2
100
AcDbSymbolTableRecord
100
AcDbLayerTableRecord
  2
FRAMELAYER-005
 70
     0
 62
     7
  6
Continuous
370
    -3
390
F
  0
LAYER
  5
156
330
2
100
AcDbSymbolTableRecord
100
AcDbLayerTableRecord
  2
FRAMELAYER-006
 70
     0
 62
     7
  6
Continuous
370
    -3
390
F
  0
LAYER
  5
157
330
2
100
AcDbSymbolTableRecord
100
AcDbLayerTableRecord
  2
FRAMELAYER-007
 70
     0
 62
     7
  6
Continuous
370
    -3
390
F
  0
LAYER
  5
158
330
2
100
AcDbSymbolTableRecord
100
AcDbLayerTableRecord
  2
FRAMELAYER-008
 70
     0
 62
     7
  6
Continuous
370
    -3
390
F
  0
LAYER
  5
159
330
2
100
AcDbSymbolTableRecord
100
AcDbLayerTableRecord
  2
FRAMELAYER-009
 70
     0
 62
     7
  6
Continuous
370
    -3
390
F
  0
LAYER
  5
15A
330
2
100
AcDbSymbolTableRecord
100
AcDbLayerTableRecord
  2
FRAMELAYER-010
 70
     0
 62
     7
  6
Continuous
370
    -3
390
F
  0
LAYER
  5
15B
330
2
100
AcDbSymbolTableRecord
100
AcDbLayerTableRecord
  2
FRAMELAYER-011
 70
     0
 62
     7
  6
Continuous
370
    -3
390
F
  0
LAYER
  5
15C
330
2
100
AcDbSymbolTableRecord
100
AcDbLayerTableRecord
  2
FRAMELAYER-012
 70
     0
 62
     7
  6
Continuous
370
    -3
390
F
  0
LAYER
  5
15D
330
2
100
AcDbSymbolTableRecord
100
AcDbLayerTableRecord
  2
FRAMELAYER-013
 70
     0
 62
     7
  6
Continuous
370
    -3
390
F
  0
LAYER
  5
15E
330
2
100
AcDbSymbolTableRecord
100
AcDbLayerTableRecord
  2
FRAMELAYER-014
 70
     0
 62
     7
  6
Continuous
370
    -3
390
F
  0
LAYER
  5
15F
330
2
100
AcDbSymbolTableRecord
100
AcDbLayerTableRecord
  2
FRAMELAYER-015
 70
     0
 62
    -7
  6
Continuous
370
    -3
390
F
  0
LAYER
  5
160
330
2
100
AcDbSymbolTableRecord
100
AcDbLayerTableRecord
  2
FRAMELAYER-016
 70
     0
 62
     4
  6
Continuous
370
    -3
390
F
  0
LAYER
  5
161
330
2
100
AcDbSymbolTableRecord
100
AcDbLayerTableRecord
  2
FRAMELAYER-017
 70
     0
 62
     7
  6
Continuous
370
    -3
390
F
  0
LAYER
  5
162
330
2
100
AcDbSymbolTableRecord
100
AcDbLayerTableRecord
  2
FRAMELAYER-018
 70
     0
 62
     2
  6
Continuous
370
    -3
390
F
  0
LAYER
  5
163
330
2
100
AcDbSymbolTableRecord
100
AcDbLayerTableRecord
  2
FRAMELAYER-019
 70
     0
 62
     3
  6
Continuous
370
    -3
390
F
  0
LAYER
  5
164
330
2
100
AcDbSymbolTableRecord
100
AcDbLayerTableRecord
  2
FRAMELAYER-020
 70
     0
 62
     2
  6
Continuous
370
    -3
390
F
  0
LAYER
  5
165
330
2
100
AcDbSymbolTableRecord
100
AcDbLayerTableRecord
  2
FRAMELAYER-021
 70
     0
 62
     7
  6
Continuous
370
    -3
390
F
  0
LAYER
  5
166
330
2
100
AcDbSymbolTableRecord
100
AcDbLayerTableRecord
  2
FRAMELAYER-022
 70
     0
 62
     4
  6
Continuous
370
    -3
390
F
  0
LAYER
  5
167
330
2
100
AcDbSymbolTableRecord
100
AcDbLayerTableRecord
  2
FRAMELAYER-023
 70
     0
 62
     4
  6
Continuous
370
    -3
390
F
  0
LAYER
  5
168
330
2
100
AcDbSymbolTableRecord
100
AcDbLayerTableRecord
  2
FRAMELAYER-024
 70
     0
 62
     7
  6
Continuous
370
    -3
390
F
  0
LAYER
  5
169
330
2
100
AcDbSymbolTableRecord
100
AcDbLayerTableRecord
  2
FRAMELAYER-025
 70
     0
 62
     7
  6
Continuous
370
    -3
390
F
  0
LAYER
  5
16A
330
2
100
AcDbSymbolTableRecord
100
AcDbLayerTableRecord
  2
FRAMELAYER-026
 70
     0
 62
    -7
  6
Continuous
370
    -3
390
F
  0
LAYER
  5
16B
330
2
100
AcDbSymbolTableRecord
100
AcDbLayerTableRecord
  2
FRAMELAYER-027
 70
     0
 62
     7
  6
Continuous
370
    -3
390
F
  0
LAYER
  5
16C
330
2
100
AcDbSymbolTableRecord
100
AcDbLayerTableRecord
  2
FRAMELAYER-028
 70
     0
 62
     7
  6
Continuous
370
    -3
390
F
  0
LAYER
  5
16D
330
2
100
AcDbSymbolTableRecord
100
AcDbLayerTableRecord
  2
FRAMELAYER-029
 70
     0
 62
     7
  6
Continuous
370
    -3
390
F
  0
LAYER
  5
16E
330
2
100
AcDbSymbolTableRecord
100
AcDbLayerTableRecord
  2
FRAMELAYER-030
 70
     0
 62
     2
  6
Continuous
370
    -3
390
F
  0
LAYER
  5
16F
330
2
100
AcDbSymbolTableRecord
100
AcDbLayerTableRecord
  2
FRAMELAYER-031
 70
     0
 62
     7
  6
Continuous
370
    -3
390
F
  0
LAYER
  5
170
330
2
100
AcDbSymbolTableRecord
100
AcDbLayerTableRecord
  2
FRAMELAYER-032
 70
     0
 62
     2
  6
Continuous
370
    -3
390
F
  0
LAYER
  5
171
330
2
100
AcDbSymbolTableRecord
100
AcDbLayerTableRecord
  2
FRAMELAYER-033
 70
     0
 62
     7
  6
Continuous
370
    -3
390
F
  0
LAYER
  5
172
330
2
100
AcDbSymbolTableRecord
100
AcDbLayerTableRecord
  2
FRAMELAYER-034
 70
     0
 62
     7
  6
Continuous
370
    -3
390
F
  0
LAYER
  5
173
330
2
100
AcDbSymbolTableRecord
100
AcDbLayerTableRecord
  2
FRAMELAYER-035
 70
     0
 62
     3
  6
Continuous
370
    -3
390
F
  0
LAYER
  5
174
330
2
100
AcDbSymbolTableRecord
100
AcDbLayerTableRecord
  2
FRAMELAYER-036
 70
     0
 62
     2
  6
Continuous
370
    -3
390
F
  0
LAYER
  5
175
330
2
100
AcDbSymbolTableRecord
100
AcDbLayerTableRecord
  2
FRAMELAYER-037
 70
     0
 62
     7
  6
Continuous
370
    -3
390
F
  0
LAYER
  5
176
330
2
100
AcDbSymbolTableRecord
100
AcDbLayerTableRecord
  2
FRAMELAYER-038
 70
     0
 62
     7
  6
Continuous
370
    -3
390
F
  0
LAYER
  5
177
330
2
100
AcDbSymbolTableRecord
100
AcDbLayerTableRecord
  2
FRAMELAYER-039
 70
     0
 62
     7
  6
Continuous
370
    -3
390
F
  0
LAYER
  5
178
330
2
100
AcDbSymbolTableRecord
100
AcDbLayerTableRecord
  2
FRAMELAYER-040
 70
     0
 62
     7
  6
Continuous
370
    -3
390
F
  0
LAYER
  5
179
330
2
100
AcDbSymbolTableRecord
100
AcDbLayerTableRecord
  2
FRAMELAYER-041
 70
     0
 62
     7
  6
Continuous
370
    -3
390
F
  0
LAYER
  5
17A
330
2
100
AcDbSymbolTableRecord
100
AcDbLayerTableRecord
  2
FRAMELAYER-042
 70
     0
 62
     7
  6
Continuous
370
    -3
390
F
  0
LAYER
  5
17B
330
2
100
AcDbSymbolTableRecord
100
AcDbLayerTableRecord
  2
FRAMELAYER-043
 70
     0
 62
     7
  6
Continuous
370
    -3
390
F
  0
LAYER
  5
17C
330
2
100
AcDbSymbolTableRecord
100
AcDbLayerTableRecord
  2
FRAMELAYER-044
 70
     0
 62
     7
  6
Continuous
370
    -3
390
F
  0
LAYER
  5
17D
330
2
100
AcDbSymbolTableRecord
100
AcDbLayerTableRecord
  2
FRAMELAYER-045
 70
     0
 62
     7
  6
Continuous
370
    -3
390
F
  0
LAYER
  5
17E
330
2
100
AcDbSymbolTableRecord
100
AcDbLayerTableRecord
  2
FRAMELAYER-046
 70
     0
 62
     7
  6
Continuous
370
    -3
390
F
  0
LAYER
  5
17F
330
2
100
AcDbSymbolTableRecord
100
AcDbLayerTableRecord
  2
FRAMELAYER-047
 70
     0
 62
     7
  6
Continuous
370
    -3
390
F
  0
LAYER
  5
180
330
2
100
AcDbSymbolTableRecord
100
AcDbLayerTableRecord
  2
FRAMELAYER-048
 70
     0
 62
     2
  6
Continuous
370
    -3
390
F
  0
LAYER
  5
181
330
2
100
AcDbSymbolTableRecord
100
AcDbLayerTableRecord
  2
FRAMELAYER-049
 70
     0
 62
     3
  6
Continuous
370
    -3
390
F
  0
LAYER
  5
182
330
2
100
AcDbSymbolTableRecord
100
AcDbLayerTableRecord
  2
FRAMELAYER-050
 70
     0
 62
     7
  6
Continuous
370
    -3
390
F
  0
LAYER
  5
183
330
2
100
AcDbSymbolTableRecord
100
AcDbLayerTableRecord
  2
FRAMELAYER-051
 70
     0
 62
     2
  6
Continuous
370
    -3
390
F
  0
LAYER
  5
184
330
2
100
AcDbSymbolTableRecord
100
AcDbLayerTableRecord
  2
FRAMELAYER-052
 70
     0
 62
     7
  6
Continuous
370
    -3
390
F
  0
LAYER
  5
185
330
2
100
AcDbSymbolTableRecord
100
AcDbLayerTableRecord
  2
FRAMELAYER-053
 70
     0
 62
     7
  6
Continuous
370
    -3
390
F
  0
LAYER
  5
186
330
2
100
AcDbSymbolTableRecord
100
AcDbLayerTableRecord
  2
FRAMELAYER-054
 70
     0
 62
     7
  6
Continuous
370
    -3
390
F
  0
LAYER
  5
187
330
2
100
AcDbSymbolTableRecord
100
AcDbLayerTableRecord
  2
FRAMELAYER-055
 70
     0
 62
     7
  6
Continuous
370
    -3
390
F
  0
LAYER
  5
188
330
2
100
AcDbSymbolTableRecord
100
AcDbLayerTableRecord
  2
FRAMELAYER-056
 70
     0
 62
     7
  6
Continuous
370
    -3
390
F
  0
LAYER
  5
189
330
2
100
AcDbSymbolTableRecord
100
AcDbLayerTableRecord
  2
FRAMELAYER-057
 70
     0
 62
     7
  6
Continuous
370
    -3
390
F
  0
LAYER
  5
18A
330
2
100
AcDbSymbolTableRecord
100
AcDbLayerTableRecord
  2
FRAMELAYER-058
 70
     0
 62
     7
  6
Continuous
370
    -3
390
F
  0
LAYER
  5
18B
330
2
100
AcDbSymbolTableRecord
100
AcDbLayerTableRecord
  2
FRAMELAYER-059
 70
     0
 62
     7
  6
Continuous
370
    -3
390
F
  0
LAYER
  5
18C
330
2
100
AcDbSymbolTableRecord
100
AcDbLayerTableRecord
  2
FRAMELAYER-060
 70
     0
 62
     7
  6
Continuous
370
    -3
390
F
  0
LAYER
  5
18D
330
2
100
AcDbSymbolTableRecord
100
AcDbLayerTableRecord
  2
FRAMELAYER-061
 70
     0
 62
     7
  6
Continuous
370
    -3
390
F
  0
LAYER
  5
18E
330
2
100
AcDbSymbolTableRecord
100
AcDbLayerTableRecord
  2
FRAMELAYER-062
 70
     0
 62
     7
  6
Continuous
370
    -3
390
F
  0
LAYER
  5
18F
330
2
100
AcDbSymbolTableRecord
100
AcDbLayerTableRecord
  2
FRAMELAYER-063
 70
     0
 62
     7
  6
Continuous
370
    -3
390
F
  0
LAYER
  5
190
330
2
100
AcDbSymbolTableRecord
100
AcDbLayerTableRecord
  2
FRAMELAYER-064
 70
     0
 62
     2
  6
Continuous
370
    -3
390
F
  0
LAYER
  5
191
330
2
100
AcDbSymbolTableRecord
100
AcDbLayerTableRecord
  2
FRAMELAYER-065
 70
     0
 62
     7
  6
Continuous
370
    -3
390
F
  0
LAYER
  5
192
330
2
100
AcDbSymbolTableRecord
100
AcDbLayerTableRecord
  2
FRAMELAYER-066
 70
     0
 62
     2
  6
Continuous
370
    -3
390
F
  0
LAYER
  5
193
330
2
100
AcDbSymbolTableRecord
100
AcDbLayerTableRecord
  2
FRAMELAYER-067
 70
     0
 62
     2
  6
Continuous
370
    -3
390
F
  0
LAYER
  5
194
330
2
100
AcDbSymbolTableRecord
100
AcDbLayerTableRecord
  2
FRAMELAYER-068
 70
     0
 62
     7
  6
Continuous
370
    -3
390
F
  0
LAYER
  5
195
330
2
100
AcDbSymbolTableRecord
100
AcDbLayerTableRecord
  2
FRAMELAYER-069
 70
     0
 62
     7
  6
Continuous
370
    -3
390
F
  0
LAYER
  5
196
330
2
100
AcDbSymbolTableRecord
100
AcDbLayerTableRecord
  2
FRAMELAYER-070
 70
     0
 62
     7
  6
Continuous
370
    -3
390
F
  0
LAYER
  5
197
330
2
100
AcDbSymbolTableRecord
100
AcDbLayerTableRecord
  2
FRAMELAYER-071
 70
     0
 62
     7
  6
Continuous
370
    -3
390
F
  0
LAYER
  5
198
330
2
100
AcDbSymbolTableRecord
100
AcDbLayerTableRecord
  2
FRAMELAYER-072
 70
     0
 62
     7
  6
Continuous
370
    -3
390
F
  0
LAYER
  5
199
330
2
100
AcDbSymbolTableRecord
100
AcDbLayerTableRecord
  2
FRAMELAYER-073
 70
     0
 62
     7
  6
Continuous
370
    -3
390
F
  0
LAYER
  5
19A
330
2
100
AcDbSymbolTableRecord
100
AcDbLayerTableRecord
  2
FRAMELAYER-074
 70
     0
 62
     7
  6
Continuous
370
    -3
390
F
  0
LAYER
  5
19B
330
2
100
AcDbSymbolTableRecord
100
AcDbLayerTableRecord
  2
FRAMELAYER-075
 70
     0
 62
     7
  6
Continuous
370
    -3
390
F
  0
LAYER
  5
19C
330
2
100
AcDbSymbolTableRecord
100
AcDbLayerTableRecord
  2
FRAMELAYER-076
 70
     0
 62
     7
  6
Continuous
370
    -3
390
F
  0
LAYER
  5
19D
330
2
100
AcDbSymbolTableRecord
100
AcDbLayerTableRecord
  2
FRAMELAYER-077
 70
     0
 62
     7
  6
Continuous
370
    -3
390
F
  0
LAYER
  5
19E
330
2
100
AcDbSymbolTableRecord
100
AcDbLayerTableRecord
  2
FRAMELAYER-078
 70
     0
 62
     7
  6
Continuous
370
    -3
390
F
  0
LAYER
  5
19F
330
2
100
AcDbSymbolTableRecord
100
AcDbLayerTableRecord
  2
FRAMELAYER-079
 70
     0
 62
     7
  6
Continuous
370
    -3
390
F
  0
LAYER
  5
1A0
330
2
100
AcDbSymbolTableRecord
100
AcDbLayerTableRecord
  2
FRAMELAYER-080
 70
     0
 62
     2
  6
Continuous
370
    -3
390
F
  0
LAYER
  5
1A1
330
2
100
AcDbSymbolTableRecord
100
AcDbLayerTableRecord
  2
FRAMELAYER-081
 70
     0
 62
     7
  6
Continuous
370
    -3
390
F
  0
LAYER
  5
1A2
330
2
100
AcDbSymbolTableRecord
100
AcDbLayerTableRecord
  2
FRAMELAYER-082
 70
     0
 62
     7
  6
Continuous
370
    -3
390
F
  0
LAYER
  5
1A3
330
2
100
AcDbSymbolTableRecord
100
AcDbLayerTableRecord
  2
FRAMELAYER-083
 70
     0
 62
     7
  6
Continuous
370
    -3
390
F
  0
LAYER
  5
1A4
330
2
100
AcDbSymbolTableRecord
100
AcDbLayerTableRecord
  2
FRAMELAYER-084
 70
     0
 62
     7
  6
Continuous
370
    -3
390
F
  0
LAYER
  5
1A5
330
2
100
AcDbSymbolTableRecord
100
AcDbLayerTableRecord
  2
FRAMELAYER-085
 70
     0
 62
     7
  6
Continuous
370
    -3
390
F
  0
LAYER
  5
1A6
330
2
100
AcDbSymbolTableRecord
100
AcDbLayerTableRecord
  2
FRAMELAYER-086
 70
     0
 62
     7
  6
Continuous
370
    -3
390
F
  0
LAYER
  5
1A7
330
2
100
AcDbSymbolTableRecord
100
AcDbLayerTableRecord
  2
FRAMELAYER-087
 70
     0
 62
     7
  6
Continuous
370
    -3
390
F
  0
LAYER
  5
1A8
330
2
100
AcDbSymbolTableRecord
100
AcDbLayerTableRecord
  2
FRAMELAYER-088
 70
     0
 62
     7
  6
Continuous
370
    -3
390
F
  0
LAYER
  5
1A9
330
2
100
AcDbSymbolTableRecord
100
AcDbLayerTableRecord
  2
FRAMELAYER-089
 70
     0
 62
     7
  6
Continuous
370
    -3
390
F
  0
LAYER
  5
1AA
330
2
100
AcDbSymbolTableRecord
100
AcDbLayerTableRecord
  2
FRAMELAYER-090
 70
     0
 62
     7
  6
Continuous
370
    -3
390
F
  0
LAYER
  5
1AB
330
2
100
AcDbSymbolTableRecord
100
AcDbLayerTableRecord
  2
FRAMELAYER-091
 70
     0
 62
     7
  6
Continuous
370
    -3
390
F
  0
LAYER
  5
1AC
330
2
100
AcDbSymbolTableRecord
100
AcDbLayerTableRecord
  2
FRAMELAYER-092
 70
     0
 62
     7
  6
Continuous
370
    -3
390
F
  0
LAYER
  5
1AD
330
2
100
AcDbSymbolTableRecord
100
AcDbLayerTableRecord
  2
FRAMELAYER-093
 70
     0
 62
     7
  6
Continuous
370
    -3
390
F
  0
LAYER
  5
1AE
330
2
100
AcDbSymbolTableRecord
100
AcDbLayerTableRecord
  2
FRAMELAYER-094
 70
     0
 62
     7
  6
Continuous
370
    -3
390
F
  0
LAYER
  5
1AF
330
2
100
AcDbSymbolTableRecord
100
AcDbLayerTableRecord
  2
FRAMELAYER-095
 70
     0
 62
     7
  6
Continuous
370
    -3
390
F
  0
LAYER
  5
1B0
330
2
100
AcDbSymbolTableRecord
100
AcDbLayerTableRecord
  2
FRAMELAYER-096
 70
     0
 62
     7
  6
Continuous
370
    -3
390
F
  0
LAYER
  5
1B1
330
2
100
AcDbSymbolTableRecord
100
AcDbLayerTableRecord
  2
FRAMELAYER-097
 70
     0
 62
     7
  6
Continuous
370
    -3
390
F
  0
LAYER
  5
1B2
330
2
100
AcDbSymbolTableRecord
100
AcDbLayerTableRecord
  2
FRAMELAYER-098
 70
     0
 62
     7
  6
Continuous
370
    -3
390
F
  0
LAYER
  5
1B3
330
2
100
AcDbSymbolTableRecord
100
AcDbLayerTableRecord
  2
FRAMELAYER-099
 70
     0
 62
     7
  6
Continuous
370
    -3
390
F
  0
LAYER
  5
1B4
330
2
100
AcDbSymbolTableRecord
100
AcDbLayerTableRecord
  2
FRAMELAYER-100
 70
     0
 62
     7
  6
Continuous
370
    -3
390
F
  0
LAYER
  5
1B5
330
2
100
AcDbSymbolTableRecord
100
AcDbLayerTableRecord
  2
FRAMELAYER-101
 70
     0
 62
     7
  6
Continuous
370
    -3
390
F
  0
LAYER
  5
1B6
330
2
100
AcDbSymbolTableRecord
100
AcDbLayerTableRecord
  2
FRAMELAYER-102
 70
     0
 62
     7
  6
Continuous
370
    -3
390
F
  0
LAYER
  5
1B7
330
2
100
AcDbSymbolTableRecord
100
AcDbLayerTableRecord
  2
FRAMELAYER-103
 70
     0
 62
     7
  6
Continuous
370
    -3
390
F
  0
LAYER
  5
1B8
330
2
100
AcDbSymbolTableRecord
100
AcDbLayerTableRecord
  2
FRAMELAYER-104
 70
     0
 62
     7
  6
Continuous
370
    -3
390
F
  0
LAYER
  5
1B9
330
2
100
AcDbSymbolTableRecord
100
AcDbLayerTableRecord
  2
FRAMELAYER-105
 70
     0
 62
     7
  6
Continuous
370
    -3
390
F
  0
LAYER
  5
1BA
330
2
100
AcDbSymbolTableRecord
100
AcDbLayerTableRecord
  2
FRAMELAYER-106
 70
     0
 62
     7
  6
Continuous
370
    -3
390
F
  0
LAYER
  5
1BB
330
2
100
AcDbSymbolTableRecord
100
AcDbLayerTableRecord
  2
FRAMELAYER-107
 70
     0
 62
     7
  6
Continuous
370
    -3
390
F
  0
LAYER
  5
1BC
330
2
100
AcDbSymbolTableRecord
100
AcDbLayerTableRecord
  2
FRAMELAYER-108
 70
     0
 62
     7
  6
Continuous
370
    -3
390
F
  0
LAYER
  5
1BD
330
2
100
AcDbSymbolTableRecord
100
AcDbLayerTableRecord
  2
FRAMELAYER-109
 70
     0
 62
     7
  6
Continuous
370
    -3
390
F
  0
LAYER
  5
1BE
330
2
100
AcDbSymbolTableRecord
100
AcDbLayerTableRecord
  2
FRAMELAYER-110
 70
     0
 62
     7
  6
Continuous
370
    -3
390
F
  0
LAYER
  5
1BF
330
2
100
AcDbSymbolTableRecord
100
AcDbLayerTableRecord
  2
FRAMELAYER-111
 70
     0
 62
     7
  6
Continuous
370
    -3
390
F
  0
LAYER
  5
1C0
330
2
100
AcDbSymbolTableRecord
100
AcDbLayerTableRecord
  2
FRAMELAYER-112
 70
     0
 62
     7
  6
Continuous
370
    -3
390
F
  0
LAYER
  5
1C1
330
2
100
AcDbSymbolTableRecord
100
AcDbLayerTableRecord
  2
FRAMELAYER-113
 70
     0
 62
     7
  6
Continuous
370
    -3
390
F
  0
LAYER
  5
1C2
330
2
100
AcDbSymbolTableRecord
100
AcDbLayerTableRecord
  2
FRAMELAYER-114
 70
     0
 62
     7
  6
Continuous
370
    -3
390
F
  0
LAYER
  5
1C3
330
2
100
AcDbSymbolTableRecord
100
AcDbLayerTableRecord
  2
FRAMELAYER-115
 70
     0
 62
     7
  6
Continuous
370
    -3
390
F
  0
LAYER
  5
1C4
330
2
100
AcDbSymbolTableRecord
100
AcDbLayerTableRecord
  2
FRAMELAYER-116
 70
     0
 62
     7
  6
Continuous
370
    -3
390
F
  0
LAYER
  5
1C5
330
2
100
AcDbSymbolTableRecord
100
AcDbLayerTableRecord
  2
FRAMELAYER-117
 70
     0
 62
     7
  6
Continuous
370
    -3
390
F
  0
LAYER
  5
1C6
330
2
100
AcDbSymbolTableRecord
100
AcDbLayerTableRecord
  2
FRAMELAYER-118
 70
     0
 62
     7
  6
Continuous
370
    -3
390
F
  0
LAYER
  5
1C7
330
2
100
AcDbSymbolTableRecord
100
AcDbLayerTableRecord
  2
FRAMELAYER-119
 70
     0
 62
     7
  6
Continuous
370
    -3
390
F
  0
LAYER
  5
1C8
330
2
100
AcDbSymbolTableRecord
100
AcDbLayerTableRecord
  2
FRAMELAYER-120
 70
     0
 62
     7
  6
Continuous
370
    -3
390
F
  0
LAYER
  5
1C9
330
2
100
AcDbSymbolTableRecord
100
AcDbLayerTableRecord
  2
FRAMELAYER-121
 70
     0
 62
     7
  6
Continuous
370
    -3
390
F
  0
LAYER
  5
1CA
330
2
100
AcDbSymbolTableRecord
100
AcDbLayerTableRecord
  2
FRAMELAYER-122
 70
     0
 62
     7
  6
Continuous
370
    -3
390
F
  0
LAYER
  5
1CB
330
2
100
AcDbSymbolTableRecord
100
AcDbLayerTableRecord
  2
FRAMELAYER-123
 70
     0
 62
     7
  6
Continuous
370
    -3
390
F
  0
LAYER
  5
1CC
330
2
100
AcDbSymbolTableRecord
100
AcDbLayerTableRecord
  2
FRAMELAYER-124
 70
     0
 62
     7
  6
Continuous
370
    -3
390
F
  0
LAYER
  5
1CD
330
2
100
AcDbSymbolTableRecord
100
AcDbLayerTableRecord
  2
FRAMELAYER-125
 70
     0
 62
     7
  6
Continuous
370
    -3
390
F
  0
LAYER
  5
1CE
330
2
100
AcDbSymbolTableRecord
100
AcDbLayerTableRecord
  2
FRAMELAYER-126
 70
     0
 62
     7
  6
Continuous
370
    -3
390
F
  0
LAYER
  5
1CF
330
2
100
AcDbSymbolTableRecord
100
AcDbLayerTableRecord
  2
FRAMELAYER-127
 70
     0
 62
     7
  6
Continuous
370
    -3
390
F
  0
LAYER
  5
1D0
330
2
100
AcDbSymbolTableRecord
100
AcDbLayerTableRecord
  2
FRAMELAYER-128
 70
     0
 62
     7
  6
Continuous
370
    -3
390
F
  0
LAYER
  5
1D1
330
2
100
AcDbSymbolTableRecord
100
AcDbLayerTableRecord
  2
FRAMELAYER-129
 70
     0
 62
     7
  6
Continuous
370
    -3
390
F
  0
LAYER
  5
1D2
330
2
100
AcDbSymbolTableRecord
100
AcDbLayerTableRecord
  2
FRAMELAYER-130
 70
     0
 62
     7
  6
Continuous
370
    -3
390
F
  0
LAYER
  5
1D3
330
2
100
AcDbSymbolTableRecord
100
AcDbLayerTableRecord
  2
FRAMELAYER-131
 70
     0
 62
     7
  6
Continuous
370
    -3
390
F
  0
LAYER
  5
1D4
330
2
100
AcDbSymbolTableRecord
100
AcDbLayerTableRecord
  2
FRAMELAYER-132
 70
     0
 62
     7
  6
Continuous
370
    -3
390
F
  0
LAYER
  5
1D5
330
2
100
AcDbSymbolTableRecord
100
AcDbLayerTableRecord
  2
FRAMELAYER-133
 70
     0
 62
     7
  6
Continuous
370
    -3
390
F
  0
LAYER
  5
1D6
330
2
100
AcDbSymbolTableRecord
100
AcDbLayerTableRecord
  2
FRAMELAYER-134
 70
     0
 62
     7
  6
Continuous
370
    -3
390
F
  0
LAYER
  5
1D7
330
2
100
AcDbSymbolTableRecord
100
AcDbLayerTableRecord
  2
FRAMELAYER-135
 70
     0
 62
    -4
  6
Continuous
370
    -3
390
F
  0
LAYER
  5
1D8
330
2
100
AcDbSymbolTableRecord
100
AcDbLayerTableRecord
  2
FRAMELAYER-136
 70
     0
 62
    -3
  6
Continuous
370
    -3
390
F
  0
LAYER
  5
1D9
330
2
100
AcDbSymbolTableRecord
100
AcDbLayerTableRecord
  2
FRAMELAYER-137
 70
     0
 62
    -1
  6
Continuous
370
    -3
390
F
  0
LAYER
  5
1DA
330
2
100
AcDbSymbolTableRecord
100
AcDbLayerTableRecord
  2
FRAMELAYER-138
 70
     0
 62
     7
  6
Continuous
370
    -3
390
F
  0
LAYER
  5
1DB
330
2
100
AcDbSymbolTableRecord
100
AcDbLayerTableRecord
  2
FRAMELAYER-139
 70
     0
 62
     7
  6
Continuous
370
    -3
390
F
  0
LAYER
  5
1DC
330
2
100
AcDbSymbolTableRecord
100
AcDbLayerTableRecord
  2
FRAMELAYER-140
 70
     0
 62
     7
  6
Continuous
370
    -3
390
F
  0
LAYER
  5
1DD
330
2
100
AcDbSymbolTableRecord
100
AcDbLayerTableRecord
  2
FRAMELAYER-141
 70
     0
 62
     7
  6
Continuous
370
    -3
390
F
  0
LAYER
  5
1DE
330
2
100
AcDbSymbolTableRecord
100
AcDbLayerTableRecord
  2
FRAMELAYER-142
 70
     0
 62
     3
  6
Continuous
370
    -3
390
F
  0
LAYER
  5
1DF
330
2
100
AcDbSymbolTableRecord
100
AcDbLayerTableRecord
  2
FRAMELAYER-143
 70
     0
 62
     7
  6
Continuous
370
    -3
390
F
  0
LAYER
  5
1E0
330
2
100
AcDbSymbolTableRecord
100
AcDbLayerTableRecord
  2
FRAMELAYER-144
 70
     0
 62
     7
  6
Continuous
370
    -3
390
F
  0
LAYER
  5
1E1
330
2
100
AcDbSymbolTableRecord
100
AcDbLayerTableRecord
  2
FRAMELAYER-145
 70
     0
 62
     3
  6
Continuous
370
    -3
390
F
  0
LAYER
  5
1E2
330
2
100
AcDbSymbolTableRecord
100
AcDbLayerTableRecord
  2
FRAMELAYER-146
 70
     0
 62
     7
  6
Continuous
370
    -3
390
F
  0
LAYER
  5
1E3
330
2
100
AcDbSymbolTableRecord
100
AcDbLayerTableRecord
  2
FRAMELAYER-147
 70
     0
 62
     7
  6
Continuous
370
    -3
390
F
  0
LAYER
  5
1E4
330
2
100
AcDbSymbolTableRecord
100
AcDbLayerTableRecord
  2
FRAMELAYER-148
 70
     0
 62
     7
  6
Continuous
370
    -3
390
F
  0
LAYER
  5
1E5
330
2
100
AcDbSymbolTableRecord
100
AcDbLayerTableRecord
  2
FRAMELAYER-149
 70
     0
 62
     7
  6
Continuous
370
    -3
390
F
  0
LAYER
  5
1E6
330
2
100
AcDbSymbolTableRecord
100
AcDbLayerTableRecord
  2
FRAMELAYER-150
 70
     0
 62
     7
  6
Continuous
370
    -3
390
F
  0
LAYER
  5
1E7
330
2
100
AcDbSymbolTableRecord
100
AcDbLayerTableRecord
  2
FRAMELAYER-151
 70
     0
 62
     7
  6
Continuous
370
    -3
390
F
  0
LAYER
  5
1E8
330
2
100
AcDbSymbolTableRecord
100
AcDbLayerTableRecord
  2
FRAMELAYER-152
 70
     0
 62
     7
  6
Continuous
370
    -3
390
F
  0
LAYER
  5
1E9
330
2
100
AcDbSymbolTableRecord
100
AcDbLayerTableRecord
  2
FRAMELAYER-153
 70
     0
 62
     7
  6
Continuous
370
    -3
390
F
  0
LAYER
  5
1EA
330
2
100
AcDbSymbolTableRecord
100
AcDbLayerTableRecord
  2
FRAMELAYER-154
 70
     0
 62
     7
  6
Continuous
370
    -3
390
F
  0
LAYER
  5
1EB
330
2
100
AcDbSymbolTableRecord
100
AcDbLayerTableRecord
  2
FRAMELAYER-155
 70
     0
 62
     7
  6
Continuous
370
    -3
390
F
  0
LAYER
  5
1EC
330
2
100
AcDbSymbolTableRecord
100
AcDbLayerTableRecord
  2
FRAMELAYER-156
 70
     0
 62
     7
  6
Continuous
370
    -3
390
F
  0
LAYER
  5
1ED
330
2
100
AcDbSymbolTableRecord
100
AcDbLayerTableRecord
  2
FRAMELAYER-157
 70
     0
 62
     7
  6
Continuous
370
    -3
390
F
  0
LAYER
  5
1EE
330
2
100
AcDbSymbolTableRecord
100
AcDbLayerTableRecord
  2
FRAMELAYER-158
 70
     0
 62
     7
  6
Continuous
370
    -3
390
F
  0
LAYER
  5
1EF
330
2
100
AcDbSymbolTableRecord
100
AcDbLayerTableRecord
  2
FRAMELAYER-159
 70
     0
 62
     7
  6
Continuous
370
    -3
390
F
  0
LAYER
  5
1F0
330
2
100
AcDbSymbolTableRecord
100
AcDbLayerTableRecord
  2
FRAMELAYER-160
 70
     0
 62
     7
  6
Continuous
370
    -3
390
F
  0
LAYER
  5
1F1
330
2
100
AcDbSymbolTableRecord
100
AcDbLayerTableRecord
  2
FRAMELAYER-161
 70
     0
 62
     7
  6
Continuous
370
    -3
390
F
  0
LAYER
  5
1F2
330
2
100
AcDbSymbolTableRecord
100
AcDbLayerTableRecord
  2
FRAMELAYER-162
 70
     0
 62
     7
  6
Continuous
370
    -3
390
F
  0
LAYER
  5
1F3
330
2
100
AcDbSymbolTableRecord
100
AcDbLayerTableRecord
  2
FRAMELAYER-163
 70
     0
 62
     7
  6
Continuous
370
    -3
390
F
  0
LAYER
  5
1F4
330
2
100
AcDbSymbolTableRecord
100
AcDbLayerTableRecord
  2
FRAMELAYER-164
 70
     0
 62
     7
  6
Continuous
370
    -3
390
F
  0
LAYER
  5
1F5
330
2
100
AcDbSymbolTableRecord
100
AcDbLayerTableRecord
  2
FRAMELAYER-165
 70
     0
 62
     7
  6
Continuous
370
    -3
390
F
  0
LAYER
  5
1F6
330
2
100
AcDbSymbolTableRecord
100
AcDbLayerTableRecord
  2
FRAMELAYER-166
 70
     0
 62
     7
  6
Continuous
370
    -3
390
F
  0
LAYER
  5
1F7
330
2
100
AcDbSymbolTableRecord
100
AcDbLayerTableRecord
  2
FRAMELAYER-167
 70
     0
 62
     7
  6
Continuous
370
    -3
390
F
  0
LAYER
  5
1F8
330
2
100
AcDbSymbolTableRecord
100
AcDbLayerTableRecord
  2
FRAMELAYER-168
 70
     0
 62
     7
  6
Continuous
370
    -3
390
F
  0
LAYER
  5
1F9
330
2
100
AcDbSymbolTableRecord
100
AcDbLayerTableRecord
  2
FRAMELAYER-169
 70
     0
 62
     7
  6
Continuous
370
    -3
390
F
  0
LAYER
  5
1FA
330
2
100
AcDbSymbolTableRecord
100
AcDbLayerTableRecord
  2
FRAMELAYER-170
 70
     0
 62
     7
  6
Continuous
370
    -3
390
F
  0
LAYER
  5
1FB
330
2
100
AcDbSymbolTableRecord
100
AcDbLayerTableRecord
  2
FRAMELAYER-171
 70
     0
 62
     7
  6
Continuous
370
    -3
390
F
  0
LAYER
  5
1FC
330
2
100
AcDbSymbolTableRecord
100
AcDbLayerTableRecord
  2
FRAMELAYER-172
 70
     0
 62
     7
  6
Continuous
370
    -3
390
F
  0
LAYER
  5
1FD
330
2
100
AcDbSymbolTableRecord
100
AcDbLayerTableRecord
  2
FRAMELAYER-173
 70
     0
 62
     7
  6
Continuous
370
    -3
390
F
  0
LAYER
  5
1FE
330
2
100
AcDbSymbolTableRecord
100
AcDbLayerTableRecord
  2
FRAMELAYER-174
 70
     0
 62
     7
  6
Continuous
370
    -3
390
F
  0
LAYER
  5
1FF
330
2
100
AcDbSymbolTableRecord
100
AcDbLayerTableRecord
  2
FRAMELAYER-175
 70
     0
 62
     7
  6
Continuous
370
    -3
390
F
  0
LAYER
  5
200
330
2
100
AcDbSymbolTableRecord
100
AcDbLayerTableRecord
  2
FRAMELAYER-176
 70
     0
 62
     7
  6
Continuous
370
    -3
390
F
  0
LAYER
  5
201
330
2
100
AcDbSymbolTableRecord
100
AcDbLayerTableRecord
  2
FRAMELAYER-177
 70
     0
 62
     7
  6
Continuous
370
    -3
390
F
  0
LAYER
  5
202
330
2
100
AcDbSymbolTableRecord
100
AcDbLayerTableRecord
  2
FRAMELAYER-178
 70
     0
 62
     7
  6
Continuous
370
    -3
390
F
  0
LAYER
  5
203
330
2
100
AcDbSymbolTableRecord
100
AcDbLayerTableRecord
  2
FRAMELAYER-179
 70
     0
 62
     7
  6
Continuous
370
    -3
390
F
  0
LAYER
  5
204
330
2
100
AcDbSymbolTableRecord
100
AcDbLayerTableRecord
  2
FRAMELAYER-180
 70
     0
 62
     7
  6
Continuous
370
    -3
390
F
  0
LAYER
  5
205
330
2
100
AcDbSymbolTableRecord
100
AcDbLayerTableRecord
  2
FRAMELAYER-181
 70
     0
 62
     7
  6
Continuous
370
    -3
390
F
  0
LAYER
  5
206
330
2
100
AcDbSymbolTableRecord
100
AcDbLayerTableRecord
  2
FRAMELAYER-182
 70
     0
 62
     7
  6
Continuous
370
    -3
390
F
  0
LAYER
  5
207
330
2
100
AcDbSymbolTableRecord
100
AcDbLayerTableRecord
  2
FRAMELAYER-183
 70
     0
 62
     7
  6
Continuous
370
    -3
390
F
  0
LAYER
  5
208
330
2
100
AcDbSymbolTableRecord
100
AcDbLayerTableRecord
  2
FRAMELAYER-184
 70
     0
 62
     7
  6
Continuous
370
    -3
390
F
  0
LAYER
  5
209
330
2
100
AcDbSymbolTableRecord
100
AcDbLayerTableRecord
  2
FRAMELAYER-185
 70
     0
 62
     7
  6
Continuous
370
    -3
390
F
  0
LAYER
  5
20A
330
2
100
AcDbSymbolTableRecord
100
AcDbLayerTableRecord
  2
FRAMELAYER-186
 70
     0
 62
     7
  6
Continuous
370
    -3
390
F
  0
LAYER
  5
20B
330
2
100
AcDbSymbolTableRecord
100
AcDbLayerTableRecord
  2
FRAMELAYER-187
 70
     0
 62
     7
  6
Continuous
370
    -3
390
F
  0
LAYER
  5
20C
330
2
100
AcDbSymbolTableRecord
100
AcDbLayerTableRecord
  2
FRAMELAYER-188
 70
     0
 62
     7
  6
Continuous
370
    -3
390
F
  0
LAYER
  5
20D
330
2
100
AcDbSymbolTableRecord
100
AcDbLayerTableRecord
  2
FRAMELAYER-189
 70
     0
 62
     7
  6
Continuous
370
    -3
390
F
  0
LAYER
  5
20E
330
2
100
AcDbSymbolTableRecord
100
AcDbLayerTableRecord
  2
FRAMELAYER-190
 70
     0
 62
     7
  6
Continuous
370
    -3
390
F
  0
LAYER
  5
20F
330
2
100
AcDbSymbolTableRecord
100
AcDbLayerTableRecord
  2
FRAMELAYER-191
 70
     0
 62
     7
  6
Continuous
370
    -3
390
F
  0
LAYER
  5
210
330
2
100
AcDbSymbolTableRecord
100
AcDbLayerTableRecord
  2
FRAMELAYER-192
 70
     0
 62
     7
  6
Continuous
370
    -3
390
F
  0
LAYER
  5
211
330
2
100
AcDbSymbolTableRecord
100
AcDbLayerTableRecord
  2
FRAMELAYER-193
 70
     0
 62
     7
  6
Continuous
370
    -3
390
F
  0
LAYER
  5
212
330
2
100
AcDbSymbolTableRecord
100
AcDbLayerTableRecord
  2
FRAMELAYER-194
 70
     0
 62
     2
  6
Continuous
370
    -3
390
F
  0
LAYER
  5
213
330
2
100
AcDbSymbolTableRecord
100
AcDbLayerTableRecord
  2
FRAMELAYER-195
 70
     0
 62
     2
  6
Continuous
370
    -3
390
F
  0
LAYER
  5
214
330
2
100
AcDbSymbolTableRecord
100
AcDbLayerTableRecord
  2
FRAMELAYER-196
 70
     0
 62
     2
  6
Continuous
370
    -3
390
F
  0
LAYER
  5
215
330
2
100
AcDbSymbolTableRecord
100
AcDbLayerTableRecord
  2
FRAMELAYER-197
 70
     0
 62
     7
  6
Continuous
370
    -3
390
F
  0
LAYER
  5
216
330
2
100
AcDbSymbolTableRecord
100
AcDbLayerTableRecord
  2
FRAMELAYER-198
 70
     0
 62
     7
  6
Continuous
370
    -3
390
F
  0
LAYER
  5
217
330
2
100
AcDbSymbolTableRecord
100
AcDbLayerTableRecord
  2
FRAMELAYER-199
 70
     0
 62
     4
  6
Continuous
370
    -3
390
F
  0
LAYER
  5
218
330
2
100
AcDbSymbolTableRecord
100
AcDbLayerTableRecord
  2
FRAMELAYER-200
 70
     0
 62
     1
  6
Continuous
370
    -3
390
F
  0
LAYER
  5
219
330
2
100
AcDbSymbolTableRecord
100
AcDbLayerTableRecord
  2
FRAMELAYER-201
 70
     0
 62
     1
  6
Continuous
370
    -3
390
F
  0
LAYER
  5
21A
330
2
100
AcDbSymbolTableRecord
100
AcDbLayerTableRecord
  2
FRAMELAYER-202
 70
     0
 62
     2
  6
Continuous
370
    -3
390
F
  0
LAYER
  5
21B
330
2
100
AcDbSymbolTableRecord
100
AcDbLayerTableRecord
  2
FRAMELAYER-203
 70
     0
 62
     2
  6
Continuous
370
    -3
390
F
  0
LAYER
  5
21C
330
2
100
AcDbSymbolTableRecord
100
AcDbLayerTableRecord
  2
FRAMELAYER-204
 70
     0
 62
     7
  6
Continuous
370
    -3
390
F
  0
LAYER
  5
21D
330
2
100
AcDbSymbolTableRecord
100
AcDbLayerTableRecord
  2
FRAMELAYER-205
 70
     0
 62
     7
  6
Continuous
370
    -3
390
F
  0
LAYER
  5
21E
330
2
100
AcDbSymbolTableRecord
100
AcDbLayerTableRecord
  2
FRAMELAYER-206
 70
     0
 62
     7
  6
Continuous
370
    -3
390
F
  0
LAYER
  5
21F
330
2
100
AcDbSymbolTableRecord
100
AcDbLayerTableRecord
  2
FRAMELAYER-207
 70
     0
 62
    -7
  6
Continuous
370
    -3
390
F
  0
LAYER
  5
220
330
2
100
AcDbSymbolTableRecord
100
AcDbLayerTableRecord
  2
FRAMELAYER-208
 70
     0
 62
     2
  6
Continuous
370
    -3
390
F
  0
LAYER
  5
221
330
2
100
AcDbSymbolTableRecord
100
AcDbLayerTableRecord
  2
FRAMELAYER-209
 70
     0
 62
     7
  6
Continuous
370
    -3
390
F
  0
LAYER
  5
222
330
2
100
AcDbSymbolTableRecord
100
AcDbLayerTableRecord
  2
FRAMELAYER-210
 70
     0
 62
     2
  6
Continuous
290
     0
370
    -3
390
F
  0
LAYER
  5
223
330
2
100
AcDbSymbolTableRecord
100
AcDbLayerTableRecord
  2
FRAMELAYER-211
 70
     0
 62
     7
  6
Continuous
370
    -3
390
F
  0
LAYER
  5
224
330
2
100
AcDbSymbolTableRecord
100
AcDbLayerTableRecord
  2
FRAMELAYER-212
 70
     0
 62
     7
  6
Continuous
370
    -3
390
F
  0
LAYER
  5
225
330
2
100
AcDbSymbolTableRecord
100
AcDbLayerTableRecord
  2
FRAMELAYER-213
 70
     0
 62
     2
  6
Continuous
370
    -3
390
F
  0
LAYER
  5
226
330
2
100
AcDbSymbolTableRecord
100
AcDbLayerTableRecord
  2
FRAMELAYER-214
 70
     0
 62
     7
  6
Continuous
370
    -3
390
F
  0
LAYER
  5
227
330
2
100
AcDbSymbolTableRecord
100
AcDbLayerTableRecord
  2
FRAMELAYER-215
 70
     0
 62
     7
  6
Continuous
370
    -3
390
F
  0
LAYER
  5
228
330
2
100
AcDbSymbolTableRecord
100
AcDbLayerTableRecord
  2
FRAMELAYER-216
 70
     0
 62
     4
  6
Continuous
370
    -3
390
F
  0
LAYER
  5
229
330
2
100
AcDbSymbolTableRecord
100
AcDbLayerTableRecord
  2
FRAMELAYER-217
 70
     0
 62
     7
  6
Continuous
370
    -3
390
F
  0
LAYER
  5
22A
330
2
100
AcDbSymbolTableRecord
100
AcDbLayerTableRecord
  2
FRAMELAYER-218
 70
     0
 62
     7
  6
Continuous
370
    -3
390
F
  0
LAYER
  5
22B
330
2
100
AcDbSymbolTableRecord
100
AcDbLayerTableRecord
  2
FRAMELAYER-219
 70
     0
 62
     7
  6
Continuous
370
    -3
390
F
  0
LAYER
  5
22C
330
2
100
AcDbSymbolTableRecord
100
AcDbLayerTableRecord
  2
FRAMELAYER-220
 70
     0
 62
     4
  6
Continuous
370
    -3
390
F
  0
LAYER
  5
22D
330
2
100
AcDbSymbolTableRecord
100
AcDbLayerTableRecord
  2
FRAMELAYER-221
 70
     0
 62
    -7
  6
Continuous
290
     0
370
    -3
390
F
  0
LAYER
  5
22E
330
2
100
AcDbSymbolTableRecord
100
AcDbLayerTableRecord
  2
FRAMELAYER-222
 70
     0
 62
    -4
  6
Continuous
290
     0
370
    -3
390
F
  0
LAYER
  5
22F
330
2
100
AcDbSymbolTableRecord
100
AcDbLayerTableRecord
  2
FRAMELAYER-223
 70
     0
 62
    -1
  6
Continuous
290
     0
370
    -3
390
F
  0
LAYER
  5
230
330
2
100
AcDbSymbolTableRecord
100
AcDbLayerTableRecord
  2
FRAMELAYER-224
 70
     0
 62
    -1
  6
Continuous
290
     0
370
    -3
390
F
  0
LAYER
  5
231
330
2
100
AcDbSymbolTableRecord
100
AcDbLayerTableRecord
  2
FRAMELAYER-225
 70
     0
 62
     7
  6
Continuous
370
    -3
390
F
  0
LAYER
  5
232
330
2
100
AcDbSymbolTableRecord
100
AcDbLayerTableRecord
  2
FRAMELAYER-226
 70
     0
 62
     2
  6
Continuous
370
    -3
390
F
  0
LAYER
  5
233
330
2
100
AcDbSymbolTableRecord
100
AcDbLayerTableRecord
  2
FRAMELAYER-227
 70
     0
 62
     7
  6
Continuous
370
    -3
390
F
  0
LAYER
  5
234
330
2
100
AcDbSymbolTableRecord
100
AcDbLayerTableRecord
  2
FRAMELAYER-228
 70
     0
 62
     7
  6
Continuous
370
    -3
390
F
  0
LAYER
  5
235
330
2
100
AcDbSymbolTableRecord
100
AcDbLayerTableRecord
  2
FRAMELAYER-229
 70
     0
 62
     7
  6
Continuous
370
    -3
390
F
  0
LAYER
  5
236
330
2
100
AcDbSymbolTableRecord
100
AcDbLayerTableRecord
  2
FRAMELAYER-230
 70
     0
 62
     7
  6
Continuous
370
    -3
390
F
  0
LAYER
  5
237
330
2
100
AcDbSymbolTableRecord
100
AcDbLayerTableRecord
  2
FRAMELAYER-231
 70
     0
 62
     7
  6
Continuous
370
    -3
390
F
  0
LAYER
  5
238
330
2
100
AcDbSymbolTableRecord
100
AcDbLayerTableRecord
  2
FRAMELAYER-232
 70
     0
 62
     7
  6
Continuous
370
    -3
390
F
  0
LAYER
  5
239
330
2
100
AcDbSymbolTableRecord
100
AcDbLayerTableRecord
  2
FRAMELAYER-233
 70
     0
 62
     7
  6
Continuous
370
    -3
390
F
  0
LAYER
  5
23A
330
2
100
AcDbSymbolTableRecord
100
AcDbLayerTableRecord
  2
FRAMELAYER-234
 70
     0
 62
     7
  6
Continuous
370
    -3
390
F
  0
LAYER
  5
23B
330
2
100
AcDbSymbolTableRecord
100
AcDbLayerTableRecord
  2
FRAMELAYER-235
 70
     0
 62
     7
  6
Continuous
370
    -3
390
F
  0
LAYER
  5
23C
330
2
100
AcDbSymbolTableRecord
100
AcDbLayerTableRecord
  2
FRAMELAYER-236
 70
     0
 62
     7
  6
Continuous
370
    -3
390
F
  0
LAYER
  5
23D
330
2
100
AcDbSymbolTableRecord
100
AcDbLayerTableRecord
  2
FRAMELAYER-237
 70
     0
 62
     7
  6
Continuous
370
    -3
390
F
  0
LAYER
  5
23E
330
2
100
AcDbSymbolTableRecord
100
AcDbLayerTableRecord
  2
FRAMELAYER-238
 70
     0
 62
     7
  6
Continuous
370
    -3
390
F
  0
LAYER
  5
23F
330
2
100
AcDbSymbolTableRecord
100
AcDbLayerTableRecord
  2
FRAMELAYER-239
 70
     0
 62
     7
  6
Continuous
370
    -3
390
F
  0
LAYER
  5
240
330
2
100
AcDbSymbolTableRecord
100
AcDbLayerTableRecord
  2
FRAMELAYER-240
 70
     0
 62
     7
  6
Continuous
370
    -3
390
F
  0
LAYER
  5
241
330
2
100
AcDbSymbolTableRecord
100
AcDbLayerTableRecord
  2
FRAMELAYER-241
 70
     0
 62
     7
  6
Continuous
370
    -3
390
F
  0
LAYER
  5
242
330
2
100
AcDbSymbolTableRecord
100
AcDbLayerTableRecord
  2
FRAMELAYER-242
 70
     0
 62
     7
  6
Continuous
370
    -3
390
F
  0
LAYER
  5
243
330
2
100
AcDbSymbolTableRecord
100
AcDbLayerTableRecord
  2
FRAMELAYER-243
 70
     0
 62
     7
  6
Continuous
370
    -3
390
F
  0
LAYER
  5
244
330
2
100
AcDbSymbolTableRecord
100
AcDbLayerTableRecord
  2
FRAMELAYER-244
 70
     0
 62
     7
  6
Continuous
370
    -3
390
F
  0
LAYER
  5
245
330
2
100
AcDbSymbolTableRecord
100
AcDbLayerTableRecord
  2
FRAMELAYER-245
 70
     0
 62
     7
  6
Continuous
370
    -3
390
F
  0
LAYER
  5
246
330
2
100
AcDbSymbolTableRecord
100
AcDbLayerTableRecord
  2
FRAMELAYER-246
 70
     0
 62
     7
  6
Continuous
370
    -3
390
F
  0
LAYER
  5
247
330
2
100
AcDbSymbolTableRecord
100
AcDbLayerTableRecord
  2
FRAMELAYER-247
 70
     0
 62
     7
  6
Continuous
370
    -3
390
F
  0
LAYER
  5
248
330
2
100
AcDbSymbolTableRecord
100
AcDbLayerTableRecord
  2
FRAMELAYER-248
 70
     0
 62
     7
  6
Continuous
370
    -3
390
F
  0
LAYER
  5
249
330
2
100
AcDbSymbolTableRecord
100
AcDbLayerTableRecord
  2
FRAMELAYER-249
 70
     0
 62
     7
  6
Continuous
370
    -3
390
F
  0
LAYER
  5
24A
330
2
100
AcDbSymbolTableRecord
100
AcDbLayerTableRecord
  2
FRAMELAYER-250
 70
     0
 62
     7
  6
Continuous
370
    -3
390
F
  0
LAYER
  5
24B
330
2
100
AcDbSymbolTableRecord
100
AcDbLayerTableRecord
  2
FRAMELAYER-251
 70
     0
 62
     7
  6
Continuous
370
    -3
390
F
  0
LAYER
  5
24C
330
2
100
AcDbSymbolTableRecord
100
AcDbLayerTableRecord
  2
FRAMELAYER-252
 70
     0
 62
     7
  6
Continuous
370
    -3
390
F
  0
LAYER
  5
24D
330
2
100
AcDbSymbolTableRecord
100
AcDbLayerTableRecord
  2
FRAMELAYER-253
 70
     0
 62
     7
  6
Continuous
370
    -3
390
F
  0
LAYER
  5
24E
330
2
100
AcDbSymbolTableRecord
100
AcDbLayerTableRecord
  2
FRAMELAYER-254
 70
     0
 62
     7
  6
Continuous
370
    -3
390
F
  0
LAYER
  5
24F
330
2
100
AcDbSymbolTableRecord
100
AcDbLayerTableRecord
  2
FRAMELAYER-255
 70
     0
 62
     7
  6
Continuous
370
    -3
390
F
  0
LAYER
  5
250
330
2
100
AcDbSymbolTableRecord
100
AcDbLayerTableRecord
  2
FRAMELAYER-256
 70
     0
 62
     7
  6
Continuous
370
    -3
390
F
  0
ENDTAB
  0
TABLE
  2
STYLE
  5
3
330
0
100
AcDbSymbolTable
 70
     7
  0
STYLE
  5
11
330
3
100
AcDbSymbolTableRecord
100
AcDbTextStyleTableRecord
  2
Standard
 70
     0
 40
0.0
 41
1.0
 50
0.0
 71
     0
 42
2.5
  3
txt
  4

  0
STYLE
  5
31
330
3
100
AcDbSymbolTableRecord
100
AcDbTextStyleTableRecord
  2
STANDARD2
 70
     0
 40
0.0
 41
1.0
 50
0.0
 71
     0
 42
4.0
  3
MS Mincho.ttf
  4

1001
ACAD
1000
MS Mincho
1071
    32785
  0
STYLE
  5
32
330
3
100
AcDbSymbolTableRecord
100
AcDbTextStyleTableRecord
  2
STRING_H
 70
     0
 40
0.0
 41
1.0
 50
0.0
 71
     0
 42
4.0
  3
MS Mincho.ttf
  4

1001
ACAD
1000
MS Mincho
1071
    32785
  0
STYLE
  5
33
330
3
100
AcDbSymbolTableRecord
100
AcDbTextStyleTableRecord
  2
STRING_H_ITALIC
 70
     0
 40
0.0
 41
1.0
 50
15.0
 71
     0
 42
4.0
  3
MS Mincho.ttf
  4

1001
ACAD
1000
MS Mincho
1071
    32785
  0
STYLE
  5
34
330
3
100
AcDbSymbolTableRecord
100
AcDbTextStyleTableRecord
  2
STRING_V
 70
     0
 40
0.0
 41
1.0
 50
0.0
 71
     0
 42
4.0
  3
@MS Mincho.ttf
  4

1001
ACAD
1000
@MS Mincho
1071
    32785
  0
STYLE
  5
35
330
3
100
AcDbSymbolTableRecord
100
AcDbTextStyleTableRecord
  2
STRING_V_ITALIC
 70
     0
 40
0.0
 41
1.0
 50
15.0
 71
     0
 42
4.0
  3
@MS Mincho.ttf
  4

1001
ACAD
1000
@MS Mincho
1071
    32785
  0
STYLE
  5
36
330
3
100
AcDbSymbolTableRecord
100
AcDbTextStyleTableRecord
  2

 70
     1
 40
0.0
 41
1.0
 50
0.0
 71
     0
 42
0.2
  3
ltypeshp.shx
  4

  0
ENDTAB
  0
TABLE
  2
VIEW
  5
6
330
0
100
AcDbSymbolTable
 70
     0
  0
ENDTAB
  0
TABLE
  2
UCS
  5
7
330
0
100
AcDbSymbolTable
 70
     0
  0
ENDTAB
  0
TABLE
  2
APPID
  5
9
330
0
100
AcDbSymbolTable
 70
     1
  0
APPID
  5
12
330
9
100
AcDbSymbolTableRecord
100
AcDbRegAppTableRecord
  2
ACAD
 70
     0
  0
ENDTAB
  0
TABLE
  2
DIMSTYLE
  5
A
330
0
100
AcDbSymbolTable
 70
     2
100
AcDbDimStyleTable
  0
DIMSTYLE
105
27
330
A
100
AcDbSymbolTableRecord
100
AcDbDimStyleTableRecord
  2
ISO-25
 70
     0
 41
2.5
 42
0.625
 43
3.75
 44
1.25
 73
     0
 74
     0
 77
     1
 78
     8
140
2.5
141
2.5
143
0.03937007874016
147
0.625
171
     3
172
     1
271
     2
272
     2
274
     3
283
     0
284
     8
340
11
  0
DIMSTYLE
105
251
102
{ACAD_REACTORS
330
42E
330
438
330
442
330
44C
330
456
330
460
330
46A
102
}
330
A
100
AcDbSymbolTableRecord
100
AcDbDimStyleTableRecord
  2
DIO_DIMSTYLE
 70
     0
 41
4.0
 42
1.0
 43
3.75
 44
1.0
 45
0.1
 73
     0
 74
     0
 77
     1
 78
     8
 79
     2
140
3.0
141
2.5
143
0.03937007874016
147
0.5
171
     3
172
     1
173
     1
179
     1
271
     1
272
     1
274
     3
283
     0
284
     8
288
     1
289
     0
340
31
  0
ENDTAB
  0
TABLE
  2
BLOCK_RECORD
  5
1
330
0
100
AcDbSymbolTable
 70
     9
  0
BLOCK_RECORD
  5
1F
330
1
100
AcDbSymbolTableRecord
100
AcDbBlockTableRecord
  2
*Model_Space
340
22
  0
BLOCK_RECORD
  5
1B
330
1
100
AcDbSymbolTableRecord
100
AcDbBlockTableRecord
  2
*Paper_Space
340
1E
  0
BLOCK_RECORD
  5
23
330
1
100
AcDbSymbolTableRecord
100
AcDbBlockTableRecord
  2
*Paper_Space0
340
26
  0
BLOCK_RECORD
  5
41F
330
1
100
AcDbSymbolTableRecord
100
AcDbBlockTableRecord
  2
_OPEN
340
0
102
{BLKREFS
331
428
331
429
331
432
331
433
331
43C
331
43D
331
446
331
447
331
450
331
451
331
45A
331
45B
331
464
331
465
102
}
  0
BLOCK_RECORD
  5
425
330
1
100
AcDbSymbolTableRecord
100
AcDbBlockTableRecord
  2
*D02
340
0
  0
BLOCK_RECORD
  5
42F
330
1
100
AcDbSymbolTableRecord
100
AcDbBlockTableRecord
  2
*D13
340
0
  0
BLOCK_RECORD
  5
439
330
1
100
AcDbSymbolTableRecord
100
AcDbBlockTableRecord
  2
*D24
340
0
  0
BLOCK_RECORD
  5
443
330
1
100
AcDbSymbolTableRecord
100
AcDbBlockTableRecord
  2
*D35
340
0
  0
BLOCK_RECORD
  5
44D
330
1
100
AcDbSymbolTableRecord
100
AcDbBlockTableRecord
  2
*D46
340
0
  0
BLOCK_RECORD
  5
457
330
1
100
AcDbSymbolTableRecord
100
AcDbBlockTableRecord
  2
*D57
340
0
  0
BLOCK_RECORD
  5
461
330
1
100
AcDbSymbolTableRecord
100
AcDbBlockTableRecord
  2
*D68
340
0
  0
ENDTAB
  0
ENDSEC
  0
SECTION
  2
BLOCKS
  0
BLOCK
  5
20
330
1F
100
AcDbEntity
  8
0
100
AcDbBlockBegin
  2
*Model_Space
 70
     0
 71
     0
 10
0.0
 20
0.0
 30
0.0
  3
*Model_Space
  1

  0
ENDBLK
  5
21
330
1F
100
AcDbEntity
  8
0
100
AcDbBlockEnd
  0
BLOCK
  5
1C
330
1B
100
AcDbEntity
 67
     1
  8
0
100
AcDbBlockBegin
  2
*Paper_Space
 70
     0
 71
     0
 10
0.0
 20
0.0
 30
0.0
  3
*Paper_Space
  1

  0
ENDBLK
  5
1D
330
1B
100
AcDbEntity
 67
     1
  8
0
100
AcDbBlockEnd
  0
BLOCK
  5
24
330
23
100
AcDbEntity
  8
0
100
AcDbBlockBegin
  2
*Paper_Space0
 70
     0
 71
     0
 10
0.0
 20
0.0
 30
0.0
  3
*Paper_Space0
  1

  0
ENDBLK
  5
25
330
23
100
AcDbEntity
  8
0
100
AcDbBlockEnd
  0
BLOCK
  5
420
330
41F
100
AcDbEntity
  8
0
100
AcDbBlockBegin
  2
_OPEN
 70
     0
 71
     0
 10
0.0
 20
0.0
 30
0.0
  3
_OPEN
  1

  0
LINE
  5
422
330
41F
100
AcDbEntity
  8
LAYER-035
  6
Continuous
 62
     0
100
AcDbLine
 10
0.0
 20
0.0
 30
0.0
 11
-1.0
 21
0.0
 31
0.0
  0
LINE
  5
423
330
41F
100
AcDbEntity
  8
LAYER-035
  6
Continuous
 62
     0
100
AcDbLine
 10
0.0
 20
0.0
 30
0.0
 11
-1.0
 21
0.1666250109338451
 31
0.0
  0
LINE
  5
424
330
41F
100
AcDbEntity
  8
LAYER-035
  6
Continuous
 62
     0
100
AcDbLine
 10
0.0
 20
0.0
 30
0.0
 11
-1.0
 21
-0.1666250109338451
 31
0.0
  0
ENDBLK
  5
421
330
41F
100
AcDbEntity
  8
0
100
AcDbBlockEnd
  0
BLOCK
  5
426
330
425
100
AcDbEntity
  8
0
100
AcDbBlockBegin
  2
*D02
 70
     1
 71
     0
 10
0.0
 20
0.0
 30
0.0
  3
*D02
  1

  0
INSERT
  5
428
330
425
100
AcDbEntity
  8
LAYER-035
  6
Continuous
 62
     5
100
AcDbBlockReference
  2
_OPEN
 10
-527.6768443745657
 20
294.2131419370641
 30
0.0
 41
4.0
 42
4.0
 43
4.0
 50
90.0
  0
INSERT
  5
429
330
425
100
AcDbEntity
  8
LAYER-035
  6
Continuous
 62
     5
100
AcDbBlockReference
  2
_OPEN
 10
-527.6768443745657
 20
-60.78685806293595
 30
0.0
 41
4.0
 42
4.0
 43
4.0
 50
-90.0
  0
LINE
  5
42A
330
425
100
AcDbEntity
  8
LAYER-035
  6
Continuous
 62
     5
100
AcDbLine
 10
-426.3913690839161
 20
294.2131419370641
 30
0.0
 11
-528.6768443745657
 21
294.2131419370641
 31
0.0
  0
LINE
  5
42B
330
425
100
AcDbEntity
  8
LAYER-035
  6
Continuous
 62
     5
100
AcDbLine
 10
-474.891369083917
 20
-60.78685806293595
 30
0.0
 11
-528.6768443745657
 21
-60.78685806293595
 31
0.0
  0
LINE
  5
42C
330
425
100
AcDbEntity
  8
LAYER-035
  6
Continuous
 62
     5
100
AcDbLine
 10
-527.6768443745657
 20
294.2131419370641
 30
0.0
 11
-527.6768443745657
 21
-60.78685806293595
 31
0.0
  0
MTEXT
  5
42D
330
425
100
AcDbEntity
  8
LAYER-036
  6
Continuous
 62
     5
100
AcDbMText
 10
-528.1768443745657
 20
116.7131419370641
 30
0.0
 40
4.0
 41
0.0
 71
     8
 72
     1
  1
355
  7
STRING_H
 11
6.123031769111886E-17
 21
1.0
 31
0.0
 73
     1
 44
1.0
  0
ENDBLK
  5
427
330
425
100
AcDbEntity
  8
0
100
AcDbBlockEnd
  0
BLOCK
  5
430
330
42F
100
AcDbEntity
  8
0
100
AcDbBlockBegin
  2
*D13
 70
     1
 71
     0
 10
0.0
 20
0.0
 30
0.0
  3
*D13
  1

  0
INSERT
  5
432
330
42F
100
AcDbEntity
  8
LAYER-035
  6
Continuous
 62
     5
100
AcDbBlockReference
  2
_OPEN
 10
-103.891369083917
 20
-162.3212690539319
 30
0.0
 41
4.0
 42
4.0
 43
4.0
  0
INSERT
  5
433
330
42F
100
AcDbEntity
  8
LAYER-035
  6
Continuous
 62
     5
100
AcDbBlockReference
  2
_OPEN
 10
-473.8913690839169
 20
-162.3212690539319
 30
0.0
 41
4.0
 42
4.0
 43
4.0
 50
180.0
  0
LINE
  5
434
330
42F
100
AcDbEntity
  8
LAYER-035
  6
Continuous
 62
     5
100
AcDbLine
 10
-103.891369083917
 20
-61.78685806293595
 30
0.0
 11
-103.891369083917
 21
-163.3212690539319
 31
0.0
  0
LINE
  5
435
330
42F
100
AcDbEntity
  8
LAYER-035
  6
Continuous
 62
     5
100
AcDbLine
 10
-473.891369083917
 20
-61.78685806293595
 30
0.0
 11
-473.8913690839169
 21
-163.3212690539319
 31
0.0
  0
LINE
  5
436
330
42F
100
AcDbEntity
  8
LAYER-035
  6
Continuous
 62
     5
100
AcDbLine
 10
-103.891369083917
 20
-162.3212690539319
 30
0.0
 11
-473.8913690839169
 21
-162.3212690539319
 31
0.0
  0
MTEXT
  5
437
330
42F
100
AcDbEntity
  8
LAYER-036
  6
Continuous
 62
     5
100
AcDbMText
 10
-288.891369083917
 20
-161.8212690539319
 30
0.0
 40
4.0
 41
0.0
 71
     8
 72
     1
  1
370
  7
STRING_H
 73
     1
 44
1.0
  0
ENDBLK
  5
431
330
42F
100
AcDbEntity
  8
0
100
AcDbBlockEnd
  0
BLOCK
  5
43A
330
439
100
AcDbEntity
  8
0
100
AcDbBlockBegin
  2
*D24
 70
     1
 71
     0
 10
0.0
 20
0.0
 30
0.0
  3
*D24
  1

  0
INSERT
  5
43C
330
439
100
AcDbEntity
  8
LAYER-035
  6
Continuous
 62
     5
100
AcDbBlockReference
  2
_OPEN
 10
-138.891369083917
 20
-121.7090944392489
 30
0.0
 41
4.0
 42
4.0
 43
4.0
  0
INSERT
  5
43D
330
439
100
AcDbEntity
  8
LAYER-035
  6
Continuous
 62
     5
100
AcDbBlockReference
  2
_OPEN
 10
-438.891369083917
 20
-121.7090944392489
 30
0.0
 41
4.0
 42
4.0
 43
4.0
 50
180.0
  0
LINE
  5
43E
330
439
100
AcDbEntity
  8
LAYER-035
  6
Continuous
 62
     5
100
AcDbLine
 10
-138.891369083917
 20
-74.22336106293494
 30
0.0
 11
-138.891369083917
 21
-122.7090944392489
 31
0.0
  0
LINE
  5
43F
330
439
100
AcDbEntity
  8
LAYER-035
  6
Continuous
 62
     5
100
AcDbLine
 10
-438.891369083917
 20
-74.22336106293494
 30
0.0
 11
-438.891369083917
 21
-122.7090944392489
 31
0.0
  0
LINE
  5
440
330
439
100
AcDbEntity
  8
LAYER-035
  6
Continuous
 62
     5
100
AcDbLine
 10
-138.891369083917
 20
-121.7090944392489
 30
0.0
 11
-438.891369083917
 21
-121.7090944392489
 31
0.0
  0
MTEXT
  5
441
330
439
100
AcDbEntity
  8
LAYER-036
  6
Continuous
 62
     5
100
AcDbMText
 10
-288.891369083917
 20
-121.2090944392489
 30
0.0
 40
4.0
 41
0.0
 71
     8
 72
     1
  1
300
  7
STRING_H
 73
     1
 44
1.0
  0
ENDBLK
  5
43B
330
439
100
AcDbEntity
  8
0
100
AcDbBlockEnd
  0
BLOCK
  5
444
330
443
100
AcDbEntity
  8
0
100
AcDbBlockBegin
  2
*D35
 70
     1
 71
     0
 10
0.0
 20
0.0
 30
0.0
  3
*D35
  1

  0
INSERT
  5
446
330
443
100
AcDbEntity
  8
LAYER-035
  6
Continuous
 62
     5
100
AcDbBlockReference
  2
_OPEN
 10
391.7977149160836
 20
51.8659164262311
 30
0.0
 41
4.0
 42
4.0
 43
4.0
  0
INSERT
  5
447
330
443
100
AcDbEntity
  8
LAYER-035
  6
Continuous
 62
     5
100
AcDbBlockReference
  2
_OPEN
 10
141.7977149149467
 20
51.8659164262311
 30
0.0
 41
4.0
 42
4.0
 43
4.0
 50
180.0
  0
LINE
  5
448
330
443
100
AcDbEntity
  8
LAYER-035
  6
Continuous
 62
     5
100
AcDbLine
 10
391.7977149160836
 20
153.2131419370641
 30
0.0
 11
391.7977149160836
 21
50.86591642623111
 31
0.0
  0
LINE
  5
449
330
443
100
AcDbEntity
  8
LAYER-035
  6
Continuous
 62
     5
100
AcDbLine
 10
141.7977149149467
 20
153.2131419370641
 30
0.0
 11
141.7977149149467
 21
50.86591642623111
 31
0.0
  0
LINE
  5
44A
330
443
100
AcDbEntity
  8
LAYER-035
  6
Continuous
 62
     5
100
AcDbLine
 10
391.7977149160836
 20
51.8659164262311
 30
0.0
 11
141.7977149149467
 21
51.8659164262311
 31
0.0
  0
MTEXT
  5
44B
330
443
100
AcDbEntity
  8
LAYER-036
  6
Continuous
 62
     5
100
AcDbMText
 10
254.8210807995942
 20
52.3659164262311
 30
0.0
 40
4.0
 41
0.0
 71
     8
 72
     1
  1
250
  7
STRING_H
 73
     1
 44
1.0
  0
ENDBLK
  5
445
330
443
100
AcDbEntity
  8
0
100
AcDbBlockEnd
  0
BLOCK
  5
44E
330
44D
100
AcDbEntity
  8
0
100
AcDbBlockBegin
  2
*D46
 70
     1
 71
     0
 10
0.0
 20
0.0
 30
0.0
  3
*D46
  1

  0
INSERT
  5
450
330
44D
100
AcDbEntity
  8
LAYER-035
  6
Continuous
 62
     5
100
AcDbBlockReference
  2
_OPEN
 10
441.8271519160819
 20
123.5621020587804
 30
0.0
 41
4.0
 42
4.0
 43
4.0
  0
INSERT
  5
451
330
44D
100
AcDbEntity
  8
LAYER-035
  6
Continuous
 62
     5
100
AcDbBlockReference
  2
_OPEN
 10
391.7977149160836
 20
123.5621020587804
 30
0.0
 41
4.0
 42
4.0
 43
4.0
 50
180.0
  0
LINE
  5
452
330
44D
100
AcDbEntity
  8
LAYER-035
  6
Continuous
 62
     5
100
AcDbLine
 10
441.8271519160819
 20
257.0253279370642
 30
0.0
 11
441.8271519160819
 21
122.5621020587804
 31
0.0
  0
LINE
  5
453
330
44D
100
AcDbEntity
  8
LAYER-035
  6
Continuous
 62
     5
100
AcDbLine
 10
391.7977149160836
 20
153.2131419370641
 30
0.0
 11
391.7977149160836
 21
122.5621020587804
 31
0.0
  0
LINE
  5
454
330
44D
100
AcDbEntity
  8
LAYER-035
  6
Continuous
 62
     5
100
AcDbLine
 10
441.8271519160819
 20
123.5621020587804
 30
0.0
 11
391.7977149160836
 21
123.5621020587804
 31
0.0
  0
MTEXT
  5
455
330
44D
100
AcDbEntity
  8
LAYER-036
  6
Continuous
 62
     5
100
AcDbMText
 10
416.8124334160827
 20
124.0621020587804
 30
0.0
 40
4.0
 41
0.0
 71
     8
 72
     1
  1
{\W0.500000;(50)}
  7
STRING_H
 73
     1
 44
1.0
  0
ENDBLK
  5
44F
330
44D
100
AcDbEntity
  8
0
100
AcDbBlockEnd
  0
BLOCK
  5
458
330
457
100
AcDbEntity
  8
0
100
AcDbBlockBegin
  2
*D57
 70
     1
 71
     0
 10
0.0
 20
0.0
 30
0.0
  3
*D57
  1

  0
INSERT
  5
45A
330
457
100
AcDbEntity
  8
LAYER-035
  6
Continuous
 62
     5
100
AcDbBlockReference
  2
_OPEN
 10
381.7977149160835
 20
-121.7090944392489
 30
0.0
 41
4.0
 42
4.0
 43
4.0
  0
INSERT
  5
45B
330
457
100
AcDbEntity
  8
LAYER-035
  6
Continuous
 62
     5
100
AcDbBlockReference
  2
_OPEN
 10
151.7977149160836
 20
-121.7090944392489
 30
0.0
 41
4.0
 42
4.0
 43
4.0
 50
180.0
  0
LINE
  5
45C
330
457
100
AcDbEntity
  8
LAYER-035
  6
Continuous
 62
     5
100
AcDbLine
 10
381.7977149160836
 20
-74.22336106293304
 30
0.0
 11
381.7977149160835
 21
-122.7090944392489
 31
0.0
  0
LINE
  5
45D
330
457
100
AcDbEntity
  8
LAYER-035
  6
Continuous
 62
     5
100
AcDbLine
 10
151.7977149160836
 20
-74.22336106293304
 30
0.0
 11
151.7977149160836
 21
-122.7090944392489
 31
0.0
  0
LINE
  5
45E
330
457
100
AcDbEntity
  8
LAYER-035
  6
Continuous
 62
     5
100
AcDbLine
 10
381.7977149160835
 20
-121.7090944392489
 30
0.0
 11
151.7977149160836
 21
-121.7090944392489
 31
0.0
  0
MTEXT
  5
45F
330
457
100
AcDbEntity
  8
LAYER-036
  6
Continuous
 62
     5
100
AcDbMText
 10
266.7977149160836
 20
-121.2090944392489
 30
0.0
 40
4.0
 41
0.0
 71
     8
 72
     1
  1
230
  7
STRING_H
 73
     1
 44
1.0
  0
ENDBLK
  5
459
330
457
100
AcDbEntity
  8
0
100
AcDbBlockEnd
  0
BLOCK
  5
462
330
461
100
AcDbEntity
  8
0
100
AcDbBlockBegin
  2
*D68
 70
     1
 71
     0
 10
0.0
 20
0.0
 30
0.0
  3
*D68
  1

  0
INSERT
  5
464
330
461
100
AcDbEntity
  8
LAYER-035
  6
Continuous
 62
     5
100
AcDbBlockReference
  2
_OPEN
 10
131.7977149160836
 20
-162.3212690539319
 30
0.0
 41
4.0
 42
4.0
 43
4.0
 50
180.0
  0
INSERT
  5
465
330
461
100
AcDbEntity
  8
LAYER-035
  6
Continuous
 62
     5
100
AcDbBlockReference
  2
_OPEN
 10
401.7977149160836
 20
-162.3212690539319
 30
0.0
 41
4.0
 42
4.0
 43
4.0
  0
LINE
  5
466
330
461
100
AcDbEntity
  8
LAYER-035
  6
Continuous
 62
     5
100
AcDbLine
 10
131.7977149160836
 20
-61.78685806293595
 30
0.0
 11
131.7977149160836
 21
-163.3212690539319
 31
0.0
  0
LINE
  5
467
330
461
100
AcDbEntity
  8
LAYER-035
  6
Continuous
 62
     5
100
AcDbLine
 10
401.7977149160836
 20
-61.78685806293595
 30
0.0
 11
401.7977149160836
 21
-163.3212690539319
 31
0.0
  0
LINE
  5
468
330
461
100
AcDbEntity
  8
LAYER-035
  6
Continuous
 62
     5
100
AcDbLine
 10
131.7977149160836
 20
-162.3212690539319
 30
0.0
 11
401.7977149160836
 21
-162.3212690539319
 31
0.0
  0
MTEXT
  5
469
330
461
100
AcDbEntity
  8
LAYER-036
  6
Continuous
 62
     5
100
AcDbMText
 10
266.7977149160836
 20
-161.8212690539319
 30
0.0
 40
4.0
 41
0.0
 71
     8
 72
     1
  1
270
  7
STRING_H
 73
     1
 44
1.0
  0
ENDBLK
  5
463
330
461
100
AcDbEntity
  8
0
100
AcDbBlockEnd
  0
ENDSEC
  0
SECTION
  2
ENTITIES
  0
LINE
  5
252
330
1F
100
AcDbEntity
  8
LAYER-033
  6
Continuous
 62
     1
100
AcDbLine
 10
-80.71560684896083
 20
-235.2017527596956
 30
0.0
 11
37.0295179814872
 21
-235.2017527596956
 31
0.0
  0
LINE
  5
253
330
1F
100
AcDbEntity
  8
LAYER-033
  6
Continuous
 62
     1
100
AcDbLine
 10
-80.71560684896083
 20
-243.287202861
 30
0.0
 11
-22.64859653968249
 21
-243.287202861
 31
0.0
  0
LINE
  5
254
330
1F
100
AcDbEntity
  8
LAYER-033
  6
Continuous
 62
     1
100
AcDbLine
 10
-80.71560684896083
 20
-227.1163026583913
 30
0.0
 11
-22.64859653968249
 21
-227.1163026583913
 31
0.0
  0
LINE
  5
255
330
1F
100
AcDbEntity
  8
LAYER-256
  6
CENTER
 62
     4
100
AcDbLine
 10
315.8160839160839
 20
302.2625359370637
 30
0.0
 11
315.8160839160839
 21
201.3805119339896
 31
0.0
  0
LINE
  5
256
330
1F
100
AcDbEntity
  8
LAYER-256
  6
Continuous
 62
     1
100
AcDbLine
 10
311.8160839160839
 20
294.2131419370641
 30
0.0
 11
319.8160839160839
 21
294.2131419370641
 31
0.0
  0
LINE
  5
257
330
1F
100
AcDbEntity
  8
LAYER-256
  6
Continuous
 62
     1
100
AcDbLine
 10
311.8160839160839
 20
294.2131419370641
 30
0.0
 11
311.8160839160839
 21
287.6891459370632
 31
0.0
  0
LINE
  5
258
330
1F
100
AcDbEntity
  8
LAYER-256
  6
Continuous
 62
     1
100
AcDbLine
 10
319.8160839160839
 20
294.2131419370641
 30
0.0
 11
319.8160839160839
 21
287.6891459370632
 31
0.0
  0
LINE
  5
259
330
1F
100
AcDbEntity
  8
LAYER-256
  6
Continuous
 62
     1
100
AcDbLine
 10
307.545579916082
 20
286.8163749370639
 30
0.0
 11
307.545579916082
 21
278.498971937063
 31
0.0
  0
LINE
  5
25A
330
1F
100
AcDbEntity
  8
LAYER-256
  6
Continuous
 62
     1
100
AcDbLine
 10
312.1841309160848
 20
286.8163749370639
 30
0.0
 11
312.1841309160848
 21
278.498971937063
 31
0.0
  0
LINE
  5
25B
330
1F
100
AcDbEntity
  8
LAYER-256
  6
Continuous
 62
     1
100
AcDbLine
 10
319.4480359160846
 20
286.8163749370639
 30
0.0
 11
319.4480359160846
 21
278.498971937063
 31
0.0
  0
LINE
  5
25C
330
1F
100
AcDbEntity
  8
LAYER-256
  6
Continuous
 62
     1
100
AcDbLine
 10
324.0865879160813
 20
286.8163749370639
 30
0.0
 11
324.0865879160813
 21
278.498971937063
 31
0.0
  0
ARC
  5
25D
330
1F
100
AcDbEntity
  8
LAYER-256
  6
Continuous
 62
     1
100
AcDbCircle
 10
309.8648559160849
 20
284.1711729370651
 30
0.0
 40
3.517973000000001
100
AcDbArc
 50
48.75617400294127
 51
131.2438259971144
  0
ARC
  5
25E
330
1F
100
AcDbEntity
  8
LAYER-256
  6
Continuous
 62
     1
100
AcDbCircle
 10
321.7673119160829
 20
284.1711729370651
 30
0.0
 40
3.517973000000001
100
AcDbArc
 50
48.75617400294127
 51
131.2438259970587
  0
LINE
  5
25F
330
1F
100
AcDbEntity
  8
LAYER-256
  6
Continuous
 62
     1
100
AcDbLine
 10
321.7673119160829
 20
287.6891459370632
 30
0.0
 11
309.8648559160849
 21
287.6891459370632
 31
0.0
  0
LINE
  5
260
330
1F
100
AcDbEntity
  8
LAYER-256
  6
Continuous
 62
     1
100
AcDbLine
 10
305.8472779160823
 20
278.498971937063
 30
0.0
 11
327.7695299160816
 21
278.498971937063
 31
0.0
  0
ARC
  5
261
330
1F
100
AcDbEntity
  8
LAYER-256
  6
Continuous
 62
     1
100
AcDbCircle
 10
315.8160839160839
 20
279.6957489370631
 30
0.0
 40
7.993397
100
AcDbArc
 50
62.97565100001703
 51
117.024348999983
  0
LINE
  5
262
330
1F
100
AcDbEntity
  8
LAYER-256
  6
Continuous
 62
     1
100
AcDbLine
 10
305.8472779160823
 20
276.0989719370651
 30
0.0
 11
344.8218529192016
 21
276.0989719370651
 31
0.0
  0
LINE
  5
263
330
1F
100
AcDbEntity
  8
LAYER-256
  6
Continuous
 62
     1
100
AcDbLine
 10
305.8472779160823
 20
278.498971937063
 30
0.0
 11
305.8472779160823
 21
276.0989719370651
 31
0.0
  0
LINE
  5
264
330
1F
100
AcDbEntity
  8
LAYER-256
  6
Continuous
 62
     1
100
AcDbLine
 10
307.545579916082
 20
267.7815699370627
 30
0.0
 11
307.545579916082
 21
276.0989719370651
 31
0.0
  0
LINE
  5
265
330
1F
100
AcDbEntity
  8
LAYER-256
  6
Continuous
 62
     1
100
AcDbLine
 10
312.1841309160848
 20
267.7815699370627
 30
0.0
 11
312.1841309160848
 21
276.0989719370651
 31
0.0
  0
LINE
  5
266
330
1F
100
AcDbEntity
  8
LAYER-256
  6
Continuous
 62
     1
100
AcDbLine
 10
319.4480359160846
 20
267.7815699370627
 30
0.0
 11
319.4480359160846
 21
276.0989719370651
 31
0.0
  0
LINE
  5
267
330
1F
100
AcDbEntity
  8
LAYER-256
  6
Continuous
 62
     1
100
AcDbLine
 10
324.0865879160813
 20
267.7815699370627
 30
0.0
 11
324.0865879160813
 21
276.0989719370651
 31
0.0
  0
ARC
  5
268
330
1F
100
AcDbEntity
  8
LAYER-256
  6
Continuous
 62
     1
100
AcDbCircle
 10
309.8648559160849
 20
270.4267719370661
 30
0.0
 40
3.517973000000001
100
AcDbArc
 50
228.7561740036015
 51
311.2438259963429
  0
ARC
  5
269
330
1F
100
AcDbEntity
  8
LAYER-256
  6
Continuous
 62
     1
100
AcDbCircle
 10
321.7673119160829
 20
270.4267719370661
 30
0.0
 40
3.517973000000001
100
AcDbArc
 50
228.7561740036572
 51
311.2438259963429
  0
ARC
  5
26A
330
1F
100
AcDbEntity
  8
LAYER-256
  6
Continuous
 62
     1
100
AcDbCircle
 10
315.8160839160839
 20
274.902194937065
 30
0.0
 40
7.993397
100
AcDbArc
 50
242.9756510000022
 51
297.0243489999978
  0
LINE
  5
26B
330
1F
100
AcDbEntity
  8
LAYER-256
  6
Continuous
 62
     1
100
AcDbLine
 10
305.8472779160823
 20
249.5087989370655
 30
0.0
 11
325.7848899160811
 21
249.5087989370655
 31
0.0
  0
LINE
  5
26C
330
1F
100
AcDbEntity
  8
LAYER-256
  6
Continuous
 62
     1
100
AcDbLine
 10
305.8472779160823
 20
251.9087989370634
 30
0.0
 11
305.8472779160823
 21
249.5087989370655
 31
0.0
  0
LINE
  5
26D
330
1F
100
AcDbEntity
  8
LAYER-256
  6
Continuous
 62
     1
100
AcDbLine
 10
325.7848899160811
 20
251.9087989370634
 30
0.0
 11
325.7848899160811
 21
249.5087989370655
 31
0.0
  0
LINE
  5
26E
330
1F
100
AcDbEntity
  8
LAYER-256
  6
Continuous
 62
     1
100
AcDbLine
 10
307.545579916082
 20
241.1913959370646
 30
0.0
 11
307.545579916082
 21
249.5087989370655
 31
0.0
  0
LINE
  5
26F
330
1F
100
AcDbEntity
  8
LAYER-256
  6
Continuous
 62
     1
100
AcDbLine
 10
312.1841309160848
 20
241.1913959370646
 30
0.0
 11
312.1841309160848
 21
249.5087989370655
 31
0.0
  0
LINE
  5
270
330
1F
100
AcDbEntity
  8
LAYER-256
  6
Continuous
 62
     1
100
AcDbLine
 10
319.4480359160846
 20
241.1913959370646
 30
0.0
 11
319.4480359160846
 21
249.5087989370655
 31
0.0
  0
LINE
  5
271
330
1F
100
AcDbEntity
  8
LAYER-256
  6
Continuous
 62
     1
100
AcDbLine
 10
324.0865879160813
 20
241.1913959370646
 30
0.0
 11
324.0865879160813
 21
249.5087989370655
 31
0.0
  0
ARC
  5
272
330
1F
100
AcDbEntity
  8
LAYER-256
  6
Continuous
 62
     1
100
AcDbCircle
 10
309.8648559160849
 20
243.8365979370634
 30
0.0
 40
3.517973000000001
100
AcDbArc
 50
228.7561739999785
 51
311.2438259999657
  0
ARC
  5
273
330
1F
100
AcDbEntity
  8
LAYER-256
  6
Continuous
 62
     1
100
AcDbCircle
 10
321.7673119160829
 20
243.8365979370634
 30
0.0
 40
3.517973000000001
100
AcDbArc
 50
228.7561740000342
 51
311.2438259999657
  0
ARC
  5
274
330
1F
100
AcDbEntity
  8
LAYER-256
  6
Continuous
 62
     1
100
AcDbCircle
 10
315.8160839160839
 20
248.3120219370654
 30
0.0
 40
7.993397
100
AcDbArc
 50
242.975651000017
 51
297.024348999983
  0
LINE
  5
275
330
1F
100
AcDbEntity
  8
LAYER-256
  6
Continuous
 62
     1
100
AcDbLine
 10
332.2751219160821
 20
290.545648937066
 30
0.0
 11
344.8218529192016
 21
290.545648937066
 31
0.0
  0
ARC
  5
276
330
1F
100
AcDbEntity
  8
LAYER-256
  6
Continuous
 62
     1
100
AcDbCircle
 10
293.1908599160809
 20
292.4203609370649
 30
0.0
 40
37.275857
100
AcDbArc
 50
338.0702610000024
 51
354.3383439999971
  0
ARC
  5
277
330
1F
100
AcDbEntity
  8
LAYER-256
  6
Continuous
 62
     1
100
AcDbCircle
 10
332.2751219160821
 20
288.545648937066
 30
0.0
 40
2.0
100
AcDbArc
 50
90.0
 51
174.3383440000451
  0
ARC
  5
278
330
1F
100
AcDbEntity
  8
LAYER-256
  6
Continuous
 62
     1
100
AcDbCircle
 10
411.8271519160819
 20
258.0253279370642
 30
0.0
 40
30.0
100
AcDbArc
 50
330.0449140000002
 51
90.0
  0
ARC
  5
279
330
1F
100
AcDbEntity
  8
LAYER-256
  6
Continuous
 62
     1
100
AcDbCircle
 10
411.8271519160819
 20
258.0253279370642
 30
0.0
 40
20.5
100
AcDbArc
 50
330.0449140026083
 51
90.0
  0
LINE
  5
27A
330
1F
100
AcDbEntity
  8
LAYER-256
  6
Continuous
 62
     1
100
AcDbLine
 10
391.7977149160836
 20
154.2131419370641
 30
0.0
 11
391.7977149160836
 21
-0.7868580629359485
 31
0.0
  0
LINE
  5
27B
330
1F
100
AcDbEntity
  8
LAYER-256
  6
Continuous
 62
     1
100
AcDbLine
 10
344.8218529192016
 20
276.0989719370651
 30
0.0
 11
344.8218529192016
 21
290.545648937066
 31
0.0
  0
LINE
  5
27C
330
1F
100
AcDbEntity
  8
LAYER-256
  6
Continuous
 62
     1
100
AcDbLine
 10
401.7977149160836
 20
-55.78685806293595
 30
0.0
 11
401.7977149160836
 21
-60.78685806293595
 31
0.0
  0
LINE
  5
27D
330
1F
100
AcDbEntity
  8
LAYER-256
  6
CENTER
 62
     4
100
AcDbLine
 10
266.7977149160836
 20
242.204587937065
 30
0.0
 11
266.7977149160836
 21
-73.91284206293437
 31
0.0
  0
LINE
  5
27E
330
1F
100
AcDbEntity
  8
LAYER-256
  6
Continuous
 62
     1
100
AcDbLine
 10
131.7977149160836
 20
-60.78685806293595
 30
0.0
 11
401.7977149160836
 21
-60.78685806293595
 31
0.0
  0
LINE
  5
27F
330
1F
100
AcDbEntity
  8
LAYER-256
  6
Continuous
 62
     1
100
AcDbLine
 10
131.7977149160836
 20
-55.78685806293595
 30
0.0
 11
181.7977149160836
 21
-55.78685806293595
 31
0.0
  0
LINE
  5
280
330
1F
100
AcDbEntity
  8
LAYER-256
  6
Continuous
 62
     1
100
AcDbLine
 10
181.7977149160836
 20
-10.78685806293595
 30
0.0
 11
191.7977149160836
 21
-10.78685806293595
 31
0.0
  0
LINE
  5
281
330
1F
100
AcDbEntity
  8
LAYER-256
  6
Continuous
 62
     1
100
AcDbLine
 10
131.7977149160836
 20
-55.78685806293595
 30
0.0
 11
131.7977149160836
 21
-60.78685806293595
 31
0.0
  0
LINE
  5
282
330
1F
100
AcDbEntity
  8
LAYER-256
  6
Continuous
 62
     1
100
AcDbLine
 10
141.7977149149467
 20
154.2131419370641
 30
0.0
 11
141.7977149149467
 21
-0.7868580629359485
 31
0.0
  0
LINE
  5
283
330
1F
100
AcDbEntity
  8
LAYER-256
  6
Continuous
 62
     1
100
AcDbLine
 10
186.7977149160836
 20
214.2131419370641
 30
0.0
 11
236.7977149160836
 21
214.2131419370641
 31
0.0
  0
LINE
  5
284
330
1F
100
AcDbEntity
  8
LAYER-256
  6
Continuous
 62
     1
100
AcDbLine
 10
144.9857809160815
 20
178.4489339370635
 30
0.0
 11
146.7330849160819
 21
178.4489339370635
 31
0.0
  0
LINE
  5
285
330
1F
100
AcDbEntity
  8
LAYER-256
  6
Continuous
 62
     1
100
AcDbLine
 10
144.9857809160815
 20
160.1597059370648
 30
0.0
 11
156.4201869124477
 21
160.1597059370648
 31
0.0
  0
LINE
  5
286
330
1F
100
AcDbEntity
  8
LAYER-256
  6
Continuous
 62
     1
100
AcDbLine
 10
144.9857809160815
 20
178.4489339370635
 30
0.0
 11
144.9857809160815
 21
160.1597059370648
 31
0.0
  0
LINE
  5
287
330
1F
100
AcDbEntity
  8
LAYER-256
  6
Continuous
 62
     1
100
AcDbLine
 10
146.7330849160819
 20
160.1597059370648
 30
0.0
 11
146.7330849160819
 21
154.2131419370641
 31
0.0
  0
LINE
  5
288
330
1F
100
AcDbEntity
  8
LAYER-256
  6
Continuous
 62
     1
100
AcDbLine
 10
154.7630849160807
 20
160.1597059370648
 30
0.0
 11
154.7630849160807
 21
154.2131419370641
 31
0.0
  0
LINE
  5
289
330
1F
100
AcDbEntity
  8
LAYER-256
  6
Continuous
 62
     1
100
AcDbLine
 10
156.4201869124477
 20
160.1597059370648
 30
0.0
 11
156.4201869124477
 21
166.6631059370617
 31
0.0
  0
LINE
  5
28A
330
1F
100
AcDbEntity
  8
LAYER-256
  6
Continuous
 62
     1
100
AcDbLine
 10
146.7330849160819
 20
178.4489339370635
 30
0.0
 11
146.7330849160819
 21
169.3614629370655
 31
0.0
  0
ARC
  5
28B
330
1F
100
AcDbEntity
  8
LAYER-256
  6
Continuous
 62
     1
100
AcDbCircle
 10
156.7468399160819
 20
197.5321879373916
 30
0.0
 40
29.897576
100
AcDbArc
 50
250.4313920002123
 51
267.5391280000256
  0
ARC
  5
28C
330
1F
100
AcDbEntity
  8
LAYER-256
  6
Continuous
 62
     1
100
AcDbCircle
 10
155.4201869160809
 20
166.6631059370617
 30
0.0
 40
1.0
100
AcDbArc
 50
0.0
 51
87.53912799996577
  0
LINE
  5
28D
330
1F
100
AcDbEntity
  8
LAYER-256
  6
CENTER
 62
     4
100
AcDbLine
 10
151.7977149160836
 20
-44.34988406293303
 30
0.0
 11
151.7977149160836
 21
-73.22336106293304
 31
0.0
  0
LINE
  5
28E
330
1F
100
AcDbEntity
  8
LAYER-256
  6
CENTER
 62
     4
100
AcDbLine
 10
381.7977149160836
 20
-44.34988406293303
 30
0.0
 11
381.7977149160836
 21
-73.22336106293304
 31
0.0
  0
LINE
  5
28F
330
1F
100
AcDbEntity
  8
LAYER-256
  6
Continuous
 62
     1
100
AcDbLine
 10
186.7977149160836
 20
-60.78685806293595
 30
0.0
 11
186.7977149160836
 21
-10.78685806293595
 31
0.0
  0
LINE
  5
290
330
1F
100
AcDbEntity
  8
LAYER-256
  6
Continuous
 62
     1
100
AcDbLine
 10
181.7977149160836
 20
-55.78685806293595
 30
0.0
 11
181.7977149160836
 21
-10.78685806293595
 31
0.0
  0
LINE
  5
291
330
1F
100
AcDbEntity
  8
LAYER-256
  6
Continuous
 62
     1
100
AcDbLine
 10
191.7977149160836
 20
-55.78685806293595
 30
0.0
 11
191.7977149160836
 21
209.2131419370641
 31
0.0
  0
LINE
  5
292
330
1F
100
AcDbEntity
  8
LAYER-256
  6
Continuous
 62
     1
100
AcDbLine
 10
191.7977149160836
 20
-55.78685806293595
 30
0.0
 11
341.7977149160836
 21
-55.78685806293595
 31
0.0
  0
LINE
  5
293
330
1F
100
AcDbEntity
  8
LAYER-256
  6
Continuous
 62
     1
100
AcDbLine
 10
351.7977149160836
 20
-10.78685806293595
 30
0.0
 11
341.7977149160836
 21
-10.78685806293595
 31
0.0
  0
LINE
  5
294
330
1F
100
AcDbEntity
  8
LAYER-256
  6
Continuous
 62
     1
100
AcDbLine
 10
346.7977149160836
 20
-60.78685806293595
 30
0.0
 11
346.7977149160836
 21
-10.78685806293595
 31
0.0
  0
LINE
  5
295
330
1F
100
AcDbEntity
  8
LAYER-256
  6
Continuous
 62
     1
100
AcDbLine
 10
351.7977149160836
 20
-55.78685806293595
 30
0.0
 11
351.7977149160836
 21
-10.78685806293595
 31
0.0
  0
LINE
  5
296
330
1F
100
AcDbEntity
  8
LAYER-256
  6
Continuous
 62
     1
100
AcDbLine
 10
341.7977149160836
 20
-55.78685806293595
 30
0.0
 11
341.7977149160836
 21
209.2131419370641
 31
0.0
  0
LINE
  5
297
330
1F
100
AcDbEntity
  8
LAYER-256
  6
Continuous
 62
     1
100
AcDbLine
 10
351.7977149160836
 20
-55.78685806293595
 30
0.0
 11
401.7977149160836
 21
-55.78685806293595
 31
0.0
  0
LINE
  5
298
330
1F
100
AcDbEntity
  8
LAYER-256
  6
CENTER
 62
     4
100
AcDbLine
 10
156.5565699160836
 20
-31.95123506293601
 30
0.0
 11
376.1889239160839
 21
-31.95123506293601
 31
0.0
  0
LINE
  5
299
330
1F
100
AcDbEntity
  8
LAYER-256
  6
Continuous
 62
     1
100
AcDbLine
 10
166.0835449160825
 20
-35.95123506293692
 30
0.0
 11
166.0835449160825
 21
-27.951235065
 31
0.0
  0
LINE
  5
29A
330
1F
100
AcDbEntity
  8
LAYER-256
  6
Continuous
 62
     1
100
AcDbLine
 10
166.0835449160825
 20
-35.95123506293692
 30
0.0
 11
172.6075409160833
 21
-35.95123506293692
 31
0.0
  0
LINE
  5
29B
330
1F
100
AcDbEntity
  8
LAYER-256
  6
Continuous
 62
     1
100
AcDbLine
 10
166.0835449160825
 20
-27.951235065
 30
0.0
 11
172.6075409160833
 21
-27.951235065
 31
0.0
  0
LINE
  5
29C
330
1F
100
AcDbEntity
  8
LAYER-256
  6
Continuous
 62
     1
100
AcDbLine
 10
173.4803119160827
 20
-40.2217390629379
 30
0.0
 11
181.7977149160836
 21
-40.2217390629379
 31
0.0
  0
LINE
  5
29D
330
1F
100
AcDbEntity
  8
LAYER-256
  6
Continuous
 62
     1
100
AcDbLine
 10
173.4803119160827
 20
-35.58318806293516
 30
0.0
 11
181.7977149160836
 21
-35.58318806293516
 31
0.0
  0
LINE
  5
29E
330
1F
100
AcDbEntity
  8
LAYER-256
  6
Continuous
 62
     1
100
AcDbLine
 10
173.4803119160827
 20
-28.31928306293537
 30
0.0
 11
181.7977149160836
 21
-28.31928306293537
 31
0.0
  0
LINE
  5
29F
330
1F
100
AcDbEntity
  8
LAYER-256
  6
Continuous
 62
     1
100
AcDbLine
 10
173.4803119160827
 20
-23.68073106293633
 30
0.0
 11
181.7977149160836
 21
-23.68073106293633
 31
0.0
  0
ARC
  5
2A0
330
1F
100
AcDbEntity
  8
LAYER-256
  6
Continuous
 62
     1
100
AcDbCircle
 10
176.1255139160815
 20
-37.90246406293352
 30
0.0
 40
3.517973000000001
100
AcDbArc
 50
138.7561740124119
 51
221.2438259876438
  0
ARC
  5
2A1
330
1F
100
AcDbEntity
  8
LAYER-256
  6
Continuous
 62
     1
100
AcDbCircle
 10
176.1255139160815
 20
-26.00000706293702
 30
0.0
 40
3.517973000000001
100
AcDbArc
 50
138.7561740123562
 51
221.2438260179628
  0
LINE
  5
2A2
330
1F
100
AcDbEntity
  8
LAYER-256
  6
Continuous
 62
     1
100
AcDbLine
 10
172.6075409160833
 20
-26.00000706293702
 30
0.0
 11
172.6075409160833
 21
-37.90246406293352
 31
0.0
  0
ARC
  5
2A3
330
1F
100
AcDbEntity
  8
LAYER-256
  6
Continuous
 62
     1
100
AcDbCircle
 10
180.6009379160835
 20
-31.95123506293601
 30
0.0
 40
7.993397
100
AcDbArc
 50
152.9756510041196
 51
207.0243489958805
  0
LINE
  5
2A4
330
1F
100
AcDbEntity
  8
LAYER-256
  6
Continuous
 62
     1
100
AcDbLine
 10
194.6329179160832
 20
-27.951235065
 30
0.0
 11
338.9625119160839
 21
-27.951235065
 31
0.0
  0
LINE
  5
2A5
330
1F
100
AcDbEntity
  8
LAYER-256
  6
Continuous
 62
     1
100
AcDbLine
 10
194.6329179160832
 20
-35.95123506293692
 30
0.0
 11
338.9625119160839
 21
-35.95123506293692
 31
0.0
  0
LINE
  5
2A6
330
1F
100
AcDbEntity
  8
LAYER-256
  6
Continuous
 62
     1
100
AcDbLine
 10
367.5118839160816
 20
-35.95123506293692
 30
0.0
 11
367.5118839160816
 21
-27.951235065
 31
0.0
  0
LINE
  5
2A7
330
1F
100
AcDbEntity
  8
LAYER-256
  6
Continuous
 62
     1
100
AcDbLine
 10
367.5118839160816
 20
-35.95123506293692
 30
0.0
 11
360.9878879160854
 21
-35.95123506293692
 31
0.0
  0
LINE
  5
2A8
330
1F
100
AcDbEntity
  8
LAYER-256
  6
Continuous
 62
     1
100
AcDbLine
 10
367.5118839160816
 20
-27.951235065
 30
0.0
 11
360.9878879160854
 21
-27.951235065
 31
0.0
  0
LINE
  5
2A9
330
1F
100
AcDbEntity
  8
LAYER-256
  6
Continuous
 62
     1
100
AcDbLine
 10
360.1151169160814
 20
-40.2217390629379
 30
0.0
 11
351.7977149160836
 21
-40.2217390629379
 31
0.0
  0
LINE
  5
2AA
330
1F
100
AcDbEntity
  8
LAYER-256
  6
Continuous
 62
     1
100
AcDbLine
 10
360.1151169160814
 20
-35.58318806293516
 30
0.0
 11
351.7977149160836
 21
-35.58318806293516
 31
0.0
  0
LINE
  5
2AB
330
1F
100
AcDbEntity
  8
LAYER-256
  6
Continuous
 62
     1
100
AcDbLine
 10
360.1151169160814
 20
-28.31928306293537
 30
0.0
 11
351.7977149160836
 21
-28.31928306293537
 31
0.0
  0
LINE
  5
2AC
330
1F
100
AcDbEntity
  8
LAYER-256
  6
Continuous
 62
     1
100
AcDbLine
 10
360.1151169160814
 20
-23.68073106293633
 30
0.0
 11
351.7977149160836
 21
-23.68073106293633
 31
0.0
  0
ARC
  5
2AD
330
1F
100
AcDbEntity
  8
LAYER-256
  6
Continuous
 62
     1
100
AcDbCircle
 10
357.4699149192011
 20
-37.90246406293352
 30
0.0
 40
3.517973000000001
100
AcDbArc
 50
318.7561731533791
 51
41.24382684656523
  0
ARC
  5
2AE
330
1F
100
AcDbEntity
  8
LAYER-256
  6
Continuous
 62
     1
100
AcDbCircle
 10
357.4699149192011
 20
-26.00000706293702
 30
0.0
 40
3.517973000000001
100
AcDbArc
 50
318.7561731230602
 51
41.24382684662092
  0
LINE
  5
2AF
330
1F
100
AcDbEntity
  8
LAYER-256
  6
Continuous
 62
     1
100
AcDbLine
 10
360.9878879160854
 20
-26.00000706293702
 30
0.0
 11
360.9878879160854
 21
-37.90246406293352
 31
0.0
  0
ARC
  5
2B0
330
1F
100
AcDbEntity
  8
LAYER-256
  6
Continuous
 62
     1
100
AcDbCircle
 10
352.9944919150839
 20
-31.95123506293601
 30
0.0
 40
7.993397
100
AcDbArc
 50
332.9756510032583
 51
27.02434899674169
  0
LINE
  5
2B1
330
1F
100
AcDbEntity
  8
LAYER-256
  6
Continuous
 62
     1
100
AcDbLine
 10
194.6329179160832
 20
209.2131419370641
 30
0.0
 11
194.6329179160832
 21
-55.78685806293595
 31
0.0
  0
LINE
  5
2B2
330
1F
100
AcDbEntity
  8
LAYER-256
  6
Continuous
 62
     1
100
AcDbLine
 10
186.7977149160836
 20
164.2131419370641
 30
0.0
 11
186.7977149160836
 21
214.2131419370641
 31
0.0
  0
LINE
  5
2B3
330
1F
100
AcDbEntity
  8
LAYER-256
  6
Continuous
 62
     1
100
AcDbLine
 10
236.7977149160836
 20
209.2131419370641
 30
0.0
 11
236.7977149160836
 21
214.2131419370641
 31
0.0
  0
LINE
  5
2B4
330
1F
100
AcDbEntity
  8
LAYER-256
  6
Continuous
 62
     1
100
AcDbLine
 10
191.7977149160836
 20
209.2131419370641
 30
0.0
 11
341.7977149160836
 21
209.2131419370641
 31
0.0
  0
LINE
  5
2B5
330
1F
100
AcDbEntity
  8
LAYER-256
  6
Continuous
 62
     1
100
AcDbLine
 10
186.7977149160836
 20
164.2131419370641
 30
0.0
 11
191.7977149160836
 21
164.2131419370641
 31
0.0
  0
LINE
  5
2B6
330
1F
100
AcDbEntity
  8
LAYER-256
  6
Continuous
 62
     1
100
AcDbLine
 10
346.7977149160836
 20
214.2131419370641
 30
0.0
 11
296.7977149160836
 21
214.2131419370641
 31
0.0
  0
LINE
  5
2B7
330
1F
100
AcDbEntity
  8
LAYER-256
  6
Continuous
 62
     1
100
AcDbLine
 10
346.7977149160836
 20
164.2131419370641
 30
0.0
 11
346.7977149160836
 21
214.2131419370641
 31
0.0
  0
LINE
  5
2B8
330
1F
100
AcDbEntity
  8
LAYER-256
  6
Continuous
 62
     1
100
AcDbLine
 10
296.7977149160836
 20
209.2131419370641
 30
0.0
 11
296.7977149160836
 21
214.2131419370641
 31
0.0
  0
LINE
  5
2B9
330
1F
100
AcDbEntity
  8
LAYER-256
  6
Continuous
 62
     1
100
AcDbLine
 10
346.7977149160836
 20
164.2131419370641
 30
0.0
 11
341.7977149160836
 21
164.2131419370641
 31
0.0
  0
LINE
  5
2BA
330
1F
100
AcDbEntity
  8
LAYER-256
  6
Continuous
 62
     1
100
AcDbLine
 10
338.9625119160839
 20
209.2131419370641
 30
0.0
 11
338.9625119160839
 21
-55.78685806293595
 31
0.0
  0
LINE
  5
2BB
330
1F
100
AcDbEntity
  8
LAYER-256
  6
Continuous
 62
     1
100
AcDbLine
 10
171.0835449160825
 20
181.3775189370638
 30
0.0
 11
171.0835449160825
 21
189.377518937065
 31
0.0
  0
LINE
  5
2BC
330
1F
100
AcDbEntity
  8
LAYER-256
  6
Continuous
 62
     1
100
AcDbLine
 10
171.0835449160825
 20
181.3775189370638
 30
0.0
 11
177.6075409124476
 21
181.3775189370638
 31
0.0
  0
LINE
  5
2BD
330
1F
100
AcDbEntity
  8
LAYER-256
  6
Continuous
 62
     1
100
AcDbLine
 10
171.0835449160825
 20
189.377518937065
 30
0.0
 11
177.6075409124476
 21
189.377518937065
 31
0.0
  0
LINE
  5
2BE
330
1F
100
AcDbEntity
  8
LAYER-256
  6
Continuous
 62
     1
100
AcDbLine
 10
178.4803119160827
 20
177.1070149370622
 30
0.0
 11
186.7977149160836
 21
177.1070149370622
 31
0.0
  0
LINE
  5
2BF
330
1F
100
AcDbEntity
  8
LAYER-256
  6
Continuous
 62
     1
100
AcDbLine
 10
178.4803119160827
 20
181.7455669370635
 30
0.0
 11
186.7977149160836
 21
181.7455669370635
 31
0.0
  0
LINE
  5
2C0
330
1F
100
AcDbEntity
  8
LAYER-256
  6
Continuous
 62
     1
100
AcDbLine
 10
178.4803119160827
 20
189.0094719370633
 30
0.0
 11
186.7977149160836
 21
189.0094719370633
 31
0.0
  0
LINE
  5
2C1
330
1F
100
AcDbEntity
  8
LAYER-256
  6
Continuous
 62
     1
100
AcDbLine
 10
178.4803119160827
 20
193.648022937066
 30
0.0
 11
186.7977149160836
 21
193.648022937066
 31
0.0
  0
ARC
  5
2C2
330
1F
100
AcDbEntity
  8
LAYER-256
  6
Continuous
 62
     1
100
AcDbCircle
 10
181.1255139160815
 20
179.4262909370651
 30
0.0
 40
3.517973000000001
100
AcDbArc
 50
138.7561740000342
 51
221.2438260019044
  0
ARC
  5
2C3
330
1F
100
AcDbEntity
  8
LAYER-256
  6
Continuous
 62
     1
100
AcDbCircle
 10
181.1255139160815
 20
191.3287479370662
 30
0.0
 40
3.517973000000001
100
AcDbArc
 50
138.7561740000342
 51
221.2438260000214
  0
LINE
  5
2C4
330
1F
100
AcDbEntity
  8
LAYER-256
  6
Continuous
 62
     1
100
AcDbLine
 10
177.6075409124476
 20
191.3287479370662
 30
0.0
 11
177.6075409124476
 21
179.4262909370651
 31
0.0
  0
ARC
  5
2C5
330
1F
100
AcDbEntity
  8
LAYER-256
  6
Continuous
 62
     1
100
AcDbCircle
 10
185.6009379160835
 20
185.3775189370629
 30
0.0
 40
7.993397
100
AcDbArc
 50
152.9756509999948
 51
207.0243490029575
  0
LINE
  5
2C6
330
1F
100
AcDbEntity
  8
LAYER-256
  6
CENTER
 62
     4
100
AcDbLine
 10
163.0345619160837
 20
185.3775189370629
 30
0.0
 11
368.2078659160836
 21
185.3775189370629
 31
0.0
  0
LINE
  5
2C7
330
1F
100
AcDbEntity
  8
LAYER-256
  6
Continuous
 62
     1
100
AcDbLine
 10
194.6329179160832
 20
181.3775189370638
 30
0.0
 11
338.9625119160839
 21
181.3775189370638
 31
0.0
  0
LINE
  5
2C8
330
1F
100
AcDbEntity
  8
LAYER-256
  6
Continuous
 62
     1
100
AcDbLine
 10
194.6329179160832
 20
189.377518937065
 30
0.0
 11
338.9625119160839
 21
189.377518937065
 31
0.0
  0
LINE
  5
2C9
330
1F
100
AcDbEntity
  8
LAYER-256
  6
Continuous
 62
     1
100
AcDbLine
 10
362.5118839160816
 20
181.3775189370638
 30
0.0
 11
362.5118839160816
 21
189.377518937065
 31
0.0
  0
LINE
  5
2CA
330
1F
100
AcDbEntity
  8
LAYER-256
  6
Continuous
 62
     1
100
AcDbLine
 10
362.5118839160816
 20
181.3775189370638
 30
0.0
 11
355.9878879160854
 21
181.3775189370638
 31
0.0
  0
LINE
  5
2CB
330
1F
100
AcDbEntity
  8
LAYER-256
  6
Continuous
 62
     1
100
AcDbLine
 10
362.5118839160816
 20
189.377518937065
 30
0.0
 11
355.9878879160854
 21
189.377518937065
 31
0.0
  0
LINE
  5
2CC
330
1F
100
AcDbEntity
  8
LAYER-256
  6
Continuous
 62
     1
100
AcDbLine
 10
355.1151169124474
 20
177.1070149370622
 30
0.0
 11
346.7977149160836
 21
177.1070149370622
 31
0.0
  0
LINE
  5
2CD
330
1F
100
AcDbEntity
  8
LAYER-256
  6
Continuous
 62
     1
100
AcDbLine
 10
355.1151169124474
 20
181.7455669370635
 30
0.0
 11
346.7977149160836
 21
181.7455669370635
 31
0.0
  0
LINE
  5
2CE
330
1F
100
AcDbEntity
  8
LAYER-256
  6
Continuous
 62
     1
100
AcDbLine
 10
355.1151169124474
 20
189.0094719370633
 30
0.0
 11
346.7977149160836
 21
189.0094719370633
 31
0.0
  0
LINE
  5
2CF
330
1F
100
AcDbEntity
  8
LAYER-256
  6
Continuous
 62
     1
100
AcDbLine
 10
355.1151169124474
 20
193.648022937066
 30
0.0
 11
346.7977149160836
 21
193.648022937066
 31
0.0
  0
ARC
  5
2D0
330
1F
100
AcDbEntity
  8
LAYER-256
  6
Continuous
 62
     1
100
AcDbCircle
 10
352.4699149160826
 20
179.4262909370651
 30
0.0
 40
3.517973000000001
100
AcDbArc
 50
318.7561731459604
 51
41.243826852101
  0
ARC
  5
2D1
330
1F
100
AcDbEntity
  8
LAYER-256
  6
Continuous
 62
     1
100
AcDbCircle
 10
352.4699149160826
 20
191.328747937066
 30
0.0
 40
3.517973000000001
100
AcDbArc
 50
318.7561731478454
 51
41.24382685210308
  0
LINE
  5
2D2
330
1F
100
AcDbEntity
  8
LAYER-256
  6
Continuous
 62
     1
100
AcDbLine
 10
355.9878879160854
 20
191.328747937066
 30
0.0
 11
355.9878879160854
 21
179.4262909370651
 31
0.0
  0
ARC
  5
2D3
330
1F
100
AcDbEntity
  8
LAYER-256
  6
Continuous
 62
     1
100
AcDbCircle
 10
347.9944919160837
 20
185.3775189370629
 30
0.0
 40
7.993397
100
AcDbArc
 50
332.9756510000096
 51
27.02434900000522
  0
LINE
  5
2D4
330
1F
100
AcDbEntity
  8
LAYER-256
  6
Continuous
 62
     1
100
AcDbLine
 10
194.6329179160832
 20
154.2131419370641
 30
0.0
 11
338.9625119160839
 21
154.2131419370641
 31
0.0
  0
LINE
  5
2D5
330
1F
100
AcDbEntity
  8
LAYER-256
  6
Continuous
 62
     1
100
AcDbLine
 10
194.6329179160832
 20
-0.7868580629359485
 30
0.0
 11
338.9625119160839
 21
-0.7868580629359485
 31
0.0
  0
LINE
  5
2D6
330
1F
100
AcDbEntity
  8
LAYER-256
  6
Continuous
 62
     1
100
AcDbLine
 10
320.8160839160839
 20
240.4496669370634
 30
0.0
 11
320.8160839160839
 21
214.2131419370641
 31
0.0
  0
LINE
  5
2D7
330
1F
100
AcDbEntity
  8
LAYER-256
  6
Continuous
 62
     1
100
AcDbLine
 10
310.8160839160839
 20
240.4496669370634
 30
0.0
 11
310.8160839160839
 21
214.2131419370641
 31
0.0
  0
LINE
  5
2D8
330
1F
100
AcDbEntity
  8
LAYER-256
  6
Continuous
 62
     1
100
AcDbLine
 10
305.3884969160847
 20
251.9087989370634
 30
0.0
 11
326.2436709160832
 21
251.9087989370634
 31
0.0
  0
LINE
  5
2D9
330
1F
100
AcDbEntity
  8
LAYER-256
  6
Continuous
 62
     1
100
AcDbLine
 10
326.2436709160832
 20
266.9087989370634
 30
0.0
 11
305.3884969160847
 21
266.9087989370634
 31
0.0
  0
LINE
  5
2DA
330
1F
100
AcDbEntity
  8
LAYER-256
  6
Continuous
 62
     1
100
AcDbLine
 10
326.2436709160832
 20
266.9087989370634
 30
0.0
 11
326.2436709160832
 21
251.9087989370634
 31
0.0
  0
LINE
  5
2DB
330
1F
100
AcDbEntity
  8
LAYER-256
  6
Continuous
 62
     1
100
AcDbLine
 10
305.3884969160847
 20
266.9087989370634
 30
0.0
 11
305.3884969160847
 21
251.9087989370634
 31
0.0
  0
LINE
  5
2DC
330
1F
100
AcDbEntity
  8
LAYER-256
  6
CENTER
 62
     4
100
AcDbLine
 10
-421.3913690839161
 20
300.0116999370654
 30
0.0
 11
-421.3913690839161
 21
233.3277169370628
 31
0.0
  0
LINE
  5
2DD
330
1F
100
AcDbEntity
  8
LAYER-256
  6
Continuous
 62
     1
100
AcDbLine
 10
-417.3913690839161
 20
294.2131419370641
 30
0.0
 11
-417.3913690839161
 21
287.6891459370632
 31
0.0
  0
LINE
  5
2DE
330
1F
100
AcDbEntity
  8
LAYER-256
  6
Continuous
 62
     1
100
AcDbLine
 10
-425.3913690839161
 20
294.2131419370641
 30
0.0
 11
-425.3913690839161
 21
287.6891459370632
 31
0.0
  0
LINE
  5
2DF
330
1F
100
AcDbEntity
  8
LAYER-256
  6
Continuous
 62
     1
100
AcDbLine
 10
-413.1208650839151
 20
286.8163749370639
 30
0.0
 11
-413.1208650839151
 21
278.498971937063
 31
0.0
  0
LINE
  5
2E0
330
1F
100
AcDbEntity
  8
LAYER-256
  6
Continuous
 62
     1
100
AcDbLine
 10
-417.759416082005
 20
286.8163749370639
 30
0.0
 11
-417.759416082005
 21
278.498971937063
 31
0.0
  0
LINE
  5
2E1
330
1F
100
AcDbEntity
  8
LAYER-256
  6
Continuous
 62
     1
100
AcDbLine
 10
-425.0233220839161
 20
286.8163749370639
 30
0.0
 11
-425.0233220839161
 21
278.498971937063
 31
0.0
  0
LINE
  5
2E2
330
1F
100
AcDbEntity
  8
LAYER-256
  6
Continuous
 62
     1
100
AcDbLine
 10
-429.6618730839189
 20
286.8163749370639
 30
0.0
 11
-429.6618730839189
 21
278.498971937063
 31
0.0
  0
ARC
  5
2E3
330
1F
100
AcDbEntity
  8
LAYER-256
  6
Continuous
 62
     1
100
AcDbCircle
 10
-415.440141083918
 20
284.1711729370651
 30
0.0
 40
3.517973000000001
100
AcDbArc
 50
48.75617318686222
 51
131.2438268130821
  0
ARC
  5
2E4
330
1F
100
AcDbEntity
  8
LAYER-256
  6
Continuous
 62
     1
100
AcDbCircle
 10
-427.342597083916
 20
284.1711729370651
 30
0.0
 40
3.517973000000001
100
AcDbArc
 50
48.7561731869179
 51
131.2438268131378
  0
LINE
  5
2E5
330
1F
100
AcDbEntity
  8
LAYER-256
  6
Continuous
 62
     1
100
AcDbLine
 10
-427.342597083916
 20
287.6891459370632
 30
0.0
 11
-415.440141083918
 21
287.6891459370632
 31
0.0
  0
LINE
  5
2E6
330
1F
100
AcDbEntity
  8
LAYER-256
  6
Continuous
 62
     1
100
AcDbLine
 10
-411.4225630839153
 20
278.498971937063
 30
0.0
 11
-431.3601750839187
 21
278.498971937063
 31
0.0
  0
ARC
  5
2E7
330
1F
100
AcDbEntity
  8
LAYER-256
  6
Continuous
 62
     1
100
AcDbCircle
 10
-421.3913690839161
 20
279.6957489370631
 30
0.0
 40
7.993397
100
AcDbArc
 50
62.97565084128372
 51
117.0243491587279
  0
LINE
  5
2E8
330
1F
100
AcDbEntity
  8
LAYER-256
  6
Continuous
 62
     1
100
AcDbLine
 10
-411.4225630839153
 20
276.0989719370651
 30
0.0
 11
-431.3601750839187
 21
276.0989719370651
 31
0.0
  0
LINE
  5
2E9
330
1F
100
AcDbEntity
  8
LAYER-256
  6
Continuous
 62
     1
100
AcDbLine
 10
-411.4225630839153
 20
278.498971937063
 30
0.0
 11
-411.4225630839153
 21
276.0989719370651
 31
0.0
  0
LINE
  5
2EA
330
1F
100
AcDbEntity
  8
LAYER-256
  6
Continuous
 62
     1
100
AcDbLine
 10
-431.3601750839187
 20
278.498971937063
 30
0.0
 11
-431.3601750839187
 21
276.0989719370651
 31
0.0
  0
LINE
  5
2EB
330
1F
100
AcDbEntity
  8
LAYER-256
  6
Continuous
 62
     1
100
AcDbLine
 10
-413.1208650839151
 20
267.7815699370627
 30
0.0
 11
-413.1208650839151
 21
276.0989719370651
 31
0.0
  0
LINE
  5
2EC
330
1F
100
AcDbEntity
  8
LAYER-256
  6
Continuous
 62
     1
100
AcDbLine
 10
-417.759416082005
 20
267.7815699370627
 30
0.0
 11
-417.759416082005
 21
276.0989719370651
 31
0.0
  0
LINE
  5
2ED
330
1F
100
AcDbEntity
  8
LAYER-256
  6
Continuous
 62
     1
100
AcDbLine
 10
-425.0233220839161
 20
267.7815699370627
 30
0.0
 11
-425.0233220839161
 21
276.0989719370651
 31
0.0
  0
LINE
  5
2EE
330
1F
100
AcDbEntity
  8
LAYER-256
  6
Continuous
 62
     1
100
AcDbLine
 10
-429.6618730839189
 20
267.7815699370627
 30
0.0
 11
-429.6618730839189
 21
276.0989719370651
 31
0.0
  0
ARC
  5
2EF
330
1F
100
AcDbEntity
  8
LAYER-256
  6
Continuous
 62
     1
100
AcDbCircle
 10
-415.440141083918
 20
270.4267719370661
 30
0.0
 40
3.517973000000001
100
AcDbArc
 50
228.7561740036572
 51
311.2438259963985
  0
ARC
  5
2F0
330
1F
100
AcDbEntity
  8
LAYER-256
  6
Continuous
 62
     1
100
AcDbCircle
 10
-427.342597083916
 20
270.4267719370661
 30
0.0
 40
3.517973000000001
100
AcDbArc
 50
228.7561740036015
 51
311.2438259963429
  0
ARC
  5
2F1
330
1F
100
AcDbEntity
  8
LAYER-256
  6
Continuous
 62
     1
100
AcDbCircle
 10
-421.3913690839161
 20
274.902194937065
 30
0.0
 40
7.993397
100
AcDbArc
 50
242.9756509999964
 51
297.024348999992
  0
LINE
  5
2F2
330
1F
100
AcDbEntity
  8
LAYER-256
  6
Continuous
 62
     1
100
AcDbLine
 10
-411.4225630839153
 20
249.5087989370655
 30
0.0
 11
-431.3601750839187
 21
249.5087989370655
 31
0.0
  0
LINE
  5
2F3
330
1F
100
AcDbEntity
  8
LAYER-256
  6
Continuous
 62
     1
100
AcDbLine
 10
-411.4225630839153
 20
251.9087989370634
 30
0.0
 11
-411.4225630839153
 21
249.5087989370655
 31
0.0
  0
LINE
  5
2F4
330
1F
100
AcDbEntity
  8
LAYER-256
  6
Continuous
 62
     1
100
AcDbLine
 10
-431.3601750839187
 20
251.9087989370634
 30
0.0
 11
-431.3601750839187
 21
249.5087989370655
 31
0.0
  0
LINE
  5
2F5
330
1F
100
AcDbEntity
  8
LAYER-256
  6
Continuous
 62
     1
100
AcDbLine
 10
-413.1208650839151
 20
241.1913959370646
 30
0.0
 11
-413.1208650839151
 21
249.5087989370655
 31
0.0
  0
LINE
  5
2F6
330
1F
100
AcDbEntity
  8
LAYER-256
  6
Continuous
 62
     1
100
AcDbLine
 10
-417.759416082005
 20
241.1913959370646
 30
0.0
 11
-417.759416082005
 21
249.5087989370655
 31
0.0
  0
LINE
  5
2F7
330
1F
100
AcDbEntity
  8
LAYER-256
  6
Continuous
 62
     1
100
AcDbLine
 10
-425.0233220839161
 20
241.1913959370646
 30
0.0
 11
-425.0233220839161
 21
249.5087989370655
 31
0.0
  0
LINE
  5
2F8
330
1F
100
AcDbEntity
  8
LAYER-256
  6
Continuous
 62
     1
100
AcDbLine
 10
-429.6618730839189
 20
241.1913959370646
 30
0.0
 11
-429.6618730839189
 21
249.5087989370655
 31
0.0
  0
ARC
  5
2F9
330
1F
100
AcDbEntity
  8
LAYER-256
  6
Continuous
 62
     1
100
AcDbCircle
 10
-415.440141083918
 20
243.8365979370634
 30
0.0
 40
3.517973000000001
100
AcDbArc
 50
228.7561740000342
 51
311.2438260000214
  0
ARC
  5
2FA
330
1F
100
AcDbEntity
  8
LAYER-256
  6
Continuous
 62
     1
100
AcDbCircle
 10
-427.342597083916
 20
243.8365979370634
 30
0.0
 40
3.517973000000001
100
AcDbArc
 50
228.7561739999785
 51
311.2438259999657
  0
ARC
  5
2FB
330
1F
100
AcDbEntity
  8
LAYER-256
  6
Continuous
 62
     1
100
AcDbCircle
 10
-421.3913690839161
 20
248.3120219370654
 30
0.0
 40
7.993397
100
AcDbArc
 50
242.9756510000112
 51
297.0243489999772
  0
LINE
  5
2FC
330
1F
100
AcDbEntity
  8
LAYER-256
  6
Continuous
 62
     1
100
AcDbLine
 10
-442.9097380839173
 20
273.9526439370662
 30
0.0
 11
-442.9097380839173
 21
266.9087989370634
 31
0.0
  0
LINE
  5
2FD
330
1F
100
AcDbEntity
  8
LAYER-256
  6
Continuous
 62
     1
100
AcDbLine
 10
-452.9097380839173
 20
273.9526439370662
 30
0.0
 11
-452.9097380839173
 21
266.9087989370634
 31
0.0
  0
LINE
  5
2FE
330
1F
100
AcDbEntity
  8
LAYER-256
  6
Continuous
 62
     1
100
AcDbLine
 10
-467.2334640839151
 20
266.9087989370634
 30
0.0
 11
-467.2334640839151
 21
251.9087989370634
 31
0.0
  0
LINE
  5
2FF
330
1F
100
AcDbEntity
  8
LAYER-256
  6
Continuous
 62
     1
100
AcDbLine
 10
-452.9097380839173
 20
273.9526439370662
 30
0.0
 11
-442.9097380839173
 21
273.9526439370662
 31
0.0
  0
LINE
  5
300
330
1F
100
AcDbEntity
  8
LAYER-256
  6
Continuous
 62
     1
100
AcDbLine
 10
-452.9097380839173
 20
251.9087989370634
 30
0.0
 11
-452.9097380839173
 21
214.2131419370641
 31
0.0
  0
LINE
  5
301
330
1F
100
AcDbEntity
  8
LAYER-256
  6
Continuous
 62
     1
100
AcDbLine
 10
-442.9097380839173
 20
251.9087989370634
 30
0.0
 11
-442.9097380839173
 21
214.2131419370641
 31
0.0
  0
LINE
  5
302
330
1F
100
AcDbEntity
  8
LAYER-256
  6
Continuous
 62
     1
100
AcDbLine
 10
-473.891369083917
 20
214.2131419370641
 30
0.0
 11
-103.891369083917
 21
214.2131419370641
 31
0.0
  0
LINE
  5
303
330
1F
100
AcDbEntity
  8
LAYER-256
  6
Continuous
 62
     1
100
AcDbLine
 10
-473.891369083917
 20
164.2131419370641
 30
0.0
 11
-420.5741610850246
 21
164.2131419370641
 31
0.0
  0
LINE
  5
304
330
1F
100
AcDbEntity
  8
LAYER-256
  6
Continuous
 62
     1
100
AcDbLine
 10
-449.7983070839152
 20
-10.78685806293595
 30
0.0
 11
-449.7983070839152
 21
-55.78685806293595
 31
0.0
  0
LINE
  5
305
330
1F
100
AcDbEntity
  8
LAYER-256
  6
Continuous
 62
     1
100
AcDbLine
 10
-427.9844320839172
 20
-10.78685806293595
 30
0.0
 11
-427.9844320839172
 21
-55.78685806293595
 31
0.0
  0
LINE
  5
306
330
1F
100
AcDbEntity
  8
LAYER-256
  6
CENTER
 62
     4
100
AcDbLine
 10
-421.8471360839155
 20
-31.95123506293601
 30
0.0
 11
-454.6242900843636
 21
-31.95123506293601
 31
0.0
  0
CIRCLE
  5
307
330
1F
100
AcDbEntity
  8
LAYER-256
  6
Continuous
 62
     1
100
AcDbCircle
 10
-438.891369083917
 20
-31.95123506293601
 30
0.0
 40
4.0
  0
CIRCLE
  5
308
330
1F
100
AcDbEntity
  8
LAYER-256
  6
Continuous
 62
     1
100
AcDbCircle
 10
-438.891369083917
 20
-31.95123506293601
 30
0.0
 40
8.25
  0
LINE
  5
309
330
1F
100
AcDbEntity
  8
LAYER-256
  6
Continuous
 62
     1
100
AcDbLine
 10
-438.891369083917
 20
-22.42495606293448
 30
0.0
 11
-430.6413690839188
 21
-27.18809606293451
 31
0.0
  0
LINE
  5
30A
330
1F
100
AcDbEntity
  8
LAYER-256
  6
Continuous
 62
     1
100
AcDbLine
 10
-430.6413690839188
 20
-27.18809606293451
 30
0.0
 11
-430.6413690839188
 21
-36.71437506293603
 31
0.0
  0
LINE
  5
30B
330
1F
100
AcDbEntity
  8
LAYER-256
  6
Continuous
 62
     1
100
AcDbLine
 10
-430.6413690839188
 20
-36.71437506293603
 30
0.0
 11
-438.891369083917
 21
-41.47751506293605
 31
0.0
  0
LINE
  5
30C
330
1F
100
AcDbEntity
  8
LAYER-256
  6
Continuous
 62
     1
100
AcDbLine
 10
-438.891369083917
 20
-41.47751506293605
 30
0.0
 11
-447.1413690839152
 21
-36.71437506293603
 31
0.0
  0
LINE
  5
30D
330
1F
100
AcDbEntity
  8
LAYER-256
  6
Continuous
 62
     1
100
AcDbLine
 10
-447.1413690839152
 20
-36.71437506293603
 30
0.0
 11
-447.1413690839152
 21
-27.18809606293451
 31
0.0
  0
LINE
  5
30E
330
1F
100
AcDbEntity
  8
LAYER-256
  6
Continuous
 62
     1
100
AcDbLine
 10
-447.1413690839152
 20
-27.18809606293451
 30
0.0
 11
-438.891369083917
 21
-22.42495606293448
 31
0.0
  0
LINE
  5
30F
330
1F
100
AcDbEntity
  8
LAYER-256
  6
CENTER
 62
     4
100
AcDbLine
 10
-438.891369083917
 20
-10.78685806293595
 30
0.0
 11
-438.891369083917
 21
-73.22336106293494
 31
0.0
  0
LINE
  5
310
330
1F
100
AcDbEntity
  8
LAYER-256
  6
Continuous
 62
     1
100
AcDbLine
 10
-457.791369083917
 20
164.2131419370641
 30
0.0
 11
-457.791369083917
 21
-10.78685806293595
 31
0.0
  0
LINE
  5
311
330
1F
100
AcDbEntity
  8
LAYER-256
  6
Continuous
 62
     1
100
AcDbLine
 10
-446.5355450839159
 20
154.2131419370641
 30
0.0
 11
-446.5355450839159
 21
-0.7868580629359485
 31
0.0
  0
LINE
  5
312
330
1F
100
AcDbEntity
  8
LAYER-256
  6
Continuous
 62
     1
100
AcDbLine
 10
-446.5355450839159
 20
154.2131419370641
 30
0.0
 11
-345.0629150816719
 21
154.2131419370641
 31
0.0
  0
LINE
  5
313
330
1F
100
AcDbEntity
  8
LAYER-256
  6
Continuous
 62
     1
100
AcDbLine
 10
-446.5355450839159
 20
-0.7868580629359485
 30
0.0
 11
-345.0629150816719
 21
-0.7868580629359485
 31
0.0
  0
CIRCLE
  5
314
330
1F
100
AcDbEntity
  8
LAYER-256
  6
Continuous
 62
     1
100
AcDbCircle
 10
-303.8920570850246
 20
176.5453829370632
 30
0.0
 40
4.2875
  0
ARC
  5
315
330
1F
100
AcDbEntity
  8
LAYER-256
  6
Continuous
 62
     1
100
AcDbCircle
 10
-303.8920570850246
 20
176.5453829370632
 30
0.0
 40
7.962500000000001
100
AcDbArc
 50
0.0
 51
180.0
  0
LINE
  5
316
330
1F
100
AcDbEntity
  8
LAYER-256
  6
Continuous
 62
     1
100
AcDbLine
 10
-311.8545570839158
 20
176.5453829370632
 30
0.0
 11
-311.8545570839158
 21
161.6463469370661
 31
0.0
  0
LINE
  5
317
330
1F
100
AcDbEntity
  8
LAYER-256
  6
Continuous
 62
     1
100
AcDbLine
 10
-295.9295570807988
 20
176.5453829370632
 30
0.0
 11
-295.9295570807988
 21
161.6463469370661
 31
0.0
  0
LINE
  5
318
330
1F
100
AcDbEntity
  8
LAYER-256
  6
Continuous
 62
     1
100
AcDbLine
 10
-308.9127480839168
 20
171.3631419370655
 30
0.0
 11
-308.9127480839168
 21
165.0514839370659
 31
0.0
  0
LINE
  5
319
330
1F
100
AcDbEntity
  8
LAYER-256
  6
Continuous
 62
     1
100
AcDbLine
 10
-298.8713660839173
 20
171.3631419370655
 30
0.0
 11
-298.8713660839173
 21
165.0514839370659
 31
0.0
  0
LINE
  5
31A
330
1F
100
AcDbEntity
  8
LAYER-256
  6
Continuous
 62
     1
100
AcDbLine
 10
-311.8545570839158
 20
161.6463469370661
 30
0.0
 11
-295.9295570807988
 21
161.6463469370661
 31
0.0
  0
LINE
  5
31B
330
1F
100
AcDbEntity
  8
LAYER-256
  6
Continuous
 62
     1
100
AcDbLine
 10
-308.9127480839168
 20
161.6463469370661
 30
0.0
 11
-308.9127480839168
 21
154.2131419370641
 31
0.0
  0
LINE
  5
31C
330
1F
100
AcDbEntity
  8
LAYER-256
  6
Continuous
 62
     1
100
AcDbLine
 10
-298.8713660839173
 20
161.6463469370661
 30
0.0
 11
-298.8713660839173
 21
154.2131419370641
 31
0.0
  0
CIRCLE
  5
31D
330
1F
100
AcDbEntity
  8
LAYER-256
  6
Continuous
 62
     1
100
AcDbCircle
 10
-273.8906810839169
 20
176.5453829370632
 30
0.0
 40
4.2875
  0
ARC
  5
31E
330
1F
100
AcDbEntity
  8
LAYER-256
  6
Continuous
 62
     1
100
AcDbCircle
 10
-273.8906810839169
 20
176.5453829370632
 30
0.0
 40
7.962500000000001
100
AcDbArc
 50
0.0
 51
180.0
  0
LINE
  5
31F
330
1F
100
AcDbEntity
  8
LAYER-256
  6
Continuous
 62
     1
100
AcDbLine
 10
-265.9281810839182
 20
176.5453829370632
 30
0.0
 11
-265.9281810839182
 21
161.6463469370661
 31
0.0
  0
LINE
  5
320
330
1F
100
AcDbEntity
  8
LAYER-256
  6
Continuous
 62
     1
100
AcDbLine
 10
-281.8531810839156
 20
176.5453829370632
 30
0.0
 11
-281.8531810839156
 21
161.6463469370661
 31
0.0
  0
LINE
  5
321
330
1F
100
AcDbEntity
  8
LAYER-256
  6
Continuous
 62
     1
100
AcDbLine
 10
-268.8699900839172
 20
171.3631419370655
 30
0.0
 11
-268.8699900839172
 21
165.0514839370659
 31
0.0
  0
LINE
  5
322
330
1F
100
AcDbEntity
  8
LAYER-256
  6
Continuous
 62
     1
100
AcDbLine
 10
-278.9113720839166
 20
171.3631419370655
 30
0.0
 11
-278.9113720839166
 21
165.0514839370659
 31
0.0
  0
LINE
  5
323
330
1F
100
AcDbEntity
  8
LAYER-256
  6
Continuous
 62
     1
100
AcDbLine
 10
-265.9281810839182
 20
161.6463469370661
 30
0.0
 11
-281.8531810839156
 21
161.6463469370661
 31
0.0
  0
LINE
  5
324
330
1F
100
AcDbEntity
  8
LAYER-256
  6
Continuous
 62
     1
100
AcDbLine
 10
-268.8699900839172
 20
161.6463469370661
 30
0.0
 11
-268.8699900839172
 21
154.2131419370641
 31
0.0
  0
LINE
  5
325
330
1F
100
AcDbEntity
  8
LAYER-256
  6
Continuous
 62
     1
100
AcDbLine
 10
-278.9113720839166
 20
161.6463469370661
 30
0.0
 11
-278.9113720839166
 21
154.2131419370641
 31
0.0
  0
LINE
  5
326
330
1F
100
AcDbEntity
  8
LAYER-256
  6
Continuous
 62
     1
100
AcDbLine
 10
-265.9281810839182
 20
164.2131419370641
 30
0.0
 11
-206.7584400839176
 21
164.2131419370641
 31
0.0
  0
LINE
  5
327
330
1F
100
AcDbEntity
  8
LAYER-256
  6
Continuous
 62
     1
100
AcDbLine
 10
-295.9295570807988
 20
164.2131419370641
 30
0.0
 11
-281.8531810839156
 21
164.2131419370641
 31
0.0
  0
LINE
  5
328
330
1F
100
AcDbEntity
  8
LAYER-256
  6
Continuous
 62
     1
100
AcDbLine
 10
-404.6491610839164
 20
164.2131419370641
 30
0.0
 11
-390.5727850839182
 21
164.2131419370641
 31
0.0
  0
LINE
  5
329
330
1F
100
AcDbEntity
  8
LAYER-256
  6
CENTER
 62
     4
100
AcDbLine
 10
-421.8471360839155
 20
185.3775189370629
 30
0.0
 11
-454.6242900843636
 21
185.3775189370629
 31
0.0
  0
CIRCLE
  5
32A
330
1F
100
AcDbEntity
  8
LAYER-256
  6
Continuous
 62
     1
100
AcDbCircle
 10
-438.891369083917
 20
185.3775189370629
 30
0.0
 40
4.0
  0
CIRCLE
  5
32B
330
1F
100
AcDbEntity
  8
LAYER-256
  6
Continuous
 62
     1
100
AcDbCircle
 10
-438.891369083917
 20
185.3775189370629
 30
0.0
 40
8.25
  0
LINE
  5
32C
330
1F
100
AcDbEntity
  8
LAYER-256
  6
Continuous
 62
     1
100
AcDbLine
 10
-438.891369083917
 20
175.8512399370626
 30
0.0
 11
-430.6413690839188
 21
180.6143799370626
 31
0.0
  0
LINE
  5
32D
330
1F
100
AcDbEntity
  8
LAYER-256
  6
Continuous
 62
     1
100
AcDbLine
 10
-430.6413690839188
 20
180.6143799370626
 30
0.0
 11
-430.6413690839188
 21
190.1406589370641
 31
0.0
  0
LINE
  5
32E
330
1F
100
AcDbEntity
  8
LAYER-256
  6
Continuous
 62
     1
100
AcDbLine
 10
-430.6413690839188
 20
190.1406589370641
 30
0.0
 11
-438.891369083917
 21
194.9037989370629
 31
0.0
  0
LINE
  5
32F
330
1F
100
AcDbEntity
  8
LAYER-256
  6
Continuous
 62
     1
100
AcDbLine
 10
-438.891369083917
 20
194.9037989370629
 30
0.0
 11
-447.1413690839152
 21
190.1406589370641
 31
0.0
  0
LINE
  5
330
330
1F
100
AcDbEntity
  8
LAYER-256
  6
Continuous
 62
     1
100
AcDbLine
 10
-447.1413690839152
 20
190.1406589370641
 30
0.0
 11
-447.1413690839152
 21
180.6143799370626
 31
0.0
  0
LINE
  5
331
330
1F
100
AcDbEntity
  8
LAYER-256
  6
Continuous
 62
     1
100
AcDbLine
 10
-447.1413690839152
 20
180.6143799370626
 30
0.0
 11
-438.891369083917
 21
175.8512399370626
 31
0.0
  0
LINE
  5
332
330
1F
100
AcDbEntity
  8
LAYER-256
  6
CENTER
 62
     4
100
AcDbLine
 10
-438.891369083917
 20
164.2131419370641
 30
0.0
 11
-438.891369083917
 21
206.7229619370643
 31
0.0
  0
LINE
  5
333
330
1F
100
AcDbEntity
  8
LAYER-256
  6
Continuous
 62
     1
100
AcDbLine
 10
-103.891369083917
 20
214.2131419370641
 30
0.0
 11
-103.891369083917
 21
-60.78685806293595
 31
0.0
  0
LINE
  5
334
330
1F
100
AcDbEntity
  8
LAYER-256
  6
Continuous
 62
     1
100
AcDbLine
 10
-160.3913690839161
 20
294.2131419370641
 30
0.0
 11
-152.3913690839161
 21
294.2131419370641
 31
0.0
  0
LINE
  5
335
330
1F
100
AcDbEntity
  8
LAYER-256
  6
CENTER
 62
     4
100
AcDbLine
 10
-156.3913690839161
 20
300.0116999370654
 30
0.0
 11
-156.3913690839161
 21
233.3277169370628
 31
0.0
  0
LINE
  5
336
330
1F
100
AcDbEntity
  8
LAYER-256
  6
Continuous
 62
     1
100
AcDbLine
 10
-160.3913690839161
 20
294.2131419370641
 30
0.0
 11
-160.3913690839161
 21
287.6891459370632
 31
0.0
  0
LINE
  5
337
330
1F
100
AcDbEntity
  8
LAYER-256
  6
Continuous
 62
     1
100
AcDbLine
 10
-152.3913690839161
 20
294.2131419370641
 30
0.0
 11
-152.3913690839161
 21
287.6891459370632
 31
0.0
  0
LINE
  5
338
330
1F
100
AcDbEntity
  8
LAYER-256
  6
Continuous
 62
     1
100
AcDbLine
 10
-164.6618730839189
 20
286.8163749370639
 30
0.0
 11
-164.6618730839189
 21
278.498971937063
 31
0.0
  0
LINE
  5
339
330
1F
100
AcDbEntity
  8
LAYER-256
  6
Continuous
 62
     1
100
AcDbLine
 10
-160.0233220839161
 20
286.8163749370639
 30
0.0
 11
-160.0233220839161
 21
278.498971937063
 31
0.0
  0
LINE
  5
33A
330
1F
100
AcDbEntity
  8
LAYER-256
  6
Continuous
 62
     1
100
AcDbLine
 10
-152.7594160839178
 20
286.8163749370639
 30
0.0
 11
-152.7594160839178
 21
278.498971937063
 31
0.0
  0
LINE
  5
33B
330
1F
100
AcDbEntity
  8
LAYER-256
  6
Continuous
 62
     1
100
AcDbLine
 10
-148.1208650820051
 20
286.8163749370639
 30
0.0
 11
-148.1208650820051
 21
278.498971937063
 31
0.0
  0
ARC
  5
33C
330
1F
100
AcDbEntity
  8
LAYER-256
  6
Continuous
 62
     1
100
AcDbCircle
 10
-162.342597083916
 20
284.1711729370651
 30
0.0
 40
3.517973000000001
100
AcDbArc
 50
48.75617400294127
 51
131.2438259971144
  0
ARC
  5
33D
330
1F
100
AcDbEntity
  8
LAYER-256
  6
Continuous
 62
     1
100
AcDbCircle
 10
-150.440141083918
 20
284.1711729370651
 30
0.0
 40
3.517973000000001
100
AcDbArc
 50
48.75617400288559
 51
131.2438259970587
  0
LINE
  5
33E
330
1F
100
AcDbEntity
  8
LAYER-256
  6
Continuous
 62
     1
100
AcDbLine
 10
-150.440141083918
 20
287.6891459370632
 30
0.0
 11
-162.342597083916
 21
287.6891459370632
 31
0.0
  0
LINE
  5
33F
330
1F
100
AcDbEntity
  8
LAYER-256
  6
Continuous
 62
     1
100
AcDbLine
 10
-166.3601750839187
 20
278.498971937063
 30
0.0
 11
-146.4225630839153
 21
278.498971937063
 31
0.0
  0
ARC
  5
340
330
1F
100
AcDbEntity
  8
LAYER-256
  6
Continuous
 62
     1
100
AcDbCircle
 10
-156.3913690839161
 20
279.6957489370631
 30
0.0
 40
7.993397
100
AcDbArc
 50
62.97565100002284
 51
117.02434901979
  0
LINE
  5
341
330
1F
100
AcDbEntity
  8
LAYER-256
  6
Continuous
 62
     1
100
AcDbLine
 10
-166.3601750839187
 20
276.0989719370651
 30
0.0
 11
-146.4225630839153
 21
276.0989719370651
 31
0.0
  0
LINE
  5
342
330
1F
100
AcDbEntity
  8
LAYER-256
  6
Continuous
 62
     1
100
AcDbLine
 10
-166.3601750839187
 20
278.498971937063
 30
0.0
 11
-166.3601750839187
 21
276.0989719370651
 31
0.0
  0
LINE
  5
343
330
1F
100
AcDbEntity
  8
LAYER-256
  6
Continuous
 62
     1
100
AcDbLine
 10
-146.4225630839153
 20
278.498971937063
 30
0.0
 11
-146.4225630839153
 21
276.0989719370651
 31
0.0
  0
LINE
  5
344
330
1F
100
AcDbEntity
  8
LAYER-256
  6
Continuous
 62
     1
100
AcDbLine
 10
-164.6618730839189
 20
267.7815699370627
 30
0.0
 11
-164.6618730839189
 21
276.0989719370651
 31
0.0
  0
LINE
  5
345
330
1F
100
AcDbEntity
  8
LAYER-256
  6
Continuous
 62
     1
100
AcDbLine
 10
-160.0233220839161
 20
267.7815699370627
 30
0.0
 11
-160.0233220839161
 21
276.0989719370651
 31
0.0
  0
LINE
  5
346
330
1F
100
AcDbEntity
  8
LAYER-256
  6
Continuous
 62
     1
100
AcDbLine
 10
-152.7594160839178
 20
267.7815699370627
 30
0.0
 11
-152.7594160839178
 21
276.0989719370651
 31
0.0
  0
LINE
  5
347
330
1F
100
AcDbEntity
  8
LAYER-256
  6
Continuous
 62
     1
100
AcDbLine
 10
-148.1208650820051
 20
267.7815699370627
 30
0.0
 11
-148.1208650820051
 21
276.0989719370651
 31
0.0
  0
ARC
  5
348
330
1F
100
AcDbEntity
  8
LAYER-256
  6
Continuous
 62
     1
100
AcDbCircle
 10
-162.342597083916
 20
270.4267719370661
 30
0.0
 40
3.517973000000001
100
AcDbArc
 50
228.756173186911
 51
311.2438268130333
  0
ARC
  5
349
330
1F
100
AcDbEntity
  8
LAYER-256
  6
Continuous
 62
     1
100
AcDbCircle
 10
-150.440141083918
 20
270.4267719370661
 30
0.0
 40
3.517973000000001
100
AcDbArc
 50
228.7561731869667
 51
311.243826813089
  0
ARC
  5
34A
330
1F
100
AcDbEntity
  8
LAYER-256
  6
Continuous
 62
     1
100
AcDbCircle
 10
-156.3913690839161
 20
274.902194937065
 30
0.0
 40
7.993397
100
AcDbArc
 50
242.9756509801952
 51
297.024348999992
  0
LINE
  5
34B
330
1F
100
AcDbEntity
  8
LAYER-256
  6
Continuous
 62
     1
100
AcDbLine
 10
-166.3601750839187
 20
249.5087989370655
 30
0.0
 11
-146.4225630839153
 21
249.5087989370655
 31
0.0
  0
LINE
  5
34C
330
1F
100
AcDbEntity
  8
LAYER-256
  6
Continuous
 62
     1
100
AcDbLine
 10
-166.3601750839187
 20
251.9087989370634
 30
0.0
 11
-166.3601750839187
 21
249.5087989370655
 31
0.0
  0
LINE
  5
34D
330
1F
100
AcDbEntity
  8
LAYER-256
  6
Continuous
 62
     1
100
AcDbLine
 10
-146.4225630839153
 20
251.9087989370634
 30
0.0
 11
-146.4225630839153
 21
249.5087989370655
 31
0.0
  0
LINE
  5
34E
330
1F
100
AcDbEntity
  8
LAYER-256
  6
Continuous
 62
     1
100
AcDbLine
 10
-164.6618730839189
 20
241.1913959370646
 30
0.0
 11
-164.6618730839189
 21
249.5087989370655
 31
0.0
  0
LINE
  5
34F
330
1F
100
AcDbEntity
  8
LAYER-256
  6
Continuous
 62
     1
100
AcDbLine
 10
-160.0233220839161
 20
241.1913959370646
 30
0.0
 11
-160.0233220839161
 21
249.5087989370655
 31
0.0
  0
LINE
  5
350
330
1F
100
AcDbEntity
  8
LAYER-256
  6
Continuous
 62
     1
100
AcDbLine
 10
-152.7594160839178
 20
241.1913959370646
 30
0.0
 11
-152.7594160839178
 21
249.5087989370655
 31
0.0
  0
LINE
  5
351
330
1F
100
AcDbEntity
  8
LAYER-256
  6
Continuous
 62
     1
100
AcDbLine
 10
-148.1208650820051
 20
241.1913959370646
 30
0.0
 11
-148.1208650820051
 21
249.5087989370655
 31
0.0
  0
ARC
  5
352
330
1F
100
AcDbEntity
  8
LAYER-256
  6
Continuous
 62
     1
100
AcDbCircle
 10
-162.342597083916
 20
243.8365979370634
 30
0.0
 40
3.517973000000001
100
AcDbArc
 50
228.7561739999785
 51
311.2438259999657
  0
ARC
  5
353
330
1F
100
AcDbEntity
  8
LAYER-256
  6
Continuous
 62
     1
100
AcDbCircle
 10
-150.440141083918
 20
243.8365979370634
 30
0.0
 40
3.517973000000001
100
AcDbArc
 50
228.7561740000342
 51
311.2438260000214
  0
ARC
  5
354
330
1F
100
AcDbEntity
  8
LAYER-256
  6
Continuous
 62
     1
100
AcDbCircle
 10
-156.3913690839161
 20
248.3120219370654
 30
0.0
 40
7.993397
100
AcDbArc
 50
242.97565098021
 51
297.0243489999772
  0
LINE
  5
355
330
1F
100
AcDbEntity
  8
LAYER-256
  6
Continuous
 62
     1
100
AcDbLine
 10
-134.8730000839166
 20
273.9526439370662
 30
0.0
 11
-134.8730000839166
 21
266.9087989370634
 31
0.0
  0
LINE
  5
356
330
1F
100
AcDbEntity
  8
LAYER-256
  6
Continuous
 62
     1
100
AcDbLine
 10
-124.8730000839166
 20
273.9526439370662
 30
0.0
 11
-124.8730000839166
 21
266.9087989370634
 31
0.0
  0
LINE
  5
357
330
1F
100
AcDbEntity
  8
LAYER-256
  6
Continuous
 62
     1
100
AcDbLine
 10
-110.5492740839188
 20
266.9087989370634
 30
0.0
 11
-110.5492740839188
 21
251.9087989370634
 31
0.0
  0
LINE
  5
358
330
1F
100
AcDbEntity
  8
LAYER-256
  6
Continuous
 62
     1
100
AcDbLine
 10
-124.8730000839166
 20
273.9526439370662
 30
0.0
 11
-134.8730000839166
 21
273.9526439370662
 31
0.0
  0
LINE
  5
359
330
1F
100
AcDbEntity
  8
LAYER-256
  6
Continuous
 62
     1
100
AcDbLine
 10
-124.8730000839166
 20
251.9087989370634
 30
0.0
 11
-124.8730000839166
 21
214.2131419370641
 31
0.0
  0
LINE
  5
35A
330
1F
100
AcDbEntity
  8
LAYER-256
  6
Continuous
 62
     1
100
AcDbLine
 10
-134.8730000839166
 20
251.9087989370634
 30
0.0
 11
-134.8730000839166
 21
214.2131419370641
 31
0.0
  0
LINE
  5
35B
330
1F
100
AcDbEntity
  8
LAYER-256
  6
Continuous
 62
     1
100
AcDbLine
 10
-103.891369083917
 20
164.2131419370641
 30
0.0
 11
-160.4914610875526
 21
164.2131419370641
 31
0.0
  0
LINE
  5
35C
330
1F
100
AcDbEntity
  8
LAYER-256
  6
Continuous
 62
     1
100
AcDbLine
 10
-127.9844320839172
 20
-10.78685806293595
 30
0.0
 11
-127.9844320839172
 21
-55.78685806293595
 31
0.0
  0
LINE
  5
35D
330
1F
100
AcDbEntity
  8
LAYER-256
  6
Continuous
 62
     1
100
AcDbLine
 10
-149.7983070839152
 20
-10.78685806293595
 30
0.0
 11
-149.7983070839152
 21
-55.78685806293595
 31
0.0
  0
LINE
  5
35E
330
1F
100
AcDbEntity
  8
LAYER-256
  6
CENTER
 62
     4
100
AcDbLine
 10
-155.9356020839184
 20
-31.95123506293601
 30
0.0
 11
-123.1584480807988
 21
-31.95123506293601
 31
0.0
  0
CIRCLE
  5
35F
330
1F
100
AcDbEntity
  8
LAYER-256
  6
Continuous
 62
     1
100
AcDbCircle
 10
-138.891369083917
 20
-31.95123506293601
 30
0.0
 40
4.0
  0
CIRCLE
  5
360
330
1F
100
AcDbEntity
  8
LAYER-256
  6
Continuous
 62
     1
100
AcDbCircle
 10
-138.891369083917
 20
-31.95123506293601
 30
0.0
 40
8.25
  0
LINE
  5
361
330
1F
100
AcDbEntity
  8
LAYER-256
  6
Continuous
 62
     1
100
AcDbLine
 10
-138.891369083917
 20
-22.42495606293448
 30
0.0
 11
-147.1413690839152
 21
-27.18809606293451
 31
0.0
  0
LINE
  5
362
330
1F
100
AcDbEntity
  8
LAYER-256
  6
Continuous
 62
     1
100
AcDbLine
 10
-147.1413690839152
 20
-27.18809606293451
 30
0.0
 11
-147.1413690839152
 21
-36.71437506293603
 31
0.0
  0
LINE
  5
363
330
1F
100
AcDbEntity
  8
LAYER-256
  6
Continuous
 62
     1
100
AcDbLine
 10
-147.1413690839152
 20
-36.71437506293603
 30
0.0
 11
-138.891369083917
 21
-41.47751506293605
 31
0.0
  0
LINE
  5
364
330
1F
100
AcDbEntity
  8
LAYER-256
  6
Continuous
 62
     1
100
AcDbLine
 10
-138.891369083917
 20
-41.47751506293605
 30
0.0
 11
-130.6413690839188
 21
-36.71437506293603
 31
0.0
  0
LINE
  5
365
330
1F
100
AcDbEntity
  8
LAYER-256
  6
Continuous
 62
     1
100
AcDbLine
 10
-130.6413690839188
 20
-36.71437506293603
 30
0.0
 11
-130.6413690839188
 21
-27.18809606293451
 31
0.0
  0
LINE
  5
366
330
1F
100
AcDbEntity
  8
LAYER-256
  6
Continuous
 62
     1
100
AcDbLine
 10
-130.6413690839188
 20
-27.18809606293451
 30
0.0
 11
-138.891369083917
 21
-22.42495606293448
 31
0.0
  0
LINE
  5
367
330
1F
100
AcDbEntity
  8
LAYER-256
  6
CENTER
 62
     4
100
AcDbLine
 10
-138.891369083917
 20
-10.78685806293595
 30
0.0
 11
-138.891369083917
 21
-73.22336106293494
 31
0.0
  0
LINE
  5
368
330
1F
100
AcDbEntity
  8
LAYER-256
  6
Continuous
 62
     1
100
AcDbLine
 10
-119.9794710839158
 20
164.2131419370641
 30
0.0
 11
-119.9794710839158
 21
-10.78685806293595
 31
0.0
  0
LINE
  5
369
330
1F
100
AcDbEntity
  8
LAYER-256
  6
Continuous
 62
     1
100
AcDbLine
 10
-131.2471930839181
 20
154.2131419370641
 30
0.0
 11
-131.2471930839181
 21
-0.7868580629359485
 31
0.0
  0
LINE
  5
36A
330
1F
100
AcDbEntity
  8
LAYER-256
  6
CENTER
 62
     4
100
AcDbLine
 10
-155.9356020839184
 20
185.3775189370629
 30
0.0
 11
-123.1584480807988
 21
185.3775189370629
 31
0.0
  0
CIRCLE
  5
36B
330
1F
100
AcDbEntity
  8
LAYER-256
  6
Continuous
 62
     1
100
AcDbCircle
 10
-138.891369083917
 20
185.3775189370629
 30
0.0
 40
4.0
  0
CIRCLE
  5
36C
330
1F
100
AcDbEntity
  8
LAYER-256
  6
Continuous
 62
     1
100
AcDbCircle
 10
-138.891369083917
 20
185.3775189370629
 30
0.0
 40
8.25
  0
LINE
  5
36D
330
1F
100
AcDbEntity
  8
LAYER-256
  6
Continuous
 62
     1
100
AcDbLine
 10
-138.891369083917
 20
175.8512399370626
 30
0.0
 11
-147.1413690839152
 21
180.6143799370626
 31
0.0
  0
LINE
  5
36E
330
1F
100
AcDbEntity
  8
LAYER-256
  6
Continuous
 62
     1
100
AcDbLine
 10
-147.1413690839152
 20
180.6143799370626
 30
0.0
 11
-147.1413690839152
 21
190.1406589370641
 31
0.0
  0
LINE
  5
36F
330
1F
100
AcDbEntity
  8
LAYER-256
  6
Continuous
 62
     1
100
AcDbLine
 10
-147.1413690839152
 20
190.1406589370641
 30
0.0
 11
-138.891369083917
 21
194.9037989370629
 31
0.0
  0
LINE
  5
370
330
1F
100
AcDbEntity
  8
LAYER-256
  6
Continuous
 62
     1
100
AcDbLine
 10
-138.891369083917
 20
194.9037989370629
 30
0.0
 11
-130.6413690839188
 21
190.1406589370641
 31
0.0
  0
LINE
  5
371
330
1F
100
AcDbEntity
  8
LAYER-256
  6
Continuous
 62
     1
100
AcDbLine
 10
-130.6413690839188
 20
190.1406589370641
 30
0.0
 11
-130.6413690839188
 21
180.6143799370626
 31
0.0
  0
LINE
  5
372
330
1F
100
AcDbEntity
  8
LAYER-256
  6
Continuous
 62
     1
100
AcDbLine
 10
-130.6413690839188
 20
180.6143799370626
 30
0.0
 11
-138.891369083917
 21
175.8512399370626
 31
0.0
  0
LINE
  5
373
330
1F
100
AcDbEntity
  8
LAYER-256
  6
CENTER
 62
     4
100
AcDbLine
 10
-138.891369083917
 20
164.2131419370641
 30
0.0
 11
-138.891369083917
 21
206.7229619370643
 31
0.0
  0
LINE
  5
374
330
1F
100
AcDbEntity
  8
LAYER-256
  6
CENTER
 62
     4
100
AcDbLine
 10
-368.3913690839161
 20
233.3277169370628
 30
0.0
 11
-368.3913690839161
 21
300.0116999370654
 31
0.0
  0
LINE
  5
375
330
1F
100
AcDbEntity
  8
LAYER-256
  6
CENTER
 62
     4
100
AcDbLine
 10
-315.3913690839161
 20
233.3277169370628
 30
0.0
 11
-315.3913690839161
 21
300.0116999370654
 31
0.0
  0
LINE
  5
376
330
1F
100
AcDbEntity
  8
LAYER-256
  6
CENTER
 62
     4
100
AcDbLine
 10
-262.3913690839161
 20
233.3277169370628
 30
0.0
 11
-262.3913690839161
 21
300.0116999370654
 31
0.0
  0
LINE
  5
377
330
1F
100
AcDbEntity
  8
LAYER-256
  6
CENTER
 62
     4
100
AcDbLine
 10
-209.3913690839161
 20
233.3277169370628
 30
0.0
 11
-209.3913690839161
 21
300.0116999370654
 31
0.0
  0
LINE
  5
378
330
1F
100
AcDbEntity
  8
LAYER-256
  6
Continuous
 62
     1
100
AcDbLine
 10
-345.0629150816719
 20
154.2131419370641
 30
0.0
 11
-345.0629150816719
 21
-0.7868580629359485
 31
0.0
  0
LINE
  5
379
330
1F
100
AcDbEntity
  8
LAYER-256
  6
Continuous
 62
     1
100
AcDbLine
 10
-337.8159410839178
 20
154.2131419370641
 30
0.0
 11
-337.8159410839178
 21
-0.7868580629359485
 31
0.0
  0
LINE
  5
37A
330
1F
100
AcDbEntity
  8
LAYER-256
  6
Continuous
 62
     1
100
AcDbLine
 10
-232.7198240839196
 20
154.2131419370641
 30
0.0
 11
-232.7198240839196
 21
-0.7868580629359485
 31
0.0
  0
LINE
  5
37B
330
1F
100
AcDbEntity
  8
LAYER-256
  6
Continuous
 62
     1
100
AcDbLine
 10
-239.9667970839162
 20
154.2131419370641
 30
0.0
 11
-239.9667970839162
 21
-0.7868580629359485
 31
0.0
  0
LINE
  5
37C
330
1F
100
AcDbEntity
  8
LAYER-256
  6
Continuous
 62
     1
100
AcDbLine
 10
-337.8159410839178
 20
154.2131419370641
 30
0.0
 11
-239.9667970839162
 21
154.2131419370641
 31
0.0
  0
LINE
  5
37D
330
1F
100
AcDbEntity
  8
LAYER-256
  6
Continuous
 62
     1
100
AcDbLine
 10
-337.8159410839178
 20
-0.7868580629359485
 30
0.0
 11
-239.9667970839162
 21
-0.7868580629359485
 31
0.0
  0
LINE
  5
37E
330
1F
100
AcDbEntity
  8
LAYER-256
  6
Continuous
 62
     1
100
AcDbLine
 10
-232.7198240839196
 20
-0.7868580629359485
 30
0.0
 11
-131.2471930839181
 21
-0.7868580629359485
 31
0.0
  0
LINE
  5
37F
330
1F
100
AcDbEntity
  8
LAYER-256
  6
Continuous
 62
     1
100
AcDbLine
 10
-232.7198240839196
 20
154.2131419370641
 30
0.0
 11
-131.2471930839181
 21
154.2131419370641
 31
0.0
  0
CIRCLE
  5
380
330
1F
100
AcDbEntity
  8
LAYER-256
  6
Continuous
 62
     1
100
AcDbCircle
 10
-412.611661080799
 20
176.5453829370632
 30
0.0
 40
4.2875
  0
ARC
  5
381
330
1F
100
AcDbEntity
  8
LAYER-256
  6
Continuous
 62
     1
100
AcDbCircle
 10
-412.611661080799
 20
176.5453829370632
 30
0.0
 40
7.962500000000001
100
AcDbArc
 50
0.0
 51
180.0
  0
LINE
  5
382
330
1F
100
AcDbEntity
  8
LAYER-256
  6
Continuous
 62
     1
100
AcDbLine
 10
-420.5741610850246
 20
176.5453829370632
 30
0.0
 11
-420.5741610850246
 21
161.6463469370661
 31
0.0
  0
LINE
  5
383
330
1F
100
AcDbEntity
  8
LAYER-256
  6
Continuous
 62
     1
100
AcDbLine
 10
-404.6491610839164
 20
176.5453829370632
 30
0.0
 11
-404.6491610839164
 21
161.6463469370661
 31
0.0
  0
LINE
  5
384
330
1F
100
AcDbEntity
  8
LAYER-256
  6
Continuous
 62
     1
100
AcDbLine
 10
-417.6323520839148
 20
171.3631419370655
 30
0.0
 11
-417.6323520839148
 21
165.0514839370659
 31
0.0
  0
LINE
  5
385
330
1F
100
AcDbEntity
  8
LAYER-256
  6
Continuous
 62
     1
100
AcDbLine
 10
-407.5909700839154
 20
171.3631419370655
 30
0.0
 11
-407.5909700839154
 21
165.0514839370659
 31
0.0
  0
LINE
  5
386
330
1F
100
AcDbEntity
  8
LAYER-256
  6
Continuous
 62
     1
100
AcDbLine
 10
-420.5741610850246
 20
161.6463469370661
 30
0.0
 11
-404.6491610839164
 21
161.6463469370661
 31
0.0
  0
LINE
  5
387
330
1F
100
AcDbEntity
  8
LAYER-256
  6
Continuous
 62
     1
100
AcDbLine
 10
-417.6323520839148
 20
161.6463469370661
 30
0.0
 11
-417.6323520839148
 21
154.2131419370641
 31
0.0
  0
LINE
  5
388
330
1F
100
AcDbEntity
  8
LAYER-256
  6
Continuous
 62
     1
100
AcDbLine
 10
-407.5909700839154
 20
161.6463469370661
 30
0.0
 11
-407.5909700839154
 21
154.2131419370641
 31
0.0
  0
CIRCLE
  5
389
330
1F
100
AcDbEntity
  8
LAYER-256
  6
Continuous
 62
     1
100
AcDbCircle
 10
-382.610285083915
 20
176.5453829370632
 30
0.0
 40
4.2875
  0
ARC
  5
38A
330
1F
100
AcDbEntity
  8
LAYER-256
  6
Continuous
 62
     1
100
AcDbCircle
 10
-382.610285083915
 20
176.5453829370632
 30
0.0
 40
7.962500000000001
100
AcDbArc
 50
0.0
 51
180.0
  0
LINE
  5
38B
330
1F
100
AcDbEntity
  8
LAYER-256
  6
Continuous
 62
     1
100
AcDbLine
 10
-374.6477850839162
 20
176.5453829370632
 30
0.0
 11
-374.6477850839162
 21
161.6463469370661
 31
0.0
  0
LINE
  5
38C
330
1F
100
AcDbEntity
  8
LAYER-256
  6
Continuous
 62
     1
100
AcDbLine
 10
-390.5727850839182
 20
176.5453829370632
 30
0.0
 11
-390.5727850839182
 21
161.6463469370661
 31
0.0
  0
LINE
  5
38D
330
1F
100
AcDbEntity
  8
LAYER-256
  6
Continuous
 62
     1
100
AcDbLine
 10
-377.5895950839183
 20
171.3631419370655
 30
0.0
 11
-377.5895950839183
 21
165.0514839370659
 31
0.0
  0
LINE
  5
38E
330
1F
100
AcDbEntity
  8
LAYER-256
  6
Continuous
 62
     1
100
AcDbLine
 10
-387.6309760839147
 20
171.3631419370655
 30
0.0
 11
-387.6309760839147
 21
165.0514839370659
 31
0.0
  0
LINE
  5
38F
330
1F
100
AcDbEntity
  8
LAYER-256
  6
Continuous
 62
     1
100
AcDbLine
 10
-374.6477850839162
 20
161.6463469370661
 30
0.0
 11
-390.5727850839182
 21
161.6463469370661
 31
0.0
  0
LINE
  5
390
330
1F
100
AcDbEntity
  8
LAYER-256
  6
Continuous
 62
     1
100
AcDbLine
 10
-377.5895950839183
 20
161.6463469370661
 30
0.0
 11
-377.5895950839183
 21
154.2131419370641
 31
0.0
  0
LINE
  5
391
330
1F
100
AcDbEntity
  8
LAYER-256
  6
Continuous
 62
     1
100
AcDbLine
 10
-387.6309760839147
 20
161.6463469370661
 30
0.0
 11
-387.6309760839147
 21
154.2131419370641
 31
0.0
  0
CIRCLE
  5
392
330
1F
100
AcDbEntity
  8
LAYER-256
  6
Continuous
 62
     1
100
AcDbCircle
 10
-198.7959400839188
 20
176.5453829370632
 30
0.0
 40
4.2875
  0
ARC
  5
393
330
1F
100
AcDbEntity
  8
LAYER-256
  6
Continuous
 62
     1
100
AcDbCircle
 10
-198.7959400839188
 20
176.5453829370632
 30
0.0
 40
7.962500000000001
100
AcDbArc
 50
0.0
 51
180.0
  0
LINE
  5
394
330
1F
100
AcDbEntity
  8
LAYER-256
  6
Continuous
 62
     1
100
AcDbLine
 10
-206.7584400839176
 20
176.5453829370632
 30
0.0
 11
-206.7584400839176
 21
161.6463469370661
 31
0.0
  0
LINE
  5
395
330
1F
100
AcDbEntity
  8
LAYER-256
  6
Continuous
 62
     1
100
AcDbLine
 10
-190.8334400839156
 20
176.5453829370632
 30
0.0
 11
-190.8334400839156
 21
161.6463469370661
 31
0.0
  0
LINE
  5
396
330
1F
100
AcDbEntity
  8
LAYER-256
  6
Continuous
 62
     1
100
AcDbLine
 10
-203.8166300839155
 20
171.3631419370655
 30
0.0
 11
-203.8166300839155
 21
165.0514839370659
 31
0.0
  0
LINE
  5
397
330
1F
100
AcDbEntity
  8
LAYER-256
  6
Continuous
 62
     1
100
AcDbLine
 10
-193.7752490839191
 20
171.3631419370655
 30
0.0
 11
-193.7752490839191
 21
165.0514839370659
 31
0.0
  0
LINE
  5
398
330
1F
100
AcDbEntity
  8
LAYER-256
  6
Continuous
 62
     1
100
AcDbLine
 10
-206.7584400839176
 20
161.6463469370661
 30
0.0
 11
-190.8334400839156
 21
161.6463469370661
 31
0.0
  0
LINE
  5
399
330
1F
100
AcDbEntity
  8
LAYER-256
  6
Continuous
 62
     1
100
AcDbLine
 10
-203.8166300839155
 20
161.6463469370661
 30
0.0
 11
-203.8166300839155
 21
154.2131419370641
 31
0.0
  0
LINE
  5
39A
330
1F
100
AcDbEntity
  8
LAYER-256
  6
Continuous
 62
     1
100
AcDbLine
 10
-193.7752490839191
 20
161.6463469370661
 30
0.0
 11
-193.7752490839191
 21
154.2131419370641
 31
0.0
  0
CIRCLE
  5
39B
330
1F
100
AcDbEntity
  8
LAYER-256
  6
Continuous
 62
     1
100
AcDbCircle
 10
-168.7945640839187
 20
176.5453829370632
 30
0.0
 40
4.2875
  0
ARC
  5
39C
330
1F
100
AcDbEntity
  8
LAYER-256
  6
Continuous
 62
     1
100
AcDbCircle
 10
-168.7945640839187
 20
176.5453829370632
 30
0.0
 40
7.962500000000001
100
AcDbArc
 50
0.0
 51
180.0
  0
LINE
  5
39D
330
1F
100
AcDbEntity
  8
LAYER-256
  6
Continuous
 62
     1
100
AcDbLine
 10
-160.8320640839154
 20
176.5453829370632
 30
0.0
 11
-160.8320640839154
 21
161.6463469370661
 31
0.0
  0
LINE
  5
39E
330
1F
100
AcDbEntity
  8
LAYER-256
  6
Continuous
 62
     1
100
AcDbLine
 10
-176.7570640839174
 20
176.5453829370632
 30
0.0
 11
-176.7570640839174
 21
161.6463469370661
 31
0.0
  0
LINE
  5
39F
330
1F
100
AcDbEntity
  8
LAYER-256
  6
Continuous
 62
     1
100
AcDbLine
 10
-163.7738730839189
 20
171.3631419370655
 30
0.0
 11
-163.7738730839189
 21
165.0514839370659
 31
0.0
  0
LINE
  5
3A0
330
1F
100
AcDbEntity
  8
LAYER-256
  6
Continuous
 62
     1
100
AcDbLine
 10
-173.8152550839184
 20
171.3631419370655
 30
0.0
 11
-173.8152550839184
 21
165.0514839370659
 31
0.0
  0
LINE
  5
3A1
330
1F
100
AcDbEntity
  8
LAYER-256
  6
Continuous
 62
     1
100
AcDbLine
 10
-160.8320640839154
 20
161.6463469370661
 30
0.0
 11
-176.7570640839174
 21
161.6463469370661
 31
0.0
  0
LINE
  5
3A2
330
1F
100
AcDbEntity
  8
LAYER-256
  6
Continuous
 62
     1
100
AcDbLine
 10
-163.7738730839189
 20
161.6463469370661
 30
0.0
 11
-163.7738730839189
 21
154.2131419370641
 31
0.0
  0
LINE
  5
3A3
330
1F
100
AcDbEntity
  8
LAYER-256
  6
Continuous
 62
     1
100
AcDbLine
 10
-173.8152550839184
 20
161.6463469370661
 30
0.0
 11
-173.8152550839184
 21
154.2131419370641
 31
0.0
  0
LINE
  5
3A4
330
1F
100
AcDbEntity
  8
LAYER-256
  6
Continuous
 62
     1
100
AcDbLine
 10
-190.8334400839156
 20
164.2131419370641
 30
0.0
 11
-176.7570640839174
 21
164.2131419370641
 31
0.0
  0
LINE
  5
3A5
330
1F
100
AcDbEntity
  8
LAYER-256
  6
Continuous
 62
     1
100
AcDbLine
 10
-374.6477850839162
 20
164.2131419370641
 30
0.0
 11
-311.8545570839158
 21
164.2131419370641
 31
0.0
  0
LINE
  5
3A6
330
1F
100
AcDbEntity
  8
LAYER-256
  6
CENTER
 62
     4
100
AcDbLine
 10
-496.8590970839157
 20
75.5504049370644
 30
0.0
 11
-83.72389108391849
 21
75.5504049370644
 31
0.0
  0
LINE
  5
3A7
330
1F
100
AcDbEntity
  8
LAYER-256
  6
CENTER
 62
     4
100
AcDbLine
 10
-288.891369083917
 20
228.7842079370627
 30
0.0
 11
-288.891369083917
 21
-81.0819230629362
 31
0.0
  0
LINE
  5
3A8
330
1F
100
AcDbEntity
  8
LAYER-256
  6
HIDDEN
 62
     4
100
AcDbLine
 10
-473.891369083917
 20
209.2131419370641
 30
0.0
 11
-103.891369083917
 21
209.2131419370641
 31
0.0
  0
LINE
  5
3A9
330
1F
100
AcDbEntity
  8
LAYER-256
  6
Continuous
 62
     1
100
AcDbLine
 10
-473.891369083917
 20
-60.78685806293595
 30
0.0
 11
-103.891369083917
 21
-60.78685806293595
 31
0.0
  0
LINE
  5
3AA
330
1F
100
AcDbEntity
  8
LAYER-256
  6
Continuous
 62
     1
100
AcDbLine
 10
-473.891369083917
 20
-55.78685806293595
 30
0.0
 11
-103.891369083917
 21
-55.78685806293595
 31
0.0
  0
LINE
  5
3AB
330
1F
100
AcDbEntity
  8
LAYER-256
  6
Continuous
 62
     1
100
AcDbLine
 10
-473.891369083917
 20
214.2131419370641
 30
0.0
 11
-473.891369083917
 21
-60.78685806293595
 31
0.0
  0
LINE
  5
3AC
330
1F
100
AcDbEntity
  8
LAYER-256
  6
Continuous
 62
     1
100
AcDbLine
 10
-473.891369083917
 20
-10.78685806293595
 30
0.0
 11
-103.891369083917
 21
-10.78685806293595
 31
0.0
  0
LINE
  5
3AD
330
1F
100
AcDbEntity
  8
LAYER-256
  6
Continuous
 62
     1
100
AcDbLine
 10
-467.2334640839151
 20
251.9087989370634
 30
0.0
 11
-110.5492740839188
 21
251.9087989370634
 31
0.0
  0
LINE
  5
3AE
330
1F
100
AcDbEntity
  8
LAYER-256
  6
Continuous
 62
     1
100
AcDbLine
 10
-110.5492740839188
 20
266.9087989370634
 30
0.0
 11
-467.2334640839151
 21
266.9087989370634
 31
0.0
  0
LINE
  5
3AF
330
1F
100
AcDbEntity
  8
LAYER-256
  6
Continuous
 62
     1
100
AcDbLine
 10
-417.3913690839161
 20
294.2131419370641
 30
0.0
 11
-425.3913690839161
 21
294.2131419370641
 31
0.0
  0
LINE
  5
3B0
330
1F
100
AcDbEntity
  8
LAYER-256
  6
Continuous
 62
     1
100
AcDbLine
 10
341.7977149160836
 20
154.2131419370641
 30
0.0
 11
391.7977149160836
 21
154.2131419370641
 31
0.0
  0
LINE
  5
3B1
330
1F
100
AcDbEntity
  8
LAYER-256
  6
Continuous
 62
     1
100
AcDbLine
 10
141.7977149149467
 20
154.2131419370641
 30
0.0
 11
191.7977149160836
 21
154.2131419370641
 31
0.0
  0
LINE
  5
3B2
330
1F
100
AcDbEntity
  8
LAYER-256
  6
Continuous
 62
     1
100
AcDbLine
 10
141.7977149149467
 20
-0.7868580629359485
 30
0.0
 11
191.7977149160836
 21
-0.7868580629359485
 31
0.0
  0
LINE
  5
3B3
330
1F
100
AcDbEntity
  8
LAYER-256
  6
Continuous
 62
     1
100
AcDbLine
 10
341.7977149160836
 20
-0.7868580629359485
 30
0.0
 11
391.7977149160836
 21
-0.7868580629359485
 31
0.0
  0
LINE
  5
3B4
330
1F
100
AcDbEntity
  8
LAYER-256
  6
Continuous
 62
     1
100
AcDbLine
 10
344.8218529192016
 20
288.0253279370642
 30
0.0
 11
411.8271519160819
 21
288.0253279370642
 31
0.0
  0
LINE
  5
3B5
330
1F
100
AcDbEntity
  8
LAYER-256
  6
Continuous
 62
     1
100
AcDbLine
 10
344.8218529192016
 20
278.525327937066
 30
0.0
 11
411.8271519160819
 21
278.525327937066
 31
0.0
  0
LINE
  5
3B6
330
1F
100
AcDbEntity
  8
LAYER-033
  6
Continuous
 62
     1
100
AcDbLine
 10
437.8196645035953
 20
243.0456987898493
 30
0.0
 11
382.9651539160843
 21
154.2131419370641
 31
0.0
  0
LINE
  5
3B7
330
1F
100
AcDbEntity
  8
LAYER-033
  6
Continuous
 62
     1
100
AcDbLine
 10
429.588702186084
 20
247.7892480198012
 30
0.0
 11
372.0004579160834
 21
154.2131419370641
 31
0.0
  0
LINE
  5
3B8
330
1F
100
AcDbEntity
  8
LAYER-033
  6
Continuous
 62
     4
100
AcDbLine
 10
344.8218529192016
 20
283.7826872499448
 30
0.0
 11
349.0644936063209
 21
288.0253279370642
 31
0.0
  0
LINE
  5
3B9
330
1F
100
AcDbEntity
  8
LAYER-033
  6
Continuous
 62
     4
100
AcDbLine
 10
344.8218529192016
 20
279.5400465628255
 30
0.0
 11
353.3071342934402
 21
288.0253279370642
 31
0.0
  0
LINE
  5
3BA
330
1F
100
AcDbEntity
  8
LAYER-033
  6
Continuous
 62
     4
100
AcDbLine
 10
348.0497749808806
 20
278.525327937066
 30
0.0
 11
357.5497749805595
 21
288.0253279370642
 31
0.0
  0
LINE
  5
3BB
330
1F
100
AcDbEntity
  8
LAYER-033
  6
Continuous
 62
     4
100
AcDbLine
 10
352.2924156676806
 20
278.525327937066
 30
0.0
 11
361.7924156676788
 21
288.0253279370642
 31
0.0
  0
LINE
  5
3BC
330
1F
100
AcDbEntity
  8
LAYER-033
  6
Continuous
 62
     4
100
AcDbLine
 10
356.5350563548
 20
278.525327937066
 30
0.0
 11
366.0350563547981
 21
288.0253279370642
 31
0.0
  0
LINE
  5
3BD
330
1F
100
AcDbEntity
  8
LAYER-033
  6
Continuous
 62
     4
100
AcDbLine
 10
360.7776970419193
 20
278.525327937066
 30
0.0
 11
370.2776970419175
 21
288.0253279370642
 31
0.0
  0
LINE
  5
3BE
330
1F
100
AcDbEntity
  8
LAYER-033
  6
Continuous
 62
     4
100
AcDbLine
 10
365.0203377290386
 20
278.525327937066
 30
0.0
 11
374.5203377290368
 21
288.0253279370642
 31
0.0
  0
LINE
  5
3BF
330
1F
100
AcDbEntity
  8
LAYER-033
  6
Continuous
 62
     4
100
AcDbLine
 10
369.2629784161579
 20
278.525327937066
 30
0.0
 11
378.7629784161561
 21
288.0253279370642
 31
0.0
  0
LINE
  5
3C0
330
1F
100
AcDbEntity
  8
LAYER-033
  6
Continuous
 62
     4
100
AcDbLine
 10
373.5056191032772
 20
278.525327937066
 30
0.0
 11
383.0056191032754
 21
288.0253279370642
 31
0.0
  0
LINE
  5
3C1
330
1F
100
AcDbEntity
  8
LAYER-033
  6
Continuous
 62
     4
100
AcDbLine
 10
377.7482597903966
 20
278.525327937066
 30
0.0
 11
387.2482597903947
 21
288.0253279370642
 31
0.0
  0
LINE
  5
3C2
330
1F
100
AcDbEntity
  8
LAYER-033
  6
Continuous
 62
     4
100
AcDbLine
 10
381.9909004775159
 20
278.525327937066
 30
0.0
 11
391.4909004775141
 21
288.0253279370642
 31
0.0
  0
LINE
  5
3C3
330
1F
100
AcDbEntity
  8
LAYER-033
  6
Continuous
 62
     4
100
AcDbLine
 10
386.2335411646352
 20
278.525327937066
 30
0.0
 11
395.7335411646334
 21
288.0253279370642
 31
0.0
  0
LINE
  5
3C4
330
1F
100
AcDbEntity
  8
LAYER-033
  6
Continuous
 62
     4
100
AcDbLine
 10
390.4761818517545
 20
278.525327937066
 30
0.0
 11
399.9761818517527
 21
288.0253279370642
 31
0.0
  0
LINE
  5
3C5
330
1F
100
AcDbEntity
  8
LAYER-033
  6
Continuous
 62
     4
100
AcDbLine
 10
394.7188225388738
 20
278.525327937066
 30
0.0
 11
404.218822538872
 21
288.0253279370642
 31
0.0
  0
LINE
  5
3C6
330
1F
100
AcDbEntity
  8
LAYER-033
  6
Continuous
 62
     4
100
AcDbLine
 10
398.9614632259993
 20
278.525327937066
 30
0.0
 11
408.4614632259913
 21
288.0253279370642
 31
0.0
  0
LINE
  5
3C7
330
1F
100
AcDbEntity
  8
LAYER-033
  6
Continuous
 62
     4
100
AcDbLine
 10
403.2041039131125
 20
278.525327937066
 30
0.0
 11
412.6916455065963
 21
288.0128695305498
 31
0.0
  0
LINE
  5
3C8
330
1F
100
AcDbEntity
  8
LAYER-033
  6
Continuous
 62
     4
100
AcDbLine
 10
407.4467446002277
 20
278.525327937066
 30
0.0
 11
416.5695363329869
 21
287.6481196698212
 31
0.0
  0
LINE
  5
3C9
330
1F
100
AcDbEntity
  8
LAYER-033
  6
Continuous
 62
     4
100
AcDbLine
 10
411.689385287351
 20
278.525327937066
 30
0.0
 11
420.0425786008628
 21
286.8785212505778
 31
0.0
  0
LINE
  5
3CA
330
1F
100
AcDbEntity
  8
LAYER-033
  6
Continuous
 62
     4
100
AcDbLine
 10
415.5847117529556
 20
278.1780137155513
 30
0.0
 11
423.1948633195245
 21
285.7881652821203
 31
0.0
  0
LINE
  5
3CB
330
1F
100
AcDbEntity
  8
LAYER-033
  6
Continuous
 62
     4
100
AcDbLine
 10
418.9116188270061
 20
277.2622801020008
 30
0.0
 11
426.075261075173
 21
284.4259223506494
 31
0.0
  0
LINE
  5
3CC
330
1F
100
AcDbEntity
  8
LAYER-033
  6
Continuous
 62
     4
100
AcDbLine
 10
421.8179669631386
 20
275.9259875514957
 30
0.0
 11
428.7135009383421
 21
282.8215215266993
 31
0.0
  0
LINE
  5
3CD
330
1F
100
AcDbEntity
  8
LAYER-033
  6
Continuous
 62
     4
100
AcDbLine
 10
424.3728025277612
 20
274.2381824289991
 30
0.0
 11
431.1273594746025
 21
280.9927393758403
 31
0.0
  0
LINE
  5
3CE
330
1F
100
AcDbEntity
  8
LAYER-033
  6
Continuous
 62
     4
100
AcDbLine
 10
426.6077036569945
 20
272.2304428711132
 30
0.0
 11
433.3261224777511
 21
278.9488616918696
 31
0.0
  0
LINE
  5
3CF
330
1F
100
AcDbEntity
  8
LAYER-033
  6
Continuous
 62
     4
100
AcDbLine
 10
428.5302989719801
 20
269.9103974989793
 30
0.0
 11
435.312161158296
 21
276.6922596852953
 31
0.0
  0
LINE
  5
3D0
330
1F
100
AcDbEntity
  8
LAYER-033
  6
Continuous
 62
     4
100
AcDbLine
 10
430.1270733288313
 20
267.2645311687114
 30
0.0
 11
437.0813100432639
 21
274.2187678831439
 31
0.0
  0
LINE
  5
3D1
330
1F
100
AcDbEntity
  8
LAYER-033
  6
Continuous
 62
     4
100
AcDbLine
 10
431.3582785721183
 20
264.253095724879
 30
0.0
 11
438.6221965284798
 21
271.5170136812404
 31
0.0
  0
LINE
  5
3D2
330
1F
100
AcDbEntity
  8
LAYER-033
  6
Continuous
 62
     4
100
AcDbLine
 10
432.139626333
 20
260.7918027980008
 30
0.0
 11
439.9142521103131
 21
268.5664285759545
 31
0.0
  0
LINE
  5
3D3
330
1F
100
AcDbEntity
  8
LAYER-033
  6
Continuous
 62
     4
100
AcDbLine
 10
432.2838351936881
 20
256.6933709722102
 30
0.0
 11
440.9234990973996
 21
265.3330348759217
 31
0.0
  0
LINE
  5
3D4
330
1F
100
AcDbEntity
  8
LAYER-033
  6
Continuous
 62
     4
100
AcDbLine
 10
431.2238662189855
 20
251.3907613103882
 30
0.0
 11
441.5937058870459
 21
261.7606009784486
 31
0.0
  0
LINE
  5
3D5
330
1F
100
AcDbEntity
  8
LAYER-033
  6
Continuous
 62
     4
100
AcDbLine
 10
425.6945154842077
 20
241.6187698884912
 30
0.0
 11
441.8258897879757
 21
257.7501441920008
 31
0.0
  0
LINE
  5
3D6
330
1F
100
AcDbEntity
  8
LAYER-033
  6
Continuous
 62
     4
100
AcDbLine
 10
418.436378529084
 20
230.1179922462421
 30
0.0
 11
441.4204130712849
 21
253.1020267884491
 31
0.0
  0
LINE
  5
3D7
330
1F
100
AcDbEntity
  8
LAYER-033
  6
Continuous
 62
     4
100
AcDbLine
 10
411.178241573948
 20
216.2917416039921
 30
0.0
 11
439.8340963325679
 21
247.2730693626129
 31
0.0
  0
LINE
  5
3D8
330
1F
100
AcDbEntity
  8
LAYER-033
  6
Continuous
 62
     4
100
AcDbLine
 10
403.9201046188182
 20
204.790963961743
 30
0.0
 11
434.3021524894314
 21
237.498484832357
 31
0.0
  0
LINE
  5
3D9
330
1F
100
AcDbEntity
  8
LAYER-033
  6
Continuous
 62
     4
100
AcDbLine
 10
396.6619676636883
 20
193.2901863194938
 30
0.0
 11
426.9495756060246
 21
223.5777942618302
 31
0.0
  0
LINE
  5
3DA
330
1F
100
AcDbEntity
  8
LAYER-033
  6
Continuous
 62
     4
100
AcDbLine
 10
389.4038307085584
 20
181.7894086772446
 30
0.0
 11
419.5969987226179
 21
211.9825766908485
 31
0.0
  0
LINE
  5
3DB
330
1F
100
AcDbEntity
  8
LAYER-033
  6
Continuous
 62
     4
100
AcDbLine
 10
382.1456937534285
 20
170.288631035
 30
0.0
 11
412.244421839211
 21
200.3873591207779
 31
0.0
  0
LINE
  5
3DC
330
1F
100
AcDbEntity
  8
LAYER-033
  6
Continuous
 62
     4
100
AcDbLine
 10
374.8875567982987
 20
158.7878533927463
 30
0.0
 11
404.8918449558041
 21
188.7921415502518
 31
0.0
  0
LINE
  5
3DD
330
1F
100
AcDbEntity
  8
LAYER-033
  6
Continuous
 62
     4
100
AcDbLine
 10
374.55548603
 20
154.2131419370641
 30
0.0
 11
397.5392680723974
 21
177.1969239797258
 31
0.0
  0
LINE
  5
3DE
330
1F
100
AcDbEntity
  8
LAYER-033
  6
Continuous
 62
     4
100
AcDbLine
 10
378.798126717084
 20
154.2131419370641
 30
0.0
 11
390.1866911889906
 21
165.6017064091997
 31
0.0
  0
LINE
  5
3DF
330
1F
100
AcDbEntity
  8
LAYER-033
  6
Continuous
 62
     4
100
AcDbLine
 10
372.9754414471368
 20
155.7580382189639
 30
0.0
 11
374.5203377290366
 21
154.2131419370641
 31
0.0
  0
LINE
  5
3E0
330
1F
100
AcDbEntity
  8
LAYER-033
  6
Continuous
 62
     4
100
AcDbLine
 10
374.6169898959378
 20
158.3591304572821
 30
0.0
 11
378.7629784161559
 21
154.2131419370641
 31
0.0
  0
LINE
  5
3E1
330
1F
100
AcDbEntity
  8
LAYER-033
  6
Continuous
 62
     4
100
AcDbLine
 10
376.2585383447388
 20
160.9602226956004
 30
0.0
 11
382.9808561869024
 21
154.2379048534368
 31
0.0
  0
LINE
  5
3E2
330
1F
100
AcDbEntity
  8
LAYER-033
  6
Continuous
 62
     4
100
AcDbLine
 10
377.9000867935398
 20
163.5613149339187
 30
0.0
 11
384.6271872106295
 21
156.834214516829
 31
0.0
  0
LINE
  5
3E3
330
1F
100
AcDbEntity
  8
LAYER-033
  6
Continuous
 62
     4
100
AcDbLine
 10
379.5416352423408
 20
166.162407172237
 30
0.0
 11
386.2735182343567
 21
159.4305241802211
 31
0.0
  0
LINE
  5
3E4
330
1F
100
AcDbEntity
  8
LAYER-033
  6
Continuous
 62
     4
100
AcDbLine
 10
381.1831836911418
 20
168.7634994105553
 30
0.0
 11
387.9198492580838
 21
162.0268338436133
 31
0.0
  0
LINE
  5
3E5
330
1F
100
AcDbEntity
  8
LAYER-033
  6
Continuous
 62
     4
100
AcDbLine
 10
382.8247321399429
 20
171.3645916488736
 30
0.0
 11
389.5661802818109
 21
164.6231435070055
 31
0.0
  0
LINE
  5
3E6
330
1F
100
AcDbEntity
  8
LAYER-033
  6
Continuous
 62
     4
100
AcDbLine
 10
384.4662805887438
 20
173.9656838871919
 30
0.0
 11
391.2125113055381
 21
167.2194531703976
 31
0.0
  0
LINE
  5
3E7
330
1F
100
AcDbEntity
  8
LAYER-033
  6
Continuous
 62
     4
100
AcDbLine
 10
386.1078290375449
 20
176.5667761255101
 30
0.0
 11
392.8588423292651
 21
169.8157628337898
 31
0.0
  0
LINE
  5
3E8
330
1F
100
AcDbEntity
  8
LAYER-033
  6
Continuous
 62
     4
100
AcDbLine
 10
387.7493774863458
 20
179.1678683638284
 30
0.0
 11
394.5051733529923
 21
172.412072497182
 31
0.0
  0
LINE
  5
3E9
330
1F
100
AcDbEntity
  8
LAYER-033
  6
Continuous
 62
     4
100
AcDbLine
 10
389.3909259351469
 20
181.7689606021467
 30
0.0
 11
396.1515043767195
 21
175.0083821605741
 31
0.0
  0
LINE
  5
3EA
330
1F
100
AcDbEntity
  8
LAYER-033
  6
Continuous
 62
     4
100
AcDbLine
 10
391.0324743839478
 20
184.370052840465
 30
0.0
 11
397.7978354004465
 21
177.6046918239663
 31
0.0
  0
LINE
  5
3EB
330
1F
100
AcDbEntity
  8
LAYER-033
  6
Continuous
 62
     4
100
AcDbLine
 10
392.6740228327489
 20
186.9711450787833
 30
0.0
 11
399.4441664241737
 21
180.2010014873585
 31
0.0
  0
LINE
  5
3EC
330
1F
100
AcDbEntity
  8
LAYER-033
  6
Continuous
 62
     4
100
AcDbLine
 10
394.3155712815499
 20
189.5722373171016
 30
0.0
 11
401.0904974479008
 21
182.7973111507506
 31
0.0
  0
LINE
  5
3ED
330
1F
100
AcDbEntity
  8
LAYER-033
  6
Continuous
 62
     4
100
AcDbLine
 10
395.9571197303509
 20
192.1733295554198
 30
0.0
 11
402.7368284716279
 21
185.3936208141428
 31
0.0
  0
LINE
  5
3EE
330
1F
100
AcDbEntity
  8
LAYER-033
  6
Continuous
 62
     4
100
AcDbLine
 10
397.5986681790064
 20
194.7744217935077
 30
0.0
 11
404.383159495084
 21
187.9899304773049
 31
0.0
  0
LINE
  5
3EF
330
1F
100
AcDbEntity
  8
LAYER-033
  6
Continuous
 62
     4
100
AcDbLine
 10
399.2402166278075
 20
197.3755140318259
 30
0.0
 11
406.0294905189362
 21
190.5862401406971
 31
0.0
  0
LINE
  5
3F0
330
1F
100
AcDbEntity
  8
LAYER-033
  6
Continuous
 62
     4
100
AcDbLine
 10
400.881765076608
 20
199.9766062701434
 30
0.0
 11
407.6758215426635
 21
193.1825498040893
 31
0.0
  0
LINE
  5
3F1
330
1F
100
AcDbEntity
  8
LAYER-033
  6
Continuous
 62
     4
100
AcDbLine
 10
402.5233135254094
 20
202.5776985084625
 30
0.0
 11
409.3221525663905
 21
195.7788594674814
 31
0.0
  0
LINE
  5
3F2
330
1F
100
AcDbEntity
  8
LAYER-033
  6
Continuous
 62
     4
100
AcDbLine
 10
404.1648619742105
 20
205.1787907467808
 30
0.0
 11
410.9684835905953
 21
198.3751691308736
 31
0.0
  0
LINE
  5
3F3
330
1F
100
AcDbEntity
  8
LAYER-033
  6
Continuous
 62
     4
100
AcDbLine
 10
405.8064104230115
 20
207.7798829850991
 30
0.0
 11
412.6148146138644
 21
200.9714787942966
 31
0.0
  0
LINE
  5
3F4
330
1F
100
AcDbEntity
  8
LAYER-033
  6
Continuous
 62
     4
100
AcDbLine
 10
407.4479588718125
 20
210.3809752234174
 30
0.0
 11
414.2611456375719
 21
203.5677884576579
 31
0.0
  0
LINE
  5
3F5
330
1F
100
AcDbEntity
  8
LAYER-033
  6
Continuous
 62
     4
100
AcDbLine
 10
344.8218529192016
 20
279.5751948631483
 30
0.0
 11
345.8717198450819
 21
278.525327937066
 31
0.0
  0
LINE
  5
3F6
330
1F
100
AcDbEntity
  8
LAYER-033
  6
Continuous
 62
     4
100
AcDbLine
 10
409.0895073206134
 20
212.9820674617356
 30
0.0
 11
415.907476661299
 21
206.1640981210501
 31
0.0
  0
LINE
  5
3F7
330
1F
100
AcDbEntity
  8
LAYER-033
  6
Continuous
 62
     4
100
AcDbLine
 10
344.8218529192016
 20
283.8178355502676
 30
0.0
 11
350.1143605324032
 21
278.525327937066
 31
0.0
  0
LINE
  5
3F8
330
1F
100
AcDbEntity
  8
LAYER-033
  6
Continuous
 62
     4
100
AcDbLine
 10
410.7310557694145
 20
215.5831597000539
 30
0.0
 11
417.5538076850262
 21
208.7604077844422
 31
0.0
  0
LINE
  5
3F9
330
1F
100
AcDbEntity
  8
LAYER-033
  6
Continuous
 62
     4
100
AcDbLine
 10
344.8570012195243
 20
288.0253279370642
 30
0.0
 11
354.3570012195225
 21
278.525327937066
 31
0.0
  0
LINE
  5
3FA
330
1F
100
AcDbEntity
  8
LAYER-033
  6
Continuous
 62
     4
100
AcDbLine
 10
412.3726042182154
 20
218.1842519383722
 30
0.0
 11
419.2001387087532
 21
211.3567174478344
 31
0.0
  0
LINE
  5
3FB
330
1F
100
AcDbEntity
  8
LAYER-033
  6
Continuous
 62
     4
100
AcDbLine
 10
349.0996419066436
 20
288.0253279370642
 30
0.0
 11
358.5996419066418
 21
278.525327937066
 31
0.0
  0
LINE
  5
3FC
330
1F
100
AcDbEntity
  8
LAYER-033
  6
Continuous
 62
     4
100
AcDbLine
 10
414.0141526670166
 20
220.7853441766905
 30
0.0
 11
420.8464697324804
 21
213.9530271112266
 31
0.0
  0
LINE
  5
3FD
330
1F
100
AcDbEntity
  8
LAYER-033
  6
Continuous
 62
     4
100
AcDbLine
 10
353.3422825937629
 20
288.0253279370642
 30
0.0
 11
362.8422825941727
 21
278.525327937066
 31
0.0
  0
LINE
  5
3FE
330
1F
100
AcDbEntity
  8
LAYER-033
  6
Continuous
 62
     4
100
AcDbLine
 10
415.6557011158175
 20
223.3864364150088
 30
0.0
 11
422.4928007562075
 21
216.5493367746188
 31
0.0
  0
LINE
  5
3FF
330
1F
100
AcDbEntity
  8
LAYER-033
  6
Continuous
 62
     4
100
AcDbLine
 10
357.5849232808822
 20
288.0253279370642
 30
0.0
 11
367.0849232808803
 21
278.525327937066
 31
0.0
  0
LINE
  5
400
330
1F
100
AcDbEntity
  8
LAYER-033
  6
Continuous
 62
     4
100
AcDbLine
 10
417.2972495646185
 20
228.3130016533278
 30
0.0
 11
424.1391317799346
 21
219.1456464380109
 31
0.0
  0
LINE
  5
401
330
1F
100
AcDbEntity
  8
LAYER-033
  6
Continuous
 62
     4
100
AcDbLine
 10
361.827563968
 20
288.0253279370642
 30
0.0
 11
371.3275639677245
 21
278.525327937066
 31
0.0
  0
LINE
  5
402
330
1F
100
AcDbEntity
  8
LAYER-033
  6
Continuous
 62
     4
100
AcDbLine
 10
418.9387980133131
 20
230.9140938914774
 30
0.0
 11
425.785462803555
 21
221.7419561012347
 31
0.0
  0
LINE
  5
403
330
1F
100
AcDbEntity
  8
LAYER-033
  6
Continuous
 62
     4
100
AcDbLine
 10
366.0702046550839
 20
288.0253279370642
 30
0.0
 11
375.5702046548438
 21
278.525327937066
 31
0.0
  0
LINE
  5
404
330
1F
100
AcDbEntity
  8
LAYER-033
  6
Continuous
 62
     4
100
AcDbLine
 10
420.580346462114
 20
233.5151861297957
 30
0.0
 11
427.431793827282
 21
226.6637387646276
 31
0.0
  0
LINE
  5
405
330
1F
100
AcDbEntity
  8
LAYER-033
  6
Continuous
 62
     4
100
AcDbLine
 10
370.3128453419648
 20
288.0253279370642
 30
0.0
 11
379.812845341963
 21
278.525327937066
 31
0.0
  0
LINE
  5
406
330
1F
100
AcDbEntity
  8
LAYER-033
  6
Continuous
 62
     4
100
AcDbLine
 10
422.2218948865764
 20
236.1162783295484
 30
0.0
 11
429.0781248510092
 21
229.2600484280198
 31
0.0
  0
LINE
  5
407
330
1F
100
AcDbEntity
  8
LAYER-033
  6
Continuous
 62
     4
100
AcDbLine
 10
374.5554860290841
 20
288.0253279370642
 30
0.0
 11
384.0554860290823
 21
278.525327937066
 31
0.0
  0
LINE
  5
408
330
1F
100
AcDbEntity
  8
LAYER-033
  6
Continuous
 62
     4
100
AcDbLine
 10
423.863443359716
 20
238.7173706064322
 30
0.0
 11
430.7244558747364
 21
231.856358091412
 31
0.0
  0
LINE
  5
409
330
1F
100
AcDbEntity
  8
LAYER-033
  6
Continuous
 62
     4
100
AcDbLine
 10
378.7981267162033
 20
288.0253279370642
 30
0.0
 11
388.2981267162015
 21
278.525327937066
 31
0.0
  0
LINE
  5
40A
330
1F
100
AcDbEntity
  8
LAYER-033
  6
Continuous
 62
     4
100
AcDbLine
 10
425.5049918085171
 20
241.3184628447505
 30
0.0
 11
432.3707868984634
 21
234.4526677548041
 31
0.0
  0
LINE
  5
40B
330
1F
100
AcDbEntity
  8
LAYER-033
  6
Continuous
 62
     4
100
AcDbLine
 10
383.0407674033227
 20
288.0253279370642
 30
0.0
 11
392.540767403
 21
278.525327937066
 31
0.0
  0
LINE
  5
40C
330
1F
100
AcDbEntity
  8
LAYER-033
  6
Continuous
 62
     4
100
AcDbLine
 10
427.1465402573181
 20
243.9195550830688
 30
0.0
 11
434.0171179222102
 21
237.0489774182271
 31
0.0
  0
LINE
  5
40D
330
1F
100
AcDbEntity
  8
LAYER-033
  6
Continuous
 62
     4
100
AcDbLine
 10
387.283408090442
 20
288.0253279370642
 30
0.0
 11
396.783408090084
 21
278.525327937066
 31
0.0
  0
LINE
  5
40E
330
1F
100
AcDbEntity
  8
LAYER-033
  6
Continuous
 62
     4
100
AcDbLine
 10
428.7880887061191
 20
246.5206473213871
 30
0.0
 11
435.6634489459177
 21
239.6452870815885
 31
0.0
  0
LINE
  5
40F
330
1F
100
AcDbEntity
  8
LAYER-033
  6
Continuous
 62
     4
100
AcDbLine
 10
391.5260487775613
 20
288.0253279370642
 30
0.0
 11
401.0260487775595
 21
278.525327937066
 31
0.0
  0
LINE
  5
410
330
1F
100
AcDbEntity
  8
LAYER-033
  6
Continuous
 62
     4
100
AcDbLine
 10
430.3370487271714
 20
249.2143279874541
 30
0.0
 11
437.3097799696448
 21
242.2415967449806
 31
0.0
  0
LINE
  5
411
330
1F
100
AcDbEntity
  8
LAYER-033
  6
Continuous
 62
     4
100
AcDbLine
 10
395.7686894646806
 20
288.0253279370642
 30
0.0
 11
405.268689465
 21
278.525327937066
 31
0.0
  0
LINE
  5
412
330
1F
100
AcDbEntity
  8
LAYER-033
  6
Continuous
 62
     4
100
AcDbLine
 10
431.50749907568
 20
252.2865183260648
 30
0.0
 11
438.8330993193642
 21
244.9609180823806
 31
0.0
  0
LINE
  5
413
330
1F
100
AcDbEntity
  8
LAYER-033
  6
Continuous
 62
     4
100
AcDbLine
 10
400.0113301517999
 20
288.0253279370642
 30
0.0
 11
409.5113301517981
 21
278.525327937066
 31
0.0
  0
LINE
  5
414
330
1F
100
AcDbEntity
  8
LAYER-033
  6
Continuous
 62
     4
100
AcDbLine
 10
432.2090114262516
 20
255.8276466626125
 30
0.0
 11
440.0851982360475
 21
247.9514598528166
 31
0.0
  0
LINE
  5
415
330
1F
100
AcDbEntity
  8
LAYER-033
  6
Continuous
 62
     4
100
AcDbLine
 10
404.2539708389193
 20
288.0253279370642
 30
0.0
 11
413.8544605586333
 21
278.4248382173502
 31
0.0
  0
LINE
  5
416
330
1F
100
AcDbEntity
  8
LAYER-033
  6
Continuous
 62
     4
100
AcDbLine
 10
432.2266621982365
 20
260.052636577747
 30
0.0
 11
441.0477668311673
 21
251.231531944816
 31
0.0
  0
LINE
  5
417
330
1F
100
AcDbEntity
  8
LAYER-033
  6
Continuous
 62
     4
100
AcDbLine
 10
408.4966115260385
 20
288.0253279370642
 30
0.0
 11
419.4776947919889
 21
277.0442446709327
 31
0.0
  0
LINE
  5
418
330
1F
100
AcDbEntity
  8
LAYER-033
  6
Continuous
 62
     4
100
AcDbLine
 10
430.846068652
 20
265.6758708112836
 30
0.0
 11
441.6599113314707
 21
254.862028131632
 31
0.0
  0
LINE
  5
419
330
1F
100
AcDbEntity
  8
LAYER-033
  6
Continuous
 62
     4
100
AcDbLine
 10
412.7535594741814
 20
288.0110206760008
 30
0.0
 11
441.8128446550581
 21
258.9517354951638
 31
0.0
  0
LINE
  5
41A
330
1F
100
AcDbEntity
  8
LAYER-033
  6
Continuous
 62
     4
100
AcDbLine
 10
417.5286625828176
 20
287.4785582542484
 30
0.0
 11
441.2803822332662
 21
263.7268386037998
 31
0.0
  0
LINE
  5
41B
330
1F
100
AcDbEntity
  8
LAYER-033
  6
Continuous
 62
     4
100
AcDbLine
 10
423.6542749683325
 20
285.5955865558528
 30
0.0
 11
439.3974105348727
 21
269.8524509893126
 31
0.0
  0
TEXT
  5
41C
330
1F
100
AcDbEntity
  8
LAYER-033
  6
Continuous
 62
     7
100
AcDbText
 10
-78.59006319201528
 20
-233.7017527596956
 30
0.0
 40
4.0
  1
４００／４４０Ｖ　５０／６０Ｈｚ　　　７５ｋＷ
  7
STRING_H
 11
-78.59006319201528
 21
-231.7017527596956
 31
0.0
100
AcDbText
 73
     2
  0
TEXT
  5
41D
330
1F
100
AcDbEntity
  8
LAYER-033
  6
Continuous
 62
     7
100
AcDbText
 10
-78.59006319201528
 20
-241.7872028606628
 30
0.0
 40
4.0
  1
質　　量　　９０㎏
  7
STRING_H
 11
-78.59006319201528
 21
-239.7872028606628
 31
0.0
100
AcDbText
 73
     2
  0
TEXT
  5
41E
330
1F
100
AcDbEntity
  8
LAYER-033
  6
Continuous
 62
     7
100
AcDbText
 10
-78.59006319201528
 20
-225.6163026583913
 30
0.0
 40
4.0
  1
ＫＲ－１Ｐ(低　圧)
  7
STRING_H
 11
-78.59006319201528
 21
-223.6163026583913
 31
0.0
100
AcDbText
 73
     2
  0
DIMENSION
  5
42E
330
1F
100
AcDbEntity
  8
LAYER-035
  6
Continuous
 62
     5
100
AcDbDimension
  2
*D02
 10
-527.6768443745657
 20
-60.78685806293595
 30
0.0
 11
-527.6768443745657
 21
116.7131419370641
 31
0.0
 70
   128
  1
<>
 71
     0
 42
0.0
  3
DIO_DIMSTYLE
100
AcDbAlignedDimension
 13
-425.3913690839161
 23
294.2131419370641
 33
0.0
 14
-473.891369083917
 24
-60.78685806293595
 34
0.0
 50
90.0
100
AcDbRotatedDimension
1001
ACAD
1000
DSTYLE
1002
{
1070
    41
1040
4.0
1070
    44
1040
1.0
1070
    42
1040
1.0
1070
     6
1000
_OPEN
1070
     7
1000
_OPEN
1070
   173
1070
     1
1070
   140
1040
4.0
1070
   178
1070
     5
1070
   147
1040
0.5
1002
}
  0
DIMENSION
  5
438
330
1F
100
AcDbEntity
  8
LAYER-035
  6
Continuous
 62
     5
100
AcDbDimension
  2
*D13
 10
-473.8913690839169
 20
-162.3212690539319
 30
0.0
 11
-288.891369083917
 21
-162.3212690539319
 31
0.0
 70
   128
  1
<>
 71
     0
 42
0.0
  3
DIO_DIMSTYLE
100
AcDbAlignedDimension
 13
-103.891369083917
 23
-60.78685806293595
 33
0.0
 14
-473.891369083917
 24
-60.78685806293595
 34
0.0
100
AcDbRotatedDimension
1001
ACAD
1000
DSTYLE
1002
{
1070
    41
1040
4.0
1070
    44
1040
1.0
1070
    42
1040
1.0
1070
     6
1000
_OPEN
1070
     7
1000
_OPEN
1070
   173
1070
     1
1070
   140
1040
4.0
1070
   178
1070
     5
1070
   147
1040
0.5
1002
}
  0
DIMENSION
  5
442
330
1F
100
AcDbEntity
  8
LAYER-035
  6
Continuous
 62
     5
100
AcDbDimension
  2
*D24
 10
-438.891369083917
 20
-121.7090944392489
 30
0.0
 11
-288.891369083917
 21
-121.7090944392489
 31
0.0
 70
   129
  1
<>
 71
     0
 42
0.0
  3
DIO_DIMSTYLE
100
AcDbAlignedDimension
 13
-138.891369083917
 23
-73.22336106293494
 33
0.0
 14
-438.891369083917
 24
-73.22336106293494
 34
0.0
1001
ACAD
1000
DSTYLE
1002
{
1070
    41
1040
4.0
1070
    44
1040
1.0
1070
    42
1040
1.0
1070
     6
1000
_OPEN
1070
     7
1000
_OPEN
1070
   173
1070
     1
1070
   140
1040
4.0
1070
   178
1070
     5
1070
   147
1040
0.5
1002
}
  0
DIMENSION
  5
44C
330
1F
100
AcDbEntity
  8
LAYER-035
  6
Continuous
 62
     5
100
AcDbDimension
  2
*D35
 10
141.7977149149467
 20
51.8659164262311
 30
0.0
 11
254.8210807995943
 21
51.8659164262311
 31
0.0
 70
   129
  1
<>
 71
     0
 42
0.0
  3
DIO_DIMSTYLE
100
AcDbAlignedDimension
 13
391.7977149160836
 23
154.2131419370641
 33
0.0
 14
141.7977149149467
 24
154.2131419370641
 34
0.0
1001
ACAD
1000
DSTYLE
1002
{
1070
    41
1040
4.0
1070
    44
1040
1.0
1070
    42
1040
1.0
1070
     6
1000
_OPEN
1070
     7
1000
_OPEN
1070
   173
1070
     1
1070
   140
1040
4.0
1070
   178
1070
     5
1070
   147
1040
0.5
1002
}
  0
DIMENSION
  5
456
330
1F
100
AcDbEntity
  8
LAYER-035
  6
Continuous
 62
     5
100
AcDbDimension
  2
*D46
 10
391.7977149160836
 20
123.5621020587804
 30
0.0
 11
416.8124334160827
 21
123.5621020587804
 31
0.0
 70
   128
  1
(<>)
 71
     0
 42
0.0
  3
DIO_DIMSTYLE
100
AcDbAlignedDimension
 13
441.8271519160819
 23
258.0253279370642
 33
0.0
 14
391.7977149160836
 24
154.2131419370641
 34
0.0
100
AcDbRotatedDimension
1001
ACAD
1000
DSTYLE
1002
{
1070
    41
1040
4.0
1070
    44
1040
1.0
1070
    42
1040
1.0
1070
     6
1000
_OPEN
1070
     7
1000
_OPEN
1070
   173
1070
     1
1070
   140
1040
4.0
1070
   178
1070
     5
1070
   147
1040
0.5
1002
}
  0
DIMENSION
  5
460
330
1F
100
AcDbEntity
  8
LAYER-035
  6
Continuous
 62
     5
100
AcDbDimension
  2
*D57
 10
151.7977149160836
 20
-121.7090944392489
 30
0.0
 11
266.7977149160836
 21
-121.7090944392489
 31
0.0
 70
   128
  1
<>
 71
     0
 42
0.0
  3
DIO_DIMSTYLE
100
AcDbAlignedDimension
 13
381.7977149160836
 23
-73.22336106293304
 33
0.0
 14
151.7977149160836
 24
-73.22336106293304
 34
0.0
100
AcDbRotatedDimension
1001
ACAD
1000
DSTYLE
1002
{
1070
    41
1040
4.0
1070
    44
1040
1.0
1070
    42
1040
1.0
1070
     6
1000
_OPEN
1070
     7
1000
_OPEN
1070
   173
1070
     1
1070
   140
1040
4.0
1070
   178
1070
     5
1070
   147
1040
0.5
1002
}
  0
DIMENSION
  5
46A
330
1F
100
AcDbEntity
  8
LAYER-035
  6
Continuous
 62
     5
100
AcDbDimension
  2
*D68
 10
401.7977149160836
 20
-162.3212690539319
 30
0.0
 11
266.7977149160836
 21
-162.3212690539319
 31
0.0
 70
   129
  1
<>
 71
     0
 42
0.0
  3
DIO_DIMSTYLE
100
AcDbAlignedDimension
 13
131.7977149160836
 23
-60.78685806293595
 33
0.0
 14
401.7977149160836
 24
-60.78685806293595
 34
0.0
1001
ACAD
1000
DSTYLE
1002
{
1070
    41
1040
4.0
1070
    44
1040
1.0
1070
    42
1040
1.0
1070
     6
1000
_OPEN
1070
     7
1000
_OPEN
1070
   173
1070
     1
1070
   140
1040
4.0
1070
   178
1070
     5
1070
   147
1040
0.5
1002
}
  0
ENDSEC
  0
SECTION
  2
OBJECTS
  0
DICTIONARY
  5
C
330
0
100
AcDbDictionary
281
     1
  3
ACAD_GROUP
350
D
  3
ACAD_LAYOUT
350
1A
  3
ACAD_MLINESTYLE
350
17
  3
ACAD_PLOTSETTINGS
350
19
  3
ACAD_PLOTSTYLENAME
350
E
  0
DICTIONARY
  5
D
102
{ACAD_REACTORS
330
C
102
}
330
C
100
AcDbDictionary
281
     1
  0
DICTIONARY
  5
1A
102
{ACAD_REACTORS
330
C
102
}
330
C
100
AcDbDictionary
281
     1
  3
Model
350
22
  3
ﾚｲｱｳﾄ1
350
1E
  3
ﾚｲｱｳﾄ2
350
26
  0
DICTIONARY
  5
17
102
{ACAD_REACTORS
330
C
102
}
330
C
100
AcDbDictionary
281
     1
  3
Standard
350
18
  0
DICTIONARY
  5
19
102
{ACAD_REACTORS
330
C
102
}
330
C
100
AcDbDictionary
281
     1
  0
ACDBDICTIONARYWDFLT
  5
E
102
{ACAD_REACTORS
330
C
102
}
330
C
100
AcDbDictionary
281
     1
  3
Normal
350
F
100
AcDbDictionaryWithDefault
340
F
  0
LAYOUT
  5
22
102
{ACAD_REACTORS
330
1A
102
}
330
1A
100
AcDbPlotSettings
  1

  2
DWF ePlot.pc3
  4
ANSI_A_(8.50_x_11.00_Inches)
  6

 40
5.793749809265137
 41
17.79375076293945
 42
5.793746948242188
 43
17.79376220703125
 44
215.8999938964844
 45
279.3999938964844
 46
0.0
 47
0.0
 48
0.0
 49
0.0
140
0.0
141
0.0
142
1.0
143
39.26051453979704
 70
 11952
 72
     0
 73
     1
 74
     0
  7
acad.ctb
 75
     0
147
0.0254708837039396
148
-1793.922354682663
149
1.490346453088415
100
AcDbLayout
  1
Model
 70
     1
 71
     0
 10
-594.5
 20
-420.5
 11
594.5
 21
420.5
 12
0.0
 22
0.0
 32
0.0
 14
-594.5
 24
-420.5
 34
0.0
 15
594.5
 25
420.5
 35
0.0
146
0.0
 13
0.0
 23
0.0
 33
0.0
 16
1.0
 26
0.0
 36
0.0
 17
0.0
 27
1.0
 37
0.0
 76
     0
330
1F
  0
LAYOUT
  5
1E
102
{ACAD_REACTORS
330
1A
102
}
330
1A
100
AcDbPlotSettings
  1

  2
RICOH IPSiO NX700
  4

  6

 40
0.0
 41
0.0
 42
0.0
 43
0.0
 44
0.0
 45
0.0
 46
0.0
 47
0.0
 48
0.0
 49
0.0
140
0.0
141
0.0
142
1.0
143
1.0
 70
   688
 72
     0
 73
     0
 74
     5
  7
acad.ctb
 75
    16
147
1.0
148
0.0
149
0.0
100
AcDbLayout
  1
ﾚｲｱｳﾄ1
 70
     1
 71
     1
 10
-594.5
 20
-420.5
 11
594.5
 21
420.5
 12
0.0
 22
0.0
 32
0.0
 14
-594.5
 24
-420.5
 34
0.0
 15
594.5
 25
420.5
 35
0.0
146
0.0
 13
0.0
 23
0.0
 33
0.0
 16
1.0
 26
0.0
 36
0.0
 17
0.0
 27
1.0
 37
0.0
 76
     0
330
1B
  0
LAYOUT
  5
26
102
{ACAD_REACTORS
330
1A
102
}
330
1A
100
AcDbPlotSettings
  1

  2
RICOH IPSiO NX700
  4

  6

 40
0.0
 41
0.0
 42
0.0
 43
0.0
 44
0.0
 45
0.0
 46
0.0
 47
0.0
 48
0.0
 49
0.0
140
0.0
141
0.0
142
1.0
143
1.0
 70
   688
 72
     0
 73
     0
 74
     5
  7
acad.ctb
 75
    16
147
1.0
148
0.0
149
0.0
100
AcDbLayout
  1
ﾚｲｱｳﾄ2
 70
     1
 71
     2
 10
0.0
 20
0.0
 11
12.0
 21
9.0
 12
0.0
 22
0.0
 32
0.0
 14
0.0
 24
0.0
 34
0.0
 15
0.0
 25
0.0
 35
0.0
146
0.0
 13
0.0
 23
0.0
 33
0.0
 16
1.0
 26
0.0
 36
0.0
 17
0.0
 27
1.0
 37
0.0
 76
     0
330
23
  0
MLINESTYLE
  5
18
102
{ACAD_REACTORS
330
17
102
}
330
17
100
AcDbMlineStyle
  2
STANDARD
 70
     0
  3

 62
   256
 51
90.0
 52
90.0
 71
     2
 49
0.5
 62
   256
  6
BYLAYER
 49
-0.5
 62
   256
  6
BYLAYER
  0
ACDBPLACEHOLDER
  5
F
102
{ACAD_REACTORS
330
E
102
}
330
E
  0
ENDSEC
  0
EOF
