  0
SECTION
  2
HEADER
  9
$ACADVER
  1
AC1015
  9
$ACADMAINTVER
 70
     6
  9
$DWGCODEPAGE
  3
ANSI_932
  9
$INSBASE
 10
0.0
 20
0.0
 30
0.0
  9
$EXTMIN
 10
-594.5
 20
-420.5
 30
0.0
  9
$EXTMAX
 10
594.5
 20
420.5
 30
0.0
  9
$LIMMIN
 10
-594.5
 20
-420.5
  9
$LIMMAX
 10
594.5
 20
420.5
  9
$ORTHOMODE
 70
     0
  9
$REGENMODE
 70
     1
  9
$FILLMODE
 70
     1
  9
$QTEXTMODE
 70
     0
  9
$MIRRTEXT
 70
     1
  9
$LTSCALE
 40
4.0
  9
$ATTMODE
 70
     1
  9
$TEXTSIZE
 40
2.5
  9
$TRACEWID
 40
1.0
  9
$TEXTSTYLE
  7
Standard
  9
$CLAYER
  8
0
  9
$CELTYPE
  6
ByLayer
  9
$CECOLOR
 62
   256
  9
$CELTSCALE
 40
1.0
  9
$DISPSILH
 70
     0
  9
$DIMSCALE
 40
1.0
  9
$DIMASZ
 40
4.0
  9
$DIMEXO
 40
1.0
  9
$DIMDLI
 40
3.75
  9
$DIMRND
 40
0.1
  9
$DIMDLE
 40
0.0
  9
$DIMEXE
 40
1.0
  9
$DIMTP
 40
0.0
  9
$DIMTM
 40
0.0
  9
$DIMTXT
 40
2.5
  9
$DIMCEN
 40
2.5
  9
$DIMTSZ
 40
0.0
  9
$DIMTOL
 70
     0
  9
$DIMLIM
 70
     0
  9
$DIMTIH
 70
     0
  9
$DIMTOH
 70
     0
  9
$DIMSE1
 70
     0
  9
$DIMSE2
 70
     0
  9
$DIMTAD
 70
     1
  9
$DIMZIN
 70
     8
  9
$DIMBLK
  1

  9
$DIMASO
 70
     1
  9
$DIMSHO
 70
     1
  9
$DIMPOST
  1

  9
$DIMAPOST
  1

  9
$DIMALT
 70
     0
  9
$DIMALTD
 70
     3
  9
$DIMALTF
 40
0.03937007874016
  9
$DIMLFAC
 40
1.0
  9
$DIMTOFL
 70
     1
  9
$DIMTVP
 40
0.0
  9
$DIMTIX
 70
     0
  9
$DIMSOXD
 70
     0
  9
$DIMSAH
 70
     1
  9
$DIMBLK1
  1

  9
$DIMBLK2
  1

  9
$DIMSTYLE
  2
ISO-25
  9
$DIMCLRD
 70
     0
  9
$DIMCLRE
 70
     0
  9
$DIMCLRT
 70
     0
  9
$DIMTFAC
 40
1.0
  9
$DIMGAP
 40
0.5
  9
$DIMJUST
 70
     0
  9
$DIMSD1
 70
     0
  9
$DIMSD2
 70
     0
  9
$DIMTOLJ
 70
     0
  9
$DIMTZIN
 70
     8
  9
$DIMALTZ
 70
     0
  9
$DIMALTTZ
 70
     0
  9
$DIMUPT
 70
     1
  9
$DIMDEC
 70
     1
  9
$DIMTDEC
 70
     2
  9
$DIMALTU
 70
     2
  9
$DIMALTTD
 70
     3
  9
$DIMTXSTY
  7
Standard
  9
$DIMAUNIT
 70
     0
  9
$DIMADEC
 70
     1
  9
$DIMALTRND
 40
0.0
  9
$DIMAZIN
 70
     2
  9
$DIMDSEP
 70
    46
  9
$DIMATFIT
 70
     0
  9
$DIMFRAC
 70
     0
  9
$DIMLDRBLK
  1

  9
$DIMLUNIT
 70
     2
  9
$DIMLWD
 70
    -2
  9
$DIMLWE
 70
    -2
  9
$DIMTMOVE
 70
     0
  9
$LUNITS
 70
     2
  9
$LUPREC
 70
     4
  9
$SKETCHINC
 40
1.0
  9
$FILLETRAD
 40
10.0
  9
$AUNITS
 70
     0
  9
$AUPREC
 70
     0
  9
$MENU
  1
.
  9
$ELEVATION
 40
0.0
  9
$PELEVATION
 40
0.0
  9
$THICKNESS
 40
0.0
  9
$LIMCHECK
 70
     0
  9
$CHAMFERA
 40
10.0
  9
$CHAMFERB
 40
10.0
  9
$CHAMFERC
 40
20.0
  9
$CHAMFERD
 40
0.0
  9
$SKPOLY
 70
     0
  9
$TDCREATE
 40
2455091.0
  9
$TDUCREATE
 40
2451562.87528772
  9
$TDUPDATE
 40
2455119.0
  9
$TDUUPDATE
 40
2452026.917654526
  9
$TDINDWG
 40
0.0010008681
  9
$TDUSRTIMER
 40
0.0009680671
  9
$USRTIMER
 70
     1
  9
$ANGBASE
 50
0.0
  9
$ANGDIR
 70
     0
  9
$PDMODE
 70
     0
  9
$PDSIZE
 40
0.0
  9
$PLINEWID
 40
0.0
  9
$SPLFRAME
 70
     0
  9
$SPLINETYPE
 70
     6
  9
$SPLINESEGS
 70
     8
  9
$HANDSEED
  5
653
  9
$SURFTAB1
 70
     6
  9
$SURFTAB2
 70
     6
  9
$SURFTYPE
 70
     6
  9
$SURFU
 70
     6
  9
$SURFV
 70
     6
  9
$UCSBASE
  2

  9
$UCSNAME
  2

  9
$UCSORG
 10
0.0
 20
0.0
 30
0.0
  9
$UCSXDIR
 10
1.0
 20
0.0
 30
0.0
  9
$UCSYDIR
 10
0.0
 20
1.0
 30
0.0
  9
$UCSORTHOREF
  2

  9
$UCSORTHOVIEW
 70
     0
  9
$UCSORGTOP
 10
0.0
 20
0.0
 30
0.0
  9
$UCSORGBOTTOM
 10
0.0
 20
0.0
 30
0.0
  9
$UCSORGLEFT
 10
0.0
 20
0.0
 30
0.0
  9
$UCSORGRIGHT
 10
0.0
 20
0.0
 30
0.0
  9
$UCSORGFRONT
 10
0.0
 20
0.0
 30
0.0
  9
$UCSORGBACK
 10
0.0
 20
0.0
 30
0.0
  9
$PUCSBASE
  2

  9
$PUCSNAME
  2

  9
$PUCSORG
 10
0.0
 20
0.0
 30
0.0
  9
$PUCSXDIR
 10
1.0
 20
0.0
 30
0.0
  9
$PUCSYDIR
 10
0.0
 20
1.0
 30
0.0
  9
$PUCSORTHOREF
  2

  9
$PUCSORTHOVIEW
 70
     0
  9
$PUCSORGTOP
 10
0.0
 20
0.0
 30
0.0
  9
$PUCSORGBOTTOM
 10
0.0
 20
0.0
 30
0.0
  9
$PUCSORGLEFT
 10
0.0
 20
0.0
 30
0.0
  9
$PUCSORGRIGHT
 10
0.0
 20
0.0
 30
0.0
  9
$PUCSORGFRONT
 10
0.0
 20
0.0
 30
0.0
  9
$PUCSORGBACK
 10
0.0
 20
0.0
 30
0.0
  9
$USERI1
 70
     0
  9
$USERI2
 70
     0
  9
$USERI3
 70
     0
  9
$USERI4
 70
     0
  9
$USERI5
 70
     0
  9
$USERR1
 40
0.0
  9
$USERR2
 40
0.0
  9
$USERR3
 40
0.0
  9
$USERR4
 40
0.0
  9
$USERR5
 40
0.0
  9
$WORLDVIEW
 70
     1
  9
$SHADEDGE
 70
     3
  9
$SHADEDIF
 70
    70
  9
$TILEMODE
 70
     1
  9
$MAXACTVP
 70
    64
  9
$PINSBASE
 10
0.0
 20
0.0
 30
0.0
  9
$PLIMCHECK
 70
     0
  9
$PEXTMIN
 10
-594.5
 20
-420.5
 30
0.0
  9
$PEXTMAX
 10
594.5
 20
420.5
 30
0.0
  9
$PLIMMIN
 10
-594.5
 20
-420.5
  9
$PLIMMAX
 10
594.5
 20
420.5
  9
$UNITMODE
 70
     0
  9
$VISRETAIN
 70
     1
  9
$PLINEGEN
 70
     0
  9
$PSLTSCALE
 70
     1
  9
$TREEDEPTH
 70
  3020
  9
$CMLSTYLE
  2
Standard
  9
$CMLJUST
 70
     0
  9
$CMLSCALE
 40
20.0
  9
$PROXYGRAPHICS
 70
     1
  9
$MEASUREMENT
 70
     1
  9
$CELWEIGHT
370
    -1
  9
$ENDCAPS
280
     0
  9
$JOINSTYLE
280
     0
  9
$LWDISPLAY
290
     0
  9
$INSUNITS
 70
     4
  9
$HYPERLINKBASE
  1

  9
$STYLESHEET
  1

  9
$XEDIT
290
     1
  9
$CEPSNTYPE
380
     0
  9
$PSTYLEMODE
290
     1
  9
$FINGERPRINTGUID
  2
{B6423330-CE35-11D3-AA43-00E0292263AD}
  9
$VERSIONGUID
  2
{EAA0F794-BAE8-4B09-85E0-65C527BE2B8E}
  9
$EXTNAMES
290
     1
  9
$PSVPSCALE
 40
0.0
  9
$OLESTARTUP
290
     0
  0
ENDSEC
  0
SECTION
  2
CLASSES
  0
CLASS
  1
ACDBDICTIONARYWDFLT
  2
AcDbDictionaryWithDefault
  3
ObjectDBX Classes
 90
        0
280
     0
281
     0
  0
CLASS
  1
ACDBPLACEHOLDER
  2
AcDbPlaceHolder
  3
ObjectDBX Classes
 90
        0
280
     0
281
     0
  0
CLASS
  1
LAYOUT
  2
AcDbLayout
  3
ObjectDBX Classes
 90
        0
280
     0
281
     0
  0
ENDSEC
  0
SECTION
  2
TABLES
  0
TABLE
  2
VPORT
  5
8
330
0
100
AcDbSymbolTable
 70
     3
  0
VPORT
  5
30
330
8
100
AcDbSymbolTableRecord
100
AcDbViewportTableRecord
  2
*Active
 70
     0
 10
0.0
 20
0.0
 11
1.0
 21
1.0
 12
259.0560661764706
 22
148.5
 13
0.0
 23
0.0
 14
10.0
 24
10.0
 15
10.0
 25
10.0
 16
0.0
 26
0.0
 36
1.0
 17
0.0
 27
0.0
 37
0.0
 40
297.1173501144164
 41
1.268382352941176
 42
50.0
 43
0.0
 44
0.0
 50
0.0
 51
0.0
 71
     0
 72
   100
 73
     1
 74
     3
 75
     0
 76
     0
 77
     0
 78
     0
281
     0
 65
     1
110
0.0
120
0.0
130
0.0
111
1.0
121
0.0
131
0.0
112
0.0
122
1.0
132
0.0
 79
     0
146
0.0
  0
ENDTAB
  0
TABLE
  2
LTYPE
  5
5
330
0
100
AcDbSymbolTable
 70
    26
  0
LTYPE
  5
14
330
5
100
AcDbSymbolTableRecord
100
AcDbLinetypeTableRecord
  2
ByBlock
 70
     0
  3

 72
    65
 73
     0
 40
0.0
  0
LTYPE
  5
15
330
5
100
AcDbSymbolTableRecord
100
AcDbLinetypeTableRecord
  2
ByLayer
 70
     0
  3

 72
    65
 73
     0
 40
0.0
  0
LTYPE
  5
16
330
5
100
AcDbSymbolTableRecord
100
AcDbLinetypeTableRecord
  2
Continuous
 70
     0
  3
Solid line
 72
    65
 73
     0
 40
0.0
  0
LTYPE
  5
37
330
5
100
AcDbSymbolTableRecord
100
AcDbLinetypeTableRecord
  2
BORDER
 70
     0
  3
 __ __ . __ __ . __ __ . __ __ . __ __ . __ __
 72
    65
 73
     6
 40
1.75
 49
0.5
 74
     0
 49
-0.25
 74
     0
 49
0.5
 74
     0
 49
-0.25
 74
     0
 49
0.0
 74
     0
 49
-0.25
 74
     0
  0
LTYPE
  5
38
330
5
100
AcDbSymbolTableRecord
100
AcDbLinetypeTableRecord
  2
BORDER2
 70
     0
  3
__.__.__.__.__.__.__.__.__.__.__.__.__.__.__
 72
    65
 73
     6
 40
0.875
 49
0.25
 74
     0
 49
-0.125
 74
     0
 49
0.25
 74
     0
 49
-0.125
 74
     0
 49
0.0
 74
     0
 49
-0.125
 74
     0
  0
LTYPE
  5
39
330
5
100
AcDbSymbolTableRecord
100
AcDbLinetypeTableRecord
  2
BORDERX2
 70
     0
  3
____  ____  .  ____  ____  .  ____  ____  .
 72
    65
 73
     6
 40
3.5
 49
1.0
 74
     0
 49
-0.5
 74
     0
 49
1.0
 74
     0
 49
-0.5
 74
     0
 49
0.0
 74
     0
 49
-0.5
 74
     0
  0
LTYPE
  5
3A
330
5
100
AcDbSymbolTableRecord
100
AcDbLinetypeTableRecord
  2
CENTER
 70
     0
  3
____ _ ____ _ ____ _ ____ _ ____ _ ____ _ ____
 72
    65
 73
     4
 40
2.0
 49
1.25
 74
     0
 49
-0.25
 74
     0
 49
0.25
 74
     0
 49
-0.25
 74
     0
  0
LTYPE
  5
3B
330
5
100
AcDbSymbolTableRecord
100
AcDbLinetypeTableRecord
  2
CENTER2
 70
     0
  3
___ _ ___ _ ___ _ ___ _ ___ _ ___ _ ___ _ ___ 
 72
    65
 73
     4
 40
1.125
 49
0.75
 74
     0
 49
-0.125
 74
     0
 49
0.125
 74
     0
 49
-0.125
 74
     0
  0
LTYPE
  5
3C
330
5
100
AcDbSymbolTableRecord
100
AcDbLinetypeTableRecord
  2
CENTERX2
 70
     0
  3
________  __  ________  __  ________  __
 72
    65
 73
     4
 40
4.0
 49
2.5
 74
     0
 49
-0.5
 74
     0
 49
0.5
 74
     0
 49
-0.5
 74
     0
  0
LTYPE
  5
3D
330
5
100
AcDbSymbolTableRecord
100
AcDbLinetypeTableRecord
  2
DASHDOT
 70
     0
  3
__ . __ . __ . __ . __ . __ . __ . __ . __ .
 72
    65
 73
     4
 40
1.0
 49
0.5
 74
     0
 49
-0.25
 74
     0
 49
0.0
 74
     0
 49
-0.25
 74
     0
  0
LTYPE
  5
3E
330
5
100
AcDbSymbolTableRecord
100
AcDbLinetypeTableRecord
  2
DASHDOT2
 70
     0
  3
_._._._._._._._._._._._._._._._._._._._._._._.
 72
    65
 73
     4
 40
0.5
 49
0.25
 74
     0
 49
-0.125
 74
     0
 49
0.0
 74
     0
 49
-0.125
 74
     0
  0
LTYPE
  5
3F
330
5
100
AcDbSymbolTableRecord
100
AcDbLinetypeTableRecord
  2
DASHDOTX2
 70
     0
  3
____  .  ____  .  ____  .  ____  .  ____  .
 72
    65
 73
     4
 40
2.0
 49
1.0
 74
     0
 49
-0.5
 74
     0
 49
0.0
 74
     0
 49
-0.5
 74
     0
  0
LTYPE
  5
40
330
5
100
AcDbSymbolTableRecord
100
AcDbLinetypeTableRecord
  2
DASHED
 70
     0
  3
__ __ __ __ __ __ __ __ __ __ __ __ __ __ __
 72
    65
 73
     2
 40
0.75
 49
0.5
 74
     0
 49
-0.25
 74
     0
  0
LTYPE
  5
41
330
5
100
AcDbSymbolTableRecord
100
AcDbLinetypeTableRecord
  2
DASHED2
 70
     0
  3
_ _ _ _ _ _ _ _ _ _ _ _ _ _ _ _ _ _ _ _ _ _ _
 72
    65
 73
     2
 40
0.375
 49
0.25
 74
     0
 49
-0.125
 74
     0
  0
LTYPE
  5
42
330
5
100
AcDbSymbolTableRecord
100
AcDbLinetypeTableRecord
  2
DASHEDX2
 70
     0
  3
____  ____  ____  ____  ____  ____  ____  ____
 72
    65
 73
     2
 40
1.5
 49
1.0
 74
     0
 49
-0.5
 74
     0
  0
LTYPE
  5
43
330
5
100
AcDbSymbolTableRecord
100
AcDbLinetypeTableRecord
  2
DIVIDE
 70
     0
  3
____ . . ____ . . ____ . . ____ . . ____ . .
 72
    65
 73
     6
 40
1.25
 49
0.5
 74
     0
 49
-0.25
 74
     0
 49
0.0
 74
     0
 49
-0.25
 74
     0
 49
0.0
 74
     0
 49
-0.25
 74
     0
  0
LTYPE
  5
44
330
5
100
AcDbSymbolTableRecord
100
AcDbLinetypeTableRecord
  2
DIVIDE2
 70
     0
  3
__..__..__..__..__..__..__..__..__..__..__..__
 72
    65
 73
     6
 40
0.625
 49
0.25
 74
     0
 49
-0.125
 74
     0
 49
0.0
 74
     0
 49
-0.125
 74
     0
 49
0.0
 74
     0
 49
-0.125
 74
     0
  0
LTYPE
  5
45
330
5
100
AcDbSymbolTableRecord
100
AcDbLinetypeTableRecord
  2
DIVIDEX2
 70
     0
  3
________  .  .  ________  .  .  ________  .  .
 72
    65
 73
     6
 40
2.5
 49
1.0
 74
     0
 49
-0.5
 74
     0
 49
0.0
 74
     0
 49
-0.5
 74
     0
 49
0.0
 74
     0
 49
-0.5
 74
     0
  0
LTYPE
  5
46
330
5
100
AcDbSymbolTableRecord
100
AcDbLinetypeTableRecord
  2
DOT
 70
     0
  3
. . . . . . . . . . . . . . . . . . . . . . .
 72
    65
 73
     2
 40
0.25
 49
0.0
 74
     0
 49
-0.25
 74
     0
  0
LTYPE
  5
47
330
5
100
AcDbSymbolTableRecord
100
AcDbLinetypeTableRecord
  2
DOT2
 70
     0
  3
..............................................
 72
    65
 73
     2
 40
0.125
 49
0.0
 74
     0
 49
-0.125
 74
     0
  0
LTYPE
  5
48
330
5
100
AcDbSymbolTableRecord
100
AcDbLinetypeTableRecord
  2
DOTX2
 70
     0
  3
.  .  .  .  .  .  .  .  .  .  .  .  .  .  .  .
 72
    65
 73
     2
 40
0.5
 49
0.0
 74
     0
 49
-0.5
 74
     0
  0
LTYPE
  5
49
330
5
100
AcDbSymbolTableRecord
100
AcDbLinetypeTableRecord
  2
HIDDEN
 70
     0
  3
__ __ __ __ __ __ __ __ __ __ __ __ __ __ __
 72
    65
 73
     2
 40
0.375
 49
0.25
 74
     0
 49
-0.125
 74
     0
  0
LTYPE
  5
4A
330
5
100
AcDbSymbolTableRecord
100
AcDbLinetypeTableRecord
  2
HIDDEN2
 70
     0
  3
_ _ _ _ _ _ _ _ _ _ _ _ _ _ _ _ _ _ _ _ _ _ _
 72
    65
 73
     2
 40
0.1875
 49
0.125
 74
     0
 49
-0.0625
 74
     0
  0
LTYPE
  5
4B
330
5
100
AcDbSymbolTableRecord
100
AcDbLinetypeTableRecord
  2
HIDDENX2
 70
     0
  3
____ ____ ____ ____ ____ ____ ____ ____ ____
 72
    65
 73
     2
 40
0.75
 49
0.5
 74
     0
 49
-0.25
 74
     0
  0
LTYPE
  5
4C
330
5
100
AcDbSymbolTableRecord
100
AcDbLinetypeTableRecord
  2
PHANTOM
 70
     0
  3
______  __  __  ______  __  __  ______  __
 72
    65
 73
     6
 40
2.5
 49
1.25
 74
     0
 49
-0.25
 74
     0
 49
0.25
 74
     0
 49
-0.25
 74
     0
 49
0.25
 74
     0
 49
-0.25
 74
     0
  0
LTYPE
  5
4D
330
5
100
AcDbSymbolTableRecord
100
AcDbLinetypeTableRecord
  2
PHANTOM2
 70
     0
  3
___ _ _ ___ _ _ ___ _ _ ___ _ _ ___ _ _ ___ _
 72
    65
 73
     6
 40
1.25
 49
0.625
 74
     0
 49
-0.125
 74
     0
 49
0.125
 74
     0
 49
-0.125
 74
     0
 49
0.125
 74
     0
 49
-0.125
 74
     0
  0
LTYPE
  5
4E
330
5
100
AcDbSymbolTableRecord
100
AcDbLinetypeTableRecord
  2
PHANTOMX2
 70
     0
  3
____________    ____    ____    ____________
 72
    65
 73
     6
 40
5.0
 49
2.5
 74
     0
 49
-0.5
 74
     0
 49
0.5
 74
     0
 49
-0.5
 74
     0
 49
0.5
 74
     0
 49
-0.5
 74
     0
  0
LTYPE
  5
4F
330
5
100
AcDbSymbolTableRecord
100
AcDbLinetypeTableRecord
  2
CONTINUOUS2
 70
     0
  3
Solid line
 72
    65
 73
     0
 40
0.0
  0
ENDTAB
  0
TABLE
  2
LAYER
  5
2
330
0
100
AcDbSymbolTable
 70
   514
  0
LAYER
  5
10
330
2
100
AcDbSymbolTableRecord
100
AcDbLayerTableRecord
  2
0
 70
     0
 62
     7
  6
Continuous
370
    -3
390
F
  0
LAYER
  5
50
330
2
100
AcDbSymbolTableRecord
100
AcDbLayerTableRecord
  2
LAYER-001
 70
     0
 62
     7
  6
Continuous
370
    -3
390
F
  0
LAYER
  5
51
330
2
100
AcDbSymbolTableRecord
100
AcDbLayerTableRecord
  2
LAYER-002
 70
     0
 62
     7
  6
Continuous
370
    -3
390
F
  0
LAYER
  5
52
330
2
100
AcDbSymbolTableRecord
100
AcDbLayerTableRecord
  2
LAYER-003
 70
     0
 62
     7
  6
Continuous
370
    -3
390
F
  0
LAYER
  5
53
330
2
100
AcDbSymbolTableRecord
100
AcDbLayerTableRecord
  2
LAYER-004
 70
     0
 62
     7
  6
Continuous
370
    -3
390
F
  0
LAYER
  5
54
330
2
100
AcDbSymbolTableRecord
100
AcDbLayerTableRecord
  2
LAYER-005
 70
     0
 62
     7
  6
Continuous
370
    -3
390
F
  0
LAYER
  5
55
330
2
100
AcDbSymbolTableRecord
100
AcDbLayerTableRecord
  2
LAYER-006
 70
     0
 62
     7
  6
Continuous
370
    -3
390
F
  0
LAYER
  5
56
330
2
100
AcDbSymbolTableRecord
100
AcDbLayerTableRecord
  2
LAYER-007
 70
     0
 62
     7
  6
Continuous
370
    -3
390
F
  0
LAYER
  5
57
330
2
100
AcDbSymbolTableRecord
100
AcDbLayerTableRecord
  2
LAYER-008
 70
     0
 62
     7
  6
Continuous
370
    -3
390
F
  0
LAYER
  5
58
330
2
100
AcDbSymbolTableRecord
100
AcDbLayerTableRecord
  2
LAYER-009
 70
     0
 62
     7
  6
Continuous
370
    -3
390
F
  0
LAYER
  5
59
330
2
100
AcDbSymbolTableRecord
100
AcDbLayerTableRecord
  2
LAYER-010
 70
     0
 62
     7
  6
Continuous
370
    -3
390
F
  0
LAYER
  5
5A
330
2
100
AcDbSymbolTableRecord
100
AcDbLayerTableRecord
  2
LAYER-011
 70
     0
 62
     7
  6
Continuous
370
    -3
390
F
  0
LAYER
  5
5B
330
2
100
AcDbSymbolTableRecord
100
AcDbLayerTableRecord
  2
LAYER-012
 70
     0
 62
     7
  6
Continuous
370
    -3
390
F
  0
LAYER
  5
5C
330
2
100
AcDbSymbolTableRecord
100
AcDbLayerTableRecord
  2
LAYER-013
 70
     0
 62
     7
  6
Continuous
370
    -3
390
F
  0
LAYER
  5
5D
330
2
100
AcDbSymbolTableRecord
100
AcDbLayerTableRecord
  2
LAYER-014
 70
     0
 62
     7
  6
Continuous
370
    -3
390
F
  0
LAYER
  5
5E
330
2
100
AcDbSymbolTableRecord
100
AcDbLayerTableRecord
  2
LAYER-015
 70
     0
 62
     7
  6
Continuous
370
    -3
390
F
  0
LAYER
  5
5F
330
2
100
AcDbSymbolTableRecord
100
AcDbLayerTableRecord
  2
LAYER-016
 70
     0
 62
     4
  6
Continuous
370
    -3
390
F
  0
LAYER
  5
60
330
2
100
AcDbSymbolTableRecord
100
AcDbLayerTableRecord
  2
LAYER-017
 70
     0
 62
     7
  6
Continuous
370
    -3
390
F
  0
LAYER
  5
61
330
2
100
AcDbSymbolTableRecord
100
AcDbLayerTableRecord
  2
LAYER-018
 70
     0
 62
     2
  6
Continuous
370
    -3
390
F
  0
LAYER
  5
62
330
2
100
AcDbSymbolTableRecord
100
AcDbLayerTableRecord
  2
LAYER-019
 70
     0
 62
     3
  6
Continuous
370
    -3
390
F
  0
LAYER
  5
63
330
2
100
AcDbSymbolTableRecord
100
AcDbLayerTableRecord
  2
LAYER-020
 70
     0
 62
     2
  6
Continuous
370
    -3
390
F
  0
LAYER
  5
64
330
2
100
AcDbSymbolTableRecord
100
AcDbLayerTableRecord
  2
LAYER-021
 70
     0
 62
     7
  6
Continuous
370
    -3
390
F
  0
LAYER
  5
65
330
2
100
AcDbSymbolTableRecord
100
AcDbLayerTableRecord
  2
LAYER-022
 70
     0
 62
     4
  6
Continuous
370
    -3
390
F
  0
LAYER
  5
66
330
2
100
AcDbSymbolTableRecord
100
AcDbLayerTableRecord
  2
LAYER-023
 70
     0
 62
     4
  6
Continuous
370
    -3
390
F
  0
LAYER
  5
67
330
2
100
AcDbSymbolTableRecord
100
AcDbLayerTableRecord
  2
LAYER-024
 70
     0
 62
     7
  6
Continuous
370
    -3
390
F
  0
LAYER
  5
68
330
2
100
AcDbSymbolTableRecord
100
AcDbLayerTableRecord
  2
LAYER-025
 70
     0
 62
     7
  6
Continuous
370
    -3
390
F
  0
LAYER
  5
69
330
2
100
AcDbSymbolTableRecord
100
AcDbLayerTableRecord
  2
LAYER-026
 70
     0
 62
    -7
  6
Continuous
370
    -3
390
F
  0
LAYER
  5
6A
330
2
100
AcDbSymbolTableRecord
100
AcDbLayerTableRecord
  2
LAYER-027
 70
     0
 62
     7
  6
Continuous
370
    -3
390
F
  0
LAYER
  5
6B
330
2
100
AcDbSymbolTableRecord
100
AcDbLayerTableRecord
  2
LAYER-028
 70
     0
 62
     7
  6
Continuous
370
    -3
390
F
  0
LAYER
  5
6C
330
2
100
AcDbSymbolTableRecord
100
AcDbLayerTableRecord
  2
LAYER-029
 70
     0
 62
     7
  6
Continuous
370
    -3
390
F
  0
LAYER
  5
6D
330
2
100
AcDbSymbolTableRecord
100
AcDbLayerTableRecord
  2
LAYER-030
 70
     0
 62
     2
  6
Continuous
370
    -3
390
F
  0
LAYER
  5
6E
330
2
100
AcDbSymbolTableRecord
100
AcDbLayerTableRecord
  2
LAYER-031
 70
     0
 62
     7
  6
Continuous
370
    -3
390
F
  0
LAYER
  5
6F
330
2
100
AcDbSymbolTableRecord
100
AcDbLayerTableRecord
  2
LAYER-032
 70
     0
 62
     2
  6
Continuous
370
    -3
390
F
  0
LAYER
  5
70
330
2
100
AcDbSymbolTableRecord
100
AcDbLayerTableRecord
  2
LAYER-033
 70
     0
 62
     7
  6
Continuous
370
    -3
390
F
  0
LAYER
  5
71
330
2
100
AcDbSymbolTableRecord
100
AcDbLayerTableRecord
  2
LAYER-034
 70
     0
 62
     7
  6
Continuous
370
    -3
390
F
  0
LAYER
  5
72
330
2
100
AcDbSymbolTableRecord
100
AcDbLayerTableRecord
  2
LAYER-035
 70
     0
 62
     3
  6
Continuous
370
    -3
390
F
  0
LAYER
  5
73
330
2
100
AcDbSymbolTableRecord
100
AcDbLayerTableRecord
  2
LAYER-036
 70
     0
 62
     2
  6
Continuous
370
    -3
390
F
  0
LAYER
  5
74
330
2
100
AcDbSymbolTableRecord
100
AcDbLayerTableRecord
  2
LAYER-037
 70
     0
 62
     7
  6
Continuous
370
    -3
390
F
  0
LAYER
  5
75
330
2
100
AcDbSymbolTableRecord
100
AcDbLayerTableRecord
  2
LAYER-038
 70
     0
 62
     7
  6
Continuous
370
    -3
390
F
  0
LAYER
  5
76
330
2
100
AcDbSymbolTableRecord
100
AcDbLayerTableRecord
  2
LAYER-039
 70
     0
 62
     7
  6
Continuous
370
    -3
390
F
  0
LAYER
  5
77
330
2
100
AcDbSymbolTableRecord
100
AcDbLayerTableRecord
  2
LAYER-040
 70
     0
 62
     7
  6
Continuous
370
    -3
390
F
  0
LAYER
  5
78
330
2
100
AcDbSymbolTableRecord
100
AcDbLayerTableRecord
  2
LAYER-041
 70
     0
 62
     7
  6
Continuous
370
    -3
390
F
  0
LAYER
  5
79
330
2
100
AcDbSymbolTableRecord
100
AcDbLayerTableRecord
  2
LAYER-042
 70
     0
 62
     7
  6
Continuous
370
    -3
390
F
  0
LAYER
  5
7A
330
2
100
AcDbSymbolTableRecord
100
AcDbLayerTableRecord
  2
LAYER-043
 70
     0
 62
     7
  6
Continuous
370
    -3
390
F
  0
LAYER
  5
7B
330
2
100
AcDbSymbolTableRecord
100
AcDbLayerTableRecord
  2
LAYER-044
 70
     0
 62
     7
  6
Continuous
370
    -3
390
F
  0
LAYER
  5
7C
330
2
100
AcDbSymbolTableRecord
100
AcDbLayerTableRecord
  2
LAYER-045
 70
     0
 62
     7
  6
Continuous
370
    -3
390
F
  0
LAYER
  5
7D
330
2
100
AcDbSymbolTableRecord
100
AcDbLayerTableRecord
  2
LAYER-046
 70
     0
 62
     7
  6
Continuous
370
    -3
390
F
  0
LAYER
  5
7E
330
2
100
AcDbSymbolTableRecord
100
AcDbLayerTableRecord
  2
LAYER-047
 70
     0
 62
     7
  6
Continuous
370
    -3
390
F
  0
LAYER
  5
7F
330
2
100
AcDbSymbolTableRecord
100
AcDbLayerTableRecord
  2
LAYER-048
 70
     0
 62
     2
  6
Continuous
370
    -3
390
F
  0
LAYER
  5
80
330
2
100
AcDbSymbolTableRecord
100
AcDbLayerTableRecord
  2
LAYER-049
 70
     0
 62
     3
  6
Continuous
370
    -3
390
F
  0
LAYER
  5
81
330
2
100
AcDbSymbolTableRecord
100
AcDbLayerTableRecord
  2
LAYER-050
 70
     0
 62
     7
  6
Continuous
370
    -3
390
F
  0
LAYER
  5
82
330
2
100
AcDbSymbolTableRecord
100
AcDbLayerTableRecord
  2
LAYER-051
 70
     0
 62
     2
  6
Continuous
370
    -3
390
F
  0
LAYER
  5
83
330
2
100
AcDbSymbolTableRecord
100
AcDbLayerTableRecord
  2
LAYER-052
 70
     0
 62
     7
  6
Continuous
370
    -3
390
F
  0
LAYER
  5
84
330
2
100
AcDbSymbolTableRecord
100
AcDbLayerTableRecord
  2
LAYER-053
 70
     0
 62
     7
  6
Continuous
370
    -3
390
F
  0
LAYER
  5
85
330
2
100
AcDbSymbolTableRecord
100
AcDbLayerTableRecord
  2
LAYER-054
 70
     0
 62
     7
  6
Continuous
370
    -3
390
F
  0
LAYER
  5
86
330
2
100
AcDbSymbolTableRecord
100
AcDbLayerTableRecord
  2
LAYER-055
 70
     0
 62
     7
  6
Continuous
370
    -3
390
F
  0
LAYER
  5
87
330
2
100
AcDbSymbolTableRecord
100
AcDbLayerTableRecord
  2
LAYER-056
 70
     0
 62
     7
  6
Continuous
370
    -3
390
F
  0
LAYER
  5
88
330
2
100
AcDbSymbolTableRecord
100
AcDbLayerTableRecord
  2
LAYER-057
 70
     0
 62
     7
  6
Continuous
370
    -3
390
F
  0
LAYER
  5
89
330
2
100
AcDbSymbolTableRecord
100
AcDbLayerTableRecord
  2
LAYER-058
 70
     0
 62
     7
  6
Continuous
370
    -3
390
F
  0
LAYER
  5
8A
330
2
100
AcDbSymbolTableRecord
100
AcDbLayerTableRecord
  2
LAYER-059
 70
     0
 62
     7
  6
Continuous
370
    -3
390
F
  0
LAYER
  5
8B
330
2
100
AcDbSymbolTableRecord
100
AcDbLayerTableRecord
  2
LAYER-060
 70
     0
 62
     7
  6
Continuous
370
    -3
390
F
  0
LAYER
  5
8C
330
2
100
AcDbSymbolTableRecord
100
AcDbLayerTableRecord
  2
LAYER-061
 70
     0
 62
     7
  6
Continuous
370
    -3
390
F
  0
LAYER
  5
8D
330
2
100
AcDbSymbolTableRecord
100
AcDbLayerTableRecord
  2
LAYER-062
 70
     0
 62
     7
  6
Continuous
370
    -3
390
F
  0
LAYER
  5
8E
330
2
100
AcDbSymbolTableRecord
100
AcDbLayerTableRecord
  2
LAYER-063
 70
     0
 62
     7
  6
Continuous
370
    -3
390
F
  0
LAYER
  5
8F
330
2
100
AcDbSymbolTableRecord
100
AcDbLayerTableRecord
  2
LAYER-064
 70
     0
 62
     2
  6
Continuous
370
    -3
390
F
  0
LAYER
  5
90
330
2
100
AcDbSymbolTableRecord
100
AcDbLayerTableRecord
  2
LAYER-065
 70
     0
 62
     7
  6
Continuous
370
    -3
390
F
  0
LAYER
  5
91
330
2
100
AcDbSymbolTableRecord
100
AcDbLayerTableRecord
  2
LAYER-066
 70
     0
 62
     2
  6
Continuous
370
    -3
390
F
  0
LAYER
  5
92
330
2
100
AcDbSymbolTableRecord
100
AcDbLayerTableRecord
  2
LAYER-067
 70
     0
 62
     2
  6
Continuous
370
    -3
390
F
  0
LAYER
  5
93
330
2
100
AcDbSymbolTableRecord
100
AcDbLayerTableRecord
  2
LAYER-068
 70
     0
 62
     7
  6
Continuous
370
    -3
390
F
  0
LAYER
  5
94
330
2
100
AcDbSymbolTableRecord
100
AcDbLayerTableRecord
  2
LAYER-069
 70
     0
 62
     7
  6
Continuous
370
    -3
390
F
  0
LAYER
  5
95
330
2
100
AcDbSymbolTableRecord
100
AcDbLayerTableRecord
  2
LAYER-070
 70
     0
 62
     7
  6
Continuous
370
    -3
390
F
  0
LAYER
  5
96
330
2
100
AcDbSymbolTableRecord
100
AcDbLayerTableRecord
  2
LAYER-071
 70
     0
 62
     7
  6
Continuous
370
    -3
390
F
  0
LAYER
  5
97
330
2
100
AcDbSymbolTableRecord
100
AcDbLayerTableRecord
  2
LAYER-072
 70
     0
 62
     7
  6
Continuous
370
    -3
390
F
  0
LAYER
  5
98
330
2
100
AcDbSymbolTableRecord
100
AcDbLayerTableRecord
  2
LAYER-073
 70
     0
 62
     7
  6
Continuous
370
    -3
390
F
  0
LAYER
  5
99
330
2
100
AcDbSymbolTableRecord
100
AcDbLayerTableRecord
  2
LAYER-074
 70
     0
 62
     7
  6
Continuous
370
    -3
390
F
  0
LAYER
  5
9A
330
2
100
AcDbSymbolTableRecord
100
AcDbLayerTableRecord
  2
LAYER-075
 70
     0
 62
     7
  6
Continuous
370
    -3
390
F
  0
LAYER
  5
9B
330
2
100
AcDbSymbolTableRecord
100
AcDbLayerTableRecord
  2
LAYER-076
 70
     0
 62
     7
  6
Continuous
370
    -3
390
F
  0
LAYER
  5
9C
330
2
100
AcDbSymbolTableRecord
100
AcDbLayerTableRecord
  2
LAYER-077
 70
     0
 62
     7
  6
Continuous
370
    -3
390
F
  0
LAYER
  5
9D
330
2
100
AcDbSymbolTableRecord
100
AcDbLayerTableRecord
  2
LAYER-078
 70
     0
 62
     7
  6
Continuous
370
    -3
390
F
  0
LAYER
  5
9E
330
2
100
AcDbSymbolTableRecord
100
AcDbLayerTableRecord
  2
LAYER-079
 70
     0
 62
     7
  6
Continuous
370
    -3
390
F
  0
LAYER
  5
9F
330
2
100
AcDbSymbolTableRecord
100
AcDbLayerTableRecord
  2
LAYER-080
 70
     0
 62
     2
  6
Continuous
370
    -3
390
F
  0
LAYER
  5
A0
330
2
100
AcDbSymbolTableRecord
100
AcDbLayerTableRecord
  2
LAYER-081
 70
     0
 62
     7
  6
Continuous
370
    -3
390
F
  0
LAYER
  5
A1
330
2
100
AcDbSymbolTableRecord
100
AcDbLayerTableRecord
  2
LAYER-082
 70
     0
 62
     7
  6
Continuous
370
    -3
390
F
  0
LAYER
  5
A2
330
2
100
AcDbSymbolTableRecord
100
AcDbLayerTableRecord
  2
LAYER-083
 70
     0
 62
     7
  6
Continuous
370
    -3
390
F
  0
LAYER
  5
A3
330
2
100
AcDbSymbolTableRecord
100
AcDbLayerTableRecord
  2
LAYER-084
 70
     0
 62
     7
  6
Continuous
370
    -3
390
F
  0
LAYER
  5
A4
330
2
100
AcDbSymbolTableRecord
100
AcDbLayerTableRecord
  2
LAYER-085
 70
     0
 62
     7
  6
Continuous
370
    -3
390
F
  0
LAYER
  5
A5
330
2
100
AcDbSymbolTableRecord
100
AcDbLayerTableRecord
  2
LAYER-086
 70
     0
 62
     7
  6
Continuous
370
    -3
390
F
  0
LAYER
  5
A6
330
2
100
AcDbSymbolTableRecord
100
AcDbLayerTableRecord
  2
LAYER-087
 70
     0
 62
     7
  6
Continuous
370
    -3
390
F
  0
LAYER
  5
A7
330
2
100
AcDbSymbolTableRecord
100
AcDbLayerTableRecord
  2
LAYER-088
 70
     0
 62
     7
  6
Continuous
370
    -3
390
F
  0
LAYER
  5
A8
330
2
100
AcDbSymbolTableRecord
100
AcDbLayerTableRecord
  2
LAYER-089
 70
     0
 62
     7
  6
Continuous
370
    -3
390
F
  0
LAYER
  5
A9
330
2
100
AcDbSymbolTableRecord
100
AcDbLayerTableRecord
  2
LAYER-090
 70
     0
 62
     7
  6
Continuous
370
    -3
390
F
  0
LAYER
  5
AA
330
2
100
AcDbSymbolTableRecord
100
AcDbLayerTableRecord
  2
LAYER-091
 70
     0
 62
     7
  6
Continuous
370
    -3
390
F
  0
LAYER
  5
AB
330
2
100
AcDbSymbolTableRecord
100
AcDbLayerTableRecord
  2
LAYER-092
 70
     0
 62
     7
  6
Continuous
370
    -3
390
F
  0
LAYER
  5
AC
330
2
100
AcDbSymbolTableRecord
100
AcDbLayerTableRecord
  2
LAYER-093
 70
     0
 62
     7
  6
Continuous
370
    -3
390
F
  0
LAYER
  5
AD
330
2
100
AcDbSymbolTableRecord
100
AcDbLayerTableRecord
  2
LAYER-094
 70
     0
 62
     7
  6
Continuous
370
    -3
390
F
  0
LAYER
  5
AE
330
2
100
AcDbSymbolTableRecord
100
AcDbLayerTableRecord
  2
LAYER-095
 70
     0
 62
     7
  6
Continuous
370
    -3
390
F
  0
LAYER
  5
AF
330
2
100
AcDbSymbolTableRecord
100
AcDbLayerTableRecord
  2
LAYER-096
 70
     0
 62
     7
  6
Continuous
370
    -3
390
F
  0
LAYER
  5
B0
330
2
100
AcDbSymbolTableRecord
100
AcDbLayerTableRecord
  2
LAYER-097
 70
     0
 62
     7
  6
Continuous
370
    -3
390
F
  0
LAYER
  5
B1
330
2
100
AcDbSymbolTableRecord
100
AcDbLayerTableRecord
  2
LAYER-098
 70
     0
 62
     7
  6
Continuous
370
    -3
390
F
  0
LAYER
  5
B2
330
2
100
AcDbSymbolTableRecord
100
AcDbLayerTableRecord
  2
LAYER-099
 70
     0
 62
     7
  6
Continuous
370
    -3
390
F
  0
LAYER
  5
B3
330
2
100
AcDbSymbolTableRecord
100
AcDbLayerTableRecord
  2
LAYER-100
 70
     0
 62
     7
  6
Continuous
370
    -3
390
F
  0
LAYER
  5
B4
330
2
100
AcDbSymbolTableRecord
100
AcDbLayerTableRecord
  2
LAYER-101
 70
     0
 62
     7
  6
Continuous
370
    -3
390
F
  0
LAYER
  5
B5
330
2
100
AcDbSymbolTableRecord
100
AcDbLayerTableRecord
  2
LAYER-102
 70
     0
 62
     7
  6
Continuous
370
    -3
390
F
  0
LAYER
  5
B6
330
2
100
AcDbSymbolTableRecord
100
AcDbLayerTableRecord
  2
LAYER-103
 70
     0
 62
     7
  6
Continuous
370
    -3
390
F
  0
LAYER
  5
B7
330
2
100
AcDbSymbolTableRecord
100
AcDbLayerTableRecord
  2
LAYER-104
 70
     0
 62
     7
  6
Continuous
370
    -3
390
F
  0
LAYER
  5
B8
330
2
100
AcDbSymbolTableRecord
100
AcDbLayerTableRecord
  2
LAYER-105
 70
     0
 62
     7
  6
Continuous
370
    -3
390
F
  0
LAYER
  5
B9
330
2
100
AcDbSymbolTableRecord
100
AcDbLayerTableRecord
  2
LAYER-106
 70
     0
 62
     7
  6
Continuous
370
    -3
390
F
  0
LAYER
  5
BA
330
2
100
AcDbSymbolTableRecord
100
AcDbLayerTableRecord
  2
LAYER-107
 70
     0
 62
     7
  6
Continuous
370
    -3
390
F
  0
LAYER
  5
BB
330
2
100
AcDbSymbolTableRecord
100
AcDbLayerTableRecord
  2
LAYER-108
 70
     0
 62
     7
  6
Continuous
370
    -3
390
F
  0
LAYER
  5
BC
330
2
100
AcDbSymbolTableRecord
100
AcDbLayerTableRecord
  2
LAYER-109
 70
     0
 62
     7
  6
Continuous
370
    -3
390
F
  0
LAYER
  5
BD
330
2
100
AcDbSymbolTableRecord
100
AcDbLayerTableRecord
  2
LAYER-110
 70
     0
 62
     7
  6
Continuous
370
    -3
390
F
  0
LAYER
  5
BE
330
2
100
AcDbSymbolTableRecord
100
AcDbLayerTableRecord
  2
LAYER-111
 70
     0
 62
     7
  6
Continuous
370
    -3
390
F
  0
LAYER
  5
BF
330
2
100
AcDbSymbolTableRecord
100
AcDbLayerTableRecord
  2
LAYER-112
 70
     0
 62
     7
  6
Continuous
370
    -3
390
F
  0
LAYER
  5
C0
330
2
100
AcDbSymbolTableRecord
100
AcDbLayerTableRecord
  2
LAYER-113
 70
     0
 62
     7
  6
Continuous
370
    -3
390
F
  0
LAYER
  5
C1
330
2
100
AcDbSymbolTableRecord
100
AcDbLayerTableRecord
  2
LAYER-114
 70
     0
 62
     7
  6
Continuous
370
    -3
390
F
  0
LAYER
  5
C2
330
2
100
AcDbSymbolTableRecord
100
AcDbLayerTableRecord
  2
LAYER-115
 70
     0
 62
     7
  6
Continuous
370
    -3
390
F
  0
LAYER
  5
C3
330
2
100
AcDbSymbolTableRecord
100
AcDbLayerTableRecord
  2
LAYER-116
 70
     0
 62
     7
  6
Continuous
370
    -3
390
F
  0
LAYER
  5
C4
330
2
100
AcDbSymbolTableRecord
100
AcDbLayerTableRecord
  2
LAYER-117
 70
     0
 62
     7
  6
Continuous
370
    -3
390
F
  0
LAYER
  5
C5
330
2
100
AcDbSymbolTableRecord
100
AcDbLayerTableRecord
  2
LAYER-118
 70
     0
 62
     7
  6
Continuous
370
    -3
390
F
  0
LAYER
  5
C6
330
2
100
AcDbSymbolTableRecord
100
AcDbLayerTableRecord
  2
LAYER-119
 70
     0
 62
     7
  6
Continuous
370
    -3
390
F
  0
LAYER
  5
C7
330
2
100
AcDbSymbolTableRecord
100
AcDbLayerTableRecord
  2
LAYER-120
 70
     0
 62
     7
  6
Continuous
370
    -3
390
F
  0
LAYER
  5
C8
330
2
100
AcDbSymbolTableRecord
100
AcDbLayerTableRecord
  2
LAYER-121
 70
     0
 62
     7
  6
Continuous
370
    -3
390
F
  0
LAYER
  5
C9
330
2
100
AcDbSymbolTableRecord
100
AcDbLayerTableRecord
  2
LAYER-122
 70
     0
 62
     7
  6
Continuous
370
    -3
390
F
  0
LAYER
  5
CA
330
2
100
AcDbSymbolTableRecord
100
AcDbLayerTableRecord
  2
LAYER-123
 70
     0
 62
     7
  6
Continuous
370
    -3
390
F
  0
LAYER
  5
CB
330
2
100
AcDbSymbolTableRecord
100
AcDbLayerTableRecord
  2
LAYER-124
 70
     0
 62
     7
  6
Continuous
370
    -3
390
F
  0
LAYER
  5
CC
330
2
100
AcDbSymbolTableRecord
100
AcDbLayerTableRecord
  2
LAYER-125
 70
     0
 62
     7
  6
Continuous
370
    -3
390
F
  0
LAYER
  5
CD
330
2
100
AcDbSymbolTableRecord
100
AcDbLayerTableRecord
  2
LAYER-126
 70
     0
 62
     7
  6
Continuous
370
    -3
390
F
  0
LAYER
  5
CE
330
2
100
AcDbSymbolTableRecord
100
AcDbLayerTableRecord
  2
LAYER-127
 70
     0
 62
     7
  6
Continuous
370
    -3
390
F
  0
LAYER
  5
CF
330
2
100
AcDbSymbolTableRecord
100
AcDbLayerTableRecord
  2
LAYER-128
 70
     0
 62
     7
  6
Continuous
370
    -3
390
F
  0
LAYER
  5
D0
330
2
100
AcDbSymbolTableRecord
100
AcDbLayerTableRecord
  2
LAYER-129
 70
     0
 62
     7
  6
Continuous
370
    -3
390
F
  0
LAYER
  5
D1
330
2
100
AcDbSymbolTableRecord
100
AcDbLayerTableRecord
  2
LAYER-130
 70
     0
 62
     7
  6
Continuous
370
    -3
390
F
  0
LAYER
  5
D2
330
2
100
AcDbSymbolTableRecord
100
AcDbLayerTableRecord
  2
LAYER-131
 70
     0
 62
     7
  6
Continuous
370
    -3
390
F
  0
LAYER
  5
D3
330
2
100
AcDbSymbolTableRecord
100
AcDbLayerTableRecord
  2
LAYER-132
 70
     0
 62
     7
  6
Continuous
370
    -3
390
F
  0
LAYER
  5
D4
330
2
100
AcDbSymbolTableRecord
100
AcDbLayerTableRecord
  2
LAYER-133
 70
     0
 62
     7
  6
Continuous
370
    -3
390
F
  0
LAYER
  5
D5
330
2
100
AcDbSymbolTableRecord
100
AcDbLayerTableRecord
  2
LAYER-134
 70
     0
 62
     7
  6
Continuous
370
    -3
390
F
  0
LAYER
  5
D6
330
2
100
AcDbSymbolTableRecord
100
AcDbLayerTableRecord
  2
LAYER-135
 70
     0
 62
     4
  6
Continuous
370
    -3
390
F
  0
LAYER
  5
D7
330
2
100
AcDbSymbolTableRecord
100
AcDbLayerTableRecord
  2
LAYER-136
 70
     0
 62
     3
  6
Continuous
370
    -3
390
F
  0
LAYER
  5
D8
330
2
100
AcDbSymbolTableRecord
100
AcDbLayerTableRecord
  2
LAYER-137
 70
     0
 62
     1
  6
Continuous
370
    -3
390
F
  0
LAYER
  5
D9
330
2
100
AcDbSymbolTableRecord
100
AcDbLayerTableRecord
  2
LAYER-138
 70
     0
 62
     7
  6
Continuous
370
    -3
390
F
  0
LAYER
  5
DA
330
2
100
AcDbSymbolTableRecord
100
AcDbLayerTableRecord
  2
LAYER-139
 70
     0
 62
     7
  6
Continuous
370
    -3
390
F
  0
LAYER
  5
DB
330
2
100
AcDbSymbolTableRecord
100
AcDbLayerTableRecord
  2
LAYER-140
 70
     0
 62
     7
  6
Continuous
370
    -3
390
F
  0
LAYER
  5
DC
330
2
100
AcDbSymbolTableRecord
100
AcDbLayerTableRecord
  2
LAYER-141
 70
     0
 62
     7
  6
Continuous
370
    -3
390
F
  0
LAYER
  5
DD
330
2
100
AcDbSymbolTableRecord
100
AcDbLayerTableRecord
  2
LAYER-142
 70
     0
 62
     3
  6
Continuous
370
    -3
390
F
  0
LAYER
  5
DE
330
2
100
AcDbSymbolTableRecord
100
AcDbLayerTableRecord
  2
LAYER-143
 70
     0
 62
     7
  6
Continuous
370
    -3
390
F
  0
LAYER
  5
DF
330
2
100
AcDbSymbolTableRecord
100
AcDbLayerTableRecord
  2
LAYER-144
 70
     0
 62
     7
  6
Continuous
370
    -3
390
F
  0
LAYER
  5
E0
330
2
100
AcDbSymbolTableRecord
100
AcDbLayerTableRecord
  2
LAYER-145
 70
     0
 62
     3
  6
Continuous
370
    -3
390
F
  0
LAYER
  5
E1
330
2
100
AcDbSymbolTableRecord
100
AcDbLayerTableRecord
  2
LAYER-146
 70
     0
 62
     7
  6
Continuous
370
    -3
390
F
  0
LAYER
  5
E2
330
2
100
AcDbSymbolTableRecord
100
AcDbLayerTableRecord
  2
LAYER-147
 70
     0
 62
     7
  6
Continuous
370
    -3
390
F
  0
LAYER
  5
E3
330
2
100
AcDbSymbolTableRecord
100
AcDbLayerTableRecord
  2
LAYER-148
 70
     0
 62
     7
  6
Continuous
370
    -3
390
F
  0
LAYER
  5
E4
330
2
100
AcDbSymbolTableRecord
100
AcDbLayerTableRecord
  2
LAYER-149
 70
     0
 62
     7
  6
Continuous
370
    -3
390
F
  0
LAYER
  5
E5
330
2
100
AcDbSymbolTableRecord
100
AcDbLayerTableRecord
  2
LAYER-150
 70
     0
 62
     7
  6
Continuous
370
    -3
390
F
  0
LAYER
  5
E6
330
2
100
AcDbSymbolTableRecord
100
AcDbLayerTableRecord
  2
LAYER-151
 70
     0
 62
     7
  6
Continuous
370
    -3
390
F
  0
LAYER
  5
E7
330
2
100
AcDbSymbolTableRecord
100
AcDbLayerTableRecord
  2
LAYER-152
 70
     0
 62
     7
  6
Continuous
370
    -3
390
F
  0
LAYER
  5
E8
330
2
100
AcDbSymbolTableRecord
100
AcDbLayerTableRecord
  2
LAYER-153
 70
     0
 62
     7
  6
Continuous
370
    -3
390
F
  0
LAYER
  5
E9
330
2
100
AcDbSymbolTableRecord
100
AcDbLayerTableRecord
  2
LAYER-154
 70
     0
 62
     7
  6
Continuous
370
    -3
390
F
  0
LAYER
  5
EA
330
2
100
AcDbSymbolTableRecord
100
AcDbLayerTableRecord
  2
LAYER-155
 70
     0
 62
     7
  6
Continuous
370
    -3
390
F
  0
LAYER
  5
EB
330
2
100
AcDbSymbolTableRecord
100
AcDbLayerTableRecord
  2
LAYER-156
 70
     0
 62
     7
  6
Continuous
370
    -3
390
F
  0
LAYER
  5
EC
330
2
100
AcDbSymbolTableRecord
100
AcDbLayerTableRecord
  2
LAYER-157
 70
     0
 62
     7
  6
Continuous
370
    -3
390
F
  0
LAYER
  5
ED
330
2
100
AcDbSymbolTableRecord
100
AcDbLayerTableRecord
  2
LAYER-158
 70
     0
 62
     7
  6
Continuous
370
    -3
390
F
  0
LAYER
  5
EE
330
2
100
AcDbSymbolTableRecord
100
AcDbLayerTableRecord
  2
LAYER-159
 70
     0
 62
     7
  6
Continuous
370
    -3
390
F
  0
LAYER
  5
EF
330
2
100
AcDbSymbolTableRecord
100
AcDbLayerTableRecord
  2
LAYER-160
 70
     0
 62
     7
  6
Continuous
370
    -3
390
F
  0
LAYER
  5
F0
330
2
100
AcDbSymbolTableRecord
100
AcDbLayerTableRecord
  2
LAYER-161
 70
     0
 62
     7
  6
Continuous
370
    -3
390
F
  0
LAYER
  5
F1
330
2
100
AcDbSymbolTableRecord
100
AcDbLayerTableRecord
  2
LAYER-162
 70
     0
 62
     7
  6
Continuous
370
    -3
390
F
  0
LAYER
  5
F2
330
2
100
AcDbSymbolTableRecord
100
AcDbLayerTableRecord
  2
LAYER-163
 70
     0
 62
     7
  6
Continuous
370
    -3
390
F
  0
LAYER
  5
F3
330
2
100
AcDbSymbolTableRecord
100
AcDbLayerTableRecord
  2
LAYER-164
 70
     0
 62
     7
  6
Continuous
370
    -3
390
F
  0
LAYER
  5
F4
330
2
100
AcDbSymbolTableRecord
100
AcDbLayerTableRecord
  2
LAYER-165
 70
     0
 62
     7
  6
Continuous
370
    -3
390
F
  0
LAYER
  5
F5
330
2
100
AcDbSymbolTableRecord
100
AcDbLayerTableRecord
  2
LAYER-166
 70
     0
 62
     7
  6
Continuous
370
    -3
390
F
  0
LAYER
  5
F6
330
2
100
AcDbSymbolTableRecord
100
AcDbLayerTableRecord
  2
LAYER-167
 70
     0
 62
     7
  6
Continuous
370
    -3
390
F
  0
LAYER
  5
F7
330
2
100
AcDbSymbolTableRecord
100
AcDbLayerTableRecord
  2
LAYER-168
 70
     0
 62
     7
  6
Continuous
370
    -3
390
F
  0
LAYER
  5
F8
330
2
100
AcDbSymbolTableRecord
100
AcDbLayerTableRecord
  2
LAYER-169
 70
     0
 62
     7
  6
Continuous
370
    -3
390
F
  0
LAYER
  5
F9
330
2
100
AcDbSymbolTableRecord
100
AcDbLayerTableRecord
  2
LAYER-170
 70
     0
 62
     7
  6
Continuous
370
    -3
390
F
  0
LAYER
  5
FA
330
2
100
AcDbSymbolTableRecord
100
AcDbLayerTableRecord
  2
LAYER-171
 70
     0
 62
     7
  6
Continuous
370
    -3
390
F
  0
LAYER
  5
FB
330
2
100
AcDbSymbolTableRecord
100
AcDbLayerTableRecord
  2
LAYER-172
 70
     0
 62
     7
  6
Continuous
370
    -3
390
F
  0
LAYER
  5
FC
330
2
100
AcDbSymbolTableRecord
100
AcDbLayerTableRecord
  2
LAYER-173
 70
     0
 62
     7
  6
Continuous
370
    -3
390
F
  0
LAYER
  5
FD
330
2
100
AcDbSymbolTableRecord
100
AcDbLayerTableRecord
  2
LAYER-174
 70
     0
 62
     7
  6
Continuous
370
    -3
390
F
  0
LAYER
  5
FE
330
2
100
AcDbSymbolTableRecord
100
AcDbLayerTableRecord
  2
LAYER-175
 70
     0
 62
     7
  6
Continuous
370
    -3
390
F
  0
LAYER
  5
FF
330
2
100
AcDbSymbolTableRecord
100
AcDbLayerTableRecord
  2
LAYER-176
 70
     0
 62
     7
  6
Continuous
370
    -3
390
F
  0
LAYER
  5
100
330
2
100
AcDbSymbolTableRecord
100
AcDbLayerTableRecord
  2
LAYER-177
 70
     0
 62
     7
  6
Continuous
370
    -3
390
F
  0
LAYER
  5
101
330
2
100
AcDbSymbolTableRecord
100
AcDbLayerTableRecord
  2
LAYER-178
 70
     0
 62
     7
  6
Continuous
370
    -3
390
F
  0
LAYER
  5
102
330
2
100
AcDbSymbolTableRecord
100
AcDbLayerTableRecord
  2
LAYER-179
 70
     0
 62
     7
  6
Continuous
370
    -3
390
F
  0
LAYER
  5
103
330
2
100
AcDbSymbolTableRecord
100
AcDbLayerTableRecord
  2
LAYER-180
 70
     0
 62
     7
  6
Continuous
370
    -3
390
F
  0
LAYER
  5
104
330
2
100
AcDbSymbolTableRecord
100
AcDbLayerTableRecord
  2
LAYER-181
 70
     0
 62
     7
  6
Continuous
370
    -3
390
F
  0
LAYER
  5
105
330
2
100
AcDbSymbolTableRecord
100
AcDbLayerTableRecord
  2
LAYER-182
 70
     0
 62
     7
  6
Continuous
370
    -3
390
F
  0
LAYER
  5
106
330
2
100
AcDbSymbolTableRecord
100
AcDbLayerTableRecord
  2
LAYER-183
 70
     0
 62
     7
  6
Continuous
370
    -3
390
F
  0
LAYER
  5
107
330
2
100
AcDbSymbolTableRecord
100
AcDbLayerTableRecord
  2
LAYER-184
 70
     0
 62
     7
  6
Continuous
370
    -3
390
F
  0
LAYER
  5
108
330
2
100
AcDbSymbolTableRecord
100
AcDbLayerTableRecord
  2
LAYER-185
 70
     0
 62
     7
  6
Continuous
370
    -3
390
F
  0
LAYER
  5
109
330
2
100
AcDbSymbolTableRecord
100
AcDbLayerTableRecord
  2
LAYER-186
 70
     0
 62
     7
  6
Continuous
370
    -3
390
F
  0
LAYER
  5
10A
330
2
100
AcDbSymbolTableRecord
100
AcDbLayerTableRecord
  2
LAYER-187
 70
     0
 62
     7
  6
Continuous
370
    -3
390
F
  0
LAYER
  5
10B
330
2
100
AcDbSymbolTableRecord
100
AcDbLayerTableRecord
  2
LAYER-188
 70
     0
 62
     7
  6
Continuous
370
    -3
390
F
  0
LAYER
  5
10C
330
2
100
AcDbSymbolTableRecord
100
AcDbLayerTableRecord
  2
LAYER-189
 70
     0
 62
     7
  6
Continuous
370
    -3
390
F
  0
LAYER
  5
10D
330
2
100
AcDbSymbolTableRecord
100
AcDbLayerTableRecord
  2
LAYER-190
 70
     0
 62
     7
  6
Continuous
370
    -3
390
F
  0
LAYER
  5
10E
330
2
100
AcDbSymbolTableRecord
100
AcDbLayerTableRecord
  2
LAYER-191
 70
     0
 62
     7
  6
Continuous
370
    -3
390
F
  0
LAYER
  5
10F
330
2
100
AcDbSymbolTableRecord
100
AcDbLayerTableRecord
  2
LAYER-192
 70
     0
 62
     7
  6
Continuous
370
    -3
390
F
  0
LAYER
  5
110
330
2
100
AcDbSymbolTableRecord
100
AcDbLayerTableRecord
  2
LAYER-193
 70
     0
 62
     7
  6
Continuous
370
    -3
390
F
  0
LAYER
  5
111
330
2
100
AcDbSymbolTableRecord
100
AcDbLayerTableRecord
  2
LAYER-194
 70
     0
 62
     2
  6
Continuous
370
    -3
390
F
  0
LAYER
  5
112
330
2
100
AcDbSymbolTableRecord
100
AcDbLayerTableRecord
  2
LAYER-195
 70
     0
 62
     2
  6
Continuous
370
    -3
390
F
  0
LAYER
  5
113
330
2
100
AcDbSymbolTableRecord
100
AcDbLayerTableRecord
  2
LAYER-196
 70
     0
 62
     2
  6
Continuous
370
    -3
390
F
  0
LAYER
  5
114
330
2
100
AcDbSymbolTableRecord
100
AcDbLayerTableRecord
  2
LAYER-197
 70
     0
 62
     7
  6
Continuous
370
    -3
390
F
  0
LAYER
  5
115
330
2
100
AcDbSymbolTableRecord
100
AcDbLayerTableRecord
  2
LAYER-198
 70
     0
 62
     7
  6
Continuous
370
    -3
390
F
  0
LAYER
  5
116
330
2
100
AcDbSymbolTableRecord
100
AcDbLayerTableRecord
  2
LAYER-199
 70
     0
 62
     4
  6
Continuous
370
    -3
390
F
  0
LAYER
  5
117
330
2
100
AcDbSymbolTableRecord
100
AcDbLayerTableRecord
  2
LAYER-200
 70
     0
 62
     1
  6
Continuous
370
    -3
390
F
  0
LAYER
  5
118
330
2
100
AcDbSymbolTableRecord
100
AcDbLayerTableRecord
  2
LAYER-201
 70
     0
 62
     1
  6
Continuous
370
    -3
390
F
  0
LAYER
  5
119
330
2
100
AcDbSymbolTableRecord
100
AcDbLayerTableRecord
  2
LAYER-202
 70
     0
 62
     2
  6
Continuous
370
    -3
390
F
  0
LAYER
  5
11A
330
2
100
AcDbSymbolTableRecord
100
AcDbLayerTableRecord
  2
LAYER-203
 70
     0
 62
     2
  6
Continuous
370
    -3
390
F
  0
LAYER
  5
11B
330
2
100
AcDbSymbolTableRecord
100
AcDbLayerTableRecord
  2
LAYER-204
 70
     0
 62
     7
  6
Continuous
370
    -3
390
F
  0
LAYER
  5
11C
330
2
100
AcDbSymbolTableRecord
100
AcDbLayerTableRecord
  2
LAYER-205
 70
     0
 62
     7
  6
Continuous
370
    -3
390
F
  0
LAYER
  5
11D
330
2
100
AcDbSymbolTableRecord
100
AcDbLayerTableRecord
  2
LAYER-206
 70
     0
 62
     7
  6
Continuous
370
    -3
390
F
  0
LAYER
  5
11E
330
2
100
AcDbSymbolTableRecord
100
AcDbLayerTableRecord
  2
LAYER-207
 70
     0
 62
    -7
  6
Continuous
370
    -3
390
F
  0
LAYER
  5
11F
330
2
100
AcDbSymbolTableRecord
100
AcDbLayerTableRecord
  2
LAYER-208
 70
     0
 62
     2
  6
Continuous
370
    -3
390
F
  0
LAYER
  5
120
330
2
100
AcDbSymbolTableRecord
100
AcDbLayerTableRecord
  2
LAYER-209
 70
     0
 62
     7
  6
Continuous
370
    -3
390
F
  0
LAYER
  5
121
330
2
100
AcDbSymbolTableRecord
100
AcDbLayerTableRecord
  2
LAYER-210
 70
     0
 62
     2
  6
Continuous
370
    -3
390
F
  0
LAYER
  5
122
330
2
100
AcDbSymbolTableRecord
100
AcDbLayerTableRecord
  2
LAYER-211
 70
     0
 62
     7
  6
Continuous
370
    -3
390
F
  0
LAYER
  5
123
330
2
100
AcDbSymbolTableRecord
100
AcDbLayerTableRecord
  2
LAYER-212
 70
     0
 62
     7
  6
Continuous
370
    -3
390
F
  0
LAYER
  5
124
330
2
100
AcDbSymbolTableRecord
100
AcDbLayerTableRecord
  2
LAYER-213
 70
     0
 62
     2
  6
Continuous
370
    -3
390
F
  0
LAYER
  5
125
330
2
100
AcDbSymbolTableRecord
100
AcDbLayerTableRecord
  2
LAYER-214
 70
     0
 62
     7
  6
Continuous
370
    -3
390
F
  0
LAYER
  5
126
330
2
100
AcDbSymbolTableRecord
100
AcDbLayerTableRecord
  2
LAYER-215
 70
     0
 62
     7
  6
Continuous
370
    -3
390
F
  0
LAYER
  5
127
330
2
100
AcDbSymbolTableRecord
100
AcDbLayerTableRecord
  2
LAYER-216
 70
     0
 62
     4
  6
Continuous
370
    -3
390
F
  0
LAYER
  5
128
330
2
100
AcDbSymbolTableRecord
100
AcDbLayerTableRecord
  2
LAYER-217
 70
     0
 62
     7
  6
Continuous
370
    -3
390
F
  0
LAYER
  5
129
330
2
100
AcDbSymbolTableRecord
100
AcDbLayerTableRecord
  2
LAYER-218
 70
     0
 62
     7
  6
Continuous
370
    -3
390
F
  0
LAYER
  5
12A
330
2
100
AcDbSymbolTableRecord
100
AcDbLayerTableRecord
  2
LAYER-219
 70
     0
 62
     7
  6
Continuous
370
    -3
390
F
  0
LAYER
  5
12B
330
2
100
AcDbSymbolTableRecord
100
AcDbLayerTableRecord
  2
LAYER-220
 70
     0
 62
     4
  6
Continuous
370
    -3
390
F
  0
LAYER
  5
12C
330
2
100
AcDbSymbolTableRecord
100
AcDbLayerTableRecord
  2
LAYER-221
 70
     0
 62
     7
  6
Continuous
370
    -3
390
F
  0
LAYER
  5
12D
330
2
100
AcDbSymbolTableRecord
100
AcDbLayerTableRecord
  2
LAYER-222
 70
     0
 62
     4
  6
Continuous
370
    -3
390
F
  0
LAYER
  5
12E
330
2
100
AcDbSymbolTableRecord
100
AcDbLayerTableRecord
  2
LAYER-223
 70
     0
 62
     1
  6
Continuous
370
    -3
390
F
  0
LAYER
  5
12F
330
2
100
AcDbSymbolTableRecord
100
AcDbLayerTableRecord
  2
LAYER-224
 70
     0
 62
     1
  6
Continuous
370
    -3
390
F
  0
LAYER
  5
130
330
2
100
AcDbSymbolTableRecord
100
AcDbLayerTableRecord
  2
LAYER-225
 70
     0
 62
     7
  6
Continuous
370
    -3
390
F
  0
LAYER
  5
131
330
2
100
AcDbSymbolTableRecord
100
AcDbLayerTableRecord
  2
LAYER-226
 70
     0
 62
     2
  6
Continuous
370
    -3
390
F
  0
LAYER
  5
132
330
2
100
AcDbSymbolTableRecord
100
AcDbLayerTableRecord
  2
LAYER-227
 70
     0
 62
     7
  6
Continuous
370
    -3
390
F
  0
LAYER
  5
133
330
2
100
AcDbSymbolTableRecord
100
AcDbLayerTableRecord
  2
LAYER-228
 70
     0
 62
     7
  6
Continuous
370
    -3
390
F
  0
LAYER
  5
134
330
2
100
AcDbSymbolTableRecord
100
AcDbLayerTableRecord
  2
LAYER-229
 70
     0
 62
     7
  6
Continuous
370
    -3
390
F
  0
LAYER
  5
135
330
2
100
AcDbSymbolTableRecord
100
AcDbLayerTableRecord
  2
LAYER-230
 70
     0
 62
     7
  6
Continuous
370
    -3
390
F
  0
LAYER
  5
136
330
2
100
AcDbSymbolTableRecord
100
AcDbLayerTableRecord
  2
LAYER-231
 70
     0
 62
     7
  6
Continuous
370
    -3
390
F
  0
LAYER
  5
137
330
2
100
AcDbSymbolTableRecord
100
AcDbLayerTableRecord
  2
LAYER-232
 70
     0
 62
     7
  6
Continuous
370
    -3
390
F
  0
LAYER
  5
138
330
2
100
AcDbSymbolTableRecord
100
AcDbLayerTableRecord
  2
LAYER-233
 70
     0
 62
     7
  6
Continuous
370
    -3
390
F
  0
LAYER
  5
139
330
2
100
AcDbSymbolTableRecord
100
AcDbLayerTableRecord
  2
LAYER-234
 70
     0
 62
     7
  6
Continuous
370
    -3
390
F
  0
LAYER
  5
13A
330
2
100
AcDbSymbolTableRecord
100
AcDbLayerTableRecord
  2
LAYER-235
 70
     0
 62
     7
  6
Continuous
370
    -3
390
F
  0
LAYER
  5
13B
330
2
100
AcDbSymbolTableRecord
100
AcDbLayerTableRecord
  2
LAYER-236
 70
     0
 62
     7
  6
Continuous
370
    -3
390
F
  0
LAYER
  5
13C
330
2
100
AcDbSymbolTableRecord
100
AcDbLayerTableRecord
  2
LAYER-237
 70
     0
 62
     7
  6
Continuous
370
    -3
390
F
  0
LAYER
  5
13D
330
2
100
AcDbSymbolTableRecord
100
AcDbLayerTableRecord
  2
LAYER-238
 70
     0
 62
     7
  6
Continuous
370
    -3
390
F
  0
LAYER
  5
13E
330
2
100
AcDbSymbolTableRecord
100
AcDbLayerTableRecord
  2
LAYER-239
 70
     0
 62
     7
  6
Continuous
370
    -3
390
F
  0
LAYER
  5
13F
330
2
100
AcDbSymbolTableRecord
100
AcDbLayerTableRecord
  2
LAYER-240
 70
     0
 62
     7
  6
Continuous
370
    -3
390
F
  0
LAYER
  5
140
330
2
100
AcDbSymbolTableRecord
100
AcDbLayerTableRecord
  2
LAYER-241
 70
     0
 62
     7
  6
Continuous
370
    -3
390
F
  0
LAYER
  5
141
330
2
100
AcDbSymbolTableRecord
100
AcDbLayerTableRecord
  2
LAYER-242
 70
     0
 62
     7
  6
Continuous
370
    -3
390
F
  0
LAYER
  5
142
330
2
100
AcDbSymbolTableRecord
100
AcDbLayerTableRecord
  2
LAYER-243
 70
     0
 62
     7
  6
Continuous
370
    -3
390
F
  0
LAYER
  5
143
330
2
100
AcDbSymbolTableRecord
100
AcDbLayerTableRecord
  2
LAYER-244
 70
     0
 62
     7
  6
Continuous
370
    -3
390
F
  0
LAYER
  5
144
330
2
100
AcDbSymbolTableRecord
100
AcDbLayerTableRecord
  2
LAYER-245
 70
     0
 62
     7
  6
Continuous
370
    -3
390
F
  0
LAYER
  5
145
330
2
100
AcDbSymbolTableRecord
100
AcDbLayerTableRecord
  2
LAYER-246
 70
     0
 62
     7
  6
Continuous
370
    -3
390
F
  0
LAYER
  5
146
330
2
100
AcDbSymbolTableRecord
100
AcDbLayerTableRecord
  2
LAYER-247
 70
     0
 62
     7
  6
Continuous
370
    -3
390
F
  0
LAYER
  5
147
330
2
100
AcDbSymbolTableRecord
100
AcDbLayerTableRecord
  2
LAYER-248
 70
     0
 62
     7
  6
Continuous
370
    -3
390
F
  0
LAYER
  5
148
330
2
100
AcDbSymbolTableRecord
100
AcDbLayerTableRecord
  2
LAYER-249
 70
     0
 62
     7
  6
Continuous
370
    -3
390
F
  0
LAYER
  5
149
330
2
100
AcDbSymbolTableRecord
100
AcDbLayerTableRecord
  2
LAYER-250
 70
     0
 62
     7
  6
Continuous
370
    -3
390
F
  0
LAYER
  5
14A
330
2
100
AcDbSymbolTableRecord
100
AcDbLayerTableRecord
  2
LAYER-251
 70
     0
 62
     7
  6
Continuous
370
    -3
390
F
  0
LAYER
  5
14B
330
2
100
AcDbSymbolTableRecord
100
AcDbLayerTableRecord
  2
LAYER-252
 70
     0
 62
     7
  6
Continuous
370
    -3
390
F
  0
LAYER
  5
14C
330
2
100
AcDbSymbolTableRecord
100
AcDbLayerTableRecord
  2
LAYER-253
 70
     0
 62
     7
  6
Continuous
370
    -3
390
F
  0
LAYER
  5
14D
330
2
100
AcDbSymbolTableRecord
100
AcDbLayerTableRecord
  2
LAYER-254
 70
     0
 62
     7
  6
Continuous
370
    -3
390
F
  0
LAYER
  5
14E
330
2
100
AcDbSymbolTableRecord
100
AcDbLayerTableRecord
  2
LAYER-255
 70
     0
 62
     7
  6
Continuous
370
    -3
390
F
  0
LAYER
  5
14F
330
2
100
AcDbSymbolTableRecord
100
AcDbLayerTableRecord
  2
LAYER-256
 70
     0
 62
     7
  6
Continuous
370
    -3
390
F
  0
LAYER
  5
150
330
2
100
AcDbSymbolTableRecord
100
AcDbLayerTableRecord
  2
SUPLINE
 70
     0
 62
    -7
  6
Continuous
290
     0
370
    -3
390
F
  0
LAYER
  5
151
330
2
100
AcDbSymbolTableRecord
100
AcDbLayerTableRecord
  2
FRAMELAYER-001
 70
     0
 62
     7
  6
Continuous
370
    -3
390
F
  0
LAYER
  5
152
330
2
100
AcDbSymbolTableRecord
100
AcDbLayerTableRecord
  2
FRAMELAYER-002
 70
     0
 62
     7
  6
Continuous
370
    -3
390
F
  0
LAYER
  5
153
330
2
100
AcDbSymbolTableRecord
100
AcDbLayerTableRecord
  2
FRAMELAYER-003
 70
     0
 62
     7
  6
Continuous
370
    -3
390
F
  0
LAYER
  5
154
330
2
100
AcDbSymbolTableRecord
100
AcDbLayerTableRecord
  2
FRAMELAYER-004
 70
     0
 62
     7
  6
Continuous
370
    -3
390
F
  0
LAYER
  5
155
330
2
100
AcDbSymbolTableRecord
100
AcDbLayerTableRecord
  2
FRAMELAYER-005
 70
     0
 62
     7
  6
Continuous
370
    -3
390
F
  0
LAYER
  5
156
330
2
100
AcDbSymbolTableRecord
100
AcDbLayerTableRecord
  2
FRAMELAYER-006
 70
     0
 62
     7
  6
Continuous
370
    -3
390
F
  0
LAYER
  5
157
330
2
100
AcDbSymbolTableRecord
100
AcDbLayerTableRecord
  2
FRAMELAYER-007
 70
     0
 62
     7
  6
Continuous
370
    -3
390
F
  0
LAYER
  5
158
330
2
100
AcDbSymbolTableRecord
100
AcDbLayerTableRecord
  2
FRAMELAYER-008
 70
     0
 62
     7
  6
Continuous
370
    -3
390
F
  0
LAYER
  5
159
330
2
100
AcDbSymbolTableRecord
100
AcDbLayerTableRecord
  2
FRAMELAYER-009
 70
     0
 62
     7
  6
Continuous
370
    -3
390
F
  0
LAYER
  5
15A
330
2
100
AcDbSymbolTableRecord
100
AcDbLayerTableRecord
  2
FRAMELAYER-010
 70
     0
 62
     7
  6
Continuous
370
    -3
390
F
  0
LAYER
  5
15B
330
2
100
AcDbSymbolTableRecord
100
AcDbLayerTableRecord
  2
FRAMELAYER-011
 70
     0
 62
     7
  6
Continuous
370
    -3
390
F
  0
LAYER
  5
15C
330
2
100
AcDbSymbolTableRecord
100
AcDbLayerTableRecord
  2
FRAMELAYER-012
 70
     0
 62
     7
  6
Continuous
370
    -3
390
F
  0
LAYER
  5
15D
330
2
100
AcDbSymbolTableRecord
100
AcDbLayerTableRecord
  2
FRAMELAYER-013
 70
     0
 62
     7
  6
Continuous
370
    -3
390
F
  0
LAYER
  5
15E
330
2
100
AcDbSymbolTableRecord
100
AcDbLayerTableRecord
  2
FRAMELAYER-014
 70
     0
 62
     7
  6
Continuous
370
    -3
390
F
  0
LAYER
  5
15F
330
2
100
AcDbSymbolTableRecord
100
AcDbLayerTableRecord
  2
FRAMELAYER-015
 70
     0
 62
     7
  6
Continuous
370
    -3
390
F
  0
LAYER
  5
160
330
2
100
AcDbSymbolTableRecord
100
AcDbLayerTableRecord
  2
FRAMELAYER-016
 70
     0
 62
     4
  6
Continuous
370
    -3
390
F
  0
LAYER
  5
161
330
2
100
AcDbSymbolTableRecord
100
AcDbLayerTableRecord
  2
FRAMELAYER-017
 70
     0
 62
     7
  6
Continuous
370
    -3
390
F
  0
LAYER
  5
162
330
2
100
AcDbSymbolTableRecord
100
AcDbLayerTableRecord
  2
FRAMELAYER-018
 70
     0
 62
     2
  6
Continuous
370
    -3
390
F
  0
LAYER
  5
163
330
2
100
AcDbSymbolTableRecord
100
AcDbLayerTableRecord
  2
FRAMELAYER-019
 70
     0
 62
     3
  6
Continuous
370
    -3
390
F
  0
LAYER
  5
164
330
2
100
AcDbSymbolTableRecord
100
AcDbLayerTableRecord
  2
FRAMELAYER-020
 70
     0
 62
     2
  6
Continuous
370
    -3
390
F
  0
LAYER
  5
165
330
2
100
AcDbSymbolTableRecord
100
AcDbLayerTableRecord
  2
FRAMELAYER-021
 70
     0
 62
     7
  6
Continuous
370
    -3
390
F
  0
LAYER
  5
166
330
2
100
AcDbSymbolTableRecord
100
AcDbLayerTableRecord
  2
FRAMELAYER-022
 70
     0
 62
     4
  6
Continuous
370
    -3
390
F
  0
LAYER
  5
167
330
2
100
AcDbSymbolTableRecord
100
AcDbLayerTableRecord
  2
FRAMELAYER-023
 70
     0
 62
     4
  6
Continuous
370
    -3
390
F
  0
LAYER
  5
168
330
2
100
AcDbSymbolTableRecord
100
AcDbLayerTableRecord
  2
FRAMELAYER-024
 70
     0
 62
     7
  6
Continuous
370
    -3
390
F
  0
LAYER
  5
169
330
2
100
AcDbSymbolTableRecord
100
AcDbLayerTableRecord
  2
FRAMELAYER-025
 70
     0
 62
     7
  6
Continuous
370
    -3
390
F
  0
LAYER
  5
16A
330
2
100
AcDbSymbolTableRecord
100
AcDbLayerTableRecord
  2
FRAMELAYER-026
 70
     0
 62
    -7
  6
Continuous
370
    -3
390
F
  0
LAYER
  5
16B
330
2
100
AcDbSymbolTableRecord
100
AcDbLayerTableRecord
  2
FRAMELAYER-027
 70
     0
 62
     7
  6
Continuous
370
    -3
390
F
  0
LAYER
  5
16C
330
2
100
AcDbSymbolTableRecord
100
AcDbLayerTableRecord
  2
FRAMELAYER-028
 70
     0
 62
     7
  6
Continuous
370
    -3
390
F
  0
LAYER
  5
16D
330
2
100
AcDbSymbolTableRecord
100
AcDbLayerTableRecord
  2
FRAMELAYER-029
 70
     0
 62
     7
  6
Continuous
370
    -3
390
F
  0
LAYER
  5
16E
330
2
100
AcDbSymbolTableRecord
100
AcDbLayerTableRecord
  2
FRAMELAYER-030
 70
     0
 62
     2
  6
Continuous
370
    -3
390
F
  0
LAYER
  5
16F
330
2
100
AcDbSymbolTableRecord
100
AcDbLayerTableRecord
  2
FRAMELAYER-031
 70
     0
 62
     7
  6
Continuous
370
    -3
390
F
  0
LAYER
  5
170
330
2
100
AcDbSymbolTableRecord
100
AcDbLayerTableRecord
  2
FRAMELAYER-032
 70
     0
 62
     2
  6
Continuous
370
    -3
390
F
  0
LAYER
  5
171
330
2
100
AcDbSymbolTableRecord
100
AcDbLayerTableRecord
  2
FRAMELAYER-033
 70
     0
 62
     7
  6
Continuous
370
    -3
390
F
  0
LAYER
  5
172
330
2
100
AcDbSymbolTableRecord
100
AcDbLayerTableRecord
  2
FRAMELAYER-034
 70
     0
 62
     7
  6
Continuous
370
    -3
390
F
  0
LAYER
  5
173
330
2
100
AcDbSymbolTableRecord
100
AcDbLayerTableRecord
  2
FRAMELAYER-035
 70
     0
 62
     3
  6
Continuous
370
    -3
390
F
  0
LAYER
  5
174
330
2
100
AcDbSymbolTableRecord
100
AcDbLayerTableRecord
  2
FRAMELAYER-036
 70
     0
 62
     2
  6
Continuous
370
    -3
390
F
  0
LAYER
  5
175
330
2
100
AcDbSymbolTableRecord
100
AcDbLayerTableRecord
  2
FRAMELAYER-037
 70
     0
 62
     7
  6
Continuous
370
    -3
390
F
  0
LAYER
  5
176
330
2
100
AcDbSymbolTableRecord
100
AcDbLayerTableRecord
  2
FRAMELAYER-038
 70
     0
 62
     7
  6
Continuous
370
    -3
390
F
  0
LAYER
  5
177
330
2
100
AcDbSymbolTableRecord
100
AcDbLayerTableRecord
  2
FRAMELAYER-039
 70
     0
 62
     7
  6
Continuous
370
    -3
390
F
  0
LAYER
  5
178
330
2
100
AcDbSymbolTableRecord
100
AcDbLayerTableRecord
  2
FRAMELAYER-040
 70
     0
 62
     7
  6
Continuous
370
    -3
390
F
  0
LAYER
  5
179
330
2
100
AcDbSymbolTableRecord
100
AcDbLayerTableRecord
  2
FRAMELAYER-041
 70
     0
 62
     7
  6
Continuous
370
    -3
390
F
  0
LAYER
  5
17A
330
2
100
AcDbSymbolTableRecord
100
AcDbLayerTableRecord
  2
FRAMELAYER-042
 70
     0
 62
     7
  6
Continuous
370
    -3
390
F
  0
LAYER
  5
17B
330
2
100
AcDbSymbolTableRecord
100
AcDbLayerTableRecord
  2
FRAMELAYER-043
 70
     0
 62
     7
  6
Continuous
370
    -3
390
F
  0
LAYER
  5
17C
330
2
100
AcDbSymbolTableRecord
100
AcDbLayerTableRecord
  2
FRAMELAYER-044
 70
     0
 62
     7
  6
Continuous
370
    -3
390
F
  0
LAYER
  5
17D
330
2
100
AcDbSymbolTableRecord
100
AcDbLayerTableRecord
  2
FRAMELAYER-045
 70
     0
 62
     7
  6
Continuous
370
    -3
390
F
  0
LAYER
  5
17E
330
2
100
AcDbSymbolTableRecord
100
AcDbLayerTableRecord
  2
FRAMELAYER-046
 70
     0
 62
     7
  6
Continuous
370
    -3
390
F
  0
LAYER
  5
17F
330
2
100
AcDbSymbolTableRecord
100
AcDbLayerTableRecord
  2
FRAMELAYER-047
 70
     0
 62
     7
  6
Continuous
370
    -3
390
F
  0
LAYER
  5
180
330
2
100
AcDbSymbolTableRecord
100
AcDbLayerTableRecord
  2
FRAMELAYER-048
 70
     0
 62
     2
  6
Continuous
370
    -3
390
F
  0
LAYER
  5
181
330
2
100
AcDbSymbolTableRecord
100
AcDbLayerTableRecord
  2
FRAMELAYER-049
 70
     0
 62
     3
  6
Continuous
370
    -3
390
F
  0
LAYER
  5
182
330
2
100
AcDbSymbolTableRecord
100
AcDbLayerTableRecord
  2
FRAMELAYER-050
 70
     0
 62
     7
  6
Continuous
370
    -3
390
F
  0
LAYER
  5
183
330
2
100
AcDbSymbolTableRecord
100
AcDbLayerTableRecord
  2
FRAMELAYER-051
 70
     0
 62
     2
  6
Continuous
370
    -3
390
F
  0
LAYER
  5
184
330
2
100
AcDbSymbolTableRecord
100
AcDbLayerTableRecord
  2
FRAMELAYER-052
 70
     0
 62
     7
  6
Continuous
370
    -3
390
F
  0
LAYER
  5
185
330
2
100
AcDbSymbolTableRecord
100
AcDbLayerTableRecord
  2
FRAMELAYER-053
 70
     0
 62
     7
  6
Continuous
370
    -3
390
F
  0
LAYER
  5
186
330
2
100
AcDbSymbolTableRecord
100
AcDbLayerTableRecord
  2
FRAMELAYER-054
 70
     0
 62
     7
  6
Continuous
370
    -3
390
F
  0
LAYER
  5
187
330
2
100
AcDbSymbolTableRecord
100
AcDbLayerTableRecord
  2
FRAMELAYER-055
 70
     0
 62
     7
  6
Continuous
370
    -3
390
F
  0
LAYER
  5
188
330
2
100
AcDbSymbolTableRecord
100
AcDbLayerTableRecord
  2
FRAMELAYER-056
 70
     0
 62
     7
  6
Continuous
370
    -3
390
F
  0
LAYER
  5
189
330
2
100
AcDbSymbolTableRecord
100
AcDbLayerTableRecord
  2
FRAMELAYER-057
 70
     0
 62
     7
  6
Continuous
370
    -3
390
F
  0
LAYER
  5
18A
330
2
100
AcDbSymbolTableRecord
100
AcDbLayerTableRecord
  2
FRAMELAYER-058
 70
     0
 62
     7
  6
Continuous
370
    -3
390
F
  0
LAYER
  5
18B
330
2
100
AcDbSymbolTableRecord
100
AcDbLayerTableRecord
  2
FRAMELAYER-059
 70
     0
 62
     7
  6
Continuous
370
    -3
390
F
  0
LAYER
  5
18C
330
2
100
AcDbSymbolTableRecord
100
AcDbLayerTableRecord
  2
FRAMELAYER-060
 70
     0
 62
     7
  6
Continuous
370
    -3
390
F
  0
LAYER
  5
18D
330
2
100
AcDbSymbolTableRecord
100
AcDbLayerTableRecord
  2
FRAMELAYER-061
 70
     0
 62
     7
  6
Continuous
370
    -3
390
F
  0
LAYER
  5
18E
330
2
100
AcDbSymbolTableRecord
100
AcDbLayerTableRecord
  2
FRAMELAYER-062
 70
     0
 62
     7
  6
Continuous
370
    -3
390
F
  0
LAYER
  5
18F
330
2
100
AcDbSymbolTableRecord
100
AcDbLayerTableRecord
  2
FRAMELAYER-063
 70
     0
 62
     7
  6
Continuous
370
    -3
390
F
  0
LAYER
  5
190
330
2
100
AcDbSymbolTableRecord
100
AcDbLayerTableRecord
  2
FRAMELAYER-064
 70
     0
 62
     2
  6
Continuous
370
    -3
390
F
  0
LAYER
  5
191
330
2
100
AcDbSymbolTableRecord
100
AcDbLayerTableRecord
  2
FRAMELAYER-065
 70
     0
 62
     7
  6
Continuous
370
    -3
390
F
  0
LAYER
  5
192
330
2
100
AcDbSymbolTableRecord
100
AcDbLayerTableRecord
  2
FRAMELAYER-066
 70
     0
 62
     2
  6
Continuous
370
    -3
390
F
  0
LAYER
  5
193
330
2
100
AcDbSymbolTableRecord
100
AcDbLayerTableRecord
  2
FRAMELAYER-067
 70
     0
 62
     2
  6
Continuous
370
    -3
390
F
  0
LAYER
  5
194
330
2
100
AcDbSymbolTableRecord
100
AcDbLayerTableRecord
  2
FRAMELAYER-068
 70
     0
 62
     7
  6
Continuous
370
    -3
390
F
  0
LAYER
  5
195
330
2
100
AcDbSymbolTableRecord
100
AcDbLayerTableRecord
  2
FRAMELAYER-069
 70
     0
 62
     7
  6
Continuous
370
    -3
390
F
  0
LAYER
  5
196
330
2
100
AcDbSymbolTableRecord
100
AcDbLayerTableRecord
  2
FRAMELAYER-070
 70
     0
 62
     7
  6
Continuous
370
    -3
390
F
  0
LAYER
  5
197
330
2
100
AcDbSymbolTableRecord
100
AcDbLayerTableRecord
  2
FRAMELAYER-071
 70
     0
 62
     7
  6
Continuous
370
    -3
390
F
  0
LAYER
  5
198
330
2
100
AcDbSymbolTableRecord
100
AcDbLayerTableRecord
  2
FRAMELAYER-072
 70
     0
 62
     7
  6
Continuous
370
    -3
390
F
  0
LAYER
  5
199
330
2
100
AcDbSymbolTableRecord
100
AcDbLayerTableRecord
  2
FRAMELAYER-073
 70
     0
 62
     7
  6
Continuous
370
    -3
390
F
  0
LAYER
  5
19A
330
2
100
AcDbSymbolTableRecord
100
AcDbLayerTableRecord
  2
FRAMELAYER-074
 70
     0
 62
     7
  6
Continuous
370
    -3
390
F
  0
LAYER
  5
19B
330
2
100
AcDbSymbolTableRecord
100
AcDbLayerTableRecord
  2
FRAMELAYER-075
 70
     0
 62
     7
  6
Continuous
370
    -3
390
F
  0
LAYER
  5
19C
330
2
100
AcDbSymbolTableRecord
100
AcDbLayerTableRecord
  2
FRAMELAYER-076
 70
     0
 62
     7
  6
Continuous
370
    -3
390
F
  0
LAYER
  5
19D
330
2
100
AcDbSymbolTableRecord
100
AcDbLayerTableRecord
  2
FRAMELAYER-077
 70
     0
 62
     7
  6
Continuous
370
    -3
390
F
  0
LAYER
  5
19E
330
2
100
AcDbSymbolTableRecord
100
AcDbLayerTableRecord
  2
FRAMELAYER-078
 70
     0
 62
     7
  6
Continuous
370
    -3
390
F
  0
LAYER
  5
19F
330
2
100
AcDbSymbolTableRecord
100
AcDbLayerTableRecord
  2
FRAMELAYER-079
 70
     0
 62
     7
  6
Continuous
370
    -3
390
F
  0
LAYER
  5
1A0
330
2
100
AcDbSymbolTableRecord
100
AcDbLayerTableRecord
  2
FRAMELAYER-080
 70
     0
 62
     2
  6
Continuous
370
    -3
390
F
  0
LAYER
  5
1A1
330
2
100
AcDbSymbolTableRecord
100
AcDbLayerTableRecord
  2
FRAMELAYER-081
 70
     0
 62
     7
  6
Continuous
370
    -3
390
F
  0
LAYER
  5
1A2
330
2
100
AcDbSymbolTableRecord
100
AcDbLayerTableRecord
  2
FRAMELAYER-082
 70
     0
 62
     7
  6
Continuous
370
    -3
390
F
  0
LAYER
  5
1A3
330
2
100
AcDbSymbolTableRecord
100
AcDbLayerTableRecord
  2
FRAMELAYER-083
 70
     0
 62
     7
  6
Continuous
370
    -3
390
F
  0
LAYER
  5
1A4
330
2
100
AcDbSymbolTableRecord
100
AcDbLayerTableRecord
  2
FRAMELAYER-084
 70
     0
 62
     7
  6
Continuous
370
    -3
390
F
  0
LAYER
  5
1A5
330
2
100
AcDbSymbolTableRecord
100
AcDbLayerTableRecord
  2
FRAMELAYER-085
 70
     0
 62
     7
  6
Continuous
370
    -3
390
F
  0
LAYER
  5
1A6
330
2
100
AcDbSymbolTableRecord
100
AcDbLayerTableRecord
  2
FRAMELAYER-086
 70
     0
 62
     7
  6
Continuous
370
    -3
390
F
  0
LAYER
  5
1A7
330
2
100
AcDbSymbolTableRecord
100
AcDbLayerTableRecord
  2
FRAMELAYER-087
 70
     0
 62
     7
  6
Continuous
370
    -3
390
F
  0
LAYER
  5
1A8
330
2
100
AcDbSymbolTableRecord
100
AcDbLayerTableRecord
  2
FRAMELAYER-088
 70
     0
 62
     7
  6
Continuous
370
    -3
390
F
  0
LAYER
  5
1A9
330
2
100
AcDbSymbolTableRecord
100
AcDbLayerTableRecord
  2
FRAMELAYER-089
 70
     0
 62
     7
  6
Continuous
370
    -3
390
F
  0
LAYER
  5
1AA
330
2
100
AcDbSymbolTableRecord
100
AcDbLayerTableRecord
  2
FRAMELAYER-090
 70
     0
 62
     7
  6
Continuous
370
    -3
390
F
  0
LAYER
  5
1AB
330
2
100
AcDbSymbolTableRecord
100
AcDbLayerTableRecord
  2
FRAMELAYER-091
 70
     0
 62
     7
  6
Continuous
370
    -3
390
F
  0
LAYER
  5
1AC
330
2
100
AcDbSymbolTableRecord
100
AcDbLayerTableRecord
  2
FRAMELAYER-092
 70
     0
 62
     7
  6
Continuous
370
    -3
390
F
  0
LAYER
  5
1AD
330
2
100
AcDbSymbolTableRecord
100
AcDbLayerTableRecord
  2
FRAMELAYER-093
 70
     0
 62
     7
  6
Continuous
370
    -3
390
F
  0
LAYER
  5
1AE
330
2
100
AcDbSymbolTableRecord
100
AcDbLayerTableRecord
  2
FRAMELAYER-094
 70
     0
 62
     7
  6
Continuous
370
    -3
390
F
  0
LAYER
  5
1AF
330
2
100
AcDbSymbolTableRecord
100
AcDbLayerTableRecord
  2
FRAMELAYER-095
 70
     0
 62
     7
  6
Continuous
370
    -3
390
F
  0
LAYER
  5
1B0
330
2
100
AcDbSymbolTableRecord
100
AcDbLayerTableRecord
  2
FRAMELAYER-096
 70
     0
 62
     7
  6
Continuous
370
    -3
390
F
  0
LAYER
  5
1B1
330
2
100
AcDbSymbolTableRecord
100
AcDbLayerTableRecord
  2
FRAMELAYER-097
 70
     0
 62
     7
  6
Continuous
370
    -3
390
F
  0
LAYER
  5
1B2
330
2
100
AcDbSymbolTableRecord
100
AcDbLayerTableRecord
  2
FRAMELAYER-098
 70
     0
 62
     7
  6
Continuous
370
    -3
390
F
  0
LAYER
  5
1B3
330
2
100
AcDbSymbolTableRecord
100
AcDbLayerTableRecord
  2
FRAMELAYER-099
 70
     0
 62
     7
  6
Continuous
370
    -3
390
F
  0
LAYER
  5
1B4
330
2
100
AcDbSymbolTableRecord
100
AcDbLayerTableRecord
  2
FRAMELAYER-100
 70
     0
 62
     7
  6
Continuous
370
    -3
390
F
  0
LAYER
  5
1B5
330
2
100
AcDbSymbolTableRecord
100
AcDbLayerTableRecord
  2
FRAMELAYER-101
 70
     0
 62
     7
  6
Continuous
370
    -3
390
F
  0
LAYER
  5
1B6
330
2
100
AcDbSymbolTableRecord
100
AcDbLayerTableRecord
  2
FRAMELAYER-102
 70
     0
 62
     7
  6
Continuous
370
    -3
390
F
  0
LAYER
  5
1B7
330
2
100
AcDbSymbolTableRecord
100
AcDbLayerTableRecord
  2
FRAMELAYER-103
 70
     0
 62
     7
  6
Continuous
370
    -3
390
F
  0
LAYER
  5
1B8
330
2
100
AcDbSymbolTableRecord
100
AcDbLayerTableRecord
  2
FRAMELAYER-104
 70
     0
 62
     7
  6
Continuous
370
    -3
390
F
  0
LAYER
  5
1B9
330
2
100
AcDbSymbolTableRecord
100
AcDbLayerTableRecord
  2
FRAMELAYER-105
 70
     0
 62
     7
  6
Continuous
370
    -3
390
F
  0
LAYER
  5
1BA
330
2
100
AcDbSymbolTableRecord
100
AcDbLayerTableRecord
  2
FRAMELAYER-106
 70
     0
 62
     7
  6
Continuous
370
    -3
390
F
  0
LAYER
  5
1BB
330
2
100
AcDbSymbolTableRecord
100
AcDbLayerTableRecord
  2
FRAMELAYER-107
 70
     0
 62
     7
  6
Continuous
370
    -3
390
F
  0
LAYER
  5
1BC
330
2
100
AcDbSymbolTableRecord
100
AcDbLayerTableRecord
  2
FRAMELAYER-108
 70
     0
 62
     7
  6
Continuous
370
    -3
390
F
  0
LAYER
  5
1BD
330
2
100
AcDbSymbolTableRecord
100
AcDbLayerTableRecord
  2
FRAMELAYER-109
 70
     0
 62
     7
  6
Continuous
370
    -3
390
F
  0
LAYER
  5
1BE
330
2
100
AcDbSymbolTableRecord
100
AcDbLayerTableRecord
  2
FRAMELAYER-110
 70
     0
 62
     7
  6
Continuous
370
    -3
390
F
  0
LAYER
  5
1BF
330
2
100
AcDbSymbolTableRecord
100
AcDbLayerTableRecord
  2
FRAMELAYER-111
 70
     0
 62
     7
  6
Continuous
370
    -3
390
F
  0
LAYER
  5
1C0
330
2
100
AcDbSymbolTableRecord
100
AcDbLayerTableRecord
  2
FRAMELAYER-112
 70
     0
 62
     7
  6
Continuous
370
    -3
390
F
  0
LAYER
  5
1C1
330
2
100
AcDbSymbolTableRecord
100
AcDbLayerTableRecord
  2
FRAMELAYER-113
 70
     0
 62
     7
  6
Continuous
370
    -3
390
F
  0
LAYER
  5
1C2
330
2
100
AcDbSymbolTableRecord
100
AcDbLayerTableRecord
  2
FRAMELAYER-114
 70
     0
 62
     7
  6
Continuous
370
    -3
390
F
  0
LAYER
  5
1C3
330
2
100
AcDbSymbolTableRecord
100
AcDbLayerTableRecord
  2
FRAMELAYER-115
 70
     0
 62
     7
  6
Continuous
370
    -3
390
F
  0
LAYER
  5
1C4
330
2
100
AcDbSymbolTableRecord
100
AcDbLayerTableRecord
  2
FRAMELAYER-116
 70
     0
 62
     7
  6
Continuous
370
    -3
390
F
  0
LAYER
  5
1C5
330
2
100
AcDbSymbolTableRecord
100
AcDbLayerTableRecord
  2
FRAMELAYER-117
 70
     0
 62
     7
  6
Continuous
370
    -3
390
F
  0
LAYER
  5
1C6
330
2
100
AcDbSymbolTableRecord
100
AcDbLayerTableRecord
  2
FRAMELAYER-118
 70
     0
 62
     7
  6
Continuous
370
    -3
390
F
  0
LAYER
  5
1C7
330
2
100
AcDbSymbolTableRecord
100
AcDbLayerTableRecord
  2
FRAMELAYER-119
 70
     0
 62
     7
  6
Continuous
370
    -3
390
F
  0
LAYER
  5
1C8
330
2
100
AcDbSymbolTableRecord
100
AcDbLayerTableRecord
  2
FRAMELAYER-120
 70
     0
 62
     7
  6
Continuous
370
    -3
390
F
  0
LAYER
  5
1C9
330
2
100
AcDbSymbolTableRecord
100
AcDbLayerTableRecord
  2
FRAMELAYER-121
 70
     0
 62
     7
  6
Continuous
370
    -3
390
F
  0
LAYER
  5
1CA
330
2
100
AcDbSymbolTableRecord
100
AcDbLayerTableRecord
  2
FRAMELAYER-122
 70
     0
 62
     7
  6
Continuous
370
    -3
390
F
  0
LAYER
  5
1CB
330
2
100
AcDbSymbolTableRecord
100
AcDbLayerTableRecord
  2
FRAMELAYER-123
 70
     0
 62
     7
  6
Continuous
370
    -3
390
F
  0
LAYER
  5
1CC
330
2
100
AcDbSymbolTableRecord
100
AcDbLayerTableRecord
  2
FRAMELAYER-124
 70
     0
 62
     7
  6
Continuous
370
    -3
390
F
  0
LAYER
  5
1CD
330
2
100
AcDbSymbolTableRecord
100
AcDbLayerTableRecord
  2
FRAMELAYER-125
 70
     0
 62
     7
  6
Continuous
370
    -3
390
F
  0
LAYER
  5
1CE
330
2
100
AcDbSymbolTableRecord
100
AcDbLayerTableRecord
  2
FRAMELAYER-126
 70
     0
 62
     7
  6
Continuous
370
    -3
390
F
  0
LAYER
  5
1CF
330
2
100
AcDbSymbolTableRecord
100
AcDbLayerTableRecord
  2
FRAMELAYER-127
 70
     0
 62
     7
  6
Continuous
370
    -3
390
F
  0
LAYER
  5
1D0
330
2
100
AcDbSymbolTableRecord
100
AcDbLayerTableRecord
  2
FRAMELAYER-128
 70
     0
 62
     7
  6
Continuous
370
    -3
390
F
  0
LAYER
  5
1D1
330
2
100
AcDbSymbolTableRecord
100
AcDbLayerTableRecord
  2
FRAMELAYER-129
 70
     0
 62
     7
  6
Continuous
370
    -3
390
F
  0
LAYER
  5
1D2
330
2
100
AcDbSymbolTableRecord
100
AcDbLayerTableRecord
  2
FRAMELAYER-130
 70
     0
 62
     7
  6
Continuous
370
    -3
390
F
  0
LAYER
  5
1D3
330
2
100
AcDbSymbolTableRecord
100
AcDbLayerTableRecord
  2
FRAMELAYER-131
 70
     0
 62
     7
  6
Continuous
370
    -3
390
F
  0
LAYER
  5
1D4
330
2
100
AcDbSymbolTableRecord
100
AcDbLayerTableRecord
  2
FRAMELAYER-132
 70
     0
 62
     7
  6
Continuous
370
    -3
390
F
  0
LAYER
  5
1D5
330
2
100
AcDbSymbolTableRecord
100
AcDbLayerTableRecord
  2
FRAMELAYER-133
 70
     0
 62
     7
  6
Continuous
370
    -3
390
F
  0
LAYER
  5
1D6
330
2
100
AcDbSymbolTableRecord
100
AcDbLayerTableRecord
  2
FRAMELAYER-134
 70
     0
 62
     7
  6
Continuous
370
    -3
390
F
  0
LAYER
  5
1D7
330
2
100
AcDbSymbolTableRecord
100
AcDbLayerTableRecord
  2
FRAMELAYER-135
 70
     0
 62
     4
  6
Continuous
370
    -3
390
F
  0
LAYER
  5
1D8
330
2
100
AcDbSymbolTableRecord
100
AcDbLayerTableRecord
  2
FRAMELAYER-136
 70
     0
 62
     3
  6
Continuous
370
    -3
390
F
  0
LAYER
  5
1D9
330
2
100
AcDbSymbolTableRecord
100
AcDbLayerTableRecord
  2
FRAMELAYER-137
 70
     0
 62
     1
  6
Continuous
370
    -3
390
F
  0
LAYER
  5
1DA
330
2
100
AcDbSymbolTableRecord
100
AcDbLayerTableRecord
  2
FRAMELAYER-138
 70
     0
 62
     7
  6
Continuous
370
    -3
390
F
  0
LAYER
  5
1DB
330
2
100
AcDbSymbolTableRecord
100
AcDbLayerTableRecord
  2
FRAMELAYER-139
 70
     0
 62
     7
  6
Continuous
370
    -3
390
F
  0
LAYER
  5
1DC
330
2
100
AcDbSymbolTableRecord
100
AcDbLayerTableRecord
  2
FRAMELAYER-140
 70
     0
 62
     7
  6
Continuous
370
    -3
390
F
  0
LAYER
  5
1DD
330
2
100
AcDbSymbolTableRecord
100
AcDbLayerTableRecord
  2
FRAMELAYER-141
 70
     0
 62
     7
  6
Continuous
370
    -3
390
F
  0
LAYER
  5
1DE
330
2
100
AcDbSymbolTableRecord
100
AcDbLayerTableRecord
  2
FRAMELAYER-142
 70
     0
 62
     3
  6
Continuous
370
    -3
390
F
  0
LAYER
  5
1DF
330
2
100
AcDbSymbolTableRecord
100
AcDbLayerTableRecord
  2
FRAMELAYER-143
 70
     0
 62
     7
  6
Continuous
370
    -3
390
F
  0
LAYER
  5
1E0
330
2
100
AcDbSymbolTableRecord
100
AcDbLayerTableRecord
  2
FRAMELAYER-144
 70
     0
 62
     7
  6
Continuous
370
    -3
390
F
  0
LAYER
  5
1E1
330
2
100
AcDbSymbolTableRecord
100
AcDbLayerTableRecord
  2
FRAMELAYER-145
 70
     0
 62
     3
  6
Continuous
370
    -3
390
F
  0
LAYER
  5
1E2
330
2
100
AcDbSymbolTableRecord
100
AcDbLayerTableRecord
  2
FRAMELAYER-146
 70
     0
 62
     7
  6
Continuous
370
    -3
390
F
  0
LAYER
  5
1E3
330
2
100
AcDbSymbolTableRecord
100
AcDbLayerTableRecord
  2
FRAMELAYER-147
 70
     0
 62
     7
  6
Continuous
370
    -3
390
F
  0
LAYER
  5
1E4
330
2
100
AcDbSymbolTableRecord
100
AcDbLayerTableRecord
  2
FRAMELAYER-148
 70
     0
 62
     7
  6
Continuous
370
    -3
390
F
  0
LAYER
  5
1E5
330
2
100
AcDbSymbolTableRecord
100
AcDbLayerTableRecord
  2
FRAMELAYER-149
 70
     0
 62
     7
  6
Continuous
370
    -3
390
F
  0
LAYER
  5
1E6
330
2
100
AcDbSymbolTableRecord
100
AcDbLayerTableRecord
  2
FRAMELAYER-150
 70
     0
 62
     7
  6
Continuous
370
    -3
390
F
  0
LAYER
  5
1E7
330
2
100
AcDbSymbolTableRecord
100
AcDbLayerTableRecord
  2
FRAMELAYER-151
 70
     0
 62
     7
  6
Continuous
370
    -3
390
F
  0
LAYER
  5
1E8
330
2
100
AcDbSymbolTableRecord
100
AcDbLayerTableRecord
  2
FRAMELAYER-152
 70
     0
 62
     7
  6
Continuous
370
    -3
390
F
  0
LAYER
  5
1E9
330
2
100
AcDbSymbolTableRecord
100
AcDbLayerTableRecord
  2
FRAMELAYER-153
 70
     0
 62
     7
  6
Continuous
370
    -3
390
F
  0
LAYER
  5
1EA
330
2
100
AcDbSymbolTableRecord
100
AcDbLayerTableRecord
  2
FRAMELAYER-154
 70
     0
 62
     7
  6
Continuous
370
    -3
390
F
  0
LAYER
  5
1EB
330
2
100
AcDbSymbolTableRecord
100
AcDbLayerTableRecord
  2
FRAMELAYER-155
 70
     0
 62
     7
  6
Continuous
370
    -3
390
F
  0
LAYER
  5
1EC
330
2
100
AcDbSymbolTableRecord
100
AcDbLayerTableRecord
  2
FRAMELAYER-156
 70
     0
 62
     7
  6
Continuous
370
    -3
390
F
  0
LAYER
  5
1ED
330
2
100
AcDbSymbolTableRecord
100
AcDbLayerTableRecord
  2
FRAMELAYER-157
 70
     0
 62
     7
  6
Continuous
370
    -3
390
F
  0
LAYER
  5
1EE
330
2
100
AcDbSymbolTableRecord
100
AcDbLayerTableRecord
  2
FRAMELAYER-158
 70
     0
 62
     7
  6
Continuous
370
    -3
390
F
  0
LAYER
  5
1EF
330
2
100
AcDbSymbolTableRecord
100
AcDbLayerTableRecord
  2
FRAMELAYER-159
 70
     0
 62
     7
  6
Continuous
370
    -3
390
F
  0
LAYER
  5
1F0
330
2
100
AcDbSymbolTableRecord
100
AcDbLayerTableRecord
  2
FRAMELAYER-160
 70
     0
 62
     7
  6
Continuous
370
    -3
390
F
  0
LAYER
  5
1F1
330
2
100
AcDbSymbolTableRecord
100
AcDbLayerTableRecord
  2
FRAMELAYER-161
 70
     0
 62
     7
  6
Continuous
370
    -3
390
F
  0
LAYER
  5
1F2
330
2
100
AcDbSymbolTableRecord
100
AcDbLayerTableRecord
  2
FRAMELAYER-162
 70
     0
 62
     7
  6
Continuous
370
    -3
390
F
  0
LAYER
  5
1F3
330
2
100
AcDbSymbolTableRecord
100
AcDbLayerTableRecord
  2
FRAMELAYER-163
 70
     0
 62
     7
  6
Continuous
370
    -3
390
F
  0
LAYER
  5
1F4
330
2
100
AcDbSymbolTableRecord
100
AcDbLayerTableRecord
  2
FRAMELAYER-164
 70
     0
 62
     7
  6
Continuous
370
    -3
390
F
  0
LAYER
  5
1F5
330
2
100
AcDbSymbolTableRecord
100
AcDbLayerTableRecord
  2
FRAMELAYER-165
 70
     0
 62
     7
  6
Continuous
370
    -3
390
F
  0
LAYER
  5
1F6
330
2
100
AcDbSymbolTableRecord
100
AcDbLayerTableRecord
  2
FRAMELAYER-166
 70
     0
 62
     7
  6
Continuous
370
    -3
390
F
  0
LAYER
  5
1F7
330
2
100
AcDbSymbolTableRecord
100
AcDbLayerTableRecord
  2
FRAMELAYER-167
 70
     0
 62
     7
  6
Continuous
370
    -3
390
F
  0
LAYER
  5
1F8
330
2
100
AcDbSymbolTableRecord
100
AcDbLayerTableRecord
  2
FRAMELAYER-168
 70
     0
 62
     7
  6
Continuous
370
    -3
390
F
  0
LAYER
  5
1F9
330
2
100
AcDbSymbolTableRecord
100
AcDbLayerTableRecord
  2
FRAMELAYER-169
 70
     0
 62
     7
  6
Continuous
370
    -3
390
F
  0
LAYER
  5
1FA
330
2
100
AcDbSymbolTableRecord
100
AcDbLayerTableRecord
  2
FRAMELAYER-170
 70
     0
 62
     7
  6
Continuous
370
    -3
390
F
  0
LAYER
  5
1FB
330
2
100
AcDbSymbolTableRecord
100
AcDbLayerTableRecord
  2
FRAMELAYER-171
 70
     0
 62
     7
  6
Continuous
370
    -3
390
F
  0
LAYER
  5
1FC
330
2
100
AcDbSymbolTableRecord
100
AcDbLayerTableRecord
  2
FRAMELAYER-172
 70
     0
 62
     7
  6
Continuous
370
    -3
390
F
  0
LAYER
  5
1FD
330
2
100
AcDbSymbolTableRecord
100
AcDbLayerTableRecord
  2
FRAMELAYER-173
 70
     0
 62
     7
  6
Continuous
370
    -3
390
F
  0
LAYER
  5
1FE
330
2
100
AcDbSymbolTableRecord
100
AcDbLayerTableRecord
  2
FRAMELAYER-174
 70
     0
 62
     7
  6
Continuous
370
    -3
390
F
  0
LAYER
  5
1FF
330
2
100
AcDbSymbolTableRecord
100
AcDbLayerTableRecord
  2
FRAMELAYER-175
 70
     0
 62
     7
  6
Continuous
370
    -3
390
F
  0
LAYER
  5
200
330
2
100
AcDbSymbolTableRecord
100
AcDbLayerTableRecord
  2
FRAMELAYER-176
 70
     0
 62
     7
  6
Continuous
370
    -3
390
F
  0
LAYER
  5
201
330
2
100
AcDbSymbolTableRecord
100
AcDbLayerTableRecord
  2
FRAMELAYER-177
 70
     0
 62
     7
  6
Continuous
370
    -3
390
F
  0
LAYER
  5
202
330
2
100
AcDbSymbolTableRecord
100
AcDbLayerTableRecord
  2
FRAMELAYER-178
 70
     0
 62
     7
  6
Continuous
370
    -3
390
F
  0
LAYER
  5
203
330
2
100
AcDbSymbolTableRecord
100
AcDbLayerTableRecord
  2
FRAMELAYER-179
 70
     0
 62
     7
  6
Continuous
370
    -3
390
F
  0
LAYER
  5
204
330
2
100
AcDbSymbolTableRecord
100
AcDbLayerTableRecord
  2
FRAMELAYER-180
 70
     0
 62
     7
  6
Continuous
370
    -3
390
F
  0
LAYER
  5
205
330
2
100
AcDbSymbolTableRecord
100
AcDbLayerTableRecord
  2
FRAMELAYER-181
 70
     0
 62
     7
  6
Continuous
370
    -3
390
F
  0
LAYER
  5
206
330
2
100
AcDbSymbolTableRecord
100
AcDbLayerTableRecord
  2
FRAMELAYER-182
 70
     0
 62
     7
  6
Continuous
370
    -3
390
F
  0
LAYER
  5
207
330
2
100
AcDbSymbolTableRecord
100
AcDbLayerTableRecord
  2
FRAMELAYER-183
 70
     0
 62
     7
  6
Continuous
370
    -3
390
F
  0
LAYER
  5
208
330
2
100
AcDbSymbolTableRecord
100
AcDbLayerTableRecord
  2
FRAMELAYER-184
 70
     0
 62
     7
  6
Continuous
370
    -3
390
F
  0
LAYER
  5
209
330
2
100
AcDbSymbolTableRecord
100
AcDbLayerTableRecord
  2
FRAMELAYER-185
 70
     0
 62
     7
  6
Continuous
370
    -3
390
F
  0
LAYER
  5
20A
330
2
100
AcDbSymbolTableRecord
100
AcDbLayerTableRecord
  2
FRAMELAYER-186
 70
     0
 62
     7
  6
Continuous
370
    -3
390
F
  0
LAYER
  5
20B
330
2
100
AcDbSymbolTableRecord
100
AcDbLayerTableRecord
  2
FRAMELAYER-187
 70
     0
 62
     7
  6
Continuous
370
    -3
390
F
  0
LAYER
  5
20C
330
2
100
AcDbSymbolTableRecord
100
AcDbLayerTableRecord
  2
FRAMELAYER-188
 70
     0
 62
     7
  6
Continuous
370
    -3
390
F
  0
LAYER
  5
20D
330
2
100
AcDbSymbolTableRecord
100
AcDbLayerTableRecord
  2
FRAMELAYER-189
 70
     0
 62
     7
  6
Continuous
370
    -3
390
F
  0
LAYER
  5
20E
330
2
100
AcDbSymbolTableRecord
100
AcDbLayerTableRecord
  2
FRAMELAYER-190
 70
     0
 62
     7
  6
Continuous
370
    -3
390
F
  0
LAYER
  5
20F
330
2
100
AcDbSymbolTableRecord
100
AcDbLayerTableRecord
  2
FRAMELAYER-191
 70
     0
 62
     7
  6
Continuous
370
    -3
390
F
  0
LAYER
  5
210
330
2
100
AcDbSymbolTableRecord
100
AcDbLayerTableRecord
  2
FRAMELAYER-192
 70
     0
 62
     7
  6
Continuous
370
    -3
390
F
  0
LAYER
  5
211
330
2
100
AcDbSymbolTableRecord
100
AcDbLayerTableRecord
  2
FRAMELAYER-193
 70
     0
 62
     7
  6
Continuous
370
    -3
390
F
  0
LAYER
  5
212
330
2
100
AcDbSymbolTableRecord
100
AcDbLayerTableRecord
  2
FRAMELAYER-194
 70
     0
 62
     2
  6
Continuous
370
    -3
390
F
  0
LAYER
  5
213
330
2
100
AcDbSymbolTableRecord
100
AcDbLayerTableRecord
  2
FRAMELAYER-195
 70
     0
 62
     2
  6
Continuous
370
    -3
390
F
  0
LAYER
  5
214
330
2
100
AcDbSymbolTableRecord
100
AcDbLayerTableRecord
  2
FRAMELAYER-196
 70
     0
 62
     2
  6
Continuous
370
    -3
390
F
  0
LAYER
  5
215
330
2
100
AcDbSymbolTableRecord
100
AcDbLayerTableRecord
  2
FRAMELAYER-197
 70
     0
 62
     7
  6
Continuous
370
    -3
390
F
  0
LAYER
  5
216
330
2
100
AcDbSymbolTableRecord
100
AcDbLayerTableRecord
  2
FRAMELAYER-198
 70
     0
 62
     7
  6
Continuous
370
    -3
390
F
  0
LAYER
  5
217
330
2
100
AcDbSymbolTableRecord
100
AcDbLayerTableRecord
  2
FRAMELAYER-199
 70
     0
 62
     4
  6
Continuous
370
    -3
390
F
  0
LAYER
  5
218
330
2
100
AcDbSymbolTableRecord
100
AcDbLayerTableRecord
  2
FRAMELAYER-200
 70
     0
 62
     1
  6
Continuous
370
    -3
390
F
  0
LAYER
  5
219
330
2
100
AcDbSymbolTableRecord
100
AcDbLayerTableRecord
  2
FRAMELAYER-201
 70
     0
 62
     1
  6
Continuous
370
    -3
390
F
  0
LAYER
  5
21A
330
2
100
AcDbSymbolTableRecord
100
AcDbLayerTableRecord
  2
FRAMELAYER-202
 70
     0
 62
     2
  6
Continuous
370
    -3
390
F
  0
LAYER
  5
21B
330
2
100
AcDbSymbolTableRecord
100
AcDbLayerTableRecord
  2
FRAMELAYER-203
 70
     0
 62
     2
  6
Continuous
370
    -3
390
F
  0
LAYER
  5
21C
330
2
100
AcDbSymbolTableRecord
100
AcDbLayerTableRecord
  2
FRAMELAYER-204
 70
     0
 62
     7
  6
Continuous
370
    -3
390
F
  0
LAYER
  5
21D
330
2
100
AcDbSymbolTableRecord
100
AcDbLayerTableRecord
  2
FRAMELAYER-205
 70
     0
 62
     7
  6
Continuous
370
    -3
390
F
  0
LAYER
  5
21E
330
2
100
AcDbSymbolTableRecord
100
AcDbLayerTableRecord
  2
FRAMELAYER-206
 70
     0
 62
     7
  6
Continuous
370
    -3
390
F
  0
LAYER
  5
21F
330
2
100
AcDbSymbolTableRecord
100
AcDbLayerTableRecord
  2
FRAMELAYER-207
 70
     0
 62
    -7
  6
Continuous
370
    -3
390
F
  0
LAYER
  5
220
330
2
100
AcDbSymbolTableRecord
100
AcDbLayerTableRecord
  2
FRAMELAYER-208
 70
     0
 62
     2
  6
Continuous
370
    -3
390
F
  0
LAYER
  5
221
330
2
100
AcDbSymbolTableRecord
100
AcDbLayerTableRecord
  2
FRAMELAYER-209
 70
     0
 62
     7
  6
Continuous
370
    -3
390
F
  0
LAYER
  5
222
330
2
100
AcDbSymbolTableRecord
100
AcDbLayerTableRecord
  2
FRAMELAYER-210
 70
     0
 62
     2
  6
Continuous
370
    -3
390
F
  0
LAYER
  5
223
330
2
100
AcDbSymbolTableRecord
100
AcDbLayerTableRecord
  2
FRAMELAYER-211
 70
     0
 62
     7
  6
Continuous
370
    -3
390
F
  0
LAYER
  5
224
330
2
100
AcDbSymbolTableRecord
100
AcDbLayerTableRecord
  2
FRAMELAYER-212
 70
     0
 62
     7
  6
Continuous
370
    -3
390
F
  0
LAYER
  5
225
330
2
100
AcDbSymbolTableRecord
100
AcDbLayerTableRecord
  2
FRAMELAYER-213
 70
     0
 62
     2
  6
Continuous
370
    -3
390
F
  0
LAYER
  5
226
330
2
100
AcDbSymbolTableRecord
100
AcDbLayerTableRecord
  2
FRAMELAYER-214
 70
     0
 62
     7
  6
Continuous
370
    -3
390
F
  0
LAYER
  5
227
330
2
100
AcDbSymbolTableRecord
100
AcDbLayerTableRecord
  2
FRAMELAYER-215
 70
     0
 62
     7
  6
Continuous
370
    -3
390
F
  0
LAYER
  5
228
330
2
100
AcDbSymbolTableRecord
100
AcDbLayerTableRecord
  2
FRAMELAYER-216
 70
     0
 62
     4
  6
Continuous
370
    -3
390
F
  0
LAYER
  5
229
330
2
100
AcDbSymbolTableRecord
100
AcDbLayerTableRecord
  2
FRAMELAYER-217
 70
     0
 62
     7
  6
Continuous
370
    -3
390
F
  0
LAYER
  5
22A
330
2
100
AcDbSymbolTableRecord
100
AcDbLayerTableRecord
  2
FRAMELAYER-218
 70
     0
 62
     7
  6
Continuous
370
    -3
390
F
  0
LAYER
  5
22B
330
2
100
AcDbSymbolTableRecord
100
AcDbLayerTableRecord
  2
FRAMELAYER-219
 70
     0
 62
     7
  6
Continuous
370
    -3
390
F
  0
LAYER
  5
22C
330
2
100
AcDbSymbolTableRecord
100
AcDbLayerTableRecord
  2
FRAMELAYER-220
 70
     0
 62
     4
  6
Continuous
370
    -3
390
F
  0
LAYER
  5
22D
330
2
100
AcDbSymbolTableRecord
100
AcDbLayerTableRecord
  2
FRAMELAYER-221
 70
     0
 62
     7
  6
Continuous
370
    -3
390
F
  0
LAYER
  5
22E
330
2
100
AcDbSymbolTableRecord
100
AcDbLayerTableRecord
  2
FRAMELAYER-222
 70
     0
 62
     4
  6
Continuous
370
    -3
390
F
  0
LAYER
  5
22F
330
2
100
AcDbSymbolTableRecord
100
AcDbLayerTableRecord
  2
FRAMELAYER-223
 70
     0
 62
     1
  6
Continuous
370
    -3
390
F
  0
LAYER
  5
230
330
2
100
AcDbSymbolTableRecord
100
AcDbLayerTableRecord
  2
FRAMELAYER-224
 70
     0
 62
     1
  6
Continuous
370
    -3
390
F
  0
LAYER
  5
231
330
2
100
AcDbSymbolTableRecord
100
AcDbLayerTableRecord
  2
FRAMELAYER-225
 70
     0
 62
     7
  6
Continuous
370
    -3
390
F
  0
LAYER
  5
232
330
2
100
AcDbSymbolTableRecord
100
AcDbLayerTableRecord
  2
FRAMELAYER-226
 70
     0
 62
     2
  6
Continuous
370
    -3
390
F
  0
LAYER
  5
233
330
2
100
AcDbSymbolTableRecord
100
AcDbLayerTableRecord
  2
FRAMELAYER-227
 70
     0
 62
     7
  6
Continuous
370
    -3
390
F
  0
LAYER
  5
234
330
2
100
AcDbSymbolTableRecord
100
AcDbLayerTableRecord
  2
FRAMELAYER-228
 70
     0
 62
     7
  6
Continuous
370
    -3
390
F
  0
LAYER
  5
235
330
2
100
AcDbSymbolTableRecord
100
AcDbLayerTableRecord
  2
FRAMELAYER-229
 70
     0
 62
     7
  6
Continuous
370
    -3
390
F
  0
LAYER
  5
236
330
2
100
AcDbSymbolTableRecord
100
AcDbLayerTableRecord
  2
FRAMELAYER-230
 70
     0
 62
     7
  6
Continuous
370
    -3
390
F
  0
LAYER
  5
237
330
2
100
AcDbSymbolTableRecord
100
AcDbLayerTableRecord
  2
FRAMELAYER-231
 70
     0
 62
     7
  6
Continuous
370
    -3
390
F
  0
LAYER
  5
238
330
2
100
AcDbSymbolTableRecord
100
AcDbLayerTableRecord
  2
FRAMELAYER-232
 70
     0
 62
     7
  6
Continuous
370
    -3
390
F
  0
LAYER
  5
239
330
2
100
AcDbSymbolTableRecord
100
AcDbLayerTableRecord
  2
FRAMELAYER-233
 70
     0
 62
     7
  6
Continuous
370
    -3
390
F
  0
LAYER
  5
23A
330
2
100
AcDbSymbolTableRecord
100
AcDbLayerTableRecord
  2
FRAMELAYER-234
 70
     0
 62
     7
  6
Continuous
370
    -3
390
F
  0
LAYER
  5
23B
330
2
100
AcDbSymbolTableRecord
100
AcDbLayerTableRecord
  2
FRAMELAYER-235
 70
     0
 62
     7
  6
Continuous
370
    -3
390
F
  0
LAYER
  5
23C
330
2
100
AcDbSymbolTableRecord
100
AcDbLayerTableRecord
  2
FRAMELAYER-236
 70
     0
 62
     7
  6
Continuous
370
    -3
390
F
  0
LAYER
  5
23D
330
2
100
AcDbSymbolTableRecord
100
AcDbLayerTableRecord
  2
FRAMELAYER-237
 70
     0
 62
     7
  6
Continuous
370
    -3
390
F
  0
LAYER
  5
23E
330
2
100
AcDbSymbolTableRecord
100
AcDbLayerTableRecord
  2
FRAMELAYER-238
 70
     0
 62
     7
  6
Continuous
370
    -3
390
F
  0
LAYER
  5
23F
330
2
100
AcDbSymbolTableRecord
100
AcDbLayerTableRecord
  2
FRAMELAYER-239
 70
     0
 62
     7
  6
Continuous
370
    -3
390
F
  0
LAYER
  5
240
330
2
100
AcDbSymbolTableRecord
100
AcDbLayerTableRecord
  2
FRAMELAYER-240
 70
     0
 62
     7
  6
Continuous
370
    -3
390
F
  0
LAYER
  5
241
330
2
100
AcDbSymbolTableRecord
100
AcDbLayerTableRecord
  2
FRAMELAYER-241
 70
     0
 62
     7
  6
Continuous
370
    -3
390
F
  0
LAYER
  5
242
330
2
100
AcDbSymbolTableRecord
100
AcDbLayerTableRecord
  2
FRAMELAYER-242
 70
     0
 62
     7
  6
Continuous
370
    -3
390
F
  0
LAYER
  5
243
330
2
100
AcDbSymbolTableRecord
100
AcDbLayerTableRecord
  2
FRAMELAYER-243
 70
     0
 62
     7
  6
Continuous
370
    -3
390
F
  0
LAYER
  5
244
330
2
100
AcDbSymbolTableRecord
100
AcDbLayerTableRecord
  2
FRAMELAYER-244
 70
     0
 62
     7
  6
Continuous
370
    -3
390
F
  0
LAYER
  5
245
330
2
100
AcDbSymbolTableRecord
100
AcDbLayerTableRecord
  2
FRAMELAYER-245
 70
     0
 62
     7
  6
Continuous
370
    -3
390
F
  0
LAYER
  5
246
330
2
100
AcDbSymbolTableRecord
100
AcDbLayerTableRecord
  2
FRAMELAYER-246
 70
     0
 62
     7
  6
Continuous
370
    -3
390
F
  0
LAYER
  5
247
330
2
100
AcDbSymbolTableRecord
100
AcDbLayerTableRecord
  2
FRAMELAYER-247
 70
     0
 62
     7
  6
Continuous
370
    -3
390
F
  0
LAYER
  5
248
330
2
100
AcDbSymbolTableRecord
100
AcDbLayerTableRecord
  2
FRAMELAYER-248
 70
     0
 62
     7
  6
Continuous
370
    -3
390
F
  0
LAYER
  5
249
330
2
100
AcDbSymbolTableRecord
100
AcDbLayerTableRecord
  2
FRAMELAYER-249
 70
     0
 62
     7
  6
Continuous
370
    -3
390
F
  0
LAYER
  5
24A
330
2
100
AcDbSymbolTableRecord
100
AcDbLayerTableRecord
  2
FRAMELAYER-250
 70
     0
 62
     7
  6
Continuous
370
    -3
390
F
  0
LAYER
  5
24B
330
2
100
AcDbSymbolTableRecord
100
AcDbLayerTableRecord
  2
FRAMELAYER-251
 70
     0
 62
     7
  6
Continuous
370
    -3
390
F
  0
LAYER
  5
24C
330
2
100
AcDbSymbolTableRecord
100
AcDbLayerTableRecord
  2
FRAMELAYER-252
 70
     0
 62
     7
  6
Continuous
370
    -3
390
F
  0
LAYER
  5
24D
330
2
100
AcDbSymbolTableRecord
100
AcDbLayerTableRecord
  2
FRAMELAYER-253
 70
     0
 62
     7
  6
Continuous
370
    -3
390
F
  0
LAYER
  5
24E
330
2
100
AcDbSymbolTableRecord
100
AcDbLayerTableRecord
  2
FRAMELAYER-254
 70
     0
 62
     7
  6
Continuous
370
    -3
390
F
  0
LAYER
  5
24F
330
2
100
AcDbSymbolTableRecord
100
AcDbLayerTableRecord
  2
FRAMELAYER-255
 70
     0
 62
     7
  6
Continuous
370
    -3
390
F
  0
LAYER
  5
250
330
2
100
AcDbSymbolTableRecord
100
AcDbLayerTableRecord
  2
FRAMELAYER-256
 70
     0
 62
     7
  6
Continuous
370
    -3
390
F
  0
ENDTAB
  0
TABLE
  2
STYLE
  5
3
330
0
100
AcDbSymbolTable
 70
     7
  0
STYLE
  5
11
330
3
100
AcDbSymbolTableRecord
100
AcDbTextStyleTableRecord
  2
Standard
 70
     0
 40
0.0
 41
1.0
 50
0.0
 71
     0
 42
2.5
  3
txt
  4

  0
STYLE
  5
31
330
3
100
AcDbSymbolTableRecord
100
AcDbTextStyleTableRecord
  2
STANDARD2
 70
     0
 40
0.0
 41
1.0
 50
0.0
 71
     0
 42
4.0
  3
MS Mincho.ttf
  4

1001
ACAD
1000
MS Mincho
1071
    32785
  0
STYLE
  5
32
330
3
100
AcDbSymbolTableRecord
100
AcDbTextStyleTableRecord
  2
STRING_H
 70
     0
 40
0.0
 41
1.0
 50
0.0
 71
     0
 42
4.0
  3
MS Mincho.ttf
  4

1001
ACAD
1000
MS Mincho
1071
    32785
  0
STYLE
  5
33
330
3
100
AcDbSymbolTableRecord
100
AcDbTextStyleTableRecord
  2
STRING_H_ITALIC
 70
     0
 40
0.0
 41
1.0
 50
15.0
 71
     0
 42
4.0
  3
MS Mincho.ttf
  4

1001
ACAD
1000
MS Mincho
1071
    32785
  0
STYLE
  5
34
330
3
100
AcDbSymbolTableRecord
100
AcDbTextStyleTableRecord
  2
STRING_V
 70
     0
 40
0.0
 41
1.0
 50
0.0
 71
     0
 42
4.0
  3
@MS Mincho.ttf
  4

1001
ACAD
1000
@MS Mincho
1071
    32785
  0
STYLE
  5
35
330
3
100
AcDbSymbolTableRecord
100
AcDbTextStyleTableRecord
  2
STRING_V_ITALIC
 70
     0
 40
0.0
 41
1.0
 50
15.0
 71
     0
 42
4.0
  3
@MS Mincho.ttf
  4

1001
ACAD
1000
@MS Mincho
1071
    32785
  0
STYLE
  5
36
330
3
100
AcDbSymbolTableRecord
100
AcDbTextStyleTableRecord
  2

 70
     1
 40
0.0
 41
1.0
 50
0.0
 71
     0
 42
0.2
  3
ltypeshp.shx
  4

  0
ENDTAB
  0
TABLE
  2
VIEW
  5
6
330
0
100
AcDbSymbolTable
 70
     0
  0
ENDTAB
  0
TABLE
  2
UCS
  5
7
330
0
100
AcDbSymbolTable
 70
     0
  0
ENDTAB
  0
TABLE
  2
APPID
  5
9
330
0
100
AcDbSymbolTable
 70
     1
  0
APPID
  5
12
330
9
100
AcDbSymbolTableRecord
100
AcDbRegAppTableRecord
  2
ACAD
 70
     0
  0
ENDTAB
  0
TABLE
  2
DIMSTYLE
  5
A
330
0
100
AcDbSymbolTable
 70
     2
100
AcDbDimStyleTable
  0
DIMSTYLE
105
27
330
A
100
AcDbSymbolTableRecord
100
AcDbDimStyleTableRecord
  2
ISO-25
 70
     0
 41
2.5
 42
0.625
 43
3.75
 44
1.25
 73
     0
 74
     0
 77
     1
 78
     8
140
2.5
141
2.5
143
0.03937007874016
147
0.625
171
     3
172
     1
271
     2
272
     2
274
     3
283
     0
284
     8
340
11
  0
DIMSTYLE
105
251
102
{ACAD_REACTORS
330
605
330
60F
330
619
330
623
330
62D
330
637
330
643
330
650
102
}
330
A
100
AcDbSymbolTableRecord
100
AcDbDimStyleTableRecord
  2
DIO_DIMSTYLE
 70
     0
 41
4.0
 42
1.0
 43
3.75
 44
1.0
 45
0.1
 73
     0
 74
     0
 77
     1
 78
     8
 79
     2
140
3.0
141
2.5
143
0.03937007874016
147
0.5
171
     3
172
     1
173
     1
179
     1
271
     1
272
     1
274
     3
283
     0
284
     8
288
     1
289
     0
340
31
  0
ENDTAB
  0
TABLE
  2
BLOCK_RECORD
  5
1
330
0
100
AcDbSymbolTable
 70
    10
  0
BLOCK_RECORD
  5
1F
330
1
100
AcDbSymbolTableRecord
100
AcDbBlockTableRecord
  2
*Model_Space
340
22
  0
BLOCK_RECORD
  5
1B
330
1
100
AcDbSymbolTableRecord
100
AcDbBlockTableRecord
  2
*Paper_Space
340
1E
  0
BLOCK_RECORD
  5
23
330
1
100
AcDbSymbolTableRecord
100
AcDbBlockTableRecord
  2
*Paper_Space0
340
26
  0
BLOCK_RECORD
  5
5F6
330
1
100
AcDbSymbolTableRecord
100
AcDbBlockTableRecord
  2
_OPEN
340
0
102
{BLKREFS
331
5FF
331
600
331
609
331
60A
331
613
331
614
331
61D
331
61E
331
627
331
628
331
631
331
632
331
63B
331
63C
331
64A
331
64B
102
}
  0
BLOCK_RECORD
  5
5FC
330
1
100
AcDbSymbolTableRecord
100
AcDbBlockTableRecord
  2
*D02
340
0
  0
BLOCK_RECORD
  5
606
330
1
100
AcDbSymbolTableRecord
100
AcDbBlockTableRecord
  2
*D13
340
0
  0
BLOCK_RECORD
  5
610
330
1
100
AcDbSymbolTableRecord
100
AcDbBlockTableRecord
  2
*D24
340
0
  0
BLOCK_RECORD
  5
61A
330
1
100
AcDbSymbolTableRecord
100
AcDbBlockTableRecord
  2
*D35
340
0
  0
BLOCK_RECORD
  5
624
330
1
100
AcDbSymbolTableRecord
100
AcDbBlockTableRecord
  2
*D46
340
0
  0
BLOCK_RECORD
  5
62E
330
1
100
AcDbSymbolTableRecord
100
AcDbBlockTableRecord
  2
*D57
340
0
  0
BLOCK_RECORD
  5
638
330
1
100
AcDbSymbolTableRecord
100
AcDbBlockTableRecord
  2
*D68
340
0
  0
BLOCK_RECORD
  5
647
330
1
100
AcDbSymbolTableRecord
100
AcDbBlockTableRecord
  2
*D79
340
0
  0
ENDTAB
  0
ENDSEC
  0
SECTION
  2
BLOCKS
  0
BLOCK
  5
20
330
1F
100
AcDbEntity
  8
0
100
AcDbBlockBegin
  2
*Model_Space
 70
     0
 71
     0
 10
0.0
 20
0.0
 30
0.0
  3
*Model_Space
  1

  0
ENDBLK
  5
21
330
1F
100
AcDbEntity
  8
0
100
AcDbBlockEnd
  0
BLOCK
  5
1C
330
1B
100
AcDbEntity
 67
     1
  8
0
100
AcDbBlockBegin
  2
*Paper_Space
 70
     0
 71
     0
 10
0.0
 20
0.0
 30
0.0
  3
*Paper_Space
  1

  0
ENDBLK
  5
1D
330
1B
100
AcDbEntity
 67
     1
  8
0
100
AcDbBlockEnd
  0
BLOCK
  5
24
330
23
100
AcDbEntity
  8
0
100
AcDbBlockBegin
  2
*Paper_Space0
 70
     0
 71
     0
 10
0.0
 20
0.0
 30
0.0
  3
*Paper_Space0
  1

  0
ENDBLK
  5
25
330
23
100
AcDbEntity
  8
0
100
AcDbBlockEnd
  0
BLOCK
  5
5F7
330
5F6
100
AcDbEntity
  8
0
100
AcDbBlockBegin
  2
_OPEN
 70
     0
 71
     0
 10
0.0
 20
0.0
 30
0.0
  3
_OPEN
  1

  0
LINE
  5
5F9
330
5F6
100
AcDbEntity
  8
LAYER-035
  6
Continuous
 62
     0
100
AcDbLine
 10
0.0
 20
0.0
 30
0.0
 11
-1.0
 21
0.0
 31
0.0
  0
LINE
  5
5FA
330
5F6
100
AcDbEntity
  8
LAYER-035
  6
Continuous
 62
     0
100
AcDbLine
 10
0.0
 20
0.0
 30
0.0
 11
-1.0
 21
0.1666250109338451
 31
0.0
  0
LINE
  5
5FB
330
5F6
100
AcDbEntity
  8
LAYER-035
  6
Continuous
 62
     0
100
AcDbLine
 10
0.0
 20
0.0
 30
0.0
 11
-1.0
 21
-0.1666250109338451
 31
0.0
  0
ENDBLK
  5
5F8
330
5F6
100
AcDbEntity
  8
0
100
AcDbBlockEnd
  0
BLOCK
  5
5FD
330
5FC
100
AcDbEntity
  8
0
100
AcDbBlockBegin
  2
*D02
 70
     1
 71
     0
 10
0.0
 20
0.0
 30
0.0
  3
*D02
  1

  0
INSERT
  5
5FF
330
5FC
100
AcDbEntity
  8
LAYER-035
  6
Continuous
 62
     5
100
AcDbBlockReference
  2
_OPEN
 10
6.332484473552682
 20
245.2426573426573
 30
0.0
 41
4.0
 42
4.0
 43
4.0
 50
90.0
  0
INSERT
  5
600
330
5FC
100
AcDbEntity
  8
LAYER-035
  6
Continuous
 62
     5
100
AcDbBlockReference
  2
_OPEN
 10
6.332484473552682
 20
95.24265734265734
 30
0.0
 41
4.0
 42
4.0
 43
4.0
 50
-90.0
  0
LINE
  5
601
330
5FC
100
AcDbEntity
  8
LAYER-035
  6
Continuous
 62
     5
100
AcDbLine
 10
-21.90777177368082
 20
245.2426573426573
 30
0.0
 11
7.332484473552682
 21
245.2426573426573
 31
0.0
  0
LINE
  5
602
330
5FC
100
AcDbEntity
  8
LAYER-035
  6
Continuous
 62
     5
100
AcDbLine
 10
-27.69537815417655
 20
95.24265734265734
 30
0.0
 11
7.332484473552682
 21
95.24265734265734
 31
0.0
  0
LINE
  5
603
330
5FC
100
AcDbEntity
  8
LAYER-035
  6
Continuous
 62
     5
100
AcDbLine
 10
6.332484473552682
 20
245.2426573426573
 30
0.0
 11
6.332484473552682
 21
95.24265734265734
 31
0.0
  0
MTEXT
  5
604
330
5FC
100
AcDbEntity
  8
LAYER-036
  6
Continuous
 62
     5
100
AcDbMText
 10
5.832484473552682
 20
170.2426573426573
 30
0.0
 40
4.0
 41
0.0
 71
     8
 72
     1
  1
150
  7
STRING_H
 11
6.123031769111886E-17
 21
1.0
 31
0.0
 73
     1
 44
1.0
  0
ENDBLK
  5
5FE
330
5FC
100
AcDbEntity
  8
0
100
AcDbBlockEnd
  0
BLOCK
  5
607
330
606
100
AcDbEntity
  8
0
100
AcDbBlockBegin
  2
*D13
 70
     1
 71
     0
 10
0.0
 20
0.0
 30
0.0
  3
*D13
  1

  0
INSERT
  5
609
330
606
100
AcDbEntity
  8
LAYER-035
  6
Continuous
 62
     5
100
AcDbBlockReference
  2
_OPEN
 10
6.332484473552682
 20
95.24265734265734
 30
0.0
 41
4.0
 42
4.0
 43
4.0
 50
90.0
  0
INSERT
  5
60A
330
606
100
AcDbEntity
  8
LAYER-035
  6
Continuous
 62
     5
100
AcDbBlockReference
  2
_OPEN
 10
6.332484473552682
 20
-104.7573426573427
 30
0.0
 41
4.0
 42
4.0
 43
4.0
 50
-90.0
  0
LINE
  5
60B
330
606
100
AcDbEntity
  8
LAYER-035
  6
Continuous
 62
     5
100
AcDbLine
 10
-27.69537815417655
 20
95.24265734265734
 30
0.0
 11
7.332484473552682
 21
95.24265734265734
 31
0.0
  0
LINE
  5
60C
330
606
100
AcDbEntity
  8
LAYER-035
  6
Continuous
 62
     5
100
AcDbLine
 10
-27.69537815417655
 20
-104.7573426573427
 30
0.0
 11
7.332484473552682
 21
-104.7573426573427
 31
0.0
  0
LINE
  5
60D
330
606
100
AcDbEntity
  8
LAYER-035
  6
Continuous
 62
     5
100
AcDbLine
 10
6.332484473552682
 20
95.24265734265734
 30
0.0
 11
6.332484473552682
 21
-104.7573426573427
 31
0.0
  0
MTEXT
  5
60E
330
606
100
AcDbEntity
  8
LAYER-036
  6
Continuous
 62
     5
100
AcDbMText
 10
5.832484473552682
 20
-4.757342657342662
 30
0.0
 40
4.0
 41
0.0
 71
     8
 72
     1
  1
200
  7
STRING_H
 11
6.123031769111886E-17
 21
1.0
 31
0.0
 73
     1
 44
1.0
  0
ENDBLK
  5
608
330
606
100
AcDbEntity
  8
0
100
AcDbBlockEnd
  0
BLOCK
  5
611
330
610
100
AcDbEntity
  8
0
100
AcDbBlockBegin
  2
*D24
 70
     1
 71
     0
 10
0.0
 20
0.0
 30
0.0
  3
*D24
  1

  0
INSERT
  5
613
330
610
100
AcDbEntity
  8
LAYER-035
  6
Continuous
 62
     5
100
AcDbBlockReference
  2
_OPEN
 10
6.332484473552682
 20
-104.7573426573427
 30
0.0
 41
4.0
 42
4.0
 43
4.0
 50
90.0
  0
INSERT
  5
614
330
610
100
AcDbEntity
  8
LAYER-035
  6
Continuous
 62
     5
100
AcDbBlockReference
  2
_OPEN
 10
6.332484473552682
 20
-134.7573426573427
 30
0.0
 41
4.0
 42
4.0
 43
4.0
 50
-90.0
  0
LINE
  5
615
330
610
100
AcDbEntity
  8
LAYER-035
  6
Continuous
 62
     5
100
AcDbLine
 10
-27.69537815417655
 20
-104.7573426573427
 30
0.0
 11
7.332484473552682
 21
-104.7573426573427
 31
0.0
  0
LINE
  5
616
330
610
100
AcDbEntity
  8
LAYER-035
  6
Continuous
 62
     5
100
AcDbLine
 10
-21.90777177368082
 20
-134.7573426573427
 30
0.0
 11
7.332484473552682
 21
-134.7573426573427
 31
0.0
  0
LINE
  5
617
330
610
100
AcDbEntity
  8
LAYER-035
  6
Continuous
 62
     5
100
AcDbLine
 10
6.332484473552682
 20
-104.7573426573427
 30
0.0
 11
6.332484473552682
 21
-134.7573426573427
 31
0.0
  0
MTEXT
  5
618
330
610
100
AcDbEntity
  8
LAYER-036
  6
Continuous
 62
     5
100
AcDbMText
 10
5.832484473552682
 20
-119.7573426573427
 30
0.0
 40
4.0
 41
0.0
 71
     8
 72
     1
  1
30
  7
STRING_H
 11
6.123031769111886E-17
 21
1.0
 31
0.0
 73
     1
 44
1.0
  0
ENDBLK
  5
612
330
610
100
AcDbEntity
  8
0
100
AcDbBlockEnd
  0
BLOCK
  5
61B
330
61A
100
AcDbEntity
  8
0
100
AcDbBlockBegin
  2
*D35
 70
     1
 71
     0
 10
0.0
 20
0.0
 30
0.0
  3
*D35
  1

  0
INSERT
  5
61D
330
61A
100
AcDbEntity
  8
LAYER-035
  6
Continuous
 62
     5
100
AcDbBlockReference
  2
_OPEN
 10
-207.9077717736808
 20
-153.8502666230861
 30
0.0
 41
4.0
 42
4.0
 43
4.0
 50
180.0
  0
INSERT
  5
61E
330
61A
100
AcDbEntity
  8
LAYER-035
  6
Continuous
 62
     5
100
AcDbBlockReference
  2
_OPEN
 10
-37.90777177368082
 20
-153.8502666230861
 30
0.0
 41
4.0
 42
4.0
 43
4.0
  0
LINE
  5
61F
330
61A
100
AcDbEntity
  8
LAYER-035
  6
Continuous
 62
     5
100
AcDbLine
 10
-207.9077717736808
 20
-114.9697362768469
 30
0.0
 11
-207.9077717736808
 21
-154.8502666230861
 31
0.0
  0
LINE
  5
620
330
61A
100
AcDbEntity
  8
LAYER-035
  6
Continuous
 62
     5
100
AcDbLine
 10
-37.90777177368082
 20
-114.9697362768469
 30
0.0
 11
-37.90777177368082
 21
-154.8502666230861
 31
0.0
  0
LINE
  5
621
330
61A
100
AcDbEntity
  8
LAYER-035
  6
Continuous
 62
     5
100
AcDbLine
 10
-207.9077717736808
 20
-153.8502666230861
 30
0.0
 11
-37.90777177368082
 21
-153.8502666230861
 31
0.0
  0
MTEXT
  5
622
330
61A
100
AcDbEntity
  8
LAYER-036
  6
Continuous
 62
     5
100
AcDbMText
 10
-122.9077717736808
 20
-153.3502666230861
 30
0.0
 40
4.0
 41
0.0
 71
     8
 72
     1
  1
170
  7
STRING_H
 73
     1
 44
1.0
  0
ENDBLK
  5
61C
330
61A
100
AcDbEntity
  8
0
100
AcDbBlockEnd
  0
BLOCK
  5
625
330
624
100
AcDbEntity
  8
0
100
AcDbBlockBegin
  2
*D46
 70
     1
 71
     0
 10
0.0
 20
0.0
 30
0.0
  3
*D46
  1

  0
INSERT
  5
627
330
624
100
AcDbEntity
  8
LAYER-035
  6
Continuous
 62
     5
100
AcDbBlockReference
  2
_OPEN
 10
-222.9077717736808
 20
-167.7997298688704
 30
0.0
 41
4.0
 42
4.0
 43
4.0
 50
180.0
  0
INSERT
  5
628
330
624
100
AcDbEntity
  8
LAYER-035
  6
Continuous
 62
     5
100
AcDbBlockReference
  2
_OPEN
 10
-22.90777177368082
 20
-167.7997298688704
 30
0.0
 41
4.0
 42
4.0
 43
4.0
  0
LINE
  5
629
330
624
100
AcDbEntity
  8
LAYER-035
  6
Continuous
 62
     5
100
AcDbLine
 10
-222.9077717736808
 20
-135.7573426573427
 30
0.0
 11
-222.9077717736808
 21
-168.7997298688704
 31
0.0
  0
LINE
  5
62A
330
624
100
AcDbEntity
  8
LAYER-035
  6
Continuous
 62
     5
100
AcDbLine
 10
-22.90777177368082
 20
-135.7573426573427
 30
0.0
 11
-22.90777177368082
 21
-168.7997298688704
 31
0.0
  0
LINE
  5
62B
330
624
100
AcDbEntity
  8
LAYER-035
  6
Continuous
 62
     5
100
AcDbLine
 10
-222.9077717736808
 20
-167.7997298688704
 30
0.0
 11
-22.90777177368082
 21
-167.7997298688704
 31
0.0
  0
MTEXT
  5
62C
330
624
100
AcDbEntity
  8
LAYER-036
  6
Continuous
 62
     5
100
AcDbMText
 10
-122.9077717736808
 20
-167.2997298688704
 30
0.0
 40
4.0
 41
0.0
 71
     8
 72
     1
  1
200
  7
STRING_H
 73
     1
 44
1.0
  0
ENDBLK
  5
626
330
624
100
AcDbEntity
  8
0
100
AcDbBlockEnd
  0
BLOCK
  5
62F
330
62E
100
AcDbEntity
  8
0
100
AcDbBlockBegin
  2
*D57
 70
     1
 71
     0
 10
0.0
 20
0.0
 30
0.0
  3
*D57
  1

  0
INSERT
  5
631
330
62E
100
AcDbEntity
  8
LAYER-035
  6
Continuous
 62
     5
100
AcDbBlockReference
  2
_OPEN
 10
29.35212968849334
 20
245.2426573426573
 30
0.0
 41
4.0
 42
4.0
 43
4.0
 50
90.0
  0
INSERT
  5
632
330
62E
100
AcDbEntity
  8
LAYER-035
  6
Continuous
 62
     5
100
AcDbBlockReference
  2
_OPEN
 10
29.35212968849334
 20
-134.7573426573427
 30
0.0
 41
4.0
 42
4.0
 43
4.0
 50
-90.0
  0
LINE
  5
633
330
62E
100
AcDbEntity
  8
LAYER-035
  6
Continuous
 62
     5
100
AcDbLine
 10
-21.90777177368082
 20
245.2426573426573
 30
0.0
 11
30.35212968849334
 21
245.2426573426573
 31
0.0
  0
LINE
  5
634
330
62E
100
AcDbEntity
  8
LAYER-035
  6
Continuous
 62
     5
100
AcDbLine
 10
-21.90777177368082
 20
-134.7573426573427
 30
0.0
 11
30.35212968849334
 21
-134.7573426573427
 31
0.0
  0
LINE
  5
635
330
62E
100
AcDbEntity
  8
LAYER-035
  6
Continuous
 62
     5
100
AcDbLine
 10
29.35212968849334
 20
245.2426573426573
 30
0.0
 11
29.35212968849334
 21
-134.7573426573427
 31
0.0
  0
MTEXT
  5
636
330
62E
100
AcDbEntity
  8
LAYER-036
  6
Continuous
 62
     5
100
AcDbMText
 10
28.85212968849334
 20
55.24265734265731
 30
0.0
 40
4.0
 41
0.0
 71
     8
 72
     1
  1
380
  7
STRING_H
 11
6.123031769111886E-17
 21
1.0
 31
0.0
 73
     1
 44
1.0
  0
ENDBLK
  5
630
330
62E
100
AcDbEntity
  8
0
100
AcDbBlockEnd
  0
BLOCK
  5
639
330
638
100
AcDbEntity
  8
0
100
AcDbBlockBegin
  2
*D68
 70
     1
 71
     0
 10
0.0
 20
0.0
 30
0.0
  3
*D68
  1

  0
INSERT
  5
63B
330
638
100
AcDbEntity
  8
LAYER-035
  6
Continuous
 62
     5
100
AcDbBlockReference
  2
_OPEN
 10
198.8301836275613
 20
-153.8502666230861
 30
0.0
 41
4.0
 42
4.0
 43
4.0
 50
180.0
  0
INSERT
  5
63C
330
638
100
AcDbEntity
  8
LAYER-035
  6
Continuous
 62
     5
100
AcDbBlockReference
  2
_OPEN
 10
188.8301836275613
 20
-153.8502666230861
 30
0.0
 41
4.0
 42
4.0
 43
4.0
  0
LINE
  5
63D
330
638
100
AcDbEntity
  8
LAYER-035
  6
Continuous
 62
     5
100
AcDbLine
 10
198.8301836275613
 20
-135.7573426573427
 30
0.0
 11
198.8301836275613
 21
-154.8502666230861
 31
0.0
  0
LINE
  5
63E
330
638
100
AcDbEntity
  8
LAYER-035
  6
Continuous
 62
     5
100
AcDbLine
 10
188.8301836275613
 20
-135.7573426573427
 30
0.0
 11
188.8301836275613
 21
-154.8502666230861
 31
0.0
  0
LINE
  5
63F
330
638
100
AcDbEntity
  8
LAYER-035
  6
Continuous
 62
     5
100
AcDbLine
 10
198.8301836275613
 20
-153.8502666230861
 30
0.0
 11
188.8301836275613
 21
-153.8502666230861
 31
0.0
  0
LINE
  5
640
330
638
100
AcDbEntity
  8
LAYER-035
  6
Continuous
 62
     5
100
AcDbLine
 10
188.8301836275613
 20
-153.8502666230861
 30
0.0
 11
176.8697808655613
 21
-153.8502666230861
 31
0.0
  0
LINE
  5
641
330
638
100
AcDbEntity
  8
LAYER-035
  6
Continuous
 62
     5
100
AcDbLine
 10
198.8301836275613
 20
-153.8502666230861
 30
0.0
 11
206.8301836275613
 21
-153.8502666230861
 31
0.0
  0
MTEXT
  5
642
330
638
100
AcDbEntity
  8
LAYER-036
  6
Continuous
 62
     5
100
AcDbMText
 10
186.8697808655613
 20
-153.3502666230861
 30
0.0
 40
4.0
 41
0.0
 71
     9
 72
     1
  1
10
  7
STRING_H
 73
     1
 44
1.0
  0
ENDBLK
  5
63A
330
638
100
AcDbEntity
  8
0
100
AcDbBlockEnd
  0
BLOCK
  5
648
330
647
100
AcDbEntity
  8
0
100
AcDbBlockBegin
  2
*D79
 70
     1
 71
     0
 10
0.0
 20
0.0
 30
0.0
  3
*D79
  1

  0
INSERT
  5
64A
330
647
100
AcDbEntity
  8
LAYER-035
  6
Continuous
 62
     5
100
AcDbBlockReference
  2
_OPEN
 10
63.83018362756127
 20
-167.7997298688704
 30
0.0
 41
4.0
 42
4.0
 43
4.0
 50
180.0
  0
INSERT
  5
64B
330
647
100
AcDbEntity
  8
LAYER-035
  6
Continuous
 62
     5
100
AcDbBlockReference
  2
_OPEN
 10
198.8301836275613
 20
-167.7997298688704
 30
0.0
 41
4.0
 42
4.0
 43
4.0
  0
LINE
  5
64C
330
647
100
AcDbEntity
  8
LAYER-035
  6
Continuous
 62
     5
100
AcDbLine
 10
63.8301836275613
 20
-85.38697376159526
 30
0.0
 11
63.83018362756127
 21
-168.7997298688704
 31
0.0
  0
LINE
  5
64D
330
647
100
AcDbEntity
  8
LAYER-035
  6
Continuous
 62
     5
100
AcDbLine
 10
198.8301836275613
 20
-135.7573426573427
 30
0.0
 11
198.8301836275613
 21
-168.7997298688704
 31
0.0
  0
LINE
  5
64E
330
647
100
AcDbEntity
  8
LAYER-035
  6
Continuous
 62
     5
100
AcDbLine
 10
63.83018362756127
 20
-167.7997298688704
 30
0.0
 11
198.8301836275613
 21
-167.7997298688704
 31
0.0
  0
MTEXT
  5
64F
330
647
100
AcDbEntity
  8
LAYER-036
  6
Continuous
 62
     5
100
AcDbMText
 10
131.3301836275613
 20
-167.2997298688704
 30
0.0
 40
4.0
 41
0.0
 71
     8
 72
     1
  1
135
  7
STRING_H
 73
     1
 44
1.0
  0
ENDBLK
  5
649
330
647
100
AcDbEntity
  8
0
100
AcDbBlockEnd
  0
ENDSEC
  0
SECTION
  2
ENTITIES
  0
LINE
  5
252
330
1F
100
AcDbEntity
  8
LAYER-033
  6
Continuous
 62
     1
100
AcDbLine
 10
-80.71560684896083
 20
-235.2017527596956
 30
0.0
 11
53.99385090940275
 21
-235.2017527596956
 31
0.0
  0
LINE
  5
253
330
1F
100
AcDbEntity
  8
LAYER-033
  6
Continuous
 62
     1
100
AcDbLine
 10
-80.71560684896083
 20
-243.287202861
 30
0.0
 11
-22.64859653968249
 21
-243.287202861
 31
0.0
  0
LINE
  5
254
330
1F
100
AcDbEntity
  8
LAYER-033
  6
Continuous
 62
     1
100
AcDbLine
 10
-80.71560684896083
 20
-227.1163026583913
 30
0.0
 11
-22.64859653968249
 21
-227.1163026583913
 31
0.0
  0
LINE
  5
255
330
1F
100
AcDbEntity
  8
LAYER-033
  6
Continuous
 62
     1
100
AcDbLine
 10
-222.9077717736808
 20
245.2426573426573
 30
0.0
 11
-22.90777177368082
 21
245.2426573426573
 31
0.0
  0
LINE
  5
256
330
1F
100
AcDbEntity
  8
LAYER-033
  6
Continuous
 62
     1
100
AcDbLine
 10
-222.9077717736808
 20
245.2426573426573
 30
0.0
 11
-222.9077717736808
 21
-134.7573426573427
 31
0.0
  0
LINE
  5
257
330
1F
100
AcDbEntity
  8
LAYER-033
  6
Continuous
 62
     1
100
AcDbLine
 10
-22.90777177368082
 20
245.2426573426573
 30
0.0
 11
-22.90777177368082
 21
-134.7573426573427
 31
0.0
  0
LINE
  5
258
330
1F
100
AcDbEntity
  8
LAYER-033
  6
Continuous
 62
     1
100
AcDbLine
 10
-222.9077717736808
 20
-134.7573426573427
 30
0.0
 11
-22.90777177368082
 21
-134.7573426573427
 31
0.0
  0
CIRCLE
  5
259
330
1F
100
AcDbEntity
  8
LAYER-033
  6
Continuous
 62
     1
100
AcDbCircle
 10
-37.90777177368082
 20
-104.7573426573427
 30
0.0
 40
4.75
  0
LINE
  5
25A
330
1F
100
AcDbEntity
  8
LAYER-033
  6
CENTER
 62
     4
100
AcDbLine
 10
-47.12016539368082
 20
-104.7573426573427
 30
0.0
 11
-28.69537815417655
 21
-104.7573426573427
 31
0.0
  0
LINE
  5
25B
330
1F
100
AcDbEntity
  8
LAYER-033
  6
CENTER
 62
     4
100
AcDbLine
 10
-37.90777177368082
 20
-95.54494903734266
 30
0.0
 11
-37.90777177368082
 21
-113.9697362768469
 31
0.0
  0
CIRCLE
  5
25C
330
1F
100
AcDbEntity
  8
LAYER-033
  6
Continuous
 62
     1
100
AcDbCircle
 10
-37.90777177368082
 20
95.24265734265734
 30
0.0
 40
4.75
  0
LINE
  5
25D
330
1F
100
AcDbEntity
  8
LAYER-033
  6
CENTER
 62
     4
100
AcDbLine
 10
-37.90777177368082
 20
104.4550509626573
 30
0.0
 11
-37.90777177368082
 21
86.03026372315307
 31
0.0
  0
LINE
  5
25E
330
1F
100
AcDbEntity
  8
LAYER-033
  6
CENTER
 62
     4
100
AcDbLine
 10
-47.12016539368082
 20
95.24265734265734
 30
0.0
 11
-28.69537815417655
 21
95.24265734265734
 31
0.0
  0
CIRCLE
  5
25F
330
1F
100
AcDbEntity
  8
LAYER-033
  6
Continuous
 62
     1
100
AcDbCircle
 10
-207.9077717736808
 20
95.24265734265734
 30
0.0
 40
4.75
  0
LINE
  5
260
330
1F
100
AcDbEntity
  8
LAYER-033
  6
CENTER
 62
     4
100
AcDbLine
 10
-207.9077717736808
 20
104.4550509626573
 30
0.0
 11
-207.9077717736808
 21
86.03026372315307
 31
0.0
  0
LINE
  5
261
330
1F
100
AcDbEntity
  8
LAYER-033
  6
CENTER
 62
     4
100
AcDbLine
 10
-217.1201653936808
 20
95.24265734265734
 30
0.0
 11
-198.6953781541766
 21
95.24265734265734
 31
0.0
  0
CIRCLE
  5
262
330
1F
100
AcDbEntity
  8
LAYER-033
  6
Continuous
 62
     1
100
AcDbCircle
 10
-207.9077717736808
 20
-104.7573426573427
 30
0.0
 40
4.75
  0
LINE
  5
263
330
1F
100
AcDbEntity
  8
LAYER-033
  6
CENTER
 62
     4
100
AcDbLine
 10
-207.9077717736808
 20
-95.54494903734266
 30
0.0
 11
-207.9077717736808
 21
-113.9697362768469
 31
0.0
  0
LINE
  5
264
330
1F
100
AcDbEntity
  8
LAYER-033
  6
CENTER
 62
     4
100
AcDbLine
 10
-217.1201653936808
 20
-104.7573426573427
 30
0.0
 11
-198.6953781541766
 21
-104.7573426573427
 31
0.0
  0
LINE
  5
265
330
1F
100
AcDbEntity
  8
LAYER-033
  6
Continuous
 62
     1
100
AcDbLine
 10
-213.629703855
 20
212.9910949190669
 30
0.0
 11
-213.629703855
 21
137.9910949190669
 31
0.0
  0
LINE
  5
266
330
1F
100
AcDbEntity
  8
LAYER-033
  6
Continuous
 62
     1
100
AcDbLine
 10
-213.629703855
 20
212.9910949190669
 30
0.0
 11
-113.629703855
 21
212.9910949190669
 31
0.0
  0
LINE
  5
267
330
1F
100
AcDbEntity
  8
LAYER-033
  6
Continuous
 62
     1
100
AcDbLine
 10
-113.629703855
 20
212.9910949190669
 30
0.0
 11
-113.629703855
 21
137.9910949190669
 31
0.0
  0
LINE
  5
268
330
1F
100
AcDbEntity
  8
LAYER-033
  6
Continuous
 62
     1
100
AcDbLine
 10
-213.629703855
 20
137.9910949190669
 30
0.0
 11
-113.629703855
 21
137.9910949190669
 31
0.0
  0
LINE
  5
269
330
1F
100
AcDbEntity
  8
LAYER-002
  6
Continuous
 62
     1
100
AcDbLine
 10
-173.1297038550771
 20
176.0465878527068
 30
0.0
 11
-173.1297038550771
 21
148.2465878527067
 31
0.0
  0
LINE
  5
26A
330
1F
100
AcDbEntity
  8
LAYER-002
  6
Continuous
 62
     1
100
AcDbLine
 10
-194.1297038550771
 20
176.0465878527068
 30
0.0
 11
-173.1297038550771
 21
176.0465878527068
 31
0.0
  0
LINE
  5
26B
330
1F
100
AcDbEntity
  8
LAYER-002
  6
Continuous
 62
     1
100
AcDbLine
 10
-194.1297038550771
 20
148.2465878527067
 30
0.0
 11
-194.1297038550771
 21
176.0465878527068
 31
0.0
  0
LINE
  5
26C
330
1F
100
AcDbEntity
  8
LAYER-002
  6
Continuous
 62
     1
100
AcDbLine
 10
-173.1297038550771
 20
148.2465878527067
 30
0.0
 11
-194.1297038550771
 21
148.2465878527067
 31
0.0
  0
LINE
  5
26D
330
1F
100
AcDbEntity
  8
LAYER-003
  6
CENTER
 62
     4
100
AcDbLine
 10
-183.629703855
 20
179.1465878527067
 30
0.0
 11
-183.629703855
 21
145.1465878527067
 31
0.0
  0
LINE
  5
26E
330
1F
100
AcDbEntity
  8
LAYER-003
  6
CENTER
 62
     4
100
AcDbLine
 10
-197.129703855077
 20
162.1465878527067
 30
0.0
 11
-170.1297038550771
 21
162.1465878527067
 31
0.0
  0
LINE
  5
26F
330
1F
100
AcDbEntity
  8
LAYER-131
  6
CENTER
 62
     4
100
AcDbLine
 10
-159.129703855077
 20
162.1465878527067
 30
0.0
 11
-128.129703855077
 21
162.1465878527067
 31
0.0
  0
LINE
  5
270
330
1F
100
AcDbEntity
  8
LAYER-129
  6
Continuous
 62
     1
100
AcDbLine
 10
-154.129703855077
 20
176.0465878527068
 30
0.0
 11
-133.129703855077
 21
176.0465878527068
 31
0.0
  0
LINE
  5
271
330
1F
100
AcDbEntity
  8
LAYER-129
  6
Continuous
 62
     1
100
AcDbLine
 10
-154.129703855077
 20
148.2465878527067
 30
0.0
 11
-154.129703855077
 21
176.0465878527068
 31
0.0
  0
LINE
  5
272
330
1F
100
AcDbEntity
  8
LAYER-131
  6
CENTER
 62
     4
100
AcDbLine
 10
-143.629703855
 20
181.0465878527068
 30
0.0
 11
-143.629703855
 21
143.2465878527067
 31
0.0
  0
CIRCLE
  5
273
330
1F
100
AcDbEntity
  8
LAYER-129
  6
Continuous
 62
     1
100
AcDbCircle
 10
-143.629703855
 20
162.1465878527067
 30
0.0
 40
5.25
  0
CIRCLE
  5
274
330
1F
100
AcDbEntity
  8
LAYER-129
  6
Continuous
 62
     1
100
AcDbCircle
 10
-143.629703855
 20
162.1465878527067
 30
0.0
 40
9.25
  0
LINE
  5
275
330
1F
100
AcDbEntity
  8
LAYER-129
  6
Continuous
 62
     1
100
AcDbLine
 10
-133.129703855077
 20
176.0465878527068
 30
0.0
 11
-133.129703855077
 21
148.2465878527067
 31
0.0
  0
LINE
  5
276
330
1F
100
AcDbEntity
  8
LAYER-129
  6
Continuous
 62
     1
100
AcDbLine
 10
-133.129703855077
 20
148.2465878527067
 30
0.0
 11
-154.129703855077
 21
148.2465878527067
 31
0.0
  0
CIRCLE
  5
277
330
1F
100
AcDbEntity
  8
LAYER-033
  6
Continuous
 62
     1
100
AcDbCircle
 10
-118.629703855
 20
207.9910949190669
 30
0.0
 40
2.5
  0
LINE
  5
278
330
1F
100
AcDbEntity
  8
LAYER-033
  6
CENTER
 62
     4
100
AcDbLine
 10
-122.6079271947659
 20
207.9910949190669
 30
0.0
 11
-114.6514805153882
 21
207.9910949190669
 31
0.0
  0
LINE
  5
279
330
1F
100
AcDbEntity
  8
LAYER-033
  6
CENTER
 62
     4
100
AcDbLine
 10
-118.629703855
 20
211.9693182587558
 30
0.0
 11
-118.629703855
 21
204.0128715793781
 31
0.0
  0
CIRCLE
  5
27A
330
1F
100
AcDbEntity
  8
LAYER-033
  6
Continuous
 62
     1
100
AcDbCircle
 10
-118.629703855
 20
142.9910949190669
 30
0.0
 40
2.5
  0
LINE
  5
27B
330
1F
100
AcDbEntity
  8
LAYER-033
  6
CENTER
 62
     4
100
AcDbLine
 10
-122.6079271947659
 20
142.9910949190669
 30
0.0
 11
-114.6514805153882
 21
142.9910949190669
 31
0.0
  0
LINE
  5
27C
330
1F
100
AcDbEntity
  8
LAYER-033
  6
CENTER
 62
     4
100
AcDbLine
 10
-118.629703855
 20
146.9693182587558
 30
0.0
 11
-118.629703855
 21
139.0128715793781
 31
0.0
  0
CIRCLE
  5
27D
330
1F
100
AcDbEntity
  8
LAYER-033
  6
Continuous
 62
     1
100
AcDbCircle
 10
-208.629703855
 20
142.9910949190669
 30
0.0
 40
2.5
  0
LINE
  5
27E
330
1F
100
AcDbEntity
  8
LAYER-033
  6
CENTER
 62
     4
100
AcDbLine
 10
-212.6079271947659
 20
142.9910949190669
 30
0.0
 11
-204.6514805153882
 21
142.9910949190669
 31
0.0
  0
LINE
  5
27F
330
1F
100
AcDbEntity
  8
LAYER-033
  6
CENTER
 62
     4
100
AcDbLine
 10
-208.629703855
 20
146.9693182587558
 30
0.0
 11
-208.629703855
 21
139.0128715793781
 31
0.0
  0
CIRCLE
  5
280
330
1F
100
AcDbEntity
  8
LAYER-033
  6
Continuous
 62
     1
100
AcDbCircle
 10
-208.629703855
 20
207.9910949190669
 30
0.0
 40
2.5
  0
LINE
  5
281
330
1F
100
AcDbEntity
  8
LAYER-033
  6
CENTER
 62
     4
100
AcDbLine
 10
-212.6079271947659
 20
207.9910949190669
 30
0.0
 11
-204.6514805153882
 21
207.9910949190669
 31
0.0
  0
LINE
  5
282
330
1F
100
AcDbEntity
  8
LAYER-033
  6
CENTER
 62
     4
100
AcDbLine
 10
-208.629703855
 20
211.9693182587558
 30
0.0
 11
-208.629703855
 21
204.0128715793781
 31
0.0
  0
LINE
  5
283
330
1F
100
AcDbEntity
  8
LAYER-033
  6
Continuous
 62
     1
100
AcDbLine
 10
-202.8797038548741
 20
212.9910949190669
 30
0.0
 11
-124.379703855077
 21
212.9910949190669
 31
0.0
  0
LINE
  5
284
330
1F
100
AcDbEntity
  8
LAYER-033
  6
Continuous
 62
     1
100
AcDbLine
 10
-202.8797038548741
 20
212.9910949190669
 30
0.0
 11
-202.8797038548741
 21
197.9910949190669
 31
0.0
  0
LINE
  5
285
330
1F
100
AcDbEntity
  8
LAYER-033
  6
Continuous
 62
     1
100
AcDbLine
 10
-124.379703855077
 20
212.9910949190669
 30
0.0
 11
-124.379703855077
 21
197.9910949190669
 31
0.0
  0
LINE
  5
286
330
1F
100
AcDbEntity
  8
LAYER-033
  6
Continuous
 62
     1
100
AcDbLine
 10
-202.8797038548741
 20
197.9910949190669
 30
0.0
 11
-124.379703855077
 21
197.9910949190669
 31
0.0
  0
LINE
  5
287
330
1F
100
AcDbEntity
  8
LAYER-033
  6
Continuous
 62
     1
100
AcDbLine
 10
-126.279703855077
 20
212.9910949190669
 30
0.0
 11
-126.279703855077
 21
197.9910949190669
 31
0.0
  0
LINE
  5
288
330
1F
100
AcDbEntity
  8
LAYER-033
  6
Continuous
 62
     1
100
AcDbLine
 10
-134.479703855077
 20
212.9910949190669
 30
0.0
 11
-134.479703855077
 21
197.9910949190669
 31
0.0
  0
LINE
  5
289
330
1F
100
AcDbEntity
  8
LAYER-033
  6
Continuous
 62
     1
100
AcDbLine
 10
-135.779703855077
 20
212.9910949190669
 30
0.0
 11
-135.779703855077
 21
197.9910949190669
 31
0.0
  0
LINE
  5
28A
330
1F
100
AcDbEntity
  8
LAYER-033
  6
Continuous
 62
     1
100
AcDbLine
 10
-143.979703855077
 20
212.9910949190669
 30
0.0
 11
-143.979703855077
 21
197.9910949190669
 31
0.0
  0
LINE
  5
28B
330
1F
100
AcDbEntity
  8
LAYER-033
  6
Continuous
 62
     1
100
AcDbLine
 10
-145.279703855077
 20
212.9910949190669
 30
0.0
 11
-145.279703855077
 21
197.9910949190669
 31
0.0
  0
LINE
  5
28C
330
1F
100
AcDbEntity
  8
LAYER-033
  6
Continuous
 62
     1
100
AcDbLine
 10
-153.479703855077
 20
212.9910949190669
 30
0.0
 11
-153.479703855077
 21
197.9910949190669
 31
0.0
  0
LINE
  5
28D
330
1F
100
AcDbEntity
  8
LAYER-033
  6
Continuous
 62
     1
100
AcDbLine
 10
-154.779703855077
 20
212.9910949190669
 30
0.0
 11
-154.779703855077
 21
197.9910949190669
 31
0.0
  0
LINE
  5
28E
330
1F
100
AcDbEntity
  8
LAYER-033
  6
Continuous
 62
     1
100
AcDbLine
 10
-164.279703855077
 20
212.9910949190669
 30
0.0
 11
-164.279703855077
 21
197.9910949190669
 31
0.0
  0
LINE
  5
28F
330
1F
100
AcDbEntity
  8
LAYER-033
  6
Continuous
 62
     1
100
AcDbLine
 10
-162.979703855077
 20
212.9910949190669
 30
0.0
 11
-162.979703855077
 21
197.9910949190669
 31
0.0
  0
LINE
  5
290
330
1F
100
AcDbEntity
  8
LAYER-033
  6
Continuous
 62
     1
100
AcDbLine
 10
-172.479703855077
 20
212.9910949190669
 30
0.0
 11
-172.479703855077
 21
197.9910949190669
 31
0.0
  0
LINE
  5
291
330
1F
100
AcDbEntity
  8
LAYER-033
  6
Continuous
 62
     1
100
AcDbLine
 10
-173.779703855077
 20
212.9910949190669
 30
0.0
 11
-173.779703855077
 21
197.9910949190669
 31
0.0
  0
LINE
  5
292
330
1F
100
AcDbEntity
  8
LAYER-033
  6
Continuous
 62
     1
100
AcDbLine
 10
-181.979703855077
 20
212.9910949190669
 30
0.0
 11
-181.979703855077
 21
197.9910949190669
 31
0.0
  0
LINE
  5
293
330
1F
100
AcDbEntity
  8
LAYER-033
  6
Continuous
 62
     1
100
AcDbLine
 10
-183.279703855077
 20
212.9910949190669
 30
0.0
 11
-183.279703855077
 21
197.9910949190669
 31
0.0
  0
LINE
  5
294
330
1F
100
AcDbEntity
  8
LAYER-033
  6
Continuous
 62
     1
100
AcDbLine
 10
-191.479703855077
 20
212.9910949190669
 30
0.0
 11
-191.479703855077
 21
197.9910949190669
 31
0.0
  0
LINE
  5
295
330
1F
100
AcDbEntity
  8
LAYER-033
  6
Continuous
 62
     1
100
AcDbLine
 10
-192.779703855077
 20
212.9910949190669
 30
0.0
 11
-192.779703855077
 21
197.9910949190669
 31
0.0
  0
LINE
  5
296
330
1F
100
AcDbEntity
  8
LAYER-033
  6
Continuous
 62
     1
100
AcDbLine
 10
-200.979703855077
 20
212.9910949190669
 30
0.0
 11
-200.979703855077
 21
197.9910949190669
 31
0.0
  0
CIRCLE
  5
297
330
1F
100
AcDbEntity
  8
LAYER-033
  6
Continuous
 62
     1
100
AcDbCircle
 10
-130.379703855077
 20
205.49109491878
 30
0.0
 40
2.779786057168341
  0
ARC
  5
298
330
1F
100
AcDbEntity
  8
LAYER-033
  6
Continuous
 62
     1
100
AcDbCircle
 10
-130.379703855077
 20
205.49109491878
 30
0.0
 40
2.051187003369524
100
AcDbArc
 50
75.89135806941579
 51
104.1086419195893
  0
ARC
  5
299
330
1F
100
AcDbEntity
  8
LAYER-033
  6
Continuous
 62
     1
100
AcDbCircle
 10
-130.379703855077
 20
205.49109491878
 30
0.0
 40
2.051187003369524
100
AcDbArc
 50
165.8913580623782
 51
194.1086419220765
  0
ARC
  5
29A
330
1F
100
AcDbEntity
  8
LAYER-033
  6
Continuous
 62
     1
100
AcDbCircle
 10
-130.379703855077
 20
205.49109491878
 30
0.0
 40
2.051187003369524
100
AcDbArc
 50
255.8913580765035
 51
284.1086419344915
  0
ARC
  5
29B
330
1F
100
AcDbEntity
  8
LAYER-033
  6
Continuous
 62
     1
100
AcDbCircle
 10
-130.379703855077
 20
205.49109491878
 30
0.0
 40
2.051187003369524
100
AcDbArc
 50
345.8913580779236
 51
14.10864193762186
  0
LINE
  5
29C
330
1F
100
AcDbEntity
  8
LAYER-033
  6
Continuous
 62
     1
100
AcDbLine
 10
-129.8797038548741
 20
206.49109491878
 30
0.0
 11
-129.8797038548741
 21
207.480408399339
 31
0.0
  0
LINE
  5
29D
330
1F
100
AcDbEntity
  8
LAYER-033
  6
Continuous
 62
     1
100
AcDbLine
 10
-129.8797038548741
 20
204.49109491878
 30
0.0
 11
-129.8797038548741
 21
203.5017814387949
 31
0.0
  0
LINE
  5
29E
330
1F
100
AcDbEntity
  8
LAYER-033
  6
Continuous
 62
     1
100
AcDbLine
 10
-129.379703855077
 20
205.9910949190669
 30
0.0
 11
-128.3903903752175
 21
205.9910949190669
 31
0.0
  0
LINE
  5
29F
330
1F
100
AcDbEntity
  8
LAYER-033
  6
Continuous
 62
     1
100
AcDbLine
 10
-130.8797038548741
 20
206.49109491878
 30
0.0
 11
-130.8797038548741
 21
207.480408399339
 31
0.0
  0
LINE
  5
2A0
330
1F
100
AcDbEntity
  8
LAYER-033
  6
Continuous
 62
     1
100
AcDbLine
 10
-130.8797038548741
 20
204.49109491878
 30
0.0
 11
-130.8797038548741
 21
203.5017814387949
 31
0.0
  0
LINE
  5
2A1
330
1F
100
AcDbEntity
  8
LAYER-033
  6
Continuous
 62
     1
100
AcDbLine
 10
-131.379703855077
 20
204.9910949190669
 30
0.0
 11
-132.3690173349365
 21
204.9910949190669
 31
0.0
  0
LINE
  5
2A2
330
1F
100
AcDbEntity
  8
LAYER-033
  6
Continuous
 62
     1
100
AcDbLine
 10
-129.379703855077
 20
204.9910949190669
 30
0.0
 11
-128.3903903752175
 21
204.9910949190669
 31
0.0
  0
LINE
  5
2A3
330
1F
100
AcDbEntity
  8
LAYER-033
  6
Continuous
 62
     1
100
AcDbLine
 10
-131.379703855077
 20
205.9910949190669
 30
0.0
 11
-132.3690173349365
 21
205.9910949190669
 31
0.0
  0
ARC
  5
2A4
330
1F
100
AcDbEntity
  8
LAYER-033
  6
Continuous
 62
     1
100
AcDbCircle
 10
-129.379703855077
 20
206.49109491878
 30
0.0
 40
0.5
100
AcDbArc
 50
180.0
 51
270.0
  0
ARC
  5
2A5
330
1F
100
AcDbEntity
  8
LAYER-033
  6
Continuous
 62
     1
100
AcDbCircle
 10
-131.379703855077
 20
206.49109491878
 30
0.0
 40
0.5
100
AcDbArc
 50
270.0
 51
0.0
  0
ARC
  5
2A6
330
1F
100
AcDbEntity
  8
LAYER-033
  6
Continuous
 62
     1
100
AcDbCircle
 10
-131.379703855077
 20
204.49109491878
 30
0.0
 40
0.5
100
AcDbArc
 50
0.0
 51
90.0
  0
ARC
  5
2A7
330
1F
100
AcDbEntity
  8
LAYER-033
  6
Continuous
 62
     1
100
AcDbCircle
 10
-129.379703855077
 20
204.49109491878
 30
0.0
 40
0.5
100
AcDbArc
 50
90.0
 51
180.0
  0
CIRCLE
  5
2A8
330
1F
100
AcDbEntity
  8
LAYER-033
  6
Continuous
 62
     1
100
AcDbCircle
 10
-139.8797038548741
 20
205.49109491878
 30
0.0
 40
2.779786057168341
  0
ARC
  5
2A9
330
1F
100
AcDbEntity
  8
LAYER-033
  6
Continuous
 62
     1
100
AcDbCircle
 10
-139.8797038548741
 20
205.49109491878
 30
0.0
 40
2.051187003369524
100
AcDbArc
 50
255.8913580655085
 51
284.1086419234965
  0
LINE
  5
2AA
330
1F
100
AcDbEntity
  8
LAYER-033
  6
Continuous
 62
     1
100
AcDbLine
 10
-139.379703855077
 20
204.49109491878
 30
0.0
 11
-139.379703855077
 21
203.5017814387949
 31
0.0
  0
ARC
  5
2AB
330
1F
100
AcDbEntity
  8
LAYER-033
  6
Continuous
 62
     1
100
AcDbCircle
 10
-138.8797038548741
 20
204.49109491878
 30
0.0
 40
0.5
100
AcDbArc
 50
90.0
 51
180.0
  0
LINE
  5
2AC
330
1F
100
AcDbEntity
  8
LAYER-033
  6
Continuous
 62
     1
100
AcDbLine
 10
-138.8797038548741
 20
204.9910949190669
 30
0.0
 11
-137.8903903753279
 21
204.9910949190669
 31
0.0
  0
ARC
  5
2AD
330
1F
100
AcDbEntity
  8
LAYER-033
  6
Continuous
 62
     1
100
AcDbCircle
 10
-139.8797038548741
 20
205.49109491878
 30
0.0
 40
2.051187003369524
100
AcDbArc
 50
345.8913580757903
 51
14.10864193975506
  0
LINE
  5
2AE
330
1F
100
AcDbEntity
  8
LAYER-033
  6
Continuous
 62
     1
100
AcDbLine
 10
-138.8797038548741
 20
205.9910949190669
 30
0.0
 11
-137.8903903753279
 21
205.9910949190669
 31
0.0
  0
ARC
  5
2AF
330
1F
100
AcDbEntity
  8
LAYER-033
  6
Continuous
 62
     1
100
AcDbCircle
 10
-138.8797038548741
 20
206.49109491878
 30
0.0
 40
0.5
100
AcDbArc
 50
180.0
 51
270.0
  0
LINE
  5
2B0
330
1F
100
AcDbEntity
  8
LAYER-033
  6
Continuous
 62
     1
100
AcDbLine
 10
-139.379703855077
 20
206.49109491878
 30
0.0
 11
-139.379703855077
 21
207.480408399339
 31
0.0
  0
ARC
  5
2B1
330
1F
100
AcDbEntity
  8
LAYER-033
  6
Continuous
 62
     1
100
AcDbCircle
 10
-139.8797038548741
 20
205.49109491878
 30
0.0
 40
2.051187003369524
100
AcDbArc
 50
75.89135808041074
 51
104.1086419305842
  0
LINE
  5
2B2
330
1F
100
AcDbEntity
  8
LAYER-033
  6
Continuous
 62
     1
100
AcDbLine
 10
-140.379703855077
 20
206.49109491878
 30
0.0
 11
-140.379703855077
 21
207.480408399339
 31
0.0
  0
ARC
  5
2B3
330
1F
100
AcDbEntity
  8
LAYER-033
  6
Continuous
 62
     1
100
AcDbCircle
 10
-140.8797038548741
 20
206.49109491878
 30
0.0
 40
0.5
100
AcDbArc
 50
270.0
 51
0.0
  0
LINE
  5
2B4
330
1F
100
AcDbEntity
  8
LAYER-033
  6
Continuous
 62
     1
100
AcDbLine
 10
-140.379703855077
 20
204.49109491878
 30
0.0
 11
-140.379703855077
 21
203.5017814387949
 31
0.0
  0
ARC
  5
2B5
330
1F
100
AcDbEntity
  8
LAYER-033
  6
Continuous
 62
     1
100
AcDbCircle
 10
-140.8797038548741
 20
204.49109491878
 30
0.0
 40
0.5
100
AcDbArc
 50
0.0
 51
90.0
  0
LINE
  5
2B6
330
1F
100
AcDbEntity
  8
LAYER-033
  6
Continuous
 62
     1
100
AcDbLine
 10
-140.8797038548741
 20
204.9910949190669
 30
0.0
 11
-141.8690173349365
 21
204.9910949190669
 31
0.0
  0
LINE
  5
2B7
330
1F
100
AcDbEntity
  8
LAYER-033
  6
Continuous
 62
     1
100
AcDbLine
 10
-140.8797038548741
 20
205.9910949190669
 30
0.0
 11
-141.8690173349365
 21
205.9910949190669
 31
0.0
  0
ARC
  5
2B8
330
1F
100
AcDbEntity
  8
LAYER-033
  6
Continuous
 62
     1
100
AcDbCircle
 10
-139.8797038548741
 20
205.49109491878
 30
0.0
 40
2.051187003369524
100
AcDbArc
 50
165.8913580637599
 51
194.1086419206947
  0
CIRCLE
  5
2B9
330
1F
100
AcDbEntity
  8
LAYER-033
  6
Continuous
 62
     1
100
AcDbCircle
 10
-149.379703855077
 20
205.49109491878
 30
0.0
 40
2.779786057168341
  0
ARC
  5
2BA
330
1F
100
AcDbEntity
  8
LAYER-033
  6
Continuous
 62
     1
100
AcDbCircle
 10
-149.379703855077
 20
205.49109491878
 30
0.0
 40
2.051187003369524
100
AcDbArc
 50
255.8913580765035
 51
284.1086419344915
  0
LINE
  5
2BB
330
1F
100
AcDbEntity
  8
LAYER-033
  6
Continuous
 62
     1
100
AcDbLine
 10
-148.8797038548741
 20
204.49109491878
 30
0.0
 11
-148.8797038548741
 21
203.5017814387949
 31
0.0
  0
ARC
  5
2BC
330
1F
100
AcDbEntity
  8
LAYER-033
  6
Continuous
 62
     1
100
AcDbCircle
 10
-148.379703855077
 20
204.49109491878
 30
0.0
 40
0.5
100
AcDbArc
 50
90.0
 51
180.0
  0
LINE
  5
2BD
330
1F
100
AcDbEntity
  8
LAYER-033
  6
Continuous
 62
     1
100
AcDbLine
 10
-148.379703855077
 20
204.9910949190669
 30
0.0
 11
-147.3903903752175
 21
204.9910949190669
 31
0.0
  0
ARC
  5
2BE
330
1F
100
AcDbEntity
  8
LAYER-033
  6
Continuous
 62
     1
100
AcDbCircle
 10
-149.379703855077
 20
205.49109491878
 30
0.0
 40
2.051187003369524
100
AcDbArc
 50
345.8913580779236
 51
14.10864193762186
  0
LINE
  5
2BF
330
1F
100
AcDbEntity
  8
LAYER-033
  6
Continuous
 62
     1
100
AcDbLine
 10
-148.379703855077
 20
205.9910949190669
 30
0.0
 11
-147.3903903752175
 21
205.9910949190669
 31
0.0
  0
ARC
  5
2C0
330
1F
100
AcDbEntity
  8
LAYER-033
  6
Continuous
 62
     1
100
AcDbCircle
 10
-148.379703855077
 20
206.49109491878
 30
0.0
 40
0.5
100
AcDbArc
 50
180.0
 51
270.0
  0
LINE
  5
2C1
330
1F
100
AcDbEntity
  8
LAYER-033
  6
Continuous
 62
     1
100
AcDbLine
 10
-148.8797038548741
 20
206.49109491878
 30
0.0
 11
-148.8797038548741
 21
207.480408399339
 31
0.0
  0
ARC
  5
2C2
330
1F
100
AcDbEntity
  8
LAYER-033
  6
Continuous
 62
     1
100
AcDbCircle
 10
-149.379703855077
 20
205.49109491878
 30
0.0
 40
2.051187003369524
100
AcDbArc
 50
75.89135806941579
 51
104.1086419195893
  0
LINE
  5
2C3
330
1F
100
AcDbEntity
  8
LAYER-033
  6
Continuous
 62
     1
100
AcDbLine
 10
-149.8797038548741
 20
206.49109491878
 30
0.0
 11
-149.8797038548741
 21
207.480408399339
 31
0.0
  0
ARC
  5
2C4
330
1F
100
AcDbEntity
  8
LAYER-033
  6
Continuous
 62
     1
100
AcDbCircle
 10
-150.379703855077
 20
206.49109491878
 30
0.0
 40
0.5
100
AcDbArc
 50
270.0
 51
0.0
  0
LINE
  5
2C5
330
1F
100
AcDbEntity
  8
LAYER-033
  6
Continuous
 62
     1
100
AcDbLine
 10
-149.8797038548741
 20
204.49109491878
 30
0.0
 11
-149.8797038548741
 21
203.5017814387949
 31
0.0
  0
ARC
  5
2C6
330
1F
100
AcDbEntity
  8
LAYER-033
  6
Continuous
 62
     1
100
AcDbCircle
 10
-150.379703855077
 20
204.49109491878
 30
0.0
 40
0.5
100
AcDbArc
 50
0.0
 51
90.0
  0
LINE
  5
2C7
330
1F
100
AcDbEntity
  8
LAYER-033
  6
Continuous
 62
     1
100
AcDbLine
 10
-150.379703855077
 20
204.9910949190669
 30
0.0
 11
-151.3690173349365
 21
204.9910949190669
 31
0.0
  0
LINE
  5
2C8
330
1F
100
AcDbEntity
  8
LAYER-033
  6
Continuous
 62
     1
100
AcDbLine
 10
-150.379703855077
 20
205.9910949190669
 30
0.0
 11
-151.3690173349365
 21
205.9910949190669
 31
0.0
  0
ARC
  5
2C9
330
1F
100
AcDbEntity
  8
LAYER-033
  6
Continuous
 62
     1
100
AcDbCircle
 10
-149.379703855077
 20
205.49109491878
 30
0.0
 40
2.051187003369524
100
AcDbArc
 50
165.8913580623782
 51
194.1086419220765
  0
CIRCLE
  5
2CA
330
1F
100
AcDbEntity
  8
LAYER-033
  6
Continuous
 62
     1
100
AcDbCircle
 10
-158.8797038548741
 20
205.49109491878
 30
0.0
 40
2.779786057168341
  0
ARC
  5
2CB
330
1F
100
AcDbEntity
  8
LAYER-033
  6
Continuous
 62
     1
100
AcDbCircle
 10
-158.8797038548741
 20
205.49109491878
 30
0.0
 40
2.051187003369524
100
AcDbArc
 50
255.8913580655085
 51
284.1086419234965
  0
LINE
  5
2CC
330
1F
100
AcDbEntity
  8
LAYER-033
  6
Continuous
 62
     1
100
AcDbLine
 10
-158.379703855077
 20
204.49109491878
 30
0.0
 11
-158.379703855077
 21
203.5017814387949
 31
0.0
  0
ARC
  5
2CD
330
1F
100
AcDbEntity
  8
LAYER-033
  6
Continuous
 62
     1
100
AcDbCircle
 10
-157.8797038548741
 20
204.49109491878
 30
0.0
 40
0.5
100
AcDbArc
 50
90.0
 51
180.0
  0
LINE
  5
2CE
330
1F
100
AcDbEntity
  8
LAYER-033
  6
Continuous
 62
     1
100
AcDbLine
 10
-157.8797038548741
 20
204.9910949190669
 30
0.0
 11
-156.8903903753279
 21
204.9910949190669
 31
0.0
  0
ARC
  5
2CF
330
1F
100
AcDbEntity
  8
LAYER-033
  6
Continuous
 62
     1
100
AcDbCircle
 10
-158.8797038548741
 20
205.49109491878
 30
0.0
 40
2.051187003369524
100
AcDbArc
 50
345.8913580757903
 51
14.10864193975506
  0
LINE
  5
2D0
330
1F
100
AcDbEntity
  8
LAYER-033
  6
Continuous
 62
     1
100
AcDbLine
 10
-157.8797038548741
 20
205.9910949190669
 30
0.0
 11
-156.8903903753279
 21
205.9910949190669
 31
0.0
  0
ARC
  5
2D1
330
1F
100
AcDbEntity
  8
LAYER-033
  6
Continuous
 62
     1
100
AcDbCircle
 10
-157.8797038548741
 20
206.49109491878
 30
0.0
 40
0.5
100
AcDbArc
 50
180.0
 51
270.0
  0
LINE
  5
2D2
330
1F
100
AcDbEntity
  8
LAYER-033
  6
Continuous
 62
     1
100
AcDbLine
 10
-158.379703855077
 20
206.49109491878
 30
0.0
 11
-158.379703855077
 21
207.480408399339
 31
0.0
  0
ARC
  5
2D3
330
1F
100
AcDbEntity
  8
LAYER-033
  6
Continuous
 62
     1
100
AcDbCircle
 10
-158.8797038548741
 20
205.49109491878
 30
0.0
 40
2.051187003369524
100
AcDbArc
 50
75.89135808041074
 51
104.1086419305842
  0
LINE
  5
2D4
330
1F
100
AcDbEntity
  8
LAYER-033
  6
Continuous
 62
     1
100
AcDbLine
 10
-159.379703855077
 20
206.49109491878
 30
0.0
 11
-159.379703855077
 21
207.480408399339
 31
0.0
  0
ARC
  5
2D5
330
1F
100
AcDbEntity
  8
LAYER-033
  6
Continuous
 62
     1
100
AcDbCircle
 10
-159.8797038548741
 20
206.49109491878
 30
0.0
 40
0.5
100
AcDbArc
 50
270.0
 51
0.0
  0
LINE
  5
2D6
330
1F
100
AcDbEntity
  8
LAYER-033
  6
Continuous
 62
     1
100
AcDbLine
 10
-159.379703855077
 20
204.49109491878
 30
0.0
 11
-159.379703855077
 21
203.5017814387949
 31
0.0
  0
ARC
  5
2D7
330
1F
100
AcDbEntity
  8
LAYER-033
  6
Continuous
 62
     1
100
AcDbCircle
 10
-159.8797038548741
 20
204.49109491878
 30
0.0
 40
0.5
100
AcDbArc
 50
0.0
 51
90.0
  0
LINE
  5
2D8
330
1F
100
AcDbEntity
  8
LAYER-033
  6
Continuous
 62
     1
100
AcDbLine
 10
-159.8797038548741
 20
204.9910949190669
 30
0.0
 11
-160.8690173349365
 21
204.9910949190669
 31
0.0
  0
LINE
  5
2D9
330
1F
100
AcDbEntity
  8
LAYER-033
  6
Continuous
 62
     1
100
AcDbLine
 10
-159.8797038548741
 20
205.9910949190669
 30
0.0
 11
-160.8690173349365
 21
205.9910949190669
 31
0.0
  0
ARC
  5
2DA
330
1F
100
AcDbEntity
  8
LAYER-033
  6
Continuous
 62
     1
100
AcDbCircle
 10
-158.8797038548741
 20
205.49109491878
 30
0.0
 40
2.051187003369524
100
AcDbArc
 50
165.8913580637599
 51
194.1086419206947
  0
CIRCLE
  5
2DB
330
1F
100
AcDbEntity
  8
LAYER-033
  6
Continuous
 62
     1
100
AcDbCircle
 10
-168.379703855077
 20
205.49109491878
 30
0.0
 40
2.779786057168341
  0
ARC
  5
2DC
330
1F
100
AcDbEntity
  8
LAYER-033
  6
Continuous
 62
     1
100
AcDbCircle
 10
-168.379703855077
 20
205.49109491878
 30
0.0
 40
2.051187003369524
100
AcDbArc
 50
255.8913580765035
 51
284.1086419344915
  0
LINE
  5
2DD
330
1F
100
AcDbEntity
  8
LAYER-033
  6
Continuous
 62
     1
100
AcDbLine
 10
-167.8797038548741
 20
204.49109491878
 30
0.0
 11
-167.8797038548741
 21
203.5017814387949
 31
0.0
  0
ARC
  5
2DE
330
1F
100
AcDbEntity
  8
LAYER-033
  6
Continuous
 62
     1
100
AcDbCircle
 10
-167.379703855077
 20
204.49109491878
 30
0.0
 40
0.5
100
AcDbArc
 50
90.0
 51
180.0
  0
LINE
  5
2DF
330
1F
100
AcDbEntity
  8
LAYER-033
  6
Continuous
 62
     1
100
AcDbLine
 10
-167.379703855077
 20
204.9910949190669
 30
0.0
 11
-166.3903903752175
 21
204.9910949190669
 31
0.0
  0
ARC
  5
2E0
330
1F
100
AcDbEntity
  8
LAYER-033
  6
Continuous
 62
     1
100
AcDbCircle
 10
-168.379703855077
 20
205.49109491878
 30
0.0
 40
2.051187003369524
100
AcDbArc
 50
345.8913580779236
 51
14.10864193762186
  0
LINE
  5
2E1
330
1F
100
AcDbEntity
  8
LAYER-033
  6
Continuous
 62
     1
100
AcDbLine
 10
-167.379703855077
 20
205.9910949190669
 30
0.0
 11
-166.3903903752175
 21
205.9910949190669
 31
0.0
  0
ARC
  5
2E2
330
1F
100
AcDbEntity
  8
LAYER-033
  6
Continuous
 62
     1
100
AcDbCircle
 10
-167.379703855077
 20
206.49109491878
 30
0.0
 40
0.5
100
AcDbArc
 50
180.0
 51
270.0
  0
LINE
  5
2E3
330
1F
100
AcDbEntity
  8
LAYER-033
  6
Continuous
 62
     1
100
AcDbLine
 10
-167.8797038548741
 20
206.49109491878
 30
0.0
 11
-167.8797038548741
 21
207.480408399339
 31
0.0
  0
ARC
  5
2E4
330
1F
100
AcDbEntity
  8
LAYER-033
  6
Continuous
 62
     1
100
AcDbCircle
 10
-168.379703855077
 20
205.49109491878
 30
0.0
 40
2.051187003369524
100
AcDbArc
 50
75.89135806941579
 51
104.1086419195893
  0
LINE
  5
2E5
330
1F
100
AcDbEntity
  8
LAYER-033
  6
Continuous
 62
     1
100
AcDbLine
 10
-168.8797038548741
 20
206.49109491878
 30
0.0
 11
-168.8797038548741
 21
207.480408399339
 31
0.0
  0
ARC
  5
2E6
330
1F
100
AcDbEntity
  8
LAYER-033
  6
Continuous
 62
     1
100
AcDbCircle
 10
-169.379703855077
 20
206.49109491878
 30
0.0
 40
0.5
100
AcDbArc
 50
270.0
 51
0.0
  0
LINE
  5
2E7
330
1F
100
AcDbEntity
  8
LAYER-033
  6
Continuous
 62
     1
100
AcDbLine
 10
-168.8797038548741
 20
204.49109491878
 30
0.0
 11
-168.8797038548741
 21
203.5017814387949
 31
0.0
  0
ARC
  5
2E8
330
1F
100
AcDbEntity
  8
LAYER-033
  6
Continuous
 62
     1
100
AcDbCircle
 10
-169.379703855077
 20
204.49109491878
 30
0.0
 40
0.5
100
AcDbArc
 50
0.0
 51
90.0
  0
LINE
  5
2E9
330
1F
100
AcDbEntity
  8
LAYER-033
  6
Continuous
 62
     1
100
AcDbLine
 10
-169.379703855077
 20
204.9910949190669
 30
0.0
 11
-170.3690173349365
 21
204.9910949190669
 31
0.0
  0
LINE
  5
2EA
330
1F
100
AcDbEntity
  8
LAYER-033
  6
Continuous
 62
     1
100
AcDbLine
 10
-169.379703855077
 20
205.9910949190669
 30
0.0
 11
-170.3690173349365
 21
205.9910949190669
 31
0.0
  0
ARC
  5
2EB
330
1F
100
AcDbEntity
  8
LAYER-033
  6
Continuous
 62
     1
100
AcDbCircle
 10
-168.379703855077
 20
205.49109491878
 30
0.0
 40
2.051187003369524
100
AcDbArc
 50
165.8913580623782
 51
194.1086419220765
  0
CIRCLE
  5
2EC
330
1F
100
AcDbEntity
  8
LAYER-033
  6
Continuous
 62
     1
100
AcDbCircle
 10
-177.8797038548741
 20
205.49109491878
 30
0.0
 40
2.779786057168341
  0
ARC
  5
2ED
330
1F
100
AcDbEntity
  8
LAYER-033
  6
Continuous
 62
     1
100
AcDbCircle
 10
-177.8797038548741
 20
205.49109491878
 30
0.0
 40
2.051187003369524
100
AcDbArc
 50
255.8913580655085
 51
284.1086419234965
  0
LINE
  5
2EE
330
1F
100
AcDbEntity
  8
LAYER-033
  6
Continuous
 62
     1
100
AcDbLine
 10
-177.379703855077
 20
204.49109491878
 30
0.0
 11
-177.379703855077
 21
203.5017814387949
 31
0.0
  0
ARC
  5
2EF
330
1F
100
AcDbEntity
  8
LAYER-033
  6
Continuous
 62
     1
100
AcDbCircle
 10
-176.8797038548741
 20
204.49109491878
 30
0.0
 40
0.5
100
AcDbArc
 50
90.0
 51
180.0
  0
LINE
  5
2F0
330
1F
100
AcDbEntity
  8
LAYER-033
  6
Continuous
 62
     1
100
AcDbLine
 10
-176.8797038548741
 20
204.9910949190669
 30
0.0
 11
-175.8903903753279
 21
204.9910949190669
 31
0.0
  0
ARC
  5
2F1
330
1F
100
AcDbEntity
  8
LAYER-033
  6
Continuous
 62
     1
100
AcDbCircle
 10
-177.8797038548741
 20
205.49109491878
 30
0.0
 40
2.051187003369524
100
AcDbArc
 50
345.8913580757903
 51
14.10864193975506
  0
LINE
  5
2F2
330
1F
100
AcDbEntity
  8
LAYER-033
  6
Continuous
 62
     1
100
AcDbLine
 10
-176.8797038548741
 20
205.9910949190669
 30
0.0
 11
-175.8903903753279
 21
205.9910949190669
 31
0.0
  0
ARC
  5
2F3
330
1F
100
AcDbEntity
  8
LAYER-033
  6
Continuous
 62
     1
100
AcDbCircle
 10
-176.8797038548741
 20
206.49109491878
 30
0.0
 40
0.5
100
AcDbArc
 50
180.0
 51
270.0
  0
LINE
  5
2F4
330
1F
100
AcDbEntity
  8
LAYER-033
  6
Continuous
 62
     1
100
AcDbLine
 10
-177.379703855077
 20
206.49109491878
 30
0.0
 11
-177.379703855077
 21
207.480408399339
 31
0.0
  0
ARC
  5
2F5
330
1F
100
AcDbEntity
  8
LAYER-033
  6
Continuous
 62
     1
100
AcDbCircle
 10
-177.8797038548741
 20
205.49109491878
 30
0.0
 40
2.051187003369524
100
AcDbArc
 50
75.89135808041074
 51
104.1086419305842
  0
LINE
  5
2F6
330
1F
100
AcDbEntity
  8
LAYER-033
  6
Continuous
 62
     1
100
AcDbLine
 10
-178.379703855077
 20
206.49109491878
 30
0.0
 11
-178.379703855077
 21
207.480408399339
 31
0.0
  0
ARC
  5
2F7
330
1F
100
AcDbEntity
  8
LAYER-033
  6
Continuous
 62
     1
100
AcDbCircle
 10
-178.8797038548741
 20
206.49109491878
 30
0.0
 40
0.5
100
AcDbArc
 50
270.0
 51
0.0
  0
LINE
  5
2F8
330
1F
100
AcDbEntity
  8
LAYER-033
  6
Continuous
 62
     1
100
AcDbLine
 10
-178.379703855077
 20
204.49109491878
 30
0.0
 11
-178.379703855077
 21
203.5017814387949
 31
0.0
  0
ARC
  5
2F9
330
1F
100
AcDbEntity
  8
LAYER-033
  6
Continuous
 62
     1
100
AcDbCircle
 10
-178.8797038548741
 20
204.49109491878
 30
0.0
 40
0.5
100
AcDbArc
 50
0.0
 51
90.0
  0
LINE
  5
2FA
330
1F
100
AcDbEntity
  8
LAYER-033
  6
Continuous
 62
     1
100
AcDbLine
 10
-178.8797038548741
 20
204.9910949190669
 30
0.0
 11
-179.8690173349365
 21
204.9910949190669
 31
0.0
  0
LINE
  5
2FB
330
1F
100
AcDbEntity
  8
LAYER-033
  6
Continuous
 62
     1
100
AcDbLine
 10
-178.8797038548741
 20
205.9910949190669
 30
0.0
 11
-179.8690173349365
 21
205.9910949190669
 31
0.0
  0
ARC
  5
2FC
330
1F
100
AcDbEntity
  8
LAYER-033
  6
Continuous
 62
     1
100
AcDbCircle
 10
-177.8797038548741
 20
205.49109491878
 30
0.0
 40
2.051187003369524
100
AcDbArc
 50
165.8913580637599
 51
194.1086419206947
  0
CIRCLE
  5
2FD
330
1F
100
AcDbEntity
  8
LAYER-033
  6
Continuous
 62
     1
100
AcDbCircle
 10
-187.379703855077
 20
205.49109491878
 30
0.0
 40
2.779786057168341
  0
ARC
  5
2FE
330
1F
100
AcDbEntity
  8
LAYER-033
  6
Continuous
 62
     1
100
AcDbCircle
 10
-187.379703855077
 20
205.49109491878
 30
0.0
 40
2.051187003369524
100
AcDbArc
 50
255.8913580765035
 51
284.1086419344915
  0
LINE
  5
2FF
330
1F
100
AcDbEntity
  8
LAYER-033
  6
Continuous
 62
     1
100
AcDbLine
 10
-186.8797038548741
 20
204.49109491878
 30
0.0
 11
-186.8797038548741
 21
203.5017814387949
 31
0.0
  0
ARC
  5
300
330
1F
100
AcDbEntity
  8
LAYER-033
  6
Continuous
 62
     1
100
AcDbCircle
 10
-186.379703855077
 20
204.49109491878
 30
0.0
 40
0.5
100
AcDbArc
 50
90.0
 51
180.0
  0
LINE
  5
301
330
1F
100
AcDbEntity
  8
LAYER-033
  6
Continuous
 62
     1
100
AcDbLine
 10
-186.379703855077
 20
204.9910949190669
 30
0.0
 11
-185.3903903752175
 21
204.9910949190669
 31
0.0
  0
ARC
  5
302
330
1F
100
AcDbEntity
  8
LAYER-033
  6
Continuous
 62
     1
100
AcDbCircle
 10
-187.379703855077
 20
205.49109491878
 30
0.0
 40
2.051187003369524
100
AcDbArc
 50
345.8913580779236
 51
14.10864193762186
  0
LINE
  5
303
330
1F
100
AcDbEntity
  8
LAYER-033
  6
Continuous
 62
     1
100
AcDbLine
 10
-186.379703855077
 20
205.9910949190669
 30
0.0
 11
-185.3903903752175
 21
205.9910949190669
 31
0.0
  0
ARC
  5
304
330
1F
100
AcDbEntity
  8
LAYER-033
  6
Continuous
 62
     1
100
AcDbCircle
 10
-186.379703855077
 20
206.49109491878
 30
0.0
 40
0.5
100
AcDbArc
 50
180.0
 51
270.0
  0
LINE
  5
305
330
1F
100
AcDbEntity
  8
LAYER-033
  6
Continuous
 62
     1
100
AcDbLine
 10
-186.8797038548741
 20
206.49109491878
 30
0.0
 11
-186.8797038548741
 21
207.480408399339
 31
0.0
  0
ARC
  5
306
330
1F
100
AcDbEntity
  8
LAYER-033
  6
Continuous
 62
     1
100
AcDbCircle
 10
-187.379703855077
 20
205.49109491878
 30
0.0
 40
2.051187003369524
100
AcDbArc
 50
75.89135806941579
 51
104.1086419195893
  0
LINE
  5
307
330
1F
100
AcDbEntity
  8
LAYER-033
  6
Continuous
 62
     1
100
AcDbLine
 10
-187.8797038548741
 20
206.49109491878
 30
0.0
 11
-187.8797038548741
 21
207.480408399339
 31
0.0
  0
ARC
  5
308
330
1F
100
AcDbEntity
  8
LAYER-033
  6
Continuous
 62
     1
100
AcDbCircle
 10
-188.379703855077
 20
206.49109491878
 30
0.0
 40
0.5
100
AcDbArc
 50
270.0
 51
0.0
  0
LINE
  5
309
330
1F
100
AcDbEntity
  8
LAYER-033
  6
Continuous
 62
     1
100
AcDbLine
 10
-187.8797038548741
 20
204.49109491878
 30
0.0
 11
-187.8797038548741
 21
203.5017814387949
 31
0.0
  0
ARC
  5
30A
330
1F
100
AcDbEntity
  8
LAYER-033
  6
Continuous
 62
     1
100
AcDbCircle
 10
-188.379703855077
 20
204.49109491878
 30
0.0
 40
0.5
100
AcDbArc
 50
0.0
 51
90.0
  0
LINE
  5
30B
330
1F
100
AcDbEntity
  8
LAYER-033
  6
Continuous
 62
     1
100
AcDbLine
 10
-188.379703855077
 20
204.9910949190669
 30
0.0
 11
-189.3690173349365
 21
204.9910949190669
 31
0.0
  0
LINE
  5
30C
330
1F
100
AcDbEntity
  8
LAYER-033
  6
Continuous
 62
     1
100
AcDbLine
 10
-188.379703855077
 20
205.9910949190669
 30
0.0
 11
-189.3690173349365
 21
205.9910949190669
 31
0.0
  0
ARC
  5
30D
330
1F
100
AcDbEntity
  8
LAYER-033
  6
Continuous
 62
     1
100
AcDbCircle
 10
-187.379703855077
 20
205.49109491878
 30
0.0
 40
2.051187003369524
100
AcDbArc
 50
165.8913580623782
 51
194.1086419220765
  0
CIRCLE
  5
30E
330
1F
100
AcDbEntity
  8
LAYER-033
  6
Continuous
 62
     1
100
AcDbCircle
 10
-196.8797038548741
 20
205.49109491878
 30
0.0
 40
2.779786057168341
  0
ARC
  5
30F
330
1F
100
AcDbEntity
  8
LAYER-033
  6
Continuous
 62
     1
100
AcDbCircle
 10
-196.8797038548741
 20
205.49109491878
 30
0.0
 40
2.051187003369524
100
AcDbArc
 50
255.8913580655085
 51
284.1086419234965
  0
LINE
  5
310
330
1F
100
AcDbEntity
  8
LAYER-033
  6
Continuous
 62
     1
100
AcDbLine
 10
-196.379703855077
 20
204.49109491878
 30
0.0
 11
-196.379703855077
 21
203.5017814387949
 31
0.0
  0
ARC
  5
311
330
1F
100
AcDbEntity
  8
LAYER-033
  6
Continuous
 62
     1
100
AcDbCircle
 10
-195.8797038548741
 20
204.49109491878
 30
0.0
 40
0.5
100
AcDbArc
 50
90.0
 51
180.0
  0
LINE
  5
312
330
1F
100
AcDbEntity
  8
LAYER-033
  6
Continuous
 62
     1
100
AcDbLine
 10
-195.8797038548741
 20
204.9910949190669
 30
0.0
 11
-194.8903903753279
 21
204.9910949190669
 31
0.0
  0
ARC
  5
313
330
1F
100
AcDbEntity
  8
LAYER-033
  6
Continuous
 62
     1
100
AcDbCircle
 10
-196.8797038548741
 20
205.49109491878
 30
0.0
 40
2.051187003369524
100
AcDbArc
 50
345.8913580757903
 51
14.10864193975506
  0
LINE
  5
314
330
1F
100
AcDbEntity
  8
LAYER-033
  6
Continuous
 62
     1
100
AcDbLine
 10
-195.8797038548741
 20
205.9910949190669
 30
0.0
 11
-194.8903903753279
 21
205.9910949190669
 31
0.0
  0
ARC
  5
315
330
1F
100
AcDbEntity
  8
LAYER-033
  6
Continuous
 62
     1
100
AcDbCircle
 10
-195.8797038548741
 20
206.49109491878
 30
0.0
 40
0.5
100
AcDbArc
 50
180.0
 51
270.0
  0
LINE
  5
316
330
1F
100
AcDbEntity
  8
LAYER-033
  6
Continuous
 62
     1
100
AcDbLine
 10
-196.379703855077
 20
206.49109491878
 30
0.0
 11
-196.379703855077
 21
207.480408399339
 31
0.0
  0
ARC
  5
317
330
1F
100
AcDbEntity
  8
LAYER-033
  6
Continuous
 62
     1
100
AcDbCircle
 10
-196.8797038548741
 20
205.49109491878
 30
0.0
 40
2.051187003369524
100
AcDbArc
 50
75.89135808041074
 51
104.1086419305842
  0
LINE
  5
318
330
1F
100
AcDbEntity
  8
LAYER-033
  6
Continuous
 62
     1
100
AcDbLine
 10
-197.379703855077
 20
206.49109491878
 30
0.0
 11
-197.379703855077
 21
207.480408399339
 31
0.0
  0
ARC
  5
319
330
1F
100
AcDbEntity
  8
LAYER-033
  6
Continuous
 62
     1
100
AcDbCircle
 10
-197.8797038548741
 20
206.49109491878
 30
0.0
 40
0.5
100
AcDbArc
 50
270.0
 51
0.0
  0
LINE
  5
31A
330
1F
100
AcDbEntity
  8
LAYER-033
  6
Continuous
 62
     1
100
AcDbLine
 10
-197.379703855077
 20
204.49109491878
 30
0.0
 11
-197.379703855077
 21
203.5017814387949
 31
0.0
  0
ARC
  5
31B
330
1F
100
AcDbEntity
  8
LAYER-033
  6
Continuous
 62
     1
100
AcDbCircle
 10
-197.8797038548741
 20
204.49109491878
 30
0.0
 40
0.5
100
AcDbArc
 50
0.0
 51
90.0
  0
LINE
  5
31C
330
1F
100
AcDbEntity
  8
LAYER-033
  6
Continuous
 62
     1
100
AcDbLine
 10
-197.8797038548741
 20
204.9910949190669
 30
0.0
 11
-198.8690173349365
 21
204.9910949190669
 31
0.0
  0
LINE
  5
31D
330
1F
100
AcDbEntity
  8
LAYER-033
  6
Continuous
 62
     1
100
AcDbLine
 10
-197.8797038548741
 20
205.9910949190669
 30
0.0
 11
-198.8690173349365
 21
205.9910949190669
 31
0.0
  0
ARC
  5
31E
330
1F
100
AcDbEntity
  8
LAYER-033
  6
Continuous
 62
     1
100
AcDbCircle
 10
-196.8797038548741
 20
205.49109491878
 30
0.0
 40
2.051187003369524
100
AcDbArc
 50
165.8913580637599
 51
194.1086419206947
  0
LINE
  5
31F
330
1F
100
AcDbEntity
  8
LAYER-005
  6
CENTER
 62
     4
100
AcDbLine
 10
-71.10124067934521
 20
221.9902949190667
 30
0.0
 11
-71.10124067934521
 21
137.3566949190668
 31
0.0
  0
LINE
  5
320
330
1F
100
AcDbEntity
  8
LAYER-005
  6
CENTER
 62
     4
100
AcDbLine
 10
-56.10124067934524
 20
201.1910949190669
 30
0.0
 11
-56.10124067934524
 21
192.7339949190669
 31
0.0
  0
LINE
  5
321
330
1F
100
AcDbEntity
  8
LAYER-005
  6
CENTER
 62
     4
100
AcDbLine
 10
-76.10124067934521
 20
200.9702949190667
 30
0.0
 11
-76.10124067934521
 21
192.8074949190669
 31
0.0
  0
LINE
  5
322
330
1F
100
AcDbEntity
  8
LAYER-005
  6
CENTER
 62
     4
100
AcDbLine
 10
-66.10124067934521
 20
200.9702949190667
 30
0.0
 11
-66.10124067934521
 21
192.8810949190667
 31
0.0
  0
LINE
  5
323
330
1F
100
AcDbEntity
  8
LAYER-005
  6
CENTER
 62
     4
100
AcDbLine
 10
-86.10124067934521
 20
201.1174949190668
 30
0.0
 11
-86.10124067934521
 21
192.8074949190669
 31
0.0
  0
CIRCLE
  5
324
330
1F
100
AcDbEntity
  8
LAYER-004
  6
Continuous
 62
     4
100
AcDbCircle
 10
-56.10124067934524
 20
196.9910949190668
 30
0.0
 40
3.0
  0
CIRCLE
  5
325
330
1F
100
AcDbEntity
  8
LAYER-004
  6
Continuous
 62
     4
100
AcDbCircle
 10
-66.10124067934521
 20
196.9910949190668
 30
0.0
 40
3.0
  0
CIRCLE
  5
326
330
1F
100
AcDbEntity
  8
LAYER-004
  6
Continuous
 62
     4
100
AcDbCircle
 10
-86.10124067934521
 20
196.9910949190668
 30
0.0
 40
3.0
  0
CIRCLE
  5
327
330
1F
100
AcDbEntity
  8
LAYER-004
  6
Continuous
 62
     4
100
AcDbCircle
 10
-76.10124067934521
 20
196.9910949190668
 30
0.0
 40
3.0
  0
LINE
  5
328
330
1F
100
AcDbEntity
  8
LAYER-003
  6
Continuous
 62
     4
100
AcDbLine
 10
-52.25124067934533
 20
205.1910949190669
 30
0.0
 11
-52.25124067934533
 21
193.4910949190668
 31
0.0
  0
LINE
  5
329
330
1F
100
AcDbEntity
  8
LAYER-003
  6
Continuous
 62
     4
100
AcDbLine
 10
-59.95124067934512
 20
193.4910949190668
 30
0.0
 11
-59.95124067934512
 21
207.1910949190668
 31
0.0
  0
LINE
  5
32A
330
1F
100
AcDbEntity
  8
LAYER-003
  6
Continuous
 62
     4
100
AcDbLine
 10
-72.2512406793453
 20
207.1910949190668
 30
0.0
 11
-72.2512406793453
 21
193.4910949190668
 31
0.0
  0
LINE
  5
32B
330
1F
100
AcDbEntity
  8
LAYER-003
  6
Continuous
 62
     4
100
AcDbLine
 10
-62.2512406793453
 20
207.1910949190668
 30
0.0
 11
-62.2512406793453
 21
193.4910949190668
 31
0.0
  0
LINE
  5
32C
330
1F
100
AcDbEntity
  8
LAYER-003
  6
Continuous
 62
     4
100
AcDbLine
 10
-69.95124067934512
 20
207.1910949190668
 30
0.0
 11
-69.95124067934512
 21
193.4910949190668
 31
0.0
  0
LINE
  5
32D
330
1F
100
AcDbEntity
  8
LAYER-003
  6
Continuous
 62
     4
100
AcDbLine
 10
-82.2512406793453
 20
207.1910949190668
 30
0.0
 11
-82.2512406793453
 21
193.4910949190668
 31
0.0
  0
LINE
  5
32E
330
1F
100
AcDbEntity
  8
LAYER-003
  6
Continuous
 62
     4
100
AcDbLine
 10
-79.95124067934512
 20
207.1910949190668
 30
0.0
 11
-79.95124067934512
 21
193.4910949190668
 31
0.0
  0
LINE
  5
32F
330
1F
100
AcDbEntity
  8
LAYER-003
  6
Continuous
 62
     4
100
AcDbLine
 10
-89.95124067934512
 20
205.1910949190669
 30
0.0
 11
-89.95124067934512
 21
193.4910949190668
 31
0.0
  0
LINE
  5
330
330
1F
100
AcDbEntity
  8
LAYER-002
  6
Continuous
 62
     1
100
AcDbLine
 10
-49.60124067934513
 20
145.791094919067
 30
0.0
 11
-49.60124067934513
 21
206.6090949190668
 31
0.0
  0
LINE
  5
331
330
1F
100
AcDbEntity
  8
LAYER-002
  6
Continuous
 62
     1
100
AcDbLine
 10
-92.60124067934513
 20
205.1910949190669
 30
0.0
 11
-92.60124067934513
 21
144.3730949190668
 31
0.0
  0
LINE
  5
332
330
1F
100
AcDbEntity
  8
LAYER-005
  6
CENTER
 62
     4
100
AcDbLine
 10
-90.97224067934519
 20
153.9910949190669
 30
0.0
 11
-50.96724067934534
 21
153.9910949190669
 31
0.0
  0
LINE
  5
333
330
1F
100
AcDbEntity
  8
LAYER-005
  6
CENTER
 62
     4
100
AcDbLine
 10
-95.38224067934522
 20
175.4910949190669
 30
0.0
 11
-46.89924067934501
 21
175.4910949190669
 31
0.0
  0
CIRCLE
  5
334
330
1F
100
AcDbEntity
  8
LAYER-004
  6
Continuous
 62
     4
100
AcDbCircle
 10
-86.10124067934521
 20
153.9910949190669
 30
0.0
 40
3.0
  0
LINE
  5
335
330
1F
100
AcDbEntity
  8
LAYER-003
  6
Continuous
 62
     4
100
AcDbLine
 10
-49.60124067934513
 20
193.4910949190668
 30
0.0
 11
-92.60124067934513
 21
193.4910949190668
 31
0.0
  0
LINE
  5
336
330
1F
100
AcDbEntity
  8
LAYER-003
  6
Continuous
 62
     4
100
AcDbLine
 10
-49.60124067934513
 20
157.4910949190669
 30
0.0
 11
-92.60124067934513
 21
157.4910949190669
 31
0.0
  0
LINE
  5
337
330
1F
100
AcDbEntity
  8
LAYER-003
  6
Continuous
 62
     4
100
AcDbLine
 10
-89.95124067934512
 20
149.2910949190669
 30
0.0
 11
-82.2512406793453
 21
149.2910949190669
 31
0.0
  0
LINE
  5
338
330
1F
100
AcDbEntity
  8
LAYER-002
  6
Continuous
 62
     1
100
AcDbLine
 10
-84.10124067934521
 20
145.4410949190667
 30
0.0
 11
-82.2512406793453
 21
145.4410949190667
 31
0.0
  0
LINE
  5
339
330
1F
100
AcDbEntity
  8
LAYER-005
  6
CENTER
 62
     4
100
AcDbLine
 10
-86.10124067934521
 20
149.8646949190668
 30
0.0
 11
-86.10124067934521
 21
158.174694919067
 31
0.0
  0
LINE
  5
33A
330
1F
100
AcDbEntity
  8
LAYER-004
  6
Continuous
 62
     4
100
AcDbLine
 10
-83.98024067900001
 20
151.8698949190669
 30
0.0
 11
-88.22224067934513
 21
156.1123949190669
 31
0.0
  0
LINE
  5
33B
330
1F
100
AcDbEntity
  8
LAYER-004
  6
Continuous
 62
     4
100
AcDbLine
 10
-87.33824067934521
 20
152.7536949190668
 30
0.0
 11
-84.86424067934536
 21
155.2284949190669
 31
0.0
  0
LINE
  5
33C
330
1F
100
AcDbEntity
  8
LAYER-003
  6
Continuous
 62
     4
100
AcDbLine
 10
-89.95124067934512
 20
145.791094919067
 30
0.0
 11
-89.95124067934512
 21
157.4910949190669
 31
0.0
  0
ARC
  5
33D
330
1F
100
AcDbEntity
  8
LAYER-003
  6
Continuous
 62
     4
100
AcDbCircle
 10
-88.60124067934515
 20
145.4910949190669
 30
0.0
 40
2.25
100
AcDbArc
 50
172.3380000010801
 51
233.1300000111728
  0
ARC
  5
33E
330
1F
100
AcDbEntity
  8
LAYER-003
  6
Continuous
 62
     4
100
AcDbCircle
 10
-88.60124067934515
 20
145.4910949190669
 30
0.0
 40
2.25
100
AcDbArc
 50
233.1300000111728
 51
126.8699999888315
  0
LINE
  5
33F
330
1F
100
AcDbEntity
  8
LAYER-003
  6
Continuous
 62
     4
100
AcDbLine
 10
-89.95124067934512
 20
145.791094919067
 30
0.0
 11
-92.60124067934513
 21
145.791094919067
 31
0.0
  0
ARC
  5
340
330
1F
100
AcDbEntity
  8
LAYER-002
  6
Continuous
 62
     1
100
AcDbCircle
 10
-88.60124067934521
 20
145.4910949190669
 30
0.0
 40
4.5
100
AcDbArc
 50
228.1900000000019
 51
359.3630000037783
  0
ARC
  5
341
330
1F
100
AcDbEntity
  8
LAYER-002
  6
Continuous
 62
     1
100
AcDbCircle
 10
-89.60124067934515
 20
144.3730949190668
 30
0.0
 40
3.0
100
AcDbArc
 50
180.0
 51
228.1899999999988
  0
CIRCLE
  5
342
330
1F
100
AcDbEntity
  8
LAYER-004
  6
Continuous
 62
     4
100
AcDbCircle
 10
-56.10124067934524
 20
153.9910949190669
 30
0.0
 40
3.0
  0
LINE
  5
343
330
1F
100
AcDbEntity
  8
LAYER-004
  6
Continuous
 62
     4
100
AcDbLine
 10
-53.97924067934528
 20
151.8698949190669
 30
0.0
 11
-58.22124067934513
 21
156.1123949190669
 31
0.0
  0
LINE
  5
344
330
1F
100
AcDbEntity
  8
LAYER-004
  6
Continuous
 62
     4
100
AcDbLine
 10
-57.33724067934534
 20
152.7536949190668
 30
0.0
 11
-54.86324067934507
 21
155.2284949190669
 31
0.0
  0
ARC
  5
345
330
1F
100
AcDbEntity
  8
LAYER-003
  6
Continuous
 62
     4
100
AcDbCircle
 10
-54.10124067934535
 20
149.4910949190669
 30
0.0
 40
2.25002
100
AcDbArc
 50
185.1000000000063
 51
325.3080000000006
  0
LINE
  5
346
330
1F
100
AcDbEntity
  8
LAYER-003
  6
Continuous
 62
     4
100
AcDbLine
 10
-52.25124067934533
 20
149.2910949190669
 30
0.0
 11
-59.95124067934512
 21
149.2910949190669
 31
0.0
  0
LINE
  5
347
330
1F
100
AcDbEntity
  8
LAYER-002
  6
Continuous
 62
     1
100
AcDbLine
 10
-58.60124067934524
 20
144.8910949190669
 30
0.0
 11
-54.10124067934535
 21
144.8910949190669
 31
0.0
  0
LINE
  5
348
330
1F
100
AcDbEntity
  8
LAYER-005
  6
CENTER
 62
     4
100
AcDbLine
 10
-66.10124067934521
 20
150.0118949190669
 30
0.0
 11
-66.10124067934521
 21
158.1010949190669
 31
0.0
  0
LINE
  5
349
330
1F
100
AcDbEntity
  8
LAYER-005
  6
CENTER
 62
     4
100
AcDbLine
 10
-76.10124067934521
 20
150.0118949190669
 30
0.0
 11
-76.10124067934521
 21
158.174694919067
 31
0.0
  0
LINE
  5
34A
330
1F
100
AcDbEntity
  8
LAYER-005
  6
CENTER
 62
     4
100
AcDbLine
 10
-56.10124067934524
 20
149.7910949190667
 30
0.0
 11
-56.10124067934524
 21
158.2481949190667
 31
0.0
  0
CIRCLE
  5
34B
330
1F
100
AcDbEntity
  8
LAYER-004
  6
Continuous
 62
     4
100
AcDbCircle
 10
-66.10124067934521
 20
153.9910949190669
 30
0.0
 40
3.0
  0
CIRCLE
  5
34C
330
1F
100
AcDbEntity
  8
LAYER-004
  6
Continuous
 62
     4
100
AcDbCircle
 10
-76.10124067934521
 20
153.9910949190669
 30
0.0
 40
3.0
  0
LINE
  5
34D
330
1F
100
AcDbEntity
  8
LAYER-004
  6
Continuous
 62
     4
100
AcDbLine
 10
-63.97924067934525
 20
151.8698949190669
 30
0.0
 11
-68.2212406793451
 21
156.1123949190669
 31
0.0
  0
LINE
  5
34E
330
1F
100
AcDbEntity
  8
LAYER-004
  6
Continuous
 62
     4
100
AcDbLine
 10
-67.33724067934531
 20
152.7536949190668
 30
0.0
 11
-64.86324067934504
 21
155.2284949190669
 31
0.0
  0
LINE
  5
34F
330
1F
100
AcDbEntity
  8
LAYER-004
  6
Continuous
 62
     4
100
AcDbLine
 10
-73.97924067934525
 20
151.8698949190669
 30
0.0
 11
-78.2212406793451
 21
156.1123949190669
 31
0.0
  0
LINE
  5
350
330
1F
100
AcDbEntity
  8
LAYER-004
  6
Continuous
 62
     4
100
AcDbLine
 10
-77.33724067934531
 20
152.7536949190668
 30
0.0
 11
-74.86324067934504
 21
155.2284949190669
 31
0.0
  0
LINE
  5
351
330
1F
100
AcDbEntity
  8
LAYER-003
  6
Continuous
 62
     4
100
AcDbLine
 10
-82.2512406793453
 20
145.4410949190667
 30
0.0
 11
-82.2512406793453
 21
157.4910949190669
 31
0.0
  0
LINE
  5
352
330
1F
100
AcDbEntity
  8
LAYER-003
  6
Continuous
 62
     4
100
AcDbLine
 10
-59.95124067934512
 20
157.4910949190669
 30
0.0
 11
-59.95124067934512
 21
143.7910949190668
 31
0.0
  0
LINE
  5
353
330
1F
100
AcDbEntity
  8
LAYER-003
  6
Continuous
 62
     4
100
AcDbLine
 10
-69.95124067934512
 20
143.7910949190668
 30
0.0
 11
-69.95124067934512
 21
157.4910949190669
 31
0.0
  0
LINE
  5
354
330
1F
100
AcDbEntity
  8
LAYER-003
  6
Continuous
 62
     4
100
AcDbLine
 10
-62.2512406793453
 20
143.7910949190668
 30
0.0
 11
-62.2512406793453
 21
157.4910949190669
 31
0.0
  0
LINE
  5
355
330
1F
100
AcDbEntity
  8
LAYER-003
  6
Continuous
 62
     4
100
AcDbLine
 10
-79.95124067934512
 20
157.4910949190669
 30
0.0
 11
-79.95124067934512
 21
143.7910949190668
 31
0.0
  0
LINE
  5
356
330
1F
100
AcDbEntity
  8
LAYER-003
  6
Continuous
 62
     4
100
AcDbLine
 10
-72.2512406793453
 20
157.4910949190669
 30
0.0
 11
-72.2512406793453
 21
143.7910949190668
 31
0.0
  0
LINE
  5
357
330
1F
100
AcDbEntity
  8
LAYER-003
  6
Continuous
 62
     4
100
AcDbLine
 10
-82.2512406793453
 20
143.7910949190668
 30
0.0
 11
-59.95124067934512
 21
143.7910949190668
 31
0.0
  0
LINE
  5
358
330
1F
100
AcDbEntity
  8
LAYER-003
  6
Continuous
 62
     4
100
AcDbLine
 10
-62.2512406793453
 20
149.2910949190669
 30
0.0
 11
-69.95124067934512
 21
149.2910949190669
 31
0.0
  0
LINE
  5
359
330
1F
100
AcDbEntity
  8
LAYER-002
  6
Continuous
 62
     1
100
AcDbLine
 10
-78.60124067934521
 20
139.9910949190669
 30
0.0
 11
-63.60124067934521
 21
139.9910949190669
 31
0.0
  0
LINE
  5
35A
330
1F
100
AcDbEntity
  8
LAYER-003
  6
Continuous
 62
     4
100
AcDbLine
 10
-79.95124067934512
 20
149.2910949190669
 30
0.0
 11
-72.2512406793453
 21
149.2910949190669
 31
0.0
  0
LINE
  5
35B
330
1F
100
AcDbEntity
  8
LAYER-002
  6
Continuous
 62
     1
100
AcDbLine
 10
-82.2512406793453
 20
142.1910949190668
 30
0.0
 11
-82.2512406793453
 21
145.4410949190667
 31
0.0
  0
LINE
  5
35C
330
1F
100
AcDbEntity
  8
LAYER-002
  6
Continuous
 62
     1
100
AcDbLine
 10
-79.60124067934515
 20
142.1910949190668
 30
0.0
 11
-82.2512406793453
 21
142.1910949190668
 31
0.0
  0
LINE
  5
35D
330
1F
100
AcDbEntity
  8
LAYER-002
  6
Continuous
 62
     1
100
AcDbLine
 10
-78.60124067934521
 20
140.791094919067
 30
0.0
 11
-78.60124067934521
 21
139.9910949190669
 31
0.0
  0
LINE
  5
35E
330
1F
100
AcDbEntity
  8
LAYER-002
  6
Continuous
 62
     1
100
AcDbLine
 10
-79.60124067934515
 20
140.791094919067
 30
0.0
 11
-78.60124067934521
 21
140.791094919067
 31
0.0
  0
LINE
  5
35F
330
1F
100
AcDbEntity
  8
LAYER-002
  6
Continuous
 62
     1
100
AcDbLine
 10
-79.60124067934515
 20
142.1910949190668
 30
0.0
 11
-79.60124067934515
 21
140.791094919067
 31
0.0
  0
LINE
  5
360
330
1F
100
AcDbEntity
  8
LAYER-002
  6
Continuous
 62
     1
100
AcDbLine
 10
-63.60124067934521
 20
140.791094919067
 30
0.0
 11
-58.60124067934524
 21
140.791094919067
 31
0.0
  0
LINE
  5
361
330
1F
100
AcDbEntity
  8
LAYER-002
  6
Continuous
 62
     1
100
AcDbLine
 10
-63.60124067934521
 20
140.791094919067
 30
0.0
 11
-63.60124067934521
 21
139.9910949190669
 31
0.0
  0
LINE
  5
362
330
1F
100
AcDbEntity
  8
LAYER-002
  6
Continuous
 62
     1
100
AcDbLine
 10
-58.60124067934524
 20
140.791094919067
 30
0.0
 11
-58.60124067934524
 21
144.8910949190669
 31
0.0
  0
LINE
  5
363
330
1F
100
AcDbEntity
  8
LAYER-003
  6
Continuous
 62
     4
100
AcDbLine
 10
-61.10124067934521
 20
170.791094919067
 30
0.0
 11
-81.10124067934521
 21
170.791094919067
 31
0.0
  0
LINE
  5
364
330
1F
100
AcDbEntity
  8
LAYER-003
  6
Continuous
 62
     4
100
AcDbLine
 10
-61.10124067934521
 20
187.9910949190669
 30
0.0
 11
-81.10124067934521
 21
187.9910949190669
 31
0.0
  0
LINE
  5
365
330
1F
100
AcDbEntity
  8
LAYER-003
  6
Continuous
 62
     4
100
AcDbLine
 10
-81.10124067934521
 20
162.9910949190669
 30
0.0
 11
-61.10124067934521
 21
162.9910949190669
 31
0.0
  0
LINE
  5
366
330
1F
100
AcDbEntity
  8
LAYER-003
  6
Continuous
 62
     4
100
AcDbLine
 10
-61.10124067934521
 20
180.1910949190669
 30
0.0
 11
-81.10124067934521
 21
180.1910949190669
 31
0.0
  0
LINE
  5
367
330
1F
100
AcDbEntity
  8
LAYER-003
  6
Continuous
 62
     4
100
AcDbLine
 10
-77.85124067934532
 20
170.791094919067
 30
0.0
 11
-77.85124067934532
 21
180.1910949190669
 31
0.0
  0
LINE
  5
368
330
1F
100
AcDbEntity
  8
LAYER-003
  6
Continuous
 62
     4
100
AcDbLine
 10
-73.35124067913537
 20
180.1910949190669
 30
0.0
 11
-73.35124067913537
 21
170.791094919067
 31
0.0
  0
LINE
  5
369
330
1F
100
AcDbEntity
  8
LAYER-003
  6
Continuous
 62
     4
100
AcDbLine
 10
-81.10124067934521
 20
187.9910949190669
 30
0.0
 11
-81.10124067934521
 21
162.9910949190669
 31
0.0
  0
LINE
  5
36A
330
1F
100
AcDbEntity
  8
LAYER-003
  6
Continuous
 62
     4
100
AcDbLine
 10
-76.10124067934521
 20
187.9910949190669
 30
0.0
 11
-76.10124067934521
 21
180.1910949190669
 31
0.0
  0
LINE
  5
36B
330
1F
100
AcDbEntity
  8
LAYER-003
  6
Continuous
 62
     4
100
AcDbLine
 10
-68.85124067934498
 20
180.1910949190669
 30
0.0
 11
-68.85124067934498
 21
170.791094919067
 31
0.0
  0
LINE
  5
36C
330
1F
100
AcDbEntity
  8
LAYER-003
  6
Continuous
 62
     4
100
AcDbLine
 10
-64.35124067913537
 20
170.791094919067
 30
0.0
 11
-64.35124067913537
 21
180.1910949190669
 31
0.0
  0
LINE
  5
36D
330
1F
100
AcDbEntity
  8
LAYER-003
  6
Continuous
 62
     4
100
AcDbLine
 10
-61.10124067934521
 20
187.9910949190669
 30
0.0
 11
-61.10124067934521
 21
162.9910949190669
 31
0.0
  0
LINE
  5
36E
330
1F
100
AcDbEntity
  8
LAYER-003
  6
Continuous
 62
     4
100
AcDbLine
 10
-66.10124067934521
 20
187.9910949190669
 30
0.0
 11
-66.10124067934521
 21
180.1910949190669
 31
0.0
  0
LINE
  5
36F
330
1F
100
AcDbEntity
  8
LAYER-003
  6
Continuous
 62
     4
100
AcDbLine
 10
-52.25124067934533
 20
145.791094919067
 30
0.0
 11
-52.25124067934533
 21
157.4910949190669
 31
0.0
  0
ARC
  5
370
330
1F
100
AcDbEntity
  8
LAYER-002
  6
Continuous
 62
     1
100
AcDbCircle
 10
-54.10124067934535
 20
149.3910949190668
 30
0.0
 40
4.5
100
AcDbArc
 50
270.0
 51
306.8700000000007
  0
LINE
  5
371
330
1F
100
AcDbEntity
  8
LAYER-003
  6
Continuous
 62
     4
100
AcDbLine
 10
-51.40124067934519
 20
145.791094919067
 30
0.0
 11
-52.25124067934533
 21
145.791094919067
 31
0.0
  0
LINE
  5
372
330
1F
100
AcDbEntity
  8
LAYER-002
  6
Continuous
 62
     1
100
AcDbLine
 10
-49.60124067934513
 20
145.791094919067
 30
0.0
 11
-51.40124067934519
 21
145.791094919067
 31
0.0
  0
LINE
  5
373
330
1F
100
AcDbEntity
  8
LAYER-005
  6
CENTER
 62
     4
100
AcDbLine
 10
-90.97224067934519
 20
196.9910949190668
 30
0.0
 11
-50.96724067934534
 21
196.9910949190668
 31
0.0
  0
LINE
  5
374
330
1F
100
AcDbEntity
  8
LAYER-003
  6
Continuous
 62
     4
100
AcDbLine
 10
-72.70124067941825
 20
209.5910949190669
 30
0.0
 11
-85.05124067934503
 21
209.5910949190669
 31
0.0
  0
LINE
  5
375
330
1F
100
AcDbEntity
  8
LAYER-003
  6
Continuous
 62
     4
100
AcDbLine
 10
-89.95124067934512
 20
201.6910949190667
 30
0.0
 11
-82.2512406793453
 21
201.6910949190667
 31
0.0
  0
LINE
  5
376
330
1F
100
AcDbEntity
  8
LAYER-003
  6
Continuous
 62
     4
100
AcDbLine
 10
-82.2512406793453
 20
206.091094919067
 30
0.0
 11
-85.05124067934503
 21
206.091094919067
 31
0.0
  0
LINE
  5
377
330
1F
100
AcDbEntity
  8
LAYER-002
  6
Continuous
 62
     1
100
AcDbLine
 10
-85.05124067934503
 20
219.0910949190668
 30
0.0
 11
-82.45124067934512
 21
219.0910949190668
 31
0.0
  0
LINE
  5
378
330
1F
100
AcDbEntity
  8
LAYER-002
  6
Continuous
 62
     1
100
AcDbLine
 10
-85.05124067934503
 20
206.091094919067
 30
0.0
 11
-85.05124067934503
 21
219.0910949190668
 31
0.0
  0
LINE
  5
379
330
1F
100
AcDbEntity
  8
LAYER-003
  6
Continuous
 62
     4
100
AcDbLine
 10
-90.8012406793452
 20
205.1910949190669
 30
0.0
 11
-89.95124067934512
 21
205.1910949190669
 31
0.0
  0
ARC
  5
37A
330
1F
100
AcDbEntity
  8
LAYER-002
  6
Continuous
 62
     1
100
AcDbCircle
 10
-88.10124067934521
 20
201.5910949190668
 30
0.0
 40
4.5
100
AcDbArc
 50
90.00019999999879
 51
126.8699999999996
  0
LINE
  5
37B
330
1F
100
AcDbEntity
  8
LAYER-002
  6
Continuous
 62
     1
100
AcDbLine
 10
-92.60124067934513
 20
205.1910949190669
 30
0.0
 11
-90.8012406793452
 21
205.1910949190669
 31
0.0
  0
LINE
  5
37C
330
1F
100
AcDbEntity
  8
LAYER-003
  6
Continuous
 62
     4
100
AcDbLine
 10
-85.05124067934503
 20
201.6910949190667
 30
0.0
 11
-85.05124067934503
 21
206.091094919067
 31
0.0
  0
LINE
  5
37D
330
1F
100
AcDbEntity
  8
LAYER-004
  6
Continuous
 62
     4
100
AcDbLine
 10
-87.33824067934521
 20
195.7536949190667
 30
0.0
 11
-84.86424067934536
 21
198.2284949190667
 31
0.0
  0
LINE
  5
37E
330
1F
100
AcDbEntity
  8
LAYER-004
  6
Continuous
 62
     4
100
AcDbLine
 10
-83.98024067900001
 20
194.8697949190667
 30
0.0
 11
-88.22224067934513
 21
199.1122949190667
 31
0.0
  0
ARC
  5
37F
330
1F
100
AcDbEntity
  8
LAYER-003
  6
Continuous
 62
     4
100
AcDbCircle
 10
-88.10124067934521
 20
201.4910949190669
 30
0.0
 40
2.25002
100
AcDbArc
 50
5.099680000001099
 51
145.3079999982439
  0
LINE
  5
380
330
1F
100
AcDbEntity
  8
LAYER-002
  6
Continuous
 62
     1
100
AcDbLine
 10
-85.05124067934503
 20
206.091094919067
 30
0.0
 11
-88.10124067934521
 21
206.091094919067
 31
0.0
  0
LINE
  5
381
330
1F
100
AcDbEntity
  8
LAYER-004
  6
Continuous
 62
     4
100
AcDbLine
 10
-57.33724067934534
 20
195.7536949190667
 30
0.0
 11
-54.86324067934507
 21
198.2284949190667
 31
0.0
  0
LINE
  5
382
330
1F
100
AcDbEntity
  8
LAYER-004
  6
Continuous
 62
     4
100
AcDbLine
 10
-53.97924067934528
 20
194.8697949190667
 30
0.0
 11
-58.22124067934513
 21
199.1122949190667
 31
0.0
  0
LINE
  5
383
330
1F
100
AcDbEntity
  8
LAYER-003
  6
Continuous
 62
     4
100
AcDbLine
 10
-52.25124067934533
 20
201.6910949190667
 30
0.0
 11
-59.95124067934512
 21
201.6910949190667
 31
0.0
  0
ARC
  5
384
330
1F
100
AcDbEntity
  8
LAYER-002
  6
Continuous
 62
     1
100
AcDbCircle
 10
-53.60124067934524
 20
205.4910949190669
 30
0.0
 40
4.5
100
AcDbArc
 50
48.18960000326332
 51
142.0820000036022
  0
LINE
  5
385
330
1F
100
AcDbEntity
  8
LAYER-003
  6
Continuous
 62
     4
100
AcDbLine
 10
-62.2512406793453
 20
201.6910949190667
 30
0.0
 11
-69.95124067934512
 21
201.6910949190667
 31
0.0
  0
LINE
  5
386
330
1F
100
AcDbEntity
  8
LAYER-003
  6
Continuous
 62
     4
100
AcDbLine
 10
-62.2512406793453
 20
206.091094919067
 30
0.0
 11
-69.95124067934512
 21
206.091094919067
 31
0.0
  0
LINE
  5
387
330
1F
100
AcDbEntity
  8
LAYER-002
  6
Continuous
 62
     1
100
AcDbLine
 10
-69.50124067934524
 20
209.5910949190669
 30
0.0
 11
-72.70124067941825
 21
209.5910949190669
 31
0.0
  0
LINE
  5
388
330
1F
100
AcDbEntity
  8
LAYER-005
  6
CENTER
 62
     4
100
AcDbLine
 10
-78.60124067934521
 20
209.8862949190668
 30
0.0
 11
-78.60124067934521
 21
217.9018949190669
 31
0.0
  0
CIRCLE
  5
389
330
1F
100
AcDbEntity
  8
LAYER-004
  6
Continuous
 62
     4
100
AcDbCircle
 10
-78.60124067934521
 20
213.9910949190669
 30
0.0
 40
3.0
  0
LINE
  5
38A
330
1F
100
AcDbEntity
  8
LAYER-004
  6
Continuous
 62
     4
100
AcDbLine
 10
-76.47924067934525
 20
211.8698949190669
 30
0.0
 11
-80.7212406793451
 21
216.1124949190669
 31
0.0
  0
LINE
  5
38B
330
1F
100
AcDbEntity
  8
LAYER-004
  6
Continuous
 62
     4
100
AcDbLine
 10
-79.83724067934531
 20
212.7536949190668
 30
0.0
 11
-77.36324067934504
 21
215.2284949190669
 31
0.0
  0
LINE
  5
38C
330
1F
100
AcDbEntity
  8
LAYER-003
  6
Continuous
 62
     4
100
AcDbLine
 10
-82.45124067934512
 20
218.0910949190669
 30
0.0
 11
-82.45124067934512
 21
209.5910949190669
 31
0.0
  0
LINE
  5
38D
330
1F
100
AcDbEntity
  8
LAYER-003
  6
Continuous
 62
     4
100
AcDbLine
 10
-74.7512406793453
 20
218.0910949190669
 30
0.0
 11
-74.7512406793453
 21
209.5910949190669
 31
0.0
  0
LINE
  5
38E
330
1F
100
AcDbEntity
  8
LAYER-002
  6
Continuous
 62
     1
100
AcDbLine
 10
-72.70124067941825
 20
209.5910949190669
 30
0.0
 11
-72.70124067941825
 21
219.9910949190668
 31
0.0
  0
LINE
  5
38F
330
1F
100
AcDbEntity
  8
LAYER-005
  6
CENTER
 62
     4
100
AcDbLine
 10
-73.83724067934509
 20
213.9910949190669
 30
0.0
 11
-83.25024067934521
 21
213.9910949190669
 31
0.0
  0
LINE
  5
390
330
1F
100
AcDbEntity
  8
LAYER-004
  6
Continuous
 62
     4
100
AcDbLine
 10
-73.97924067934525
 20
194.8697949190667
 30
0.0
 11
-78.2212406793451
 21
199.1122949190667
 31
0.0
  0
LINE
  5
391
330
1F
100
AcDbEntity
  8
LAYER-004
  6
Continuous
 62
     4
100
AcDbLine
 10
-77.33724067934531
 20
195.7536949190667
 30
0.0
 11
-74.86324067934504
 21
198.2284949190667
 31
0.0
  0
LINE
  5
392
330
1F
100
AcDbEntity
  8
LAYER-003
  6
Continuous
 62
     4
100
AcDbLine
 10
-79.95124067934512
 20
201.6910949190667
 30
0.0
 11
-72.2512406793453
 21
201.6910949190667
 31
0.0
  0
LINE
  5
393
330
1F
100
AcDbEntity
  8
LAYER-003
  6
Continuous
 62
     4
100
AcDbLine
 10
-79.95124067934512
 20
206.091094919067
 30
0.0
 11
-72.2512406793453
 21
206.091094919067
 31
0.0
  0
LINE
  5
394
330
1F
100
AcDbEntity
  8
LAYER-003
  6
Continuous
 62
     4
100
AcDbLine
 10
-79.95124067934512
 20
207.1910949190668
 30
0.0
 11
-82.2512406793453
 21
207.1910949190668
 31
0.0
  0
LINE
  5
395
330
1F
100
AcDbEntity
  8
LAYER-003
  6
Continuous
 62
     4
100
AcDbLine
 10
-69.95124067934512
 20
207.1910949190668
 30
0.0
 11
-72.2512406793453
 21
207.1910949190668
 31
0.0
  0
LINE
  5
396
330
1F
100
AcDbEntity
  8
LAYER-002
  6
Continuous
 62
     1
100
AcDbLine
 10
-82.45124067934512
 20
218.0910949190669
 30
0.0
 11
-74.7512406793453
 21
218.0910949190669
 31
0.0
  0
LINE
  5
397
330
1F
100
AcDbEntity
  8
LAYER-002
  6
Continuous
 62
     1
100
AcDbLine
 10
-82.45124067934512
 20
219.0910949190668
 30
0.0
 11
-82.45124067934512
 21
218.0910949190669
 31
0.0
  0
LINE
  5
398
330
1F
100
AcDbEntity
  8
LAYER-002
  6
Continuous
 62
     1
100
AcDbLine
 10
-74.7512406793453
 20
219.9910949190668
 30
0.0
 11
-72.70124067941825
 21
219.9910949190668
 31
0.0
  0
LINE
  5
399
330
1F
100
AcDbEntity
  8
LAYER-002
  6
Continuous
 62
     1
100
AcDbLine
 10
-74.7512406793453
 20
219.9910949190668
 30
0.0
 11
-74.7512406793453
 21
218.0910949190669
 31
0.0
  0
LINE
  5
39A
330
1F
100
AcDbEntity
  8
LAYER-005
  6
CENTER
 62
     4
100
AcDbLine
 10
-63.60124067934521
 20
209.8862949190668
 30
0.0
 11
-63.60124067934521
 21
217.9018949190669
 31
0.0
  0
CIRCLE
  5
39B
330
1F
100
AcDbEntity
  8
LAYER-004
  6
Continuous
 62
     4
100
AcDbCircle
 10
-63.60124067934521
 20
213.9910949190669
 30
0.0
 40
3.0
  0
LINE
  5
39C
330
1F
100
AcDbEntity
  8
LAYER-004
  6
Continuous
 62
     4
100
AcDbLine
 10
-61.47924067934525
 20
211.8698949190669
 30
0.0
 11
-65.7212406793451
 21
216.1124949190669
 31
0.0
  0
LINE
  5
39D
330
1F
100
AcDbEntity
  8
LAYER-004
  6
Continuous
 62
     4
100
AcDbLine
 10
-64.83724067934531
 20
212.7536949190668
 30
0.0
 11
-62.36324067934504
 21
215.2284949190669
 31
0.0
  0
LINE
  5
39E
330
1F
100
AcDbEntity
  8
LAYER-003
  6
Continuous
 62
     4
100
AcDbLine
 10
-59.7512406793453
 20
218.0910949190669
 30
0.0
 11
-59.7512406793453
 21
209.5910949190669
 31
0.0
  0
LINE
  5
39F
330
1F
100
AcDbEntity
  8
LAYER-003
  6
Continuous
 62
     4
100
AcDbLine
 10
-67.45124067934512
 20
218.0910949190669
 30
0.0
 11
-67.45124067934512
 21
209.5910949190669
 31
0.0
  0
LINE
  5
3A0
330
1F
100
AcDbEntity
  8
LAYER-002
  6
Continuous
 62
     1
100
AcDbLine
 10
-57.15124067934542
 20
208.2564949190668
 30
0.0
 11
-57.15124067934542
 21
219.0910949190668
 31
0.0
  0
LINE
  5
3A1
330
1F
100
AcDbEntity
  8
LAYER-002
  6
Continuous
 62
     1
100
AcDbLine
 10
-69.50124067934524
 20
209.5910949190669
 30
0.0
 11
-69.50124067934524
 21
219.9910949190668
 31
0.0
  0
LINE
  5
3A2
330
1F
100
AcDbEntity
  8
LAYER-005
  6
CENTER
 62
     4
100
AcDbLine
 10
-68.32124067934501
 20
213.9910949190669
 30
0.0
 11
-58.83524067934502
 21
213.9910949190669
 31
0.0
  0
LINE
  5
3A3
330
1F
100
AcDbEntity
  8
LAYER-003
  6
Continuous
 62
     4
100
AcDbLine
 10
-57.15124067934542
 20
209.5910949190669
 30
0.0
 11
-69.50124067934524
 21
209.5910949190669
 31
0.0
  0
LINE
  5
3A4
330
1F
100
AcDbEntity
  8
LAYER-004
  6
Continuous
 62
     4
100
AcDbLine
 10
-63.97924067934525
 20
194.8697949190667
 30
0.0
 11
-68.2212406793451
 21
199.1122949190667
 31
0.0
  0
LINE
  5
3A5
330
1F
100
AcDbEntity
  8
LAYER-004
  6
Continuous
 62
     4
100
AcDbLine
 10
-67.33724067934531
 20
195.7536949190667
 30
0.0
 11
-64.86324067934504
 21
198.2284949190667
 31
0.0
  0
LINE
  5
3A6
330
1F
100
AcDbEntity
  8
LAYER-003
  6
Continuous
 62
     4
100
AcDbLine
 10
-57.15124067934542
 20
201.6910949190667
 30
0.0
 11
-57.15124067934542
 21
208.2564949190668
 31
0.0
  0
LINE
  5
3A7
330
1F
100
AcDbEntity
  8
LAYER-003
  6
Continuous
 62
     4
100
AcDbLine
 10
-59.95124067934512
 20
206.091094919067
 30
0.0
 11
-57.15124067934542
 21
206.091094919067
 31
0.0
  0
LINE
  5
3A8
330
1F
100
AcDbEntity
  8
LAYER-003
  6
Continuous
 62
     4
100
AcDbLine
 10
-62.2512406793453
 20
207.1910949190668
 30
0.0
 11
-59.95124067934512
 21
207.1910949190668
 31
0.0
  0
LINE
  5
3A9
330
1F
100
AcDbEntity
  8
LAYER-002
  6
Continuous
 62
     1
100
AcDbLine
 10
-59.7512406793453
 20
218.0910949190669
 30
0.0
 11
-67.45124067934512
 21
218.0910949190669
 31
0.0
  0
LINE
  5
3AA
330
1F
100
AcDbEntity
  8
LAYER-002
  6
Continuous
 62
     1
100
AcDbLine
 10
-67.45124067934512
 20
219.9910949190668
 30
0.0
 11
-69.50124067934524
 21
219.9910949190668
 31
0.0
  0
LINE
  5
3AB
330
1F
100
AcDbEntity
  8
LAYER-002
  6
Continuous
 62
     1
100
AcDbLine
 10
-67.45124067934512
 20
219.9910949190668
 30
0.0
 11
-67.45124067934512
 21
218.0910949190669
 31
0.0
  0
LINE
  5
3AC
330
1F
100
AcDbEntity
  8
LAYER-002
  6
Continuous
 62
     1
100
AcDbLine
 10
-57.15124067934542
 20
219.0910949190668
 30
0.0
 11
-59.7512406793453
 21
219.0910949190668
 31
0.0
  0
LINE
  5
3AD
330
1F
100
AcDbEntity
  8
LAYER-002
  6
Continuous
 62
     1
100
AcDbLine
 10
-59.7512406793453
 20
219.0910949190668
 30
0.0
 11
-59.7512406793453
 21
218.0910949190669
 31
0.0
  0
ARC
  5
3AE
330
1F
100
AcDbEntity
  8
LAYER-003
  6
Continuous
 62
     4
100
AcDbCircle
 10
-53.60124067934524
 20
205.4910949190669
 30
0.0
 40
2.25
100
AcDbArc
 50
352.3379999999943
 51
306.8700000000007
  0
LINE
  5
3AF
330
1F
100
AcDbEntity
  8
LAYER-003
  6
Continuous
 62
     4
100
AcDbLine
 10
-52.25124067934533
 20
205.1910949190669
 30
0.0
 11
-49.60124067934513
 21
205.1910949190669
 31
0.0
  0
ARC
  5
3B0
330
1F
100
AcDbEntity
  8
LAYER-002
  6
Continuous
 62
     1
100
AcDbCircle
 10
-52.60124067934513
 20
206.6090949190668
 30
0.0
 40
3.0
100
AcDbArc
 50
0.0
 51
48.18969999999852
  0
LINE
  5
3B1
330
1F
100
AcDbEntity
  8
LAYER-033
  6
Continuous
 62
     1
100
AcDbLine
 10
188.8301836275613
 20
245.2426573426573
 30
0.0
 11
198.8301836275613
 21
245.2426573426573
 31
0.0
  0
LINE
  5
3B2
330
1F
100
AcDbEntity
  8
LAYER-033
  6
Continuous
 62
     1
100
AcDbLine
 10
188.8301836275613
 20
-134.7573426573427
 30
0.0
 11
198.8301836275613
 21
-134.7573426573427
 31
0.0
  0
LINE
  5
3B3
330
1F
100
AcDbEntity
  8
LAYER-033
  6
Continuous
 62
     1
100
AcDbLine
 10
198.8301836275613
 20
245.2426573426573
 30
0.0
 11
198.8301836275613
 21
-134.7573426573427
 31
0.0
  0
LINE
  5
3B4
330
1F
100
AcDbEntity
  8
LAYER-033
  6
Continuous
 62
     1
100
AcDbLine
 10
188.8301836275613
 20
245.2426573426573
 30
0.0
 11
188.8301836275613
 21
-134.7573426573427
 31
0.0
  0
LINE
  5
3B5
330
1F
100
AcDbEntity
  8
LAYER-033
  6
HIDDEN
 62
     4
100
AcDbLine
 10
-25.20777177368083
 20
242.9426573426573
 30
0.0
 11
-25.20777177368083
 21
-132.4573426573427
 31
0.0
  0
LINE
  5
3B6
330
1F
100
AcDbEntity
  8
LAYER-033
  6
HIDDEN
 62
     4
100
AcDbLine
 10
-220.6077717736808
 20
242.9426573426573
 30
0.0
 11
-25.20777177368083
 21
242.9426573426573
 31
0.0
  0
LINE
  5
3B7
330
1F
100
AcDbEntity
  8
LAYER-033
  6
HIDDEN
 62
     4
100
AcDbLine
 10
-220.6077717736808
 20
242.9426573426573
 30
0.0
 11
-220.6077717736808
 21
-132.4573426573427
 31
0.0
  0
LINE
  5
3B8
330
1F
100
AcDbEntity
  8
LAYER-033
  6
HIDDEN
 62
     4
100
AcDbLine
 10
-220.6077717736808
 20
-132.4573426573427
 30
0.0
 11
-25.20777177368083
 21
-132.4573426573427
 31
0.0
  0
LINE
  5
3B9
330
1F
100
AcDbEntity
  8
LAYER-033
  6
HIDDEN
 62
     4
100
AcDbLine
 10
191.1301836275613
 20
242.9426573426573
 30
0.0
 11
198.8301836275613
 21
242.9426573426573
 31
0.0
  0
LINE
  5
3BA
330
1F
100
AcDbEntity
  8
LAYER-033
  6
HIDDEN
 62
     4
100
AcDbLine
 10
191.1301836275613
 20
242.9426573426573
 30
0.0
 11
191.1301836275613
 21
-132.4573426573427
 31
0.0
  0
LINE
  5
3BB
330
1F
100
AcDbEntity
  8
LAYER-033
  6
HIDDEN
 62
     4
100
AcDbLine
 10
191.1301836275613
 20
-132.4573426573427
 30
0.0
 11
198.8301836275613
 21
-132.4573426573427
 31
0.0
  0
ARC
  5
3BC
330
1F
100
AcDbEntity
  8
LAYER-008
  6
Continuous
 62
     4
100
AcDbCircle
 10
153.3801836275614
 20
160.5660949190672
 30
0.0
 40
2.0
100
AcDbArc
 50
270.0
 51
89.9998000000043
  0
ARC
  5
3BD
330
1F
100
AcDbEntity
  8
LAYER-008
  6
Continuous
 62
     4
100
AcDbCircle
 10
153.3801836275614
 20
190.416094919067
 30
0.0
 40
2.0
100
AcDbArc
 50
270.0
 51
89.9998000000043
  0
LINE
  5
3BE
330
1F
100
AcDbEntity
  8
LAYER-008
  6
Continuous
 62
     4
100
AcDbLine
 10
180.3301836275613
 20
156.4910949190672
 30
0.0
 11
154.8301836275613
 21
156.4910949190672
 31
0.0
  0
LINE
  5
3BF
330
1F
100
AcDbEntity
  8
LAYER-008
  6
Continuous
 62
     4
100
AcDbLine
 10
180.3301836275612
 20
194.4910949190669
 30
0.0
 11
154.8301836275613
 21
194.4910949190669
 31
0.0
  0
LINE
  5
3C0
330
1F
100
AcDbEntity
  8
LAYER-007
  6
Continuous
 62
     1
100
AcDbLine
 10
158.8801836275613
 20
140.791094919067
 30
0.0
 11
141.3801836275612
 21
140.791094919067
 31
0.0
  0
LINE
  5
3C1
330
1F
100
AcDbEntity
  8
LAYER-007
  6
Continuous
 62
     1
100
AcDbLine
 10
160.3301836275613
 20
217.891094919067
 30
0.0
 11
155.1301836275612
 21
217.891094919067
 31
0.0
  0
LINE
  5
3C2
330
1F
100
AcDbEntity
  8
LAYER-007
  6
Continuous
 62
     1
100
AcDbLine
 10
188.8301836275613
 20
209.9910949190671
 30
0.0
 11
188.8301836275613
 21
190.691094919067
 31
0.0
  0
LINE
  5
3C3
330
1F
100
AcDbEntity
  8
LAYER-008
  6
Continuous
 62
     4
100
AcDbLine
 10
157.3801836275612
 20
162.1410949190671
 30
0.0
 11
183.8301836275613
 21
162.1410949190671
 31
0.0
  0
LINE
  5
3C4
330
1F
100
AcDbEntity
  8
LAYER-008
  6
Continuous
 62
     4
100
AcDbLine
 10
157.3801836275612
 20
159.6410949190671
 30
0.0
 11
183.8301836275613
 21
159.6410949190671
 31
0.0
  0
LINE
  5
3C5
330
1F
100
AcDbEntity
  8
LAYER-008
  6
Continuous
 62
     4
100
AcDbLine
 10
157.3801836275612
 20
191.341094919067
 30
0.0
 11
183.8301836275613
 21
191.341094919067
 31
0.0
  0
LINE
  5
3C6
330
1F
100
AcDbEntity
  8
LAYER-008
  6
Continuous
 62
     4
100
AcDbLine
 10
157.3801836275612
 20
188.841094919067
 30
0.0
 11
183.8301836275613
 21
188.841094919067
 31
0.0
  0
LINE
  5
3C7
330
1F
100
AcDbEntity
  8
LAYER-007
  6
Continuous
 62
     1
100
AcDbLine
 10
180.3301836275613
 20
139.9910949190671
 30
0.0
 11
188.8301836275613
 21
139.9910949190671
 31
0.0
  0
LINE
  5
3C8
330
1F
100
AcDbEntity
  8
LAYER-007
  6
Continuous
 62
     1
100
AcDbLine
 10
188.8301836275613
 20
139.9910949190671
 30
0.0
 11
188.8301836275613
 21
157.791094919067
 31
0.0
  0
LINE
  5
3C9
330
1F
100
AcDbEntity
  8
LAYER-007
  6
Continuous
 62
     1
100
AcDbLine
 10
183.8301836275613
 20
157.7910949190671
 30
0.0
 11
183.8301836275613
 21
193.191094919067
 31
0.0
  0
LINE
  5
3CA
330
1F
100
AcDbEntity
  8
LAYER-006
  6
Continuous
 62
     4
100
AcDbLine
 10
188.8301836275613
 20
177.9910949190671
 30
0.0
 11
188.8301836275613
 21
172.9910949190671
 31
0.0
  0
LINE
  5
3CB
330
1F
100
AcDbEntity
  8
LAYER-009
  6
Continuous
 62
     2
100
AcDbLine
 10
183.8301836275613
 20
157.9910949190671
 30
0.0
 11
183.8301836275613
 21
163.9910949190671
 31
0.0
  0
LINE
  5
3CC
330
1F
100
AcDbEntity
  8
LAYER-007
  6
Continuous
 62
     1
100
AcDbLine
 10
185.8301836275613
 20
159.491094919067
 30
0.0
 11
188.8301826275613
 21
157.791094919067
 31
0.0
  0
LINE
  5
3CD
330
1F
100
AcDbEntity
  8
LAYER-007
  6
Continuous
 62
     1
100
AcDbLine
 10
184.8301836275613
 20
157.7910949190671
 30
0.0
 11
183.8301836275613
 21
157.7910949190671
 31
0.0
  0
LINE
  5
3CE
330
1F
100
AcDbEntity
  8
LAYER-007
  6
Continuous
 62
     1
100
AcDbLine
 10
184.8301836275613
 20
157.7910949190671
 30
0.0
 11
184.8301836275613
 21
159.491094919067
 31
0.0
  0
LINE
  5
3CF
330
1F
100
AcDbEntity
  8
LAYER-007
  6
Continuous
 62
     1
100
AcDbLine
 10
185.8301836275613
 20
159.491094919067
 30
0.0
 11
184.8301836275613
 21
159.491094919067
 31
0.0
  0
LINE
  5
3D0
330
1F
100
AcDbEntity
  8
LAYER-006
  6
Continuous
 62
     4
100
AcDbLine
 10
191.3301836275613
 20
175.4910949190669
 30
0.0
 11
186.3301836275613
 21
175.4910949190669
 31
0.0
  0
LINE
  5
3D1
330
1F
100
AcDbEntity
  8
LAYER-007
  6
Continuous
 62
     1
100
AcDbLine
 10
188.8301836275613
 20
190.691094919067
 30
0.0
 11
185.5807436275614
 21
190.691094919067
 31
0.0
  0
LINE
  5
3D2
330
1F
100
AcDbEntity
  8
LAYER-009
  6
Continuous
 62
     2
100
AcDbLine
 10
183.8301836275613
 20
192.9910949190671
 30
0.0
 11
183.8301836275613
 21
186.9910949190671
 31
0.0
  0
LINE
  5
3D3
330
1F
100
AcDbEntity
  8
LAYER-007
  6
Continuous
 62
     1
100
AcDbLine
 10
184.8301836275613
 20
191.9910949190671
 30
0.0
 11
184.8301836275613
 21
193.191094919067
 31
0.0
  0
LINE
  5
3D4
330
1F
100
AcDbEntity
  8
LAYER-007
  6
Continuous
 62
     1
100
AcDbLine
 10
184.8301836275613
 20
191.9910949190671
 30
0.0
 11
185.5807436275614
 21
190.691094919067
 31
0.0
  0
LINE
  5
3D5
330
1F
100
AcDbEntity
  8
LAYER-007
  6
Continuous
 62
     1
100
AcDbLine
 10
183.8301836275613
 20
193.191094919067
 30
0.0
 11
184.8301836275613
 21
193.191094919067
 31
0.0
  0
LINE
  5
3D6
330
1F
100
AcDbEntity
  8
LAYER-008
  6
Continuous
 62
     4
100
AcDbLine
 10
180.3301836275613
 20
145.441094919067
 30
0.0
 11
180.3301836275613
 21
156.4910949190672
 31
0.0
  0
LINE
  5
3D7
330
1F
100
AcDbEntity
  8
LAYER-007
  6
Continuous
 62
     1
100
AcDbLine
 10
180.3301836275613
 20
145.441094919067
 30
0.0
 11
158.8801836275613
 21
145.441094919067
 31
0.0
  0
LINE
  5
3D8
330
1F
100
AcDbEntity
  8
LAYER-007
  6
Continuous
 62
     1
100
AcDbLine
 10
180.3301836275613
 20
139.9910949190671
 30
0.0
 11
180.3301836275613
 21
145.441094919067
 31
0.0
  0
LINE
  5
3D9
330
1F
100
AcDbEntity
  8
LAYER-007
  6
Continuous
 62
     1
100
AcDbLine
 10
158.8801836275613
 20
145.441094919067
 30
0.0
 11
158.8801836275613
 21
140.791094919067
 31
0.0
  0
LINE
  5
3DA
330
1F
100
AcDbEntity
  8
LAYER-008
  6
Continuous
 62
     4
100
AcDbLine
 10
157.3801836275612
 20
162.1410949190671
 30
0.0
 11
157.3801836275612
 21
159.6410949190671
 31
0.0
  0
LINE
  5
3DB
330
1F
100
AcDbEntity
  8
LAYER-008
  6
Continuous
 62
     4
100
AcDbLine
 10
157.3801836275612
 20
188.841094919067
 30
0.0
 11
157.3801836275612
 21
191.341094919067
 31
0.0
  0
LINE
  5
3DC
330
1F
100
AcDbEntity
  8
LAYER-007
  6
Continuous
 62
     1
100
AcDbLine
 10
188.8301836275613
 20
209.9910949190671
 30
0.0
 11
180.3301836275613
 21
209.9910949190671
 31
0.0
  0
LINE
  5
3DD
330
1F
100
AcDbEntity
  8
LAYER-007
  6
Continuous
 62
     1
100
AcDbLine
 10
160.3301836275613
 20
206.091094919067
 30
0.0
 11
180.3301836275613
 21
206.091094919067
 31
0.0
  0
LINE
  5
3DE
330
1F
100
AcDbEntity
  8
LAYER-008
  6
Continuous
 62
     4
100
AcDbLine
 10
180.3301836275613
 20
206.091094919067
 30
0.0
 11
180.3301836275613
 21
194.4910949190669
 31
0.0
  0
LINE
  5
3DF
330
1F
100
AcDbEntity
  8
LAYER-007
  6
Continuous
 62
     1
100
AcDbLine
 10
180.3301836275613
 20
209.9910949190671
 30
0.0
 11
180.3301836275613
 21
206.091094919067
 31
0.0
  0
LINE
  5
3E0
330
1F
100
AcDbEntity
  8
LAYER-007
  6
Continuous
 62
     1
100
AcDbLine
 10
160.3301836275613
 20
217.891094919067
 30
0.0
 11
160.3301836275613
 21
206.091094919067
 31
0.0
  0
LINE
  5
3E1
330
1F
100
AcDbEntity
  8
LAYER-009
  6
HIDDEN
 62
     4
100
AcDbLine
 10
128.8301836275613
 20
200.1910949190669
 30
0.0
 11
128.8301836275613
 21
192.0655949190671
 31
0.0
  0
LINE
  5
3E2
330
1F
100
AcDbEntity
  8
LAYER-009
  6
HIDDEN
 62
     4
100
AcDbLine
 10
127.8301836275613
 20
200.1910949190669
 30
0.0
 11
127.8301836275613
 21
192.1372949190671
 31
0.0
  0
LINE
  5
3E3
330
1F
100
AcDbEntity
  8
LAYER-007
  6
Continuous
 62
     1
100
AcDbLine
 10
116.3801836275612
 20
203.191094919067
 30
0.0
 11
116.3801836275612
 21
193.4910949190669
 31
0.0
  0
LINE
  5
3E4
330
1F
100
AcDbEntity
  8
LAYER-008
  6
Continuous
 62
     4
100
AcDbLine
 10
117.5347836275614
 20
145.791094919067
 30
0.0
 11
136.0801836275612
 21
145.791094919067
 31
0.0
  0
LINE
  5
3E5
330
1F
100
AcDbEntity
  8
LAYER-007
  6
Continuous
 62
     1
100
AcDbLine
 10
139.7801836275613
 20
143.7910949190671
 30
0.0
 11
119.8441836275613
 21
143.7910949190671
 31
0.0
  0
LINE
  5
3E6
330
1F
100
AcDbEntity
  8
LAYER-008
  6
Continuous
 62
     4
100
AcDbLine
 10
154.8301836275613
 20
156.4910949190672
 30
0.0
 11
154.8301836275613
 21
151.4910949190672
 31
0.0
  0
LINE
  5
3E7
330
1F
100
AcDbEntity
  8
LAYER-008
  6
Continuous
 62
     4
100
AcDbLine
 10
154.8301836275613
 20
151.4910949190672
 30
0.0
 11
138.5801836275612
 21
151.4910949190672
 31
0.0
  0
ARC
  5
3E8
330
1F
100
AcDbEntity
  8
LAYER-007
  6
Continuous
 62
     1
100
AcDbCircle
 10
140.5801836275614
 20
142.9910949190671
 30
0.0
 40
0.8000000000000002
100
AcDbArc
 50
179.9204959927482
 51
270.0
  0
LINE
  5
3E9
330
1F
100
AcDbEntity
  8
LAYER-007
  6
Continuous
 62
     1
100
AcDbLine
 10
141.3801836275612
 20
142.1910949190671
 30
0.0
 11
140.5801836275614
 21
142.1910949190671
 31
0.0
  0
LINE
  5
3EA
330
1F
100
AcDbEntity
  8
LAYER-007
  6
Continuous
 62
     1
100
AcDbLine
 10
141.3801836275612
 20
142.1910949190671
 30
0.0
 11
141.3801836275612
 21
140.791094919067
 31
0.0
  0
ARC
  5
3EB
330
1F
100
AcDbEntity
  8
LAYER-008
  6
Continuous
 62
     4
100
AcDbCircle
 10
136.0801836275612
 20
148.291094919067
 30
0.0
 40
2.5
100
AcDbArc
 50
270.0
 51
0.0
  0
LINE
  5
3EC
330
1F
100
AcDbEntity
  8
LAYER-008
  6
Continuous
 62
     4
100
AcDbLine
 10
138.5801836275612
 20
151.4910949190672
 30
0.0
 11
138.5801836275612
 21
148.291094919067
 31
0.0
  0
LINE
  5
3ED
330
1F
100
AcDbEntity
  8
LAYER-007
  6
Continuous
 62
     1
100
AcDbLine
 10
139.7801836275613
 20
142.9910949190671
 30
0.0
 11
139.7801836275613
 21
143.791094919067
 31
0.0
  0
LINE
  5
3EE
330
1F
100
AcDbEntity
  8
LAYER-008
  6
Continuous
 62
     4
100
AcDbLine
 10
148.8801836275613
 20
177.9910949190671
 30
0.0
 11
134.0801836275613
 21
177.9910949190671
 31
0.0
  0
LINE
  5
3EF
330
1F
100
AcDbEntity
  8
LAYER-008
  6
Continuous
 62
     4
100
AcDbLine
 10
148.8801836275613
 20
172.9910949190671
 30
0.0
 11
134.0801836275613
 21
172.9910949190671
 31
0.0
  0
LINE
  5
3F0
330
1F
100
AcDbEntity
  8
LAYER-008
  6
Continuous
 62
     4
100
AcDbLine
 10
148.8801836275613
 20
172.9910949190671
 30
0.0
 11
148.8801836275613
 21
177.9910949190671
 31
0.0
  0
LINE
  5
3F1
330
1F
100
AcDbEntity
  8
LAYER-008
  6
Continuous
 62
     4
100
AcDbLine
 10
153.3801836275614
 20
158.566094919067
 30
0.0
 11
151.3801836275612
 21
158.566094919067
 31
0.0
  0
LINE
  5
3F2
330
1F
100
AcDbEntity
  8
LAYER-008
  6
Continuous
 62
     4
100
AcDbLine
 10
153.3801836275614
 20
162.566094919067
 30
0.0
 11
151.3801836275612
 21
162.566094919067
 31
0.0
  0
LINE
  5
3F3
330
1F
100
AcDbEntity
  8
LAYER-008
  6
Continuous
 62
     4
100
AcDbLine
 10
151.3801836275612
 20
158.566094919067
 30
0.0
 11
151.3801836275612
 21
162.566094919067
 31
0.0
  0
LINE
  5
3F4
330
1F
100
AcDbEntity
  8
LAYER-008
  6
Continuous
 62
     4
100
AcDbLine
 10
153.3801836275614
 20
192.4160949190672
 30
0.0
 11
151.3801836275612
 21
192.4160949190672
 31
0.0
  0
LINE
  5
3F5
330
1F
100
AcDbEntity
  8
LAYER-008
  6
Continuous
 62
     4
100
AcDbLine
 10
153.3801836275614
 20
188.4160949190671
 30
0.0
 11
151.3801836275612
 21
188.4160949190671
 31
0.0
  0
LINE
  5
3F6
330
1F
100
AcDbEntity
  8
LAYER-008
  6
Continuous
 62
     4
100
AcDbLine
 10
151.3801836275612
 20
192.4160949190672
 30
0.0
 11
151.3801836275612
 21
188.4160949190671
 31
0.0
  0
LINE
  5
3F7
330
1F
100
AcDbEntity
  8
LAYER-008
  6
Continuous
 62
     4
100
AcDbLine
 10
134.0801836275613
 20
172.9910949190671
 30
0.0
 11
134.0801836275613
 21
177.9910949190671
 31
0.0
  0
LINE
  5
3F8
330
1F
100
AcDbEntity
  8
LAYER-007
  6
Continuous
 62
     1
100
AcDbLine
 10
116.3801836275612
 20
157.4910949190671
 30
0.0
 11
116.3801836275612
 21
147.7910949190671
 31
0.0
  0
LINE
  5
3F9
330
1F
100
AcDbEntity
  8
LAYER-007
  6
Continuous
 62
     1
100
AcDbLine
 10
118.1121836275614
 20
144.791094919067
 30
0.0
 11
116.3801836275612
 21
147.7910949190671
 31
0.0
  0
ARC
  5
3FA
330
1F
100
AcDbEntity
  8
LAYER-007
  6
Continuous
 62
     1
100
AcDbCircle
 10
119.8441836275613
 20
145.791094919067
 30
0.0
 40
2.0
100
AcDbArc
 50
209.9999999999975
 51
270.0
  0
LINE
  5
3FB
330
1F
100
AcDbEntity
  8
LAYER-008
  6
Continuous
 62
     4
100
AcDbLine
 10
114.4801836275613
 20
180.1910949190669
 30
0.0
 11
108.8301836275613
 21
180.1910949190669
 31
0.0
  0
LINE
  5
3FC
330
1F
100
AcDbEntity
  8
LAYER-008
  6
Continuous
 62
     4
100
AcDbLine
 10
114.4801836275613
 20
170.791094919067
 30
0.0
 11
108.8301836275613
 21
170.791094919067
 31
0.0
  0
LINE
  5
3FD
330
1F
100
AcDbEntity
  8
LAYER-007
  6
Continuous
 62
     1
100
AcDbLine
 10
108.8301836275613
 20
187.9910949190671
 30
0.0
 11
114.4801836275613
 21
187.9910949190671
 31
0.0
  0
LINE
  5
3FE
330
1F
100
AcDbEntity
  8
LAYER-007
  6
Continuous
 62
     1
100
AcDbLine
 10
114.4801836275613
 20
162.9910949190671
 30
0.0
 11
108.8301836275613
 21
162.9910949190671
 31
0.0
  0
LINE
  5
3FF
330
1F
100
AcDbEntity
  8
LAYER-008
  6
Continuous
 62
     4
100
AcDbLine
 10
114.4801836275613
 20
162.9910949190671
 30
0.0
 11
114.4801836275613
 21
187.9910949190671
 31
0.0
  0
LINE
  5
400
330
1F
100
AcDbEntity
  8
LAYER-007
  6
Continuous
 62
     1
100
AcDbLine
 10
114.4801836275613
 20
159.9910949190671
 30
0.0
 11
115.9235836275612
 21
157.4910949190671
 31
0.0
  0
LINE
  5
401
330
1F
100
AcDbEntity
  8
LAYER-007
  6
Continuous
 62
     1
100
AcDbLine
 10
114.4801836275613
 20
159.9910949190671
 30
0.0
 11
114.4801836275613
 21
162.9910949190671
 31
0.0
  0
LINE
  5
402
330
1F
100
AcDbEntity
  8
LAYER-007
  6
Continuous
 62
     1
100
AcDbLine
 10
115.9235836275612
 20
157.4910949190671
 30
0.0
 11
116.3801836275612
 21
157.4910949190671
 31
0.0
  0
LINE
  5
403
330
1F
100
AcDbEntity
  8
LAYER-007
  6
Continuous
 62
     1
100
AcDbLine
 10
114.4801836275613
 20
187.9910949190671
 30
0.0
 11
114.4801836275613
 21
190.9910949190671
 31
0.0
  0
LINE
  5
404
330
1F
100
AcDbEntity
  8
LAYER-007
  6
Continuous
 62
     1
100
AcDbLine
 10
114.4801836275613
 20
190.9910949190671
 30
0.0
 11
115.9235836275612
 21
193.4910949190669
 31
0.0
  0
LINE
  5
405
330
1F
100
AcDbEntity
  8
LAYER-007
  6
Continuous
 62
     1
100
AcDbLine
 10
116.3801836275612
 20
193.4910949190669
 30
0.0
 11
115.9235836275612
 21
193.4910949190669
 31
0.0
  0
LINE
  5
406
330
1F
100
AcDbEntity
  8
LAYER-007
  6
Continuous
 62
     1
100
AcDbLine
 10
108.8301836275613
 20
162.9910949190671
 30
0.0
 11
108.8301836275613
 21
187.9910949190671
 31
0.0
  0
LINE
  5
407
330
1F
100
AcDbEntity
  8
LAYER-010
  6
CENTER
 62
     4
100
AcDbLine
 10
132.2999836275613
 20
196.9910949190671
 30
0.0
 11
124.6211836275614
 21
196.9910949190671
 31
0.0
  0
ARC
  5
408
330
1F
100
AcDbEntity
  8
LAYER-009
  6
HIDDEN
 62
     4
100
AcDbCircle
 10
129.3301836275614
 20
200.1910949190669
 30
0.0
 40
1.5
100
AcDbArc
 50
89.99980000000159
 51
180.0
  0
LINE
  5
409
330
1F
100
AcDbEntity
  8
LAYER-008
  6
Continuous
 62
     4
100
AcDbLine
 10
117.5347836275614
 20
205.1910949190669
 30
0.0
 11
136.0801836275612
 21
205.1910949190669
 31
0.0
  0
LINE
  5
40A
330
1F
100
AcDbEntity
  8
LAYER-007
  6
Continuous
 62
     1
100
AcDbLine
 10
135.6801836275613
 20
207.1910949190671
 30
0.0
 11
119.8441836275613
 21
207.1910949190671
 31
0.0
  0
LINE
  5
40B
330
1F
100
AcDbEntity
  8
LAYER-008
  6
Continuous
 62
     4
100
AcDbLine
 10
154.8301836275613
 20
199.4910949190669
 30
0.0
 11
138.5801836275612
 21
199.4910949190669
 31
0.0
  0
LINE
  5
40C
330
1F
100
AcDbEntity
  8
LAYER-007
  6
Continuous
 62
     1
100
AcDbLine
 10
155.1301836275612
 20
219.9910949190671
 30
0.0
 11
138.0801836275614
 21
219.9910949190671
 31
0.0
  0
LINE
  5
40D
330
1F
100
AcDbEntity
  8
LAYER-009
  6
HIDDEN
 62
     4
100
AcDbLine
 10
151.2905836275612
 20
217.8468949190669
 30
0.0
 11
150.2975836273567
 21
209.405094919067
 31
0.0
  0
LINE
  5
40E
330
1F
100
AcDbEntity
  8
LAYER-009
  6
HIDDEN
 62
     4
100
AcDbLine
 10
149.3245836275613
 20
209.6940949190671
 30
0.0
 11
150.2975836273567
 21
217.9636949190671
 31
0.0
  0
LINE
  5
40F
330
1F
100
AcDbEntity
  8
LAYER-010
  6
CENTER
 62
     4
100
AcDbLine
 10
153.2953836275612
 20
213.5834949190671
 30
0.0
 11
146.8019836275612
 21
214.3474949190671
 31
0.0
  0
LINE
  5
410
330
1F
100
AcDbEntity
  8
LAYER-008
  6
Continuous
 62
     4
100
AcDbLine
 10
154.8301836275613
 20
194.4910949190669
 30
0.0
 11
154.8301836275613
 21
199.4910949190669
 31
0.0
  0
LINE
  5
411
330
1F
100
AcDbEntity
  8
LAYER-007
  6
Continuous
 62
     1
100
AcDbLine
 10
155.1301836275612
 20
219.9910949190671
 30
0.0
 11
155.1301836275612
 21
217.891094919067
 31
0.0
  0
LINE
  5
412
330
1F
100
AcDbEntity
  8
LAYER-009
  6
HIDDEN
 62
     4
100
AcDbLine
 10
151.2905836275612
 20
217.8468949190669
 30
0.0
 11
150.2975836273567
 21
217.9636949190671
 31
0.0
  0
LINE
  5
413
330
1F
100
AcDbEntity
  8
LAYER-007
  6
Continuous
 62
     1
100
AcDbLine
 10
138.0801836275614
 20
219.9910949190671
 30
0.0
 11
138.0801836275614
 21
209.5910949190672
 31
0.0
  0
ARC
  5
414
330
1F
100
AcDbEntity
  8
LAYER-008
  6
Continuous
 62
     4
100
AcDbCircle
 10
136.0801836275612
 20
202.6910949190669
 30
0.0
 40
2.5
100
AcDbArc
 50
0.0
 51
89.99979999999941
  0
LINE
  5
415
330
1F
100
AcDbEntity
  8
LAYER-008
  6
Continuous
 62
     4
100
AcDbLine
 10
138.5801836275612
 20
202.6910949190669
 30
0.0
 11
138.5801836275612
 21
199.4910949190669
 31
0.0
  0
LINE
  5
416
330
1F
100
AcDbEntity
  8
LAYER-007
  6
Continuous
 62
     1
100
AcDbLine
 10
138.0801836275614
 20
209.5910949190672
 30
0.0
 11
135.6801836275613
 21
207.1910949190671
 31
0.0
  0
LINE
  5
417
330
1F
100
AcDbEntity
  8
LAYER-009
  6
HIDDEN
 62
     4
100
AcDbLine
 10
131.8301836275614
 20
201.691094919067
 30
0.0
 11
129.3301836275614
 21
201.691094919067
 31
0.0
  0
LINE
  5
418
330
1F
100
AcDbEntity
  8
LAYER-009
  6
HIDDEN
 62
     4
100
AcDbLine
 10
131.8301836275614
 20
200.691094919067
 30
0.0
 11
129.3301836275614
 21
200.691094919067
 31
0.0
  0
LINE
  5
419
330
1F
100
AcDbEntity
  8
LAYER-009
  6
HIDDEN
 62
     4
100
AcDbLine
 10
131.8301836275614
 20
201.691094919067
 30
0.0
 11
131.8301836275614
 21
200.691094919067
 31
0.0
  0
ARC
  5
41A
330
1F
100
AcDbEntity
  8
LAYER-009
  6
HIDDEN
 62
     4
100
AcDbCircle
 10
129.3301836275614
 20
200.1910949190669
 30
0.0
 40
0.5
100
AcDbArc
 50
89.99980000001244
 51
180.0
  0
LINE
  5
41B
330
1F
100
AcDbEntity
  8
LAYER-007
  6
Continuous
 62
     1
100
AcDbLine
 10
118.1121836275614
 20
206.1910949190672
 30
0.0
 11
116.3801836275612
 21
203.191094919067
 31
0.0
  0
ARC
  5
41C
330
1F
100
AcDbEntity
  8
LAYER-007
  6
Continuous
 62
     1
100
AcDbCircle
 10
119.8441836275613
 20
205.1910949190669
 30
0.0
 40
2.0
100
AcDbArc
 50
89.99980000000267
 51
149.9998999999975
  0
LINE
  5
41D
330
1F
100
AcDbEntity
  8
LAYER-010
  6
CENTER
 62
     4
100
AcDbLine
 10
201.7465836275613
 20
175.4910949190669
 30
0.0
 11
103.6485512739009
 21
175.4910949190669
 31
0.0
  0
LINE
  5
41E
330
1F
100
AcDbEntity
  8
LAYER-006
  6
Continuous
 62
     4
100
AcDbLine
 10
-182.3522239135985
 20
95.24265919450943
 30
0.0
 11
-187.9077756625699
 21
89.68710003875077
 31
0.0
  0
LINE
  5
41F
330
1F
100
AcDbEntity
  8
LAYER-006
  6
Continuous
 62
     4
100
AcDbLine
 10
-158.2781489890593
 20
95.24265919450943
 30
0.0
 11
-163.8337007380308
 21
89.68710003813095
 31
0.0
  0
LINE
  5
420
330
1F
100
AcDbEntity
  8
LAYER-006
  6
Continuous
 62
     4
100
AcDbLine
 10
-134.2040740645204
 20
95.24265919450943
 30
0.0
 11
-139.7596258134917
 21
89.68710003813095
 31
0.0
  0
LINE
  5
421
330
1F
100
AcDbEntity
  8
LAYER-006
  6
Continuous
 62
     4
100
AcDbLine
 10
-110.1299991399813
 20
95.24265919450943
 30
0.0
 11
-115.6855508889526
 21
89.68710003813095
 31
0.0
  0
LINE
  5
422
330
1F
100
AcDbEntity
  8
LAYER-006
  6
Continuous
 62
     4
100
AcDbLine
 10
-86.05592421518989
 20
95.24265919450943
 30
0.0
 11
-91.61147596416132
 21
89.68710003813095
 31
0.0
  0
LINE
  5
423
330
1F
100
AcDbEntity
  8
LAYER-006
  6
Continuous
 62
     4
100
AcDbLine
 10
-61.9818492908274
 20
95.24265919450943
 30
0.0
 11
-67.53740103979888
 21
89.68710003813095
 31
0.0
  0
LINE
  5
424
330
1F
100
AcDbEntity
  8
LAYER-006
  6
Continuous
 62
     4
100
AcDbLine
 10
-185.6855497777962
 20
94.50191476318327
 30
0.0
 11
-187.5374015953546
 21
92.65006294622447
 31
0.0
  0
LINE
  5
425
330
1F
100
AcDbEntity
  8
LAYER-006
  6
Continuous
 62
     4
100
AcDbLine
 10
-180.5003720960404
 20
94.50191476318327
 30
0.0
 11
-185.3151831176809
 21
89.68710003875077
 31
0.0
  0
LINE
  5
426
330
1F
100
AcDbEntity
  8
LAYER-006
  6
Continuous
 62
     4
100
AcDbLine
 10
-161.6114748532571
 20
94.50191476318327
 30
0.0
 11
-163.4633266708155
 21
92.65006294622447
 31
0.0
  0
LINE
  5
427
330
1F
100
AcDbEntity
  8
LAYER-006
  6
Continuous
 62
     4
100
AcDbLine
 10
-156.4262971715012
 20
94.50191476318327
 30
0.0
 11
-161.2411081936959
 21
89.68710003813095
 31
0.0
  0
LINE
  5
428
330
1F
100
AcDbEntity
  8
LAYER-006
  6
Continuous
 62
     4
100
AcDbLine
 10
-137.537399928718
 20
94.50191476378262
 30
0.0
 11
-139.3892517462766
 21
92.65006294622447
 31
0.0
  0
LINE
  5
429
330
1F
100
AcDbEntity
  8
LAYER-006
  6
Continuous
 62
     4
100
AcDbLine
 10
-132.3522222469622
 20
94.50191476378262
 30
0.0
 11
-137.1670332689102
 21
89.68710003813095
 31
0.0
  0
LINE
  5
42A
330
1F
100
AcDbEntity
  8
LAYER-006
  6
Continuous
 62
     4
100
AcDbLine
 10
-113.463325004046
 20
94.50191476378262
 30
0.0
 11
-115.3151768217373
 21
92.65006294622447
 31
0.0
  0
LINE
  5
42B
330
1F
100
AcDbEntity
  8
LAYER-006
  6
Continuous
 62
     4
100
AcDbLine
 10
-108.2781473224229
 20
94.50191476378262
 30
0.0
 11
-113.0929583443709
 21
89.68710003813095
 31
0.0
  0
LINE
  5
42C
330
1F
100
AcDbEntity
  8
LAYER-006
  6
Continuous
 62
     4
100
AcDbLine
 10
-89.38925007921992
 20
94.50191476318327
 30
0.0
 11
-91.24110189662585
 21
92.65006294622447
 31
0.0
  0
LINE
  5
42D
330
1F
100
AcDbEntity
  8
LAYER-006
  6
Continuous
 62
     4
100
AcDbLine
 10
-84.20407239763168
 20
94.50191476318327
 30
0.0
 11
-89.01888341957968
 21
89.68710003813095
 31
0.0
  0
LINE
  5
42E
330
1F
100
AcDbEntity
  8
LAYER-006
  6
Continuous
 62
     4
100
AcDbLine
 10
-60.12999747326924
 20
94.50191476378262
 30
0.0
 11
-64.94480849521719
 21
89.68710003813095
 31
0.0
  0
LINE
  5
42F
330
1F
100
AcDbEntity
  8
LAYER-006
  6
Continuous
 62
     4
100
AcDbLine
 10
-179.01888693829
 20
93.39080737695127
 30
0.0
 11
-182.7225905734066
 21
89.68710003875077
 31
0.0
  0
LINE
  5
430
330
1F
100
AcDbEntity
  8
LAYER-006
  6
Continuous
 62
     4
100
AcDbLine
 10
-154.9448120137508
 20
93.39080737695127
 30
0.0
 11
-158.6485156488676
 21
89.68710003813095
 31
0.0
  0
LINE
  5
431
330
1F
100
AcDbEntity
  8
LAYER-006
  6
Continuous
 62
     4
100
AcDbLine
 10
-130.8707370892119
 20
93.39080737695127
 30
0.0
 11
-134.5744407243286
 21
89.68710003813095
 31
0.0
  0
LINE
  5
432
330
1F
100
AcDbEntity
  8
LAYER-006
  6
Continuous
 62
     4
100
AcDbLine
 10
-106.7966621646726
 20
93.39080737695127
 30
0.0
 11
-110.5003658
 21
89.68710003813095
 31
0.0
  0
LINE
  5
433
330
1F
100
AcDbEntity
  8
LAYER-006
  6
Continuous
 62
     4
100
AcDbLine
 10
-82.72258723988139
 20
93.39080737695127
 30
0.0
 11
-86.42629087499805
 21
89.68710003813095
 31
0.0
  0
LINE
  5
434
330
1F
100
AcDbEntity
  8
LAYER-006
  6
Continuous
 62
     4
100
AcDbLine
 10
-58.64851231551896
 20
93.39080737695127
 30
0.0
 11
-62.3522159511098
 21
89.68710003813095
 31
0.0
  0
LINE
  5
435
330
1F
100
AcDbEntity
  8
LAYER-006
  6
Continuous
 62
     4
100
AcDbLine
 10
-177.907775847755
 20
91.90932592290466
 30
0.0
 11
-180.1299943251213
 21
89.68710003875077
 31
0.0
  0
LINE
  5
436
330
1F
100
AcDbEntity
  8
LAYER-006
  6
Continuous
 62
     4
100
AcDbLine
 10
-153.8337009232158
 20
91.90932592290466
 30
0.0
 11
-156.0559194005822
 21
89.68710003813095
 31
0.0
  0
LINE
  5
437
330
1F
100
AcDbEntity
  8
LAYER-006
  6
Continuous
 62
     4
100
AcDbLine
 10
-129.7596259986769
 20
91.90932592290466
 30
0.0
 11
-131.981844476788
 21
89.68710003813095
 31
0.0
  0
LINE
  5
438
330
1F
100
AcDbEntity
  8
LAYER-006
  6
Continuous
 62
     4
100
AcDbLine
 10
-105.6855510741376
 20
91.90932592290466
 30
0.0
 11
-107.9077695515985
 21
89.68710003813095
 31
0.0
  0
LINE
  5
439
330
1F
100
AcDbEntity
  8
LAYER-006
  6
Continuous
 62
     4
100
AcDbLine
 10
-81.61147614934637
 20
91.90932592290466
 30
0.0
 11
-83.83369462671269
 21
89.68710003813095
 31
0.0
  0
LINE
  5
43A
330
1F
100
AcDbEntity
  8
LAYER-006
  6
Continuous
 62
     4
100
AcDbLine
 10
-57.53740122498388
 20
91.90932592290466
 30
0.0
 11
-59.75961970235025
 21
89.68710003813095
 31
0.0
  0
LINE
  5
43B
330
1F
100
AcDbEntity
  8
LAYER-006
  6
Continuous
 62
     4
100
AcDbLine
 10
-177.5374054842434
 20
90.05747410499893
 30
0.0
 11
-182.7225905734066
 21
95.24265919450943
 31
0.0
  0
LINE
  5
43C
330
1F
100
AcDbEntity
  8
LAYER-006
  6
Continuous
 62
     4
100
AcDbLine
 10
-153.4633305597043
 20
90.05747410499893
 30
0.0
 11
-158.6485156488676
 21
95.24265919450943
 31
0.0
  0
LINE
  5
43D
330
1F
100
AcDbEntity
  8
LAYER-006
  6
Continuous
 62
     4
100
AcDbLine
 10
-129.3892556351653
 20
90.05747410499893
 30
0.0
 11
-134.5744407243286
 21
95.24265919450943
 31
0.0
  0
LINE
  5
43E
330
1F
100
AcDbEntity
  8
LAYER-006
  6
Continuous
 62
     4
100
AcDbLine
 10
-105.3151807104383
 20
90.05747410499893
 30
0.0
 11
-110.5003658
 21
95.24265919450943
 31
0.0
  0
LINE
  5
43F
330
1F
100
AcDbEntity
  8
LAYER-006
  6
Continuous
 62
     4
100
AcDbLine
 10
-81.24110578621995
 20
90.05747410499893
 30
0.0
 11
-86.42629087499805
 21
95.24265919450943
 31
0.0
  0
LINE
  5
440
330
1F
100
AcDbEntity
  8
LAYER-006
  6
Continuous
 62
     4
100
AcDbLine
 10
-57.16703086147234
 20
90.05747410499893
 30
0.0
 11
-62.3522159511098
 21
95.24265919450943
 31
0.0
  0
LINE
  5
441
330
1F
100
AcDbEntity
  8
LAYER-006
  6
Continuous
 62
     4
100
AcDbLine
 10
-187.5374015953546
 20
89.68710003875077
 30
0.0
 11
-188.6485163895931
 21
90.79821112866597
 31
0.0
  0
LINE
  5
442
330
1F
100
AcDbEntity
  8
LAYER-006
  6
Continuous
 62
     4
100
AcDbLine
 10
-184.9448127544764
 20
89.68710003875077
 30
0.0
 11
-187.9077756625699
 21
92.2796962864162
 31
0.0
  0
ARC
  5
443
330
1F
100
AcDbEntity
  8
LAYER-006
  6
Continuous
 62
     1
100
AcDbCircle
 10
-183.0929609369183
 20
89.68710003875077
 30
0.0
 40
5.555555452674906
100
AcDbArc
 50
0.0233389936079991
 51
179.9893830065737
  0
LINE
  5
444
330
1F
100
AcDbEntity
  8
LAYER-006
  6
Continuous
 62
     4
100
AcDbLine
 10
-182.3522239135985
 20
89.68710003875077
 30
0.0
 11
-186.7966645720349
 21
93.76117774046281
 31
0.0
  0
LINE
  5
445
330
1F
100
AcDbEntity
  8
LAYER-006
  6
Continuous
 62
     4
100
AcDbLine
 10
-179.7596276653134
 20
89.68710003875077
 30
0.0
 11
-184.9448127544764
 21
94.87228512748868
 31
0.0
  0
LINE
  5
446
330
1F
100
AcDbEntity
  8
LAYER-006
  6
Continuous
 62
     1
100
AcDbLine
 10
-177.5374054842434
 20
89.68710003875077
 30
0.0
 11
-188.6485163895931
 21
89.68710003875077
 31
0.0
  0
LINE
  5
447
330
1F
100
AcDbEntity
  8
LAYER-006
  6
Continuous
 62
     4
100
AcDbLine
 10
-163.4633266708155
 20
89.68710003813095
 30
0.0
 11
-164.5744414650539
 21
90.79821112843146
 31
0.0
  0
LINE
  5
448
330
1F
100
AcDbEntity
  8
LAYER-006
  6
Continuous
 62
     4
100
AcDbLine
 10
-160.8707378299373
 20
89.68710003813095
 30
0.0
 11
-163.8337007380308
 21
92.2796962864162
 31
0.0
  0
ARC
  5
449
330
1F
100
AcDbEntity
  8
LAYER-006
  6
Continuous
 62
     1
100
AcDbCircle
 10
-159.0188860123792
 20
89.68710003813095
 30
0.0
 40
5.555555452674906
100
AcDbArc
 50
0.023339000003527
 51
179.989382999999
  0
LINE
  5
44A
330
1F
100
AcDbEntity
  8
LAYER-006
  6
Continuous
 62
     4
100
AcDbLine
 10
-158.2781489890593
 20
89.68710003813095
 30
0.0
 11
-162.7225896474958
 21
93.76117774046281
 31
0.0
  0
LINE
  5
44B
330
1F
100
AcDbEntity
  8
LAYER-006
  6
Continuous
 62
     4
100
AcDbLine
 10
-155.6855527413058
 20
89.68710003813095
 30
0.0
 11
-160.8707378299373
 21
94.87228512748868
 31
0.0
  0
LINE
  5
44C
330
1F
100
AcDbEntity
  8
LAYER-006
  6
Continuous
 62
     1
100
AcDbLine
 10
-153.4633305597043
 20
89.68710003813095
 30
0.0
 11
-164.5744414650539
 21
89.68710003813095
 31
0.0
  0
LINE
  5
44D
330
1F
100
AcDbEntity
  8
LAYER-006
  6
Continuous
 62
     4
100
AcDbLine
 10
-139.3892517462766
 20
89.68710003813095
 30
0.0
 11
-140.5003665405151
 21
90.79821112843146
 31
0.0
  0
LINE
  5
44E
330
1F
100
AcDbEntity
  8
LAYER-006
  6
Continuous
 62
     4
100
AcDbLine
 10
-136.7966629053983
 20
89.68710003813095
 30
0.0
 11
-139.7596258134917
 21
92.2796962864162
 31
0.0
  0
ARC
  5
44F
330
1F
100
AcDbEntity
  8
LAYER-006
  6
Continuous
 62
     1
100
AcDbCircle
 10
-134.9448110878401
 20
89.68710003813095
 30
0.0
 40
5.555555452674906
100
AcDbArc
 50
0.0233390000035273
 51
179.9893829999979
  0
LINE
  5
450
330
1F
100
AcDbEntity
  8
LAYER-006
  6
Continuous
 62
     4
100
AcDbLine
 10
-134.2040740645204
 20
89.68710003813095
 30
0.0
 11
-138.6485147229567
 21
93.76117774046281
 31
0.0
  0
LINE
  5
451
330
1F
100
AcDbEntity
  8
LAYER-006
  6
Continuous
 62
     4
100
AcDbLine
 10
-131.6114778162352
 20
89.68710003813095
 30
0.0
 11
-136.7966629053983
 21
94.87228512748868
 31
0.0
  0
LINE
  5
452
330
1F
100
AcDbEntity
  8
LAYER-006
  6
Continuous
 62
     1
100
AcDbLine
 10
-129.3892556351653
 20
89.68710003813095
 30
0.0
 11
-140.5003665405151
 21
89.68710003813095
 31
0.0
  0
LINE
  5
453
330
1F
100
AcDbEntity
  8
LAYER-006
  6
Continuous
 62
     4
100
AcDbLine
 10
-115.3151768217373
 20
89.68710003813095
 30
0.0
 11
-116.4262916159757
 21
90.79821112843146
 31
0.0
  0
LINE
  5
454
330
1F
100
AcDbEntity
  8
LAYER-006
  6
Continuous
 62
     4
100
AcDbLine
 10
-112.7225879808591
 20
89.68710003813095
 30
0.0
 11
-115.6855508889526
 21
92.2796962864162
 31
0.0
  0
ARC
  5
455
330
1F
100
AcDbEntity
  8
LAYER-006
  6
Continuous
 62
     1
100
AcDbCircle
 10
-110.8707361631098
 20
89.68710003813095
 30
0.0
 40
5.555555452674906
100
AcDbArc
 50
0.023339000001161
 51
179.9893829999994
  0
LINE
  5
456
330
1F
100
AcDbEntity
  8
LAYER-006
  6
Continuous
 62
     4
100
AcDbLine
 10
-110.1299991399813
 20
89.68710003813095
 30
0.0
 11
-114.5744397984176
 21
93.76117774046281
 31
0.0
  0
LINE
  5
457
330
1F
100
AcDbEntity
  8
LAYER-006
  6
Continuous
 62
     4
100
AcDbLine
 10
-107.5374028916961
 20
89.68710003813095
 30
0.0
 11
-112.7225879808591
 21
94.87228512748868
 31
0.0
  0
LINE
  5
458
330
1F
100
AcDbEntity
  8
LAYER-006
  6
Continuous
 62
     1
100
AcDbLine
 10
-105.3151807104383
 20
89.68710003813095
 30
0.0
 11
-116.4262916159757
 21
89.68710003813095
 31
0.0
  0
LINE
  5
459
330
1F
100
AcDbEntity
  8
LAYER-006
  6
Continuous
 62
     4
100
AcDbLine
 10
-91.24110189662585
 20
89.68710003813095
 30
0.0
 11
-92.35221669118445
 21
90.79821112843146
 31
0.0
  0
LINE
  5
45A
330
1F
100
AcDbEntity
  8
LAYER-006
  6
Continuous
 62
     4
100
AcDbLine
 10
-88.64851305606786
 20
89.68710003813095
 30
0.0
 11
-91.61147596416132
 21
92.2796962864162
 31
0.0
  0
ARC
  5
45B
330
1F
100
AcDbEntity
  8
LAYER-006
  6
Continuous
 62
     1
100
AcDbCircle
 10
-86.79666123876197
 20
89.68710003813095
 30
0.0
 40
5.555555452674906
100
AcDbArc
 50
0.0233390000014301
 51
179.9893830001808
  0
LINE
  5
45C
330
1F
100
AcDbEntity
  8
LAYER-006
  6
Continuous
 62
     4
100
AcDbLine
 10
-86.05592421518989
 20
89.68710003813095
 30
0.0
 11
-90.50036487362641
 21
93.76117774046281
 31
0.0
  0
LINE
  5
45D
330
1F
100
AcDbEntity
  8
LAYER-006
  6
Continuous
 62
     4
100
AcDbLine
 10
-83.46332796690481
 20
89.68710003813095
 30
0.0
 11
-88.64851305606786
 21
94.87228512748868
 31
0.0
  0
LINE
  5
45E
330
1F
100
AcDbEntity
  8
LAYER-006
  6
Continuous
 62
     1
100
AcDbLine
 10
-81.24110578621995
 20
89.68710003813095
 30
0.0
 11
-92.35221669118445
 21
89.68710003813095
 31
0.0
  0
LINE
  5
45F
330
1F
100
AcDbEntity
  8
LAYER-006
  6
Continuous
 62
     4
100
AcDbLine
 10
-67.16702697258356
 20
89.68710003813095
 30
0.0
 11
-68.27814176682202
 21
90.79821112866597
 31
0.0
  0
LINE
  5
460
330
1F
100
AcDbEntity
  8
LAYER-006
  6
Continuous
 62
     4
100
AcDbLine
 10
-64.57443813170536
 20
89.68710003813095
 30
0.0
 11
-67.53740103979888
 21
92.2796962864162
 31
0.0
  0
ARC
  5
461
330
1F
100
AcDbEntity
  8
LAYER-006
  6
Continuous
 62
     1
100
AcDbCircle
 10
-62.72258631422287
 20
89.68710003813095
 30
0.0
 40
5.555555452674906
100
AcDbArc
 50
0.023339000003209
 51
179.9893829999989
  0
LINE
  5
462
330
1F
100
AcDbEntity
  8
LAYER-006
  6
Continuous
 62
     4
100
AcDbLine
 10
-61.9818492908274
 20
89.68710003813095
 30
0.0
 11
-66.4262899492638
 21
93.76117774046281
 31
0.0
  0
LINE
  5
463
330
1F
100
AcDbEntity
  8
LAYER-006
  6
Continuous
 62
     4
100
AcDbLine
 10
-59.38925304282915
 20
89.68710003813095
 30
0.0
 11
-64.57443813170536
 21
94.87228512748868
 31
0.0
  0
LINE
  5
464
330
1F
100
AcDbEntity
  8
LAYER-006
  6
Continuous
 62
     1
100
AcDbLine
 10
-57.16703086147234
 20
89.68710003813095
 30
0.0
 11
-68.27814176682202
 21
89.68710003813095
 31
0.0
  0
LINE
  5
465
330
1F
100
AcDbEntity
  8
LAYER-007
  6
CENTER
 62
     4
100
AcDbLine
 10
-122.9077717736808
 20
88.9463630148112
 30
0.0
 11
-122.9077717736808
 21
13.76117551824063
 31
0.0
  0
LINE
  5
466
330
1F
100
AcDbEntity
  8
LAYER-006
  6
Continuous
 62
     1
100
AcDbLine
 10
-197.9077717736808
 20
82.27969276789753
 30
0.0
 11
-188.6485126858894
 21
82.27969276789753
 31
0.0
  0
LINE
  5
467
330
1F
100
AcDbEntity
  8
LAYER-006
  6
Continuous
 62
     1
100
AcDbLine
 10
-197.9077717736808
 20
82.27969276789759
 30
0.0
 11
-188.6485126858894
 21
82.27969276789753
 31
0.0
  0
LINE
  5
468
330
1F
100
AcDbEntity
  8
LAYER-006
  6
Continuous
 62
     1
100
AcDbLine
 10
-192.9220171651552
 20
82.27969276789759
 30
0.0
 11
-188.6485126858894
 21
82.27969276789753
 31
0.0
  0
LINE
  5
469
330
1F
100
AcDbEntity
  8
LAYER-006
  6
Continuous
 62
     1
100
AcDbLine
 10
-177.5374054842434
 20
82.27969276789759
 30
0.0
 11
-164.5744414650539
 21
82.27969276789759
 31
0.0
  0
LINE
  5
46A
330
1F
100
AcDbEntity
  8
LAYER-006
  6
Continuous
 62
     1
100
AcDbLine
 10
-153.4633305597043
 20
82.27969276789759
 30
0.0
 11
-140.5003665405151
 21
82.27969276789759
 31
0.0
  0
LINE
  5
46B
330
1F
100
AcDbEntity
  8
LAYER-006
  6
Continuous
 62
     1
100
AcDbLine
 10
-129.3892556351653
 20
82.27969276789759
 30
0.0
 11
-116.4262916159757
 21
82.27969276789759
 31
0.0
  0
LINE
  5
46C
330
1F
100
AcDbEntity
  8
LAYER-006
  6
Continuous
 62
     1
100
AcDbLine
 10
-105.3151807104383
 20
82.27969276789759
 30
0.0
 11
-92.35221669118445
 21
82.27969276789759
 31
0.0
  0
LINE
  5
46D
330
1F
100
AcDbEntity
  8
LAYER-006
  6
Continuous
 62
     1
100
AcDbLine
 10
-81.24110578621995
 20
82.27969276789759
 30
0.0
 11
-68.27814176682202
 21
82.27969276789759
 31
0.0
  0
LINE
  5
46E
330
1F
100
AcDbEntity
  8
LAYER-006
  6
Continuous
 62
     1
100
AcDbLine
 10
-57.16703086147234
 20
82.27969276789759
 30
0.0
 11
-47.90777177368088
 21
82.27969276789759
 31
0.0
  0
LINE
  5
46F
330
1F
100
AcDbEntity
  8
LAYER-006
  6
Continuous
 62
     1
100
AcDbLine
 10
-57.16703086147234
 20
82.27969276789759
 30
0.0
 11
-47.90777177368088
 21
82.27969276789759
 31
0.0
  0
LINE
  5
470
330
1F
100
AcDbEntity
  8
LAYER-006
  6
Continuous
 62
     1
100
AcDbLine
 10
-47.90777177368088
 20
82.27969276789759
 30
0.0
 11
-47.90777177368088
 21
50.79820816570316
 31
0.0
  0
LINE
  5
471
330
1F
100
AcDbEntity
  8
LAYER-007
  6
HIDDEN
 62
     4
100
AcDbLine
 10
-187.1670349355465
 20
80.79821501755492
 30
0.0
 11
-187.1670349355465
 21
89.68710003875077
 31
0.0
  0
LINE
  5
472
330
1F
100
AcDbEntity
  8
LAYER-007
  6
HIDDEN
 62
     4
100
AcDbLine
 10
-179.01888693829
 20
80.79821501755492
 30
0.0
 11
-179.01888693829
 21
89.68710003875077
 31
0.0
  0
LINE
  5
473
330
1F
100
AcDbEntity
  8
LAYER-007
  6
HIDDEN
 62
     4
100
AcDbLine
 10
-177.5374054842434
 20
80.79821501755492
 30
0.0
 11
-188.6485163895931
 21
80.79821501755492
 31
0.0
  0
LINE
  5
474
330
1F
100
AcDbEntity
  8
LAYER-007
  6
HIDDEN
 62
     4
100
AcDbLine
 10
-163.0929600108534
 20
80.79821501755492
 30
0.0
 11
-163.0929600108534
 21
89.68710003813095
 31
0.0
  0
LINE
  5
475
330
1F
100
AcDbEntity
  8
LAYER-007
  6
HIDDEN
 62
     4
100
AcDbLine
 10
-154.9448120137508
 20
80.79821501755492
 30
0.0
 11
-154.9448120137508
 21
89.68710003813095
 31
0.0
  0
LINE
  5
476
330
1F
100
AcDbEntity
  8
LAYER-007
  6
HIDDEN
 62
     4
100
AcDbLine
 10
-153.4633305597043
 20
80.79821501755492
 30
0.0
 11
-164.5744414650539
 21
80.79821501755492
 31
0.0
  0
LINE
  5
477
330
1F
100
AcDbEntity
  8
LAYER-007
  6
HIDDEN
 62
     4
100
AcDbLine
 10
-139.018885086046
 20
80.79821501755492
 30
0.0
 11
-139.018885086046
 21
89.68710003813095
 31
0.0
  0
LINE
  5
478
330
1F
100
AcDbEntity
  8
LAYER-007
  6
HIDDEN
 62
     4
100
AcDbLine
 10
-130.8707370892119
 20
80.79821501755492
 30
0.0
 11
-130.8707370892119
 21
89.68710003813095
 31
0.0
  0
LINE
  5
479
330
1F
100
AcDbEntity
  8
LAYER-007
  6
HIDDEN
 62
     4
100
AcDbLine
 10
-129.3892556351653
 20
80.79821501755492
 30
0.0
 11
-140.5003665405151
 21
80.79821501755492
 31
0.0
  0
LINE
  5
47A
330
1F
100
AcDbEntity
  8
LAYER-007
  6
HIDDEN
 62
     4
100
AcDbLine
 10
-114.9448101619291
 20
80.79821501755492
 30
0.0
 11
-114.9448101619291
 21
89.68710003813095
 31
0.0
  0
LINE
  5
47B
330
1F
100
AcDbEntity
  8
LAYER-007
  6
HIDDEN
 62
     4
100
AcDbLine
 10
-106.7966621646726
 20
80.79821501755492
 30
0.0
 11
-106.7966621646726
 21
89.68710003813095
 31
0.0
  0
LINE
  5
47C
330
1F
100
AcDbEntity
  8
LAYER-007
  6
HIDDEN
 62
     4
100
AcDbLine
 10
-105.3151807104383
 20
80.79821501755492
 30
0.0
 11
-116.4262916159757
 21
80.79821501755492
 31
0.0
  0
LINE
  5
47D
330
1F
100
AcDbEntity
  8
LAYER-007
  6
HIDDEN
 62
     4
100
AcDbLine
 10
-90.87073523713784
 20
80.79821501755492
 30
0.0
 11
-90.87073523713784
 21
89.68710003813095
 31
0.0
  0
LINE
  5
47E
330
1F
100
AcDbEntity
  8
LAYER-007
  6
HIDDEN
 62
     4
100
AcDbLine
 10
-82.72258724026656
 20
80.79821501755492
 30
0.0
 11
-82.72258724026656
 21
89.68710003813095
 31
0.0
  0
LINE
  5
47F
330
1F
100
AcDbEntity
  8
LAYER-007
  6
HIDDEN
 62
     4
100
AcDbLine
 10
-81.24110578621995
 20
80.79821501755492
 30
0.0
 11
-92.35221669118445
 21
80.79821501755492
 31
0.0
  0
LINE
  5
480
330
1F
100
AcDbEntity
  8
LAYER-007
  6
HIDDEN
 62
     4
100
AcDbLine
 10
-66.7966603127754
 20
80.79821501755492
 30
0.0
 11
-66.7966603127754
 21
89.68710003813095
 31
0.0
  0
LINE
  5
481
330
1F
100
AcDbEntity
  8
LAYER-007
  6
HIDDEN
 62
     4
100
AcDbLine
 10
-58.64851231551896
 20
80.79821501755492
 30
0.0
 11
-58.64851231551896
 21
89.68710003813095
 31
0.0
  0
LINE
  5
482
330
1F
100
AcDbEntity
  8
LAYER-007
  6
HIDDEN
 62
     4
100
AcDbLine
 10
-57.16703086147234
 20
80.79821501755492
 30
0.0
 11
-68.27814176682202
 21
80.79821501755492
 31
0.0
  0
LINE
  5
483
330
1F
100
AcDbEntity
  8
LAYER-006
  6
Continuous
 62
     1
100
AcDbLine
 10
-188.6485163895931
 20
73.02043368010629
 30
0.0
 11
-188.6485163895931
 21
89.68710003875077
 31
0.0
  0
ARC
  5
484
330
1F
100
AcDbEntity
  8
LAYER-006
  6
Continuous
 62
     1
100
AcDbCircle
 10
-183.0929609369183
 20
73.02043368010629
 30
0.0
 40
5.555555452674906
100
AcDbArc
 50
180.0
 51
0.023338999998013
  0
CIRCLE
  5
485
330
1F
100
AcDbEntity
  8
LAYER-006
  6
Continuous
 62
     1
100
AcDbCircle
 10
-183.0929609369183
 20
73.02043368010629
 30
0.0
 40
1.851851817558301
  0
LINE
  5
486
330
1F
100
AcDbEntity
  8
LAYER-006
  6
Continuous
 62
     1
100
AcDbLine
 10
-177.5374054842434
 20
73.02043368010629
 30
0.0
 11
-177.5374054842434
 21
89.68710003875077
 31
0.0
  0
LINE
  5
487
330
1F
100
AcDbEntity
  8
LAYER-006
  6
Continuous
 62
     1
100
AcDbLine
 10
-164.5744414650539
 20
73.02043368010635
 30
0.0
 11
-164.5744414650539
 21
89.68710003813095
 31
0.0
  0
ARC
  5
488
330
1F
100
AcDbEntity
  8
LAYER-006
  6
Continuous
 62
     1
100
AcDbCircle
 10
-159.0188860123792
 20
73.02043368010635
 30
0.0
 40
5.555555452674906
100
AcDbArc
 50
180.0
 51
0.0233390000011821
  0
CIRCLE
  5
489
330
1F
100
AcDbEntity
  8
LAYER-006
  6
Continuous
 62
     1
100
AcDbCircle
 10
-159.0188860123792
 20
73.02043368010635
 30
0.0
 40
1.851851817558301
  0
LINE
  5
48A
330
1F
100
AcDbEntity
  8
LAYER-006
  6
Continuous
 62
     1
100
AcDbLine
 10
-153.4633305597043
 20
73.02043368010635
 30
0.0
 11
-153.4633305597043
 21
89.68710003813095
 31
0.0
  0
LINE
  5
48B
330
1F
100
AcDbEntity
  8
LAYER-006
  6
Continuous
 62
     1
100
AcDbLine
 10
-140.5003665405151
 20
73.02043368010635
 30
0.0
 11
-140.5003665405151
 21
89.68710003813095
 31
0.0
  0
ARC
  5
48C
330
1F
100
AcDbEntity
  8
LAYER-006
  6
Continuous
 62
     1
100
AcDbCircle
 10
-134.9448110878401
 20
73.02043368010635
 30
0.0
 40
5.555555452674906
100
AcDbArc
 50
180.0
 51
0.0233390000011823
  0
CIRCLE
  5
48D
330
1F
100
AcDbEntity
  8
LAYER-006
  6
Continuous
 62
     1
100
AcDbCircle
 10
-134.9448110878401
 20
73.02043368010635
 30
0.0
 40
1.851851817558301
  0
LINE
  5
48E
330
1F
100
AcDbEntity
  8
LAYER-006
  6
Continuous
 62
     1
100
AcDbLine
 10
-129.3892556351653
 20
73.02043368010635
 30
0.0
 11
-129.3892556351653
 21
89.68710003813095
 31
0.0
  0
LINE
  5
48F
330
1F
100
AcDbEntity
  8
LAYER-006
  6
Continuous
 62
     1
100
AcDbLine
 10
-116.4262916159757
 20
73.02043368010635
 30
0.0
 11
-116.4262916159757
 21
89.68710003813095
 31
0.0
  0
ARC
  5
490
330
1F
100
AcDbEntity
  8
LAYER-006
  6
Continuous
 62
     1
100
AcDbCircle
 10
-110.8707361631098
 20
73.02043368010635
 30
0.0
 40
5.555555452674906
100
AcDbArc
 50
180.0
 51
0.023338999998816
  0
CIRCLE
  5
491
330
1F
100
AcDbEntity
  8
LAYER-006
  6
Continuous
 62
     1
100
AcDbCircle
 10
-110.8707361631098
 20
73.02043368010635
 30
0.0
 40
1.851851817558301
  0
LINE
  5
492
330
1F
100
AcDbEntity
  8
LAYER-006
  6
Continuous
 62
     1
100
AcDbLine
 10
-105.3151807104383
 20
73.02043368010635
 30
0.0
 11
-105.3151807104383
 21
89.68710003813095
 31
0.0
  0
LINE
  5
493
330
1F
100
AcDbEntity
  8
LAYER-006
  6
Continuous
 62
     1
100
AcDbLine
 10
-92.35221669118445
 20
73.02043368010635
 30
0.0
 11
-92.35221669118445
 21
89.68710003813095
 31
0.0
  0
ARC
  5
494
330
1F
100
AcDbEntity
  8
LAYER-006
  6
Continuous
 62
     1
100
AcDbCircle
 10
-86.79666123876197
 20
73.02043368010635
 30
0.0
 40
5.555555452674906
100
AcDbArc
 50
180.0
 51
0.0233389999990852
  0
CIRCLE
  5
495
330
1F
100
AcDbEntity
  8
LAYER-006
  6
Continuous
 62
     1
100
AcDbCircle
 10
-86.79666123876197
 20
73.02043368010635
 30
0.0
 40
1.851851817558301
  0
LINE
  5
496
330
1F
100
AcDbEntity
  8
LAYER-006
  6
Continuous
 62
     1
100
AcDbLine
 10
-81.24110578621995
 20
73.02043368010635
 30
0.0
 11
-81.24110578621995
 21
89.68710003813095
 31
0.0
  0
LINE
  5
497
330
1F
100
AcDbEntity
  8
LAYER-006
  6
Continuous
 62
     1
100
AcDbLine
 10
-68.27814176682202
 20
73.02043368010635
 30
0.0
 11
-68.27814176682202
 21
89.68710003813095
 31
0.0
  0
ARC
  5
498
330
1F
100
AcDbEntity
  8
LAYER-006
  6
Continuous
 62
     1
100
AcDbCircle
 10
-62.72258631422287
 20
73.02043368010635
 30
0.0
 40
5.555555452674906
100
AcDbArc
 50
180.0
 51
0.023339000000864
  0
CIRCLE
  5
499
330
1F
100
AcDbEntity
  8
LAYER-006
  6
Continuous
 62
     1
100
AcDbCircle
 10
-62.72258631422287
 20
73.02043368010635
 30
0.0
 40
1.851851817558301
  0
LINE
  5
49A
330
1F
100
AcDbEntity
  8
LAYER-006
  6
Continuous
 62
     1
100
AcDbLine
 10
-57.16703086147234
 20
73.02043368010635
 30
0.0
 11
-57.16703086147234
 21
89.68710003813095
 31
0.0
  0
LINE
  5
49B
330
1F
100
AcDbEntity
  8
LAYER-007
  6
Continuous
 62
     4
100
AcDbLine
 10
-184.6855497963146
 20
63.81526718390569
 30
0.0
 11
-185.944812735958
 21
60.25971539789731
 31
0.0
  0
LINE
  5
49C
330
1F
100
AcDbEntity
  8
LAYER-007
  6
Continuous
 62
     4
100
AcDbLine
 10
-180.0744350669582
 20
63.81526718390569
 30
0.0
 11
-181.5374054101693
 21
60.46341909782865
 31
0.0
  0
LINE
  5
49D
330
1F
100
AcDbEntity
  8
LAYER-007
  6
Continuous
 62
     4
100
AcDbLine
 10
-160.6485156118306
 20
63.79675236943371
 30
0.0
 11
-160.0003711793889
 21
63.59304496626021
 31
0.0
  0
LINE
  5
49E
330
1F
100
AcDbEntity
  8
LAYER-007
  6
Continuous
 62
     4
100
AcDbLine
 10
-156.3707416169744
 20
63.79675236943371
 30
0.0
 11
-162.5744452057949
 21
56.31526732279457
 31
0.0
  0
LINE
  5
49F
330
1F
100
AcDbEntity
  8
LAYER-007
  6
Continuous
 62
     4
100
AcDbLine
 10
-89.87073525625837
 20
63.79675236943371
 30
0.0
 11
-89.70406488804602
 21
62.94489682965315
 31
0.0
  0
LINE
  5
4A0
330
1F
100
AcDbEntity
  8
LAYER-007
  6
Continuous
 62
     4
100
AcDbLine
 10
-84.11147239934675
 20
63.79675236943371
 30
0.0
 11
-83.7596205535917
 21
63.37082645139537
 31
0.0
  0
LINE
  5
4A1
330
1F
100
AcDbEntity
  8
LAYER-007
  6
Continuous
 62
     4
100
AcDbLine
 10
-61.50036041085522
 20
63.77823014755438
 30
0.0
 11
-60.53739746572481
 21
63.61156348429159
 31
0.0
  0
LINE
  5
4A2
330
1F
100
AcDbEntity
  8
LAYER-007
  6
Continuous
 62
     4
100
AcDbLine
 10
-137.2966628948412
 20
63.75971162989339
 30
0.0
 11
-136.8707369781214
 21
63.55600792944762
 31
0.0
  0
LINE
  5
4A3
330
1F
100
AcDbEntity
  8
LAYER-007
  6
Continuous
 62
     4
100
AcDbLine
 10
-112.2225842864149
 20
63.75971162989339
 30
0.0
 11
-113.3522101914219
 21
61.05600797574385
 31
0.0
  0
LINE
  5
4A4
330
1F
100
AcDbEntity
  8
LAYER-007
  6
Continuous
 62
     4
100
AcDbLine
 10
-132.926288902998
 20
63.66711903850086
 30
0.0
 11
-132.5188852068388
 21
62.92638201542121
 31
0.0
  0
LINE
  5
4A5
330
1F
100
AcDbEntity
  8
LAYER-007
  6
Continuous
 62
     4
100
AcDbLine
 10
-60.53739746572481
 20
63.61156348429159
 30
0.0
 11
-60.05591969686307
 21
62.98193756970812
 31
0.0
  0
LINE
  5
4A6
330
1F
100
AcDbEntity
  8
LAYER-007
  6
Continuous
 62
     4
100
AcDbLine
 10
-161.074441529869
 20
63.59304496626021
 30
0.0
 11
-160.6485156118306
 21
63.79675236943371
 31
0.0
  0
LINE
  5
4A7
330
1F
100
AcDbEntity
  8
LAYER-007
  6
Continuous
 62
     4
100
AcDbLine
 10
-160.0003711793889
 20
63.59304496626021
 30
0.0
 11
-159.7966674800715
 21
61.01897464309616
 31
0.0
  0
LINE
  5
4A8
330
1F
100
AcDbEntity
  8
LAYER-007
  6
Continuous
 62
     4
100
AcDbLine
 10
-136.8707369781214
 20
63.55600792944762
 30
0.0
 11
-136.667029575165
 21
62.92638201542121
 31
0.0
  0
LINE
  5
4A9
330
1F
100
AcDbEntity
  8
LAYER-007
  6
Continuous
 62
     4
100
AcDbLine
 10
-62.77813816497022
 20
63.46341904227324
 30
0.0
 11
-61.50036041085522
 21
63.77823014755438
 31
0.0
  0
LINE
  5
4AA
330
1F
100
AcDbEntity
  8
LAYER-007
  6
Continuous
 62
     4
100
AcDbLine
 10
-108.389254727773
 20
63.44489682039415
 30
0.0
 11
-110.1485102507497
 21
59.92638207073679
 31
0.0
  0
LINE
  5
4AB
330
1F
100
AcDbEntity
  8
LAYER-007
  6
Continuous
 62
     4
100
AcDbLine
 10
-87.09295752931902
 20
63.37082645139537
 30
0.0
 11
-87.74110196176096
 21
58.48193394933787
 31
0.0
  0
LINE
  5
4AC
330
1F
100
AcDbEntity
  8
LAYER-007
  6
Continuous
 62
     4
100
AcDbLine
 10
-83.7596205535917
 20
63.37082645139537
 30
0.0
 11
-83.25962056326981
 21
63.16711904776014
 31
0.0
  0
LINE
  5
4AD
330
1F
100
AcDbEntity
  8
LAYER-007
  6
Continuous
 62
     4
100
AcDbLine
 10
-60.05591969686307
 20
62.98193756970812
 30
0.0
 11
-60.38925302402359
 21
61.85230425758635
 31
0.0
  0
LINE
  5
4AE
330
1F
100
AcDbEntity
  8
LAYER-007
  6
Continuous
 62
     4
100
AcDbLine
 10
-89.70406488804602
 20
62.94489682965315
 30
0.0
 11
-90.07443525237378
 21
58.25971173123088
 31
0.0
  0
LINE
  5
4AF
330
1F
100
AcDbEntity
  8
LAYER-007
  6
Continuous
 62
     4
100
AcDbLine
 10
-136.667029575165
 20
62.92638201542121
 30
0.0
 11
-137.2966628948412
 21
61.05600797574385
 31
0.0
  0
LINE
  5
4B0
330
1F
100
AcDbEntity
  8
LAYER-007
  6
Continuous
 62
     4
100
AcDbLine
 10
-132.5188852068388
 20
62.92638201542121
 30
0.0
 11
-132.0929555850968
 21
62.7226746115461
 31
0.0
  0
LINE
  5
4B1
330
1F
100
AcDbEntity
  8
LAYER-007
  6
Continuous
 62
     4
100
AcDbLine
 10
-132.0929555850968
 20
62.7226746115461
 30
0.0
 11
-131.4633296708305
 21
62.50045239343911
 31
0.0
  0
LINE
  5
4B2
330
1F
100
AcDbEntity
  8
LAYER-007
  6
Continuous
 62
     4
100
AcDbLine
 10
-63.59295296469608
 20
62.64860424254761
 30
0.0
 11
-62.77813816497022
 21
63.46341904227324
 31
0.0
  0
LINE
  5
4B3
330
1F
100
AcDbEntity
  8
LAYER-007
  6
Continuous
 62
     4
100
AcDbLine
 10
-60.38925302402359
 20
61.85230425758635
 30
0.0
 11
-61.6670270744352
 21
60.72267464858334
 31
0.0
  0
LINE
  5
4B4
330
1F
100
AcDbEntity
  8
LAYER-007
  6
Continuous
 62
     4
100
AcDbLine
 10
-110.0003621053451
 20
61.37082278472866
 30
0.0
 11
-108.389254727773
 21
63.44489682039415
 31
0.0
  0
LINE
  5
4B5
330
1F
100
AcDbEntity
  8
LAYER-007
  6
Continuous
 62
     4
100
AcDbLine
 10
-137.2966628948412
 20
61.05600797574385
 30
0.0
 11
-137.9262888104054
 21
58.96341542190299
 31
0.0
  0
LINE
  5
4B6
330
1F
100
AcDbEntity
  8
LAYER-007
  6
Continuous
 62
     4
100
AcDbLine
 10
-133.555918520968
 20
61.05600797574385
 30
0.0
 11
-132.926288902998
 21
63.66711903850086
 31
0.0
  0
LINE
  5
4B7
330
1F
100
AcDbEntity
  8
LAYER-007
  6
Continuous
 62
     4
100
AcDbLine
 10
-113.3522101914219
 20
61.05600797574385
 30
0.0
 11
-113.5003620405302
 21
60.24119687972166
 31
0.0
  0
LINE
  5
4B8
330
1F
100
AcDbEntity
  8
LAYER-007
  6
Continuous
 62
     4
100
AcDbLine
 10
-159.7966674800715
 20
61.01897464309616
 30
0.0
 11
-159.3522230432433
 21
58.24119691695967
 31
0.0
  0
LINE
  5
4B9
330
1F
100
AcDbEntity
  8
LAYER-007
  6
Continuous
 62
     4
100
AcDbLine
 10
-61.6670270744352
 20
60.72267464858334
 30
0.0
 11
-63.1114751958344
 21
60.25971539789731
 31
0.0
  0
LINE
  5
4BA
330
1F
100
AcDbEntity
  8
LAYER-007
  6
Continuous
 62
     4
100
AcDbLine
 10
-61.50036041085522
 20
60.72267464858334
 30
0.0
 11
-60.87073079288527
 21
60.57453020688217
 31
0.0
  0
LINE
  5
4BB
330
1F
100
AcDbEntity
  8
LAYER-007
  6
Continuous
 62
     4
100
AcDbLine
 10
-84.75961683178841
 20
60.61156353952981
 30
0.0
 11
-84.11147239934675
 21
63.79675236943371
 31
0.0
  0
LINE
  5
4BC
330
1F
100
AcDbEntity
  8
LAYER-007
  6
Continuous
 62
     4
100
AcDbLine
 10
-60.87073079288527
 20
60.57453020688217
 30
0.0
 11
-60.70406412910981
 21
59.92638207073679
 31
0.0
  0
LINE
  5
4BD
330
1F
100
AcDbEntity
  8
LAYER-007
  6
Continuous
 62
     4
100
AcDbLine
 10
-181.5374054101693
 20
60.46341909782865
 30
0.0
 11
-182.3892535429116
 21
56.90785990441739
 31
0.0
  0
LINE
  5
4BE
330
1F
100
AcDbEntity
  8
LAYER-007
  6
Continuous
 62
     4
100
AcDbLine
 10
-110.9448102362742
 20
60.40786354330191
 30
0.0
 11
-110.0003621053451
 21
61.37082278472866
 31
0.0
  0
LINE
  5
4BF
330
1F
100
AcDbEntity
  8
LAYER-007
  6
Continuous
 62
     4
100
AcDbLine
 10
-109.0374028639184
 20
60.40786354330191
 30
0.0
 11
-108.2411028786648
 21
60.88934131216359
 31
0.0
  0
LINE
  5
4C0
330
1F
100
AcDbEntity
  8
LAYER-007
  6
Continuous
 62
     4
100
AcDbLine
 10
-185.944812735958
 20
60.25971539789731
 30
0.0
 11
-186.5744386502243
 21
57.75971174048982
 31
0.0
  0
LINE
  5
4C1
330
1F
100
AcDbEntity
  8
LAYER-007
  6
Continuous
 62
     4
100
AcDbLine
 10
-63.1114751958344
 20
60.25971539789731
 30
0.0
 11
-61.50036041085522
 21
60.72267464858334
 31
0.0
  0
LINE
  5
4C2
330
1F
100
AcDbEntity
  8
LAYER-007
  6
Continuous
 62
     4
100
AcDbLine
 10
-113.5003620405302
 20
60.24119687972166
 30
0.0
 11
-113.0188842716688
 21
59.61156355804832
 31
0.0
  0
LINE
  5
4C3
330
1F
100
AcDbEntity
  8
LAYER-007
  6
Continuous
 62
     4
100
AcDbLine
 10
-110.1485102507497
 20
59.92638207073679
 30
0.0
 11
-112.5559176135754
 21
56.42638213613913
 31
0.0
  0
LINE
  5
4C4
330
1F
100
AcDbEntity
  8
LAYER-007
  6
Continuous
 62
     4
100
AcDbLine
 10
-60.70406412910981
 20
59.92638207073679
 30
0.0
 11
-61.83369373801574
 21
57.85230803550942
 31
0.0
  0
LINE
  5
4C5
330
1F
100
AcDbEntity
  8
LAYER-007
  6
Continuous
 62
     4
100
AcDbLine
 10
-111.7411028138498
 20
59.77823022223083
 30
0.0
 11
-110.9448102362742
 21
60.40786354330191
 31
0.0
  0
LINE
  5
4C6
330
1F
100
AcDbEntity
  8
LAYER-007
  6
Continuous
 62
     4
100
AcDbLine
 10
-110.4633213560308
 20
59.77823022223083
 30
0.0
 11
-109.0374028639184
 21
60.40786354330191
 31
0.0
  0
LINE
  5
4C7
330
1F
100
AcDbEntity
  8
LAYER-007
  6
Continuous
 62
     4
100
AcDbLine
 10
-113.0188842716688
 20
59.61156355804832
 30
0.0
 11
-111.7411028138498
 21
59.77823022223083
 31
0.0
  0
LINE
  5
4C8
330
1F
100
AcDbEntity
  8
LAYER-007
  6
Continuous
 62
     4
100
AcDbLine
 10
-60.70406412910981
 20
59.61156355804832
 30
0.0
 11
-60.05591969686307
 21
60.25971539789731
 31
0.0
  0
LINE
  5
4C9
330
1F
100
AcDbEntity
  8
LAYER-007
  6
Continuous
 62
     4
100
AcDbLine
 10
-111.7411028138498
 20
59.29674874906345
 30
0.0
 11
-110.4633213560308
 21
59.77823022223083
 31
0.0
  0
LINE
  5
4CA
330
1F
100
AcDbEntity
  8
LAYER-007
  6
Continuous
 62
     4
100
AcDbLine
 10
-182.1670313244355
 20
59.22267838006474
 30
0.0
 11
-180.0744350669582
 21
63.81526718390569
 31
0.0
  0
LINE
  5
4CB
330
1F
100
AcDbEntity
  8
LAYER-007
  6
Continuous
 62
     4
100
AcDbLine
 10
-137.9262888104054
 20
58.96341542190299
 30
0.0
 11
-138.3336999145068
 21
57.31527100797979
 31
0.0
  0
LINE
  5
4CC
330
1F
100
AcDbEntity
  8
LAYER-007
  6
Continuous
 62
     4
100
AcDbLine
 10
-134.5929555388005
 20
58.96341542190299
 30
0.0
 11
-133.555918520968
 21
61.05600797574385
 31
0.0
  0
LINE
  5
4CD
330
1F
100
AcDbEntity
  8
LAYER-007
  6
Continuous
 62
     4
100
AcDbLine
 10
-87.9448056616923
 20
58.90785986779866
 30
0.0
 11
-87.09295752931902
 21
63.37082645139537
 31
0.0
  0
LINE
  5
4CE
330
1F
100
AcDbEntity
  8
LAYER-007
  6
Continuous
 62
     4
100
AcDbLine
 10
-62.14851225029619
 20
58.81526727649839
 30
0.0
 11
-60.70406412910981
 21
59.61156355804832
 31
0.0
  0
LINE
  5
4CF
330
1F
100
AcDbEntity
  8
LAYER-007
  6
Continuous
 62
     4
100
AcDbLine
 10
-87.74110196176096
 20
58.48193394933787
 30
0.0
 11
-87.9448056616923
 21
56.77823027718398
 31
0.0
  0
LINE
  5
4D0
330
1F
100
AcDbEntity
  8
LAYER-007
  6
Continuous
 62
     4
100
AcDbLine
 10
-90.07443525237378
 20
58.25971173123088
 30
0.0
 11
-90.29665746999129
 21
56.77823027718398
 31
0.0
  0
LINE
  5
4D1
330
1F
100
AcDbEntity
  8
LAYER-007
  6
Continuous
 62
     4
100
AcDbLine
 10
-159.3522230432433
 20
58.24119691695967
 30
0.0
 11
-158.7225897215699
 21
56.94489694076424
 31
0.0
  0
LINE
  5
4D2
330
1F
100
AcDbEntity
  8
LAYER-007
  6
Continuous
 62
     4
100
AcDbLine
 10
-113.0188842716688
 20
58.0189746986519
 30
0.0
 11
-111.7411028138498
 21
59.29674874906345
 31
0.0
  0
LINE
  5
4D3
330
1F
100
AcDbEntity
  8
LAYER-007
  6
Continuous
 62
     4
100
AcDbLine
 10
-61.83369373801574
 20
57.85230803550942
 30
0.0
 11
-63.74110110962582
 21
56.72267842636092
 31
0.0
  0
LINE
  5
4D4
330
1F
100
AcDbEntity
  8
LAYER-007
  6
Continuous
 62
     4
100
AcDbLine
 10
-186.5744386502243
 20
57.75971174048982
 30
0.0
 11
-186.3522164321172
 21
56.75971546271228
 31
0.0
  0
LINE
  5
4D5
330
1F
100
AcDbEntity
  8
LAYER-007
  6
Continuous
 62
     4
100
AcDbLine
 10
-183.1485127877413
 20
57.75971174048982
 30
0.0
 11
-182.1670313244355
 21
59.22267838006474
 31
0.0
  0
LINE
  5
4D6
330
1F
100
AcDbEntity
  8
LAYER-007
  6
Continuous
 62
     4
100
AcDbLine
 10
-64.70406775843836
 20
57.68564137149139
 30
0.0
 11
-62.14851225029619
 21
58.81526727649839
 31
0.0
  0
LINE
  5
4D7
330
1F
100
AcDbEntity
  8
LAYER-007
  6
Continuous
 62
     4
100
AcDbLine
 10
-138.3336999145068
 20
57.31527100797979
 30
0.0
 11
-138.1299962140404
 21
56.8893413862375
 31
0.0
  0
LINE
  5
4D8
330
1F
100
AcDbEntity
  8
LAYER-007
  6
Continuous
 62
     4
100
AcDbLine
 10
-113.5003620405302
 20
57.22267471339802
 30
0.0
 11
-113.0188842716688
 21
58.0189746986519
 31
0.0
  0
LINE
  5
4D9
330
1F
100
AcDbEntity
  8
LAYER-007
  6
Continuous
 62
     4
100
AcDbLine
 10
-136.0559221783751
 20
57.0930487898728
 30
0.0
 11
-134.5929555388005
 21
58.96341542190299
 31
0.0
  0
LINE
  5
4DA
330
1F
100
AcDbEntity
  8
LAYER-007
  6
Continuous
 62
     4
100
AcDbLine
 10
-158.7225897215699
 20
56.94489694076424
 30
0.0
 11
-157.426293449279
 21
56.31526732279457
 31
0.0
  0
LINE
  5
4DB
330
1F
100
AcDbEntity
  8
LAYER-007
  6
Continuous
 62
     4
100
AcDbLine
 10
-182.3892535429116
 20
56.90785990441739
 30
0.0
 11
-181.9633276245038
 21
56.5004562085368
 31
0.0
  0
LINE
  5
4DC
330
1F
100
AcDbEntity
  8
LAYER-007
  6
Continuous
 62
     4
100
AcDbLine
 10
-138.1299962140404
 20
56.8893413862375
 30
0.0
 11
-137.6485110374383
 21
56.48193769007827
 31
0.0
  0
LINE
  5
4DD
330
1F
100
AcDbEntity
  8
LAYER-007
  6
Continuous
 62
     4
100
AcDbLine
 10
-90.29665746999129
 20
56.77823027718398
 30
0.0
 11
-89.87073525625837
 21
56.35230435914565
 31
0.0
  0
LINE
  5
4DE
330
1F
100
AcDbEntity
  8
LAYER-007
  6
Continuous
 62
     4
100
AcDbLine
 10
-87.9448056616923
 20
56.77823027718398
 30
0.0
 11
-87.3707278945457
 21
56.35230435914565
 31
0.0
  0
LINE
  5
4DF
330
1F
100
AcDbEntity
  8
LAYER-007
  6
Continuous
 62
     4
100
AcDbLine
 10
-86.09295384413409
 20
56.77823027718398
 30
0.0
 11
-84.75961683178841
 21
60.61156353952981
 31
0.0
  0
LINE
  5
4E0
330
1F
100
AcDbEntity
  8
LAYER-007
  6
Continuous
 62
     4
100
AcDbLine
 10
-186.3522164321172
 20
56.75971546271228
 30
0.0
 11
-185.3151794142846
 21
56.5004562085368
 31
0.0
  0
LINE
  5
4E1
330
1F
100
AcDbEntity
  8
LAYER-007
  6
Continuous
 62
     4
100
AcDbLine
 10
-65.35221589459846
 20
56.72267842636092
 30
0.0
 11
-64.70406775843836
 21
57.68564137149139
 31
0.0
  0
LINE
  5
4E2
330
1F
100
AcDbEntity
  8
LAYER-007
  6
Continuous
 62
     4
100
AcDbLine
 10
-63.74110110962582
 20
56.72267842636092
 30
0.0
 11
-64.70406775843836
 21
56.40785991367238
 31
0.0
  0
LINE
  5
4E3
330
1F
100
AcDbEntity
  8
LAYER-007
  6
Continuous
 62
     4
100
AcDbLine
 10
-184.25962758198
 20
56.70415990784278
 30
0.0
 11
-183.1485127877413
 21
57.75971174048982
 31
0.0
  0
LINE
  5
4E4
330
1F
100
AcDbEntity
  8
LAYER-007
  6
Continuous
 62
     4
100
AcDbLine
 10
-180.9077720895142
 20
56.70415990784278
 30
0.0
 11
-179.6670313707316
 21
57.33378582245149
 31
0.0
  0
LINE
  5
4E5
330
1F
100
AcDbEntity
  8
LAYER-007
  6
Continuous
 62
     4
100
AcDbLine
 10
-136.8707369781214
 20
56.68563768630617
 30
0.0
 11
-136.0559221783751
 21
57.0930487898728
 31
0.0
  0
LINE
  5
4E6
330
1F
100
AcDbEntity
  8
LAYER-007
  6
Continuous
 62
     4
100
AcDbLine
 10
-113.3522101914219
 20
56.5745265772527
 30
0.0
 11
-113.5003620405302
 21
57.22267471339802
 31
0.0
  0
LINE
  5
4E7
330
1F
100
AcDbEntity
  8
LAYER-007
  6
Continuous
 62
     4
100
AcDbLine
 10
-88.90776860682277
 20
56.55601176278066
 30
0.0
 11
-87.9448056616923
 21
58.90785986779866
 31
0.0
  0
LINE
  5
4E8
330
1F
100
AcDbEntity
  8
LAYER-007
  6
Continuous
 62
     4
100
AcDbLine
 10
-156.3707416169744
 20
56.51897102250945
 30
0.0
 11
-155.5003712627221
 21
57.59304878061329
 31
0.0
  0
LINE
  5
4E9
330
1F
100
AcDbEntity
  8
LAYER-007
  6
Continuous
 62
     4
100
AcDbLine
 10
-185.3151794142846
 20
56.5004562085368
 30
0.0
 11
-184.25962758198
 21
56.70415990784278
 31
0.0
  0
LINE
  5
4EA
330
1F
100
AcDbEntity
  8
LAYER-007
  6
Continuous
 62
     4
100
AcDbLine
 10
-181.9633276245038
 20
56.5004562085368
 30
0.0
 11
-180.9077720895142
 21
56.70415990784278
 31
0.0
  0
LINE
  5
4EB
330
1F
100
AcDbEntity
  8
LAYER-007
  6
Continuous
 62
     4
100
AcDbLine
 10
-137.6485110374383
 20
56.48193769007827
 30
0.0
 11
-136.8707369781214
 21
56.68563768630617
 31
0.0
  0
LINE
  5
4EC
330
1F
100
AcDbEntity
  8
LAYER-007
  6
Continuous
 62
     4
100
AcDbLine
 10
-112.5559176135754
 20
56.42638213613913
 30
0.0
 11
-113.3522101914219
 21
56.5745265772527
 31
0.0
  0
LINE
  5
4ED
330
1F
100
AcDbEntity
  8
LAYER-007
  6
Continuous
 62
     4
100
AcDbLine
 10
-64.70406775843836
 20
56.40785991367238
 30
0.0
 11
-65.35221589459846
 21
56.72267842636092
 31
0.0
  0
LINE
  5
4EE
330
1F
100
AcDbEntity
  8
LAYER-007
  6
Continuous
 62
     4
100
AcDbLine
 10
-89.87073525625837
 20
56.35230435914565
 30
0.0
 11
-88.90776860682277
 21
56.55601176278066
 31
0.0
  0
LINE
  5
4EF
330
1F
100
AcDbEntity
  8
LAYER-007
  6
Continuous
 62
     4
100
AcDbLine
 10
-87.3707278945457
 20
56.35230435914565
 30
0.0
 11
-86.09295384413409
 21
56.77823027718398
 31
0.0
  0
LINE
  5
4F0
330
1F
100
AcDbEntity
  8
LAYER-007
  6
Continuous
 62
     4
100
AcDbLine
 10
-157.426293449279
 20
56.31526732279457
 30
0.0
 11
-156.3707416169744
 21
56.51897102250945
 31
0.0
  0
LINE
  5
4F1
330
1F
100
AcDbEntity
  8
LAYER-006
  6
Continuous
 62
     1
100
AcDbLine
 10
-197.9077717736808
 20
52.6500599832612
 30
0.0
 11
-47.90777177368088
 21
52.6500599832612
 31
0.0
  0
LINE
  5
4F2
330
1F
100
AcDbEntity
  8
LAYER-006
  6
Continuous
 62
     1
100
AcDbLine
 10
-197.9077717736808
 20
50.79820816570316
 30
0.0
 11
-197.9077717736808
 21
82.27969276789753
 31
0.0
  0
LINE
  5
4F3
330
1F
100
AcDbEntity
  8
LAYER-006
  6
Continuous
 62
     1
100
AcDbLine
 10
-194.2040681385643
 20
50.79820816570316
 30
0.0
 11
-194.2040681385643
 21
-60.31289718409141
 31
0.0
  0
LINE
  5
4F4
330
1F
100
AcDbEntity
  8
LAYER-006
  6
Continuous
 62
     1
100
AcDbLine
 10
-181.2411054156563
 20
50.79820816570316
 30
0.0
 11
-181.2411054156563
 21
-60.31289718409141
 31
0.0
  0
LINE
  5
4F5
330
1F
100
AcDbEntity
  8
LAYER-006
  6
Continuous
 62
     1
100
AcDbLine
 10
-64.57443442828773
 20
50.79820816570316
 30
0.0
 11
-64.57443442828773
 21
-60.31289718409141
 31
0.0
  0
LINE
  5
4F6
330
1F
100
AcDbEntity
  8
LAYER-006
  6
Continuous
 62
     1
100
AcDbLine
 10
-51.61147540879742
 20
50.79820816570316
 30
0.0
 11
-51.61147540879742
 21
-60.31289718409141
 31
0.0
  0
LINE
  5
4F7
330
1F
100
AcDbEntity
  8
LAYER-006
  6
Continuous
 62
     1
100
AcDbLine
 10
-47.90777177368088
 20
50.79820816570316
 30
0.0
 11
-197.9077717736808
 21
50.79820816570316
 31
0.0
  0
LINE
  5
4F8
330
1F
100
AcDbEntity
  8
LAYER-006
  6
Continuous
 62
     1
100
AcDbLine
 10
-181.2411054156563
 20
47.83524896131348
 30
0.0
 11
-144.2040727681937
 21
47.83524896131348
 31
0.0
  0
LINE
  5
4F9
330
1F
100
AcDbEntity
  8
LAYER-006
  6
Continuous
 62
     1
100
AcDbLine
 10
-181.2411054156563
 20
44.87228605321997
 30
0.0
 11
-147.9077764033103
 21
44.87228605321997
 31
0.0
  0
LINE
  5
4FA
330
1F
100
AcDbEntity
  8
LAYER-006
  6
Continuous
 62
     1
100
AcDbLine
 10
-181.2411054156563
 20
41.90932684883046
 30
0.0
 11
-151.6114800384271
 21
41.90932684883046
 31
0.0
  0
LINE
  5
4FB
330
1F
100
AcDbEntity
  8
LAYER-006
  6
Continuous
 62
     1
100
AcDbLine
 10
-181.2411054156563
 20
38.9463602370335
 30
0.0
 11
-155.31517996984
 21
38.9463602370335
 31
0.0
  0
LINE
  5
4FC
330
1F
100
AcDbEntity
  8
LAYER-006
  6
Continuous
 62
     1
100
AcDbLine
 10
-181.2411054156563
 20
35.9833973289403
 30
0.0
 11
-159.0188836049567
 21
35.9833973289403
 31
0.0
  0
LINE
  5
4FD
330
1F
100
AcDbEntity
  8
LAYER-006
  6
Continuous
 62
     1
100
AcDbLine
 10
-181.2411054156563
 20
33.02043812517607
 30
0.0
 11
-162.7225872400733
 21
33.02043812517607
 31
0.0
  0
LINE
  5
4FE
330
1F
100
AcDbEntity
  8
LAYER-007
  6
CENTER
 62
     4
100
AcDbLine
 10
-222.9077717736808
 20
-4.757342657342662
 30
0.0
 11
-159.9448118285505
 21
-4.757342657342662
 31
0.0
  0
LINE
  5
4FF
330
1F
100
AcDbEntity
  8
LAYER-007
  6
CENTER
 62
     4
100
AcDbLine
 10
-85.87073542251486
 20
-4.757342657342662
 30
0.0
 11
-22.90777177368088
 21
-4.757342657342662
 31
0.0
  0
LINE
  5
500
330
1F
100
AcDbEntity
  8
LAYER-007
  6
CENTER
 62
     4
100
AcDbLine
 10
-122.9077717736808
 20
-23.27586453600966
 30
0.0
 11
-122.9077717736808
 21
-104.7573408054906
 31
0.0
  0
LINE
  5
501
330
1F
100
AcDbEntity
  8
LAYER-006
  6
Continuous
 62
     1
100
AcDbLine
 10
-64.57443442828773
 20
-42.53511973615724
 30
0.0
 11
-83.09295260432666
 21
-42.53511973615724
 31
0.0
  0
LINE
  5
502
330
1F
100
AcDbEntity
  8
LAYER-006
  6
Continuous
 62
     1
100
AcDbLine
 10
-64.57443442828773
 20
-45.49808634732852
 30
0.0
 11
-86.79665623870162
 21
-45.49808634732852
 31
0.0
  0
LINE
  5
503
330
1F
100
AcDbEntity
  8
LAYER-006
  6
Continuous
 62
     1
100
AcDbLine
 10
-64.57443442828773
 20
-48.46104555171826
 30
0.0
 11
-90.50035987381799
 21
-48.46104555171826
 31
0.0
  0
LINE
  5
504
330
1F
100
AcDbEntity
  8
LAYER-006
  6
Continuous
 62
     1
100
AcDbLine
 10
-64.57443442828773
 20
-51.42400845934266
 30
0.0
 11
-94.20406350893464
 21
-51.42400845934266
 31
0.0
  0
LINE
  5
505
330
1F
100
AcDbEntity
  8
LAYER-006
  6
Continuous
 62
     1
100
AcDbLine
 10
-64.57443442828773
 20
-54.38697507160839
 30
0.0
 11
-97.90777084827417
 21
-54.38697507160839
 31
0.0
  0
LINE
  5
506
330
1F
100
AcDbEntity
  8
LAYER-006
  6
Continuous
 62
     1
100
AcDbLine
 10
-64.57443442828773
 20
-57.34993427599821
 30
0.0
 11
-101.6114744828717
 21
-57.34993427599821
 31
0.0
  0
LINE
  5
507
330
1F
100
AcDbEntity
  8
LAYER-006
  6
Continuous
 62
     1
100
AcDbLine
 10
-197.9077717736808
 20
-60.31289718409141
 30
0.0
 11
-47.90777177368088
 21
-60.31289718409141
 31
0.0
  0
LINE
  5
508
330
1F
100
AcDbEntity
  8
LAYER-006
  6
Continuous
 62
     1
100
AcDbLine
 10
-47.90777177368088
 20
-60.31289718409141
 30
0.0
 11
-47.90777177368088
 21
-91.7943780825826
 31
0.0
  0
LINE
  5
509
330
1F
100
AcDbEntity
  8
LAYER-006
  6
Continuous
 62
     1
100
AcDbLine
 10
-197.9077717736808
 20
-62.1647490016496
 30
0.0
 11
-47.90777177368088
 21
-62.1647490016496
 31
0.0
  0
LINE
  5
50A
330
1F
100
AcDbEntity
  8
LAYER-006
  6
Continuous
 62
     1
100
AcDbLine
 10
-188.6485126858894
 20
-82.53511899479108
 30
0.0
 11
-188.6485126858894
 21
-99.20178535281565
 31
0.0
  0
ARC
  5
50B
330
1F
100
AcDbEntity
  8
LAYER-006
  6
Continuous
 62
     1
100
AcDbCircle
 10
-183.0929572332146
 20
-82.53511899479108
 30
0.0
 40
5.555555452674906
100
AcDbArc
 50
0.0
 51
180.0233389999964
  0
CIRCLE
  5
50C
330
1F
100
AcDbEntity
  8
LAYER-006
  6
Continuous
 62
     1
100
AcDbCircle
 10
-183.0929572332146
 20
-82.53511899479108
 30
0.0
 40
1.851851817558301
  0
LINE
  5
50D
330
1F
100
AcDbEntity
  8
LAYER-006
  6
Continuous
 62
     1
100
AcDbLine
 10
-177.5374017805398
 20
-82.53511899479108
 30
0.0
 11
-177.5374017805398
 21
-99.20178535281565
 31
0.0
  0
LINE
  5
50E
330
1F
100
AcDbEntity
  8
LAYER-006
  6
Continuous
 62
     1
100
AcDbLine
 10
-164.5744414650542
 20
-82.53511899479108
 30
0.0
 11
-164.5744414650542
 21
-99.20178535281565
 31
0.0
  0
ARC
  5
50F
330
1F
100
AcDbEntity
  8
LAYER-006
  6
Continuous
 62
     1
100
AcDbCircle
 10
-159.0188860123792
 20
-82.53511899479108
 30
0.0
 40
5.555555452674906
100
AcDbArc
 50
0.0
 51
180.023339002916
  0
CIRCLE
  5
510
330
1F
100
AcDbEntity
  8
LAYER-006
  6
Continuous
 62
     1
100
AcDbCircle
 10
-159.0188860123792
 20
-82.53511899479108
 30
0.0
 40
1.851851817558301
  0
LINE
  5
511
330
1F
100
AcDbEntity
  8
LAYER-006
  6
Continuous
 62
     1
100
AcDbLine
 10
-153.4633305597044
 20
-82.53511899479108
 30
0.0
 11
-153.4633305597044
 21
-99.20178535281565
 31
0.0
  0
LINE
  5
512
330
1F
100
AcDbEntity
  8
LAYER-006
  6
Continuous
 62
     1
100
AcDbLine
 10
-140.5003665405152
 20
-82.53511899479108
 30
0.0
 11
-140.5003665405152
 21
-99.20178535281565
 31
0.0
  0
ARC
  5
513
330
1F
100
AcDbEntity
  8
LAYER-006
  6
Continuous
 62
     1
100
AcDbCircle
 10
-134.9448110878401
 20
-82.53511899479108
 30
0.0
 40
5.555555452674906
100
AcDbArc
 50
0.0
 51
180.023339002916
  0
CIRCLE
  5
514
330
1F
100
AcDbEntity
  8
LAYER-006
  6
Continuous
 62
     1
100
AcDbCircle
 10
-134.9448110878401
 20
-82.53511899479108
 30
0.0
 40
1.851851817558301
  0
LINE
  5
515
330
1F
100
AcDbEntity
  8
LAYER-006
  6
Continuous
 62
     1
100
AcDbLine
 10
-129.3892556351654
 20
-82.53511899479108
 30
0.0
 11
-129.3892556351654
 21
-99.20178535281565
 31
0.0
  0
LINE
  5
516
330
1F
100
AcDbEntity
  8
LAYER-006
  6
Continuous
 62
     1
100
AcDbLine
 10
-116.4262916159759
 20
-82.53511899479108
 30
0.0
 11
-116.4262916159759
 21
-99.20178535281565
 31
0.0
  0
ARC
  5
517
330
1F
100
AcDbEntity
  8
LAYER-006
  6
Continuous
 62
     1
100
AcDbCircle
 10
-110.8707361631098
 20
-82.53511899479108
 30
0.0
 40
5.555555452674906
100
AcDbArc
 50
0.0
 51
180.0233390029152
  0
CIRCLE
  5
518
330
1F
100
AcDbEntity
  8
LAYER-006
  6
Continuous
 62
     1
100
AcDbCircle
 10
-110.8707361631098
 20
-82.53511899479108
 30
0.0
 40
1.851851817558301
  0
LINE
  5
519
330
1F
100
AcDbEntity
  8
LAYER-006
  6
Continuous
 62
     1
100
AcDbLine
 10
-105.3151807104383
 20
-82.53511899479108
 30
0.0
 11
-105.3151807104383
 21
-99.20178535281565
 31
0.0
  0
LINE
  5
51A
330
1F
100
AcDbEntity
  8
LAYER-006
  6
Continuous
 62
     1
100
AcDbLine
 10
-92.35221669118462
 20
-82.53511899479108
 30
0.0
 11
-92.35221669118462
 21
-99.20178535281565
 31
0.0
  0
ARC
  5
51B
330
1F
100
AcDbEntity
  8
LAYER-006
  6
Continuous
 62
     1
100
AcDbCircle
 10
-86.79666123876197
 20
-82.53511899479108
 30
0.0
 40
5.555555452674906
100
AcDbArc
 50
0.0
 51
180.0233390029171
  0
CIRCLE
  5
51C
330
1F
100
AcDbEntity
  8
LAYER-006
  6
Continuous
 62
     1
100
AcDbCircle
 10
-86.79666123876197
 20
-82.53511899479108
 30
0.0
 40
1.851851817558301
  0
LINE
  5
51D
330
1F
100
AcDbEntity
  8
LAYER-006
  6
Continuous
 62
     1
100
AcDbLine
 10
-81.24110578621995
 20
-82.53511899479108
 30
0.0
 11
-81.24110578621995
 21
-99.20178535281565
 31
0.0
  0
LINE
  5
51E
330
1F
100
AcDbEntity
  8
LAYER-006
  6
Continuous
 62
     1
100
AcDbLine
 10
-68.27813806311835
 20
-82.53511899479111
 30
0.0
 11
-68.27813806311835
 21
-99.20178535343572
 31
0.0
  0
ARC
  5
51F
330
1F
100
AcDbEntity
  8
LAYER-006
  6
Continuous
 62
     1
100
AcDbCircle
 10
-62.72258261044348
 20
-82.53511899479111
 30
0.0
 40
5.555555452674906
100
AcDbArc
 50
0.0
 51
180.0233389999983
  0
CIRCLE
  5
520
330
1F
100
AcDbEntity
  8
LAYER-006
  6
Continuous
 62
     1
100
AcDbCircle
 10
-62.72258261044348
 20
-82.53511899479111
 30
0.0
 40
1.851851817558301
  0
LINE
  5
521
330
1F
100
AcDbEntity
  8
LAYER-006
  6
Continuous
 62
     1
100
AcDbLine
 10
-57.16702715776867
 20
-82.53511899479111
 30
0.0
 11
-57.16702715776867
 21
-99.20178535343572
 31
0.0
  0
LINE
  5
522
330
1F
100
AcDbEntity
  8
LAYER-007
  6
HIDDEN
 62
     4
100
AcDbLine
 10
-188.6485126858894
 20
-90.31290033223965
 30
0.0
 11
-177.5374017805398
 21
-90.31290033223965
 31
0.0
  0
LINE
  5
523
330
1F
100
AcDbEntity
  8
LAYER-007
  6
HIDDEN
 62
     4
100
AcDbLine
 10
-187.1670312318428
 20
-90.31290033223965
 30
0.0
 11
-187.1670312318428
 21
-99.20178535281565
 31
0.0
  0
LINE
  5
524
330
1F
100
AcDbEntity
  8
LAYER-007
  6
HIDDEN
 62
     4
100
AcDbLine
 10
-179.5744414650542
 20
-90.31290033223965
 30
0.0
 11
-177.5374017805398
 21
-90.31290033223965
 31
0.0
  0
LINE
  5
525
330
1F
100
AcDbEntity
  8
LAYER-007
  6
HIDDEN
 62
     4
100
AcDbLine
 10
-179.0188832345863
 20
-90.31290033223965
 30
0.0
 11
-179.0188832345863
 21
-99.20178535281565
 31
0.0
  0
LINE
  5
526
330
1F
100
AcDbEntity
  8
LAYER-007
  6
HIDDEN
 62
     4
100
AcDbLine
 10
-164.5744414650542
 20
-90.31290033223965
 30
0.0
 11
-153.4633305597044
 21
-90.31290033223965
 31
0.0
  0
LINE
  5
527
330
1F
100
AcDbEntity
  8
LAYER-007
  6
HIDDEN
 62
     4
100
AcDbLine
 10
-163.0929600108534
 20
-90.31290033223965
 30
0.0
 11
-163.0929600108534
 21
-99.20178535281565
 31
0.0
  0
LINE
  5
528
330
1F
100
AcDbEntity
  8
LAYER-007
  6
HIDDEN
 62
     4
100
AcDbLine
 10
-154.9448120137511
 20
-90.31290033223965
 30
0.0
 11
-154.9448120137511
 21
-99.20178535281565
 31
0.0
  0
LINE
  5
529
330
1F
100
AcDbEntity
  8
LAYER-007
  6
HIDDEN
 62
     4
100
AcDbLine
 10
-140.5003665405152
 20
-90.31290033223965
 30
0.0
 11
-129.3892556351654
 21
-90.31290033223965
 31
0.0
  0
LINE
  5
52A
330
1F
100
AcDbEntity
  8
LAYER-007
  6
HIDDEN
 62
     4
100
AcDbLine
 10
-139.018885086046
 20
-90.31290033223965
 30
0.0
 11
-139.018885086046
 21
-99.20178535281565
 31
0.0
  0
LINE
  5
52B
330
1F
100
AcDbEntity
  8
LAYER-007
  6
HIDDEN
 62
     4
100
AcDbLine
 10
-130.870737089212
 20
-90.31290033223965
 30
0.0
 11
-130.870737089212
 21
-99.20178535281565
 31
0.0
  0
LINE
  5
52C
330
1F
100
AcDbEntity
  8
LAYER-007
  6
HIDDEN
 62
     4
100
AcDbLine
 10
-116.4262916159759
 20
-90.31290033223965
 30
0.0
 11
-105.3151807104383
 21
-90.31290033223965
 31
0.0
  0
LINE
  5
52D
330
1F
100
AcDbEntity
  8
LAYER-007
  6
HIDDEN
 62
     4
100
AcDbLine
 10
-114.9448101619293
 20
-90.31290033223965
 30
0.0
 11
-114.9448101619293
 21
-99.20178535281565
 31
0.0
  0
LINE
  5
52E
330
1F
100
AcDbEntity
  8
LAYER-007
  6
HIDDEN
 62
     4
100
AcDbLine
 10
-106.7966621646728
 20
-90.31290033223965
 30
0.0
 11
-106.7966621646728
 21
-99.20178535281565
 31
0.0
  0
LINE
  5
52F
330
1F
100
AcDbEntity
  8
LAYER-007
  6
HIDDEN
 62
     4
100
AcDbLine
 10
-92.35221669118462
 20
-90.31290033223965
 30
0.0
 11
-81.24110578621995
 21
-90.31290033223965
 31
0.0
  0
LINE
  5
530
330
1F
100
AcDbEntity
  8
LAYER-007
  6
HIDDEN
 62
     4
100
AcDbLine
 10
-90.87073523713801
 20
-90.31290033223965
 30
0.0
 11
-90.87073523713801
 21
-99.20178535281565
 31
0.0
  0
LINE
  5
531
330
1F
100
AcDbEntity
  8
LAYER-007
  6
HIDDEN
 62
     4
100
AcDbLine
 10
-82.72258723988151
 20
-90.31290033223965
 30
0.0
 11
-82.72258723988151
 21
-99.20178535281565
 31
0.0
  0
LINE
  5
532
330
1F
100
AcDbEntity
  8
LAYER-007
  6
HIDDEN
 62
     4
100
AcDbLine
 10
-68.27813806311835
 20
-90.31290033223965
 30
0.0
 11
-57.16702715776867
 21
-90.31290033223965
 31
0.0
  0
LINE
  5
533
330
1F
100
AcDbEntity
  8
LAYER-007
  6
HIDDEN
 62
     4
100
AcDbLine
 10
-66.79665660907173
 20
-90.31290033223965
 30
0.0
 11
-66.79665660907173
 21
-99.20178535343572
 31
0.0
  0
LINE
  5
534
330
1F
100
AcDbEntity
  8
LAYER-007
  6
HIDDEN
 62
     4
100
AcDbLine
 10
-58.64850861226503
 20
-90.31290033223965
 30
0.0
 11
-58.64850861226503
 21
-99.20178535343572
 31
0.0
  0
LINE
  5
535
330
1F
100
AcDbEntity
  8
LAYER-006
  6
Continuous
 62
     1
100
AcDbLine
 10
-197.9077717736808
 20
-91.7943780825826
 30
0.0
 11
-197.9077717736808
 21
-60.31289718409141
 31
0.0
  0
LINE
  5
536
330
1F
100
AcDbEntity
  8
LAYER-006
  6
Continuous
 62
     1
100
AcDbLine
 10
-197.9077717736808
 20
-91.7943780825826
 30
0.0
 11
-188.6485126858894
 21
-91.7943780825826
 31
0.0
  0
LINE
  5
537
330
1F
100
AcDbEntity
  8
LAYER-006
  6
Continuous
 62
     1
100
AcDbLine
 10
-197.9077717736808
 20
-91.7943780825826
 30
0.0
 11
-188.6485126858894
 21
-91.7943780825826
 31
0.0
  0
LINE
  5
538
330
1F
100
AcDbEntity
  8
LAYER-006
  6
Continuous
 62
     1
100
AcDbLine
 10
-192.9220171651552
 20
-91.7943780825826
 30
0.0
 11
-188.6485126858894
 21
-91.7943780825826
 31
0.0
  0
LINE
  5
539
330
1F
100
AcDbEntity
  8
LAYER-006
  6
Continuous
 62
     1
100
AcDbLine
 10
-177.5374017805398
 20
-91.7943780825826
 30
0.0
 11
-164.5744414650542
 21
-91.7943780825826
 31
0.0
  0
LINE
  5
53A
330
1F
100
AcDbEntity
  8
LAYER-006
  6
Continuous
 62
     1
100
AcDbLine
 10
-153.4633305597044
 20
-91.7943780825826
 30
0.0
 11
-140.5003665405152
 21
-91.7943780825826
 31
0.0
  0
LINE
  5
53B
330
1F
100
AcDbEntity
  8
LAYER-006
  6
Continuous
 62
     1
100
AcDbLine
 10
-129.3892556351654
 20
-91.7943780825826
 30
0.0
 11
-116.4262916159759
 21
-91.7943780825826
 31
0.0
  0
LINE
  5
53C
330
1F
100
AcDbEntity
  8
LAYER-006
  6
Continuous
 62
     1
100
AcDbLine
 10
-105.3151807104383
 20
-91.7943780825826
 30
0.0
 11
-92.35221669118462
 21
-91.7943780825826
 31
0.0
  0
LINE
  5
53D
330
1F
100
AcDbEntity
  8
LAYER-006
  6
Continuous
 62
     1
100
AcDbLine
 10
-81.24110578621995
 20
-91.7943780825826
 30
0.0
 11
-68.27813806311835
 21
-91.7943780825826
 31
0.0
  0
LINE
  5
53E
330
1F
100
AcDbEntity
  8
LAYER-006
  6
Continuous
 62
     1
100
AcDbLine
 10
-57.16703086147234
 20
-91.7943780825826
 30
0.0
 11
-47.90777177368088
 21
-91.7943780825826
 31
0.0
  0
LINE
  5
53F
330
1F
100
AcDbEntity
  8
LAYER-006
  6
Continuous
 62
     1
100
AcDbLine
 10
-57.16703086147234
 20
-91.7943780825826
 30
0.0
 11
-47.90777177368088
 21
-91.7943780825826
 31
0.0
  0
LINE
  5
540
330
1F
100
AcDbEntity
  8
LAYER-006
  6
Continuous
 62
     1
100
AcDbLine
 10
-188.6485126858894
 20
-99.20178535281565
 30
0.0
 11
-177.5374017805398
 21
-99.20178535281565
 31
0.0
  0
LINE
  5
541
330
1F
100
AcDbEntity
  8
LAYER-006
  6
Continuous
 62
     4
100
AcDbLine
 10
-186.4262905048194
 20
-99.20178535281565
 30
0.0
 11
-181.2411054156563
 21
-104.3869704419789
 31
0.0
  0
LINE
  5
542
330
1F
100
AcDbEntity
  8
LAYER-006
  6
Continuous
 62
     4
100
AcDbLine
 10
-183.8336942565343
 20
-99.20178535281565
 30
0.0
 11
-179.3892535980978
 21
-103.2758630551476
 31
0.0
  0
ARC
  5
543
330
1F
100
AcDbEntity
  8
LAYER-006
  6
Continuous
 62
     1
100
AcDbCircle
 10
-183.0929572332146
 20
-99.20178535281565
 30
0.0
 40
5.555555452674906
100
AcDbArc
 50
180.023338999999
 51
359.9893829999995
  0
LINE
  5
544
330
1F
100
AcDbEntity
  8
LAYER-006
  6
Continuous
 62
     4
100
AcDbLine
 10
-181.2411054156563
 20
-99.20178535281565
 30
0.0
 11
-178.2781425075628
 21
-101.794381601101
 31
0.0
  0
LINE
  5
545
330
1F
100
AcDbEntity
  8
LAYER-006
  6
Continuous
 62
     1
100
AcDbLine
 10
-164.5744414650542
 20
-99.20178535281565
 30
0.0
 11
-153.4633305597044
 21
-99.20178535281565
 31
0.0
  0
LINE
  5
546
330
1F
100
AcDbEntity
  8
LAYER-006
  6
Continuous
 62
     4
100
AcDbLine
 10
-163.6485165749408
 20
-99.20178535281565
 30
0.0
 11
-162.5374017805397
 21
-100.3128964441578
 31
0.0
  0
LINE
  5
547
330
1F
100
AcDbEntity
  8
LAYER-006
  6
Continuous
 62
     4
100
AcDbLine
 10
-162.352219284046
 20
-99.20178535281565
 30
0.0
 11
-157.1670341948211
 21
-104.3869704419789
 31
0.0
  0
LINE
  5
548
330
1F
100
AcDbEntity
  8
LAYER-006
  6
Continuous
 62
     4
100
AcDbLine
 10
-159.7596230356991
 20
-99.20178535281565
 30
0.0
 11
-155.3151823778249
 21
-103.2758630551476
 31
0.0
  0
ARC
  5
549
330
1F
100
AcDbEntity
  8
LAYER-006
  6
Continuous
 62
     1
100
AcDbCircle
 10
-159.0188860123792
 20
-99.20178535281565
 30
0.0
 40
5.555555452674906
100
AcDbArc
 50
180.023339000001
 51
359.989383000181
  0
LINE
  5
54A
330
1F
100
AcDbEntity
  8
LAYER-006
  6
Continuous
 62
     4
100
AcDbLine
 10
-157.1670341948211
 20
-99.20178535281565
 30
0.0
 11
-154.2040712867277
 21
-101.794381601101
 31
0.0
  0
LINE
  5
54B
330
1F
100
AcDbEntity
  8
LAYER-006
  6
Continuous
 62
     4
100
AcDbLine
 10
-154.5744453539429
 20
-99.20178535281565
 30
0.0
 11
-153.4633305597044
 21
-100.3128964441578
 31
0.0
  0
LINE
  5
54C
330
1F
100
AcDbEntity
  8
LAYER-006
  6
Continuous
 62
     1
100
AcDbLine
 10
-140.5003665405152
 20
-99.20178535281565
 30
0.0
 11
-129.3892556351654
 21
-99.20178535281565
 31
0.0
  0
LINE
  5
54D
330
1F
100
AcDbEntity
  8
LAYER-006
  6
Continuous
 62
     4
100
AcDbLine
 10
-138.2781443594451
 20
-99.20178535281565
 30
0.0
 11
-133.0929592702821
 21
-104.3869704419789
 31
0.0
  0
LINE
  5
54E
330
1F
100
AcDbEntity
  8
LAYER-006
  6
Continuous
 62
     4
100
AcDbLine
 10
-135.6855481111601
 20
-99.20178535281565
 30
0.0
 11
-131.2411074527235
 21
-103.2758630551476
 31
0.0
  0
ARC
  5
54F
330
1F
100
AcDbEntity
  8
LAYER-006
  6
Continuous
 62
     1
100
AcDbCircle
 10
-134.9448110878401
 20
-99.20178535281565
 30
0.0
 40
5.555555452674906
100
AcDbArc
 50
180.023339000001
 51
359.9893829999988
  0
LINE
  5
550
330
1F
100
AcDbEntity
  8
LAYER-006
  6
Continuous
 62
     4
100
AcDbLine
 10
-133.0929592702821
 20
-99.20178535281565
 30
0.0
 11
-130.1299963621887
 21
-101.794381601101
 31
0.0
  0
LINE
  5
551
330
1F
100
AcDbEntity
  8
LAYER-006
  6
Continuous
 62
     4
100
AcDbLine
 10
-130.5003704294038
 20
-99.20178535281565
 30
0.0
 11
-129.3892556351654
 21
-100.3128964441578
 31
0.0
  0
LINE
  5
552
330
1F
100
AcDbEntity
  8
LAYER-006
  6
Continuous
 62
     1
100
AcDbLine
 10
-116.4262916159759
 20
-99.20178535281565
 30
0.0
 11
-105.3151807104383
 21
-99.20178535281565
 31
0.0
  0
LINE
  5
553
330
1F
100
AcDbEntity
  8
LAYER-006
  6
Continuous
 62
     4
100
AcDbLine
 10
-114.2040694349059
 20
-99.20178535281565
 30
0.0
 11
-109.0188843457428
 21
-104.3869704419789
 31
0.0
  0
LINE
  5
554
330
1F
100
AcDbEntity
  8
LAYER-006
  6
Continuous
 62
     4
100
AcDbLine
 10
-111.6114731866208
 20
-99.20178535281565
 30
0.0
 11
-107.1670325281844
 21
-103.2758630551476
 31
0.0
  0
ARC
  5
555
330
1F
100
AcDbEntity
  8
LAYER-006
  6
Continuous
 62
     1
100
AcDbCircle
 10
-110.8707361631098
 20
-99.20178535281565
 30
0.0
 40
5.555555452674906
100
AcDbArc
 50
180.0233390000001
 51
359.989383000181
  0
LINE
  5
556
330
1F
100
AcDbEntity
  8
LAYER-006
  6
Continuous
 62
     4
100
AcDbLine
 10
-109.0188843457428
 20
-99.20178535281565
 30
0.0
 11
-106.0559214376494
 21
-101.794381601101
 31
0.0
  0
LINE
  5
557
330
1F
100
AcDbEntity
  8
LAYER-006
  6
Continuous
 62
     4
100
AcDbLine
 10
-106.4262955048646
 20
-99.20178535281565
 30
0.0
 11
-105.3151807104383
 21
-100.3128964441578
 31
0.0
  0
LINE
  5
558
330
1F
100
AcDbEntity
  8
LAYER-006
  6
Continuous
 62
     1
100
AcDbLine
 10
-92.35221669118462
 20
-99.20178535281565
 30
0.0
 11
-81.24110578621995
 21
-99.20178535281565
 31
0.0
  0
LINE
  5
559
330
1F
100
AcDbEntity
  8
LAYER-006
  6
Continuous
 62
     4
100
AcDbLine
 10
-90.12999450968081
 20
-99.20178535281565
 30
0.0
 11
-84.94480942095154
 21
-104.3869704419789
 31
0.0
  0
LINE
  5
55A
330
1F
100
AcDbEntity
  8
LAYER-006
  6
Continuous
 62
     4
100
AcDbLine
 10
-87.53739826182951
 20
-99.20178535281565
 30
0.0
 11
-83.09295760362582
 21
-103.2758630551476
 31
0.0
  0
ARC
  5
55B
330
1F
100
AcDbEntity
  8
LAYER-006
  6
Continuous
 62
     1
100
AcDbCircle
 10
-86.79666169967257
 20
-99.20178535281565
 30
0.0
 40
5.555555452674906
100
AcDbArc
 50
180.023339000002
 51
359.9893830001808
  0
LINE
  5
55C
330
1F
100
AcDbEntity
  8
LAYER-006
  6
Continuous
 62
     4
100
AcDbLine
 10
-84.94480942095154
 20
-99.20178535281565
 30
0.0
 11
-81.98184651243835
 21
-101.794381601101
 31
0.0
  0
LINE
  5
55D
330
1F
100
AcDbEntity
  8
LAYER-006
  6
Continuous
 62
     4
100
AcDbLine
 10
-82.35222058007335
 20
-99.20178535281565
 30
0.0
 11
-81.24110578621995
 21
-100.3128964441578
 31
0.0
  0
LINE
  5
55E
330
1F
100
AcDbEntity
  8
LAYER-006
  6
Continuous
 62
     1
100
AcDbLine
 10
-68.27813806311835
 20
-99.20178535343572
 30
0.0
 11
-57.16702715776867
 21
-99.20178535343572
 31
0.0
  0
LINE
  5
55F
330
1F
100
AcDbEntity
  8
LAYER-006
  6
Continuous
 62
     4
100
AcDbLine
 10
-66.05591588204831
 20
-99.20178535343572
 30
0.0
 11
-60.87073079288527
 21
-104.3869704419789
 31
0.0
  0
LINE
  5
560
330
1F
100
AcDbEntity
  8
LAYER-006
  6
Continuous
 62
     4
100
AcDbLine
 10
-63.46331963376329
 20
-99.20178535343572
 30
0.0
 11
-59.01887897532683
 21
-103.2758630551476
 31
0.0
  0
ARC
  5
561
330
1F
100
AcDbEntity
  8
LAYER-006
  6
Continuous
 62
     1
100
AcDbCircle
 10
-62.72258261044348
 20
-99.20178535343572
 30
0.0
 40
5.555555452674906
100
AcDbArc
 50
180.0233389936059
 51
359.9893830063938
  0
LINE
  5
562
330
1F
100
AcDbEntity
  8
LAYER-006
  6
Continuous
 62
     4
100
AcDbLine
 10
-60.87073079288527
 20
-99.20178535343572
 30
0.0
 11
-57.90776788479175
 21
-101.794381601101
 31
0.0
  0
LINE
  5
563
330
1F
100
AcDbEntity
  8
LAYER-006
  6
Continuous
 62
     4
100
AcDbLine
 10
-58.27814195200708
 20
-99.20178535343572
 30
0.0
 11
-57.16702715776867
 21
-100.3128964441578
 31
0.0
  0
LINE
  5
564
330
1F
100
AcDbEntity
  8
LAYER-006
  6
Continuous
 62
     4
100
AcDbLine
 10
-188.6485126858894
 20
-99.57215942003117
 30
0.0
 11
-183.4633275967262
 21
-104.7573445091942
 31
0.0
  0
LINE
  5
565
330
1F
100
AcDbEntity
  8
LAYER-006
  6
Continuous
 62
     4
100
AcDbLine
 10
-164.5744414650542
 20
-99.57215942003117
 30
0.0
 11
-159.3892563758908
 21
-104.7573445091942
 31
0.0
  0
LINE
  5
566
330
1F
100
AcDbEntity
  8
LAYER-006
  6
Continuous
 62
     4
100
AcDbLine
 10
-140.5003665405152
 20
-99.57215942003117
 30
0.0
 11
-135.3151814513518
 21
-104.7573445091942
 31
0.0
  0
LINE
  5
567
330
1F
100
AcDbEntity
  8
LAYER-006
  6
Continuous
 62
     4
100
AcDbLine
 10
-116.4262916159759
 20
-99.57215942003117
 30
0.0
 11
-111.2411065268126
 21
-104.7573445091942
 31
0.0
  0
LINE
  5
568
330
1F
100
AcDbEntity
  8
LAYER-006
  6
Continuous
 62
     4
100
AcDbLine
 10
-92.35221669118462
 20
-99.57215942003117
 30
0.0
 11
-87.16703160202135
 21
-104.7573445091942
 31
0.0
  0
LINE
  5
569
330
1F
100
AcDbEntity
  8
LAYER-006
  6
Continuous
 62
     4
100
AcDbLine
 10
-68.27813806311835
 20
-99.57215942003114
 30
0.0
 11
-63.09295297395508
 21
-104.7573445091942
 31
0.0
  0
LINE
  5
56A
330
1F
100
AcDbEntity
  8
LAYER-006
  6
Continuous
 62
     4
100
AcDbLine
 10
-188.2781423223778
 20
-101.4240112375894
 30
0.0
 11
-186.0559238450113
 21
-99.20178535281565
 31
0.0
  0
LINE
  5
56B
330
1F
100
AcDbEntity
  8
LAYER-006
  6
Continuous
 62
     4
100
AcDbLine
 10
-164.2040711015426
 20
-101.4240112381162
 30
0.0
 11
-161.9818526241763
 21
-99.20178535281565
 31
0.0
  0
LINE
  5
56C
330
1F
100
AcDbEntity
  8
LAYER-006
  6
Continuous
 62
     4
100
AcDbLine
 10
-140.1299961772111
 20
-101.4240112381162
 30
0.0
 11
-137.9077776994547
 21
-99.20178535281565
 31
0.0
  0
LINE
  5
56D
330
1F
100
AcDbEntity
  8
LAYER-006
  6
Continuous
 62
     4
100
AcDbLine
 10
-116.0559212524643
 20
-101.4240112381162
 30
0.0
 11
-113.8337027750979
 21
-99.20178535281565
 31
0.0
  0
LINE
  5
56E
330
1F
100
AcDbEntity
  8
LAYER-006
  6
Continuous
 62
     4
100
AcDbLine
 10
-91.98184632767303
 20
-101.4240112381162
 30
0.0
 11
-89.75962785030666
 21
-99.20178535281565
 31
0.0
  0
LINE
  5
56F
330
1F
100
AcDbEntity
  8
LAYER-006
  6
Continuous
 62
     4
100
AcDbLine
 10
-67.90776769960675
 20
-101.424011237227
 30
0.0
 11
-65.68554922224038
 21
-99.20178535343572
 31
0.0
  0
LINE
  5
570
330
1F
100
AcDbEntity
  8
LAYER-006
  6
Continuous
 62
     4
100
AcDbLine
 10
-187.1670312318428
 20
-102.905492691636
 30
0.0
 11
-183.4633275967262
 21
-99.20178535281565
 31
0.0
  0
LINE
  5
571
330
1F
100
AcDbEntity
  8
LAYER-006
  6
Continuous
 62
     4
100
AcDbLine
 10
-163.0929600108534
 20
-102.905492691636
 30
0.0
 11
-159.3892563758908
 21
-99.20178535281565
 31
0.0
  0
LINE
  5
572
330
1F
100
AcDbEntity
  8
LAYER-006
  6
Continuous
 62
     4
100
AcDbLine
 10
-139.018885086046
 20
-102.905492691636
 30
0.0
 11
-135.3151814513518
 21
-99.20178535281565
 31
0.0
  0
LINE
  5
573
330
1F
100
AcDbEntity
  8
LAYER-006
  6
Continuous
 62
     4
100
AcDbLine
 10
-114.9448101619293
 20
-102.905492691636
 30
0.0
 11
-111.2411065268126
 21
-99.20178535281565
 31
0.0
  0
LINE
  5
574
330
1F
100
AcDbEntity
  8
LAYER-006
  6
Continuous
 62
     4
100
AcDbLine
 10
-90.87073523713801
 20
-102.905492691636
 30
0.0
 11
-87.16703160202135
 21
-99.20178535281565
 31
0.0
  0
LINE
  5
575
330
1F
100
AcDbEntity
  8
LAYER-006
  6
Continuous
 62
     4
100
AcDbLine
 10
-66.79665660907173
 20
-102.905492691636
 30
0.0
 11
-63.09295297395508
 21
-99.20178535343572
 31
0.0
  0
LINE
  5
576
330
1F
100
AcDbEntity
  8
LAYER-006
  6
Continuous
 62
     4
100
AcDbLine
 10
-185.6855460740925
 20
-104.0166000784673
 30
0.0
 11
-180.8707350521445
 21
-99.20178535281565
 31
0.0
  0
LINE
  5
577
330
1F
100
AcDbEntity
  8
LAYER-006
  6
Continuous
 62
     4
100
AcDbLine
 10
-180.5003683923366
 20
-104.0166000784673
 30
0.0
 11
-178.6485165749408
 21
-102.1647482609091
 31
0.0
  0
LINE
  5
578
330
1F
100
AcDbEntity
  8
LAYER-006
  6
Continuous
 62
     4
100
AcDbLine
 10
-161.6114748532573
 20
-104.016600077868
 30
0.0
 11
-156.7966638315985
 21
-99.20178535281565
 31
0.0
  0
LINE
  5
579
330
1F
100
AcDbEntity
  8
LAYER-006
  6
Continuous
 62
     4
100
AcDbLine
 10
-156.4262971715014
 20
-104.016600077868
 30
0.0
 11
-154.5744453539429
 21
-102.1647482609091
 31
0.0
  0
LINE
  5
57A
330
1F
100
AcDbEntity
  8
LAYER-006
  6
Continuous
 62
     4
100
AcDbLine
 10
-137.5373999287183
 20
-104.0166000784673
 30
0.0
 11
-132.7225889067703
 21
-99.20178535281565
 31
0.0
  0
LINE
  5
57B
330
1F
100
AcDbEntity
  8
LAYER-006
  6
Continuous
 62
     4
100
AcDbLine
 10
-132.3522222469623
 20
-104.0166000784673
 30
0.0
 11
-130.5003704294038
 21
-102.1647482601476
 31
0.0
  0
LINE
  5
57C
330
1F
100
AcDbEntity
  8
LAYER-006
  6
Continuous
 62
     4
100
AcDbLine
 10
-113.463325004046
 20
-104.016600077868
 30
0.0
 11
-108.648513982231
 21
-99.20178535281565
 31
0.0
  0
LINE
  5
57D
330
1F
100
AcDbEntity
  8
LAYER-006
  6
Continuous
 62
     4
100
AcDbLine
 10
-108.2781473224231
 20
-104.016600077868
 30
0.0
 11
-106.4262955048646
 21
-102.1647482609091
 31
0.0
  0
LINE
  5
57E
330
1F
100
AcDbEntity
  8
LAYER-006
  6
Continuous
 62
     4
100
AcDbLine
 10
-89.38925007938772
 20
-104.0166000784673
 30
0.0
 11
-84.57443905743972
 21
-99.20178535281565
 31
0.0
  0
LINE
  5
57F
330
1F
100
AcDbEntity
  8
LAYER-006
  6
Continuous
 62
     4
100
AcDbLine
 10
-84.20407239763185
 20
-104.0166000784673
 30
0.0
 11
-82.35222058007335
 21
-102.1647482601476
 31
0.0
  0
LINE
  5
580
330
1F
100
AcDbEntity
  8
LAYER-006
  6
Continuous
 62
     4
100
AcDbLine
 10
-65.31517145093173
 20
-104.0166000784673
 30
0.0
 11
-60.50036042968085
 21
-99.20178535343572
 31
0.0
  0
LINE
  5
581
330
1F
100
AcDbEntity
  8
LAYER-006
  6
Continuous
 62
     4
100
AcDbLine
 10
-60.12999376956557
 20
-104.0166000784673
 30
0.0
 11
-58.27814195200708
 21
-102.1647482609091
 31
0.0
  0
LINE
  5
582
330
1F
100
AcDbEntity
  8
LAYER-006
  6
Continuous
 62
     4
100
AcDbLine
 10
-183.8336942565343
 20
-104.7573445091942
 30
0.0
 11
-178.2781425075628
 21
-99.20178535281565
 31
0.0
  0
LINE
  5
583
330
1F
100
AcDbEntity
  8
LAYER-006
  6
Continuous
 62
     4
100
AcDbLine
 10
-159.7596230356991
 20
-104.7573445091942
 30
0.0
 11
-154.2040712867277
 21
-99.20178535281565
 31
0.0
  0
LINE
  5
584
330
1F
100
AcDbEntity
  8
LAYER-006
  6
Continuous
 62
     4
100
AcDbLine
 10
-135.6855481111601
 20
-104.7573445091942
 30
0.0
 11
-130.1299963621887
 21
-99.20178535281565
 31
0.0
  0
LINE
  5
585
330
1F
100
AcDbEntity
  8
LAYER-006
  6
Continuous
 62
     4
100
AcDbLine
 10
-111.6114731866208
 20
-104.7573445091942
 30
0.0
 11
-106.0559214376494
 21
-99.20178535281565
 31
0.0
  0
LINE
  5
586
330
1F
100
AcDbEntity
  8
LAYER-006
  6
Continuous
 62
     4
100
AcDbLine
 10
-87.53739826182951
 20
-104.7573445091942
 30
0.0
 11
-81.98184651243835
 21
-99.20178535281565
 31
0.0
  0
LINE
  5
587
330
1F
100
AcDbEntity
  8
LAYER-006
  6
Continuous
 62
     4
100
AcDbLine
 10
-63.46331963376329
 20
-104.7573445091942
 30
0.0
 11
-57.90776788479175
 21
-99.20178535343572
 31
0.0
  0
LINE
  5
588
330
1F
100
AcDbEntity
  8
LAYER-007
  6
CENTER
 62
     4
100
AcDbLine
 10
59.12827881630741
 20
-4.757342657342662
 30
0.0
 11
188.8301836275613
 21
-4.757342657342662
 31
0.0
  0
LINE
  5
589
330
1F
100
AcDbEntity
  8
LAYER-006
  6
Continuous
 62
     1
100
AcDbLine
 10
93.45981380594927
 20
-43.64623597010002
 30
0.0
 11
82.34870248885588
 21
-43.64623597010002
 31
0.0
  0
LINE
  5
58A
330
1F
100
AcDbEntity
  8
LAYER-006
  6
Continuous
 62
     1
100
AcDbLine
 10
95.31166569209472
 20
-46.60919528422888
 30
0.0
 11
82.34870248885588
 21
-46.60919528422888
 31
0.0
  0
LINE
  5
58B
330
1F
100
AcDbEntity
  8
LAYER-006
  6
Continuous
 62
     1
100
AcDbLine
 10
97.53388795546925
 20
-49.57215830206157
 30
0.0
 11
82.34870248885588
 21
-49.57215830206157
 31
0.0
  0
LINE
  5
58C
330
1F
100
AcDbEntity
  8
LAYER-006
  6
Continuous
 62
     1
100
AcDbLine
 10
111.9783326672634
 20
-82.53512187544983
 30
0.0
 11
111.9783326672634
 21
73.02044026512645
 31
0.0
  0
LINE
  5
58D
330
1F
100
AcDbEntity
  8
LAYER-006
  6
Continuous
 62
     1
100
AcDbLine
 10
99.38573984139575
 20
-52.53512502359799
 30
0.0
 11
82.34870248885588
 21
-52.53512502359799
 31
0.0
  0
LINE
  5
58E
330
1F
100
AcDbEntity
  8
LAYER-006
  6
Continuous
 62
     1
100
AcDbLine
 10
100.4968509733019
 20
-54.38697690974341
 30
0.0
 11
82.34870248885588
 21
-54.38697690974341
 31
0.0
  0
LINE
  5
58F
330
1F
100
AcDbEntity
  8
LAYER-006
  6
Continuous
 62
     1
100
AcDbLine
 10
159.2005497455311
 20
-54.75734265734266
 30
0.0
 11
188.8301836275613
 21
-54.75734265734266
 31
0.0
  0
LINE
  5
590
330
1F
100
AcDbEntity
  8
LAYER-006
  6
Continuous
 62
     1
100
AcDbLine
 10
159.2005497455311
 20
-56.75734265734266
 30
0.0
 11
186.8301836275613
 21
-56.75734265734266
 31
0.0
  0
LINE
  5
591
330
1F
100
AcDbEntity
  8
LAYER-006
  6
Continuous
 62
     1
100
AcDbLine
 10
102.7190732366764
 20
-57.34993622387229
 30
0.0
 11
82.34870248885588
 21
-57.34993622387229
 31
0.0
  0
LINE
  5
592
330
1F
100
AcDbEntity
  8
LAYER-006
  6
Continuous
 62
     1
100
AcDbLine
 10
82.34870248885588
 20
-60.3128992417049
 30
0.0
 11
111.9783326672804
 21
-60.3128992417049
 31
0.0
  0
LINE
  5
593
330
1F
100
AcDbEntity
  8
LAYER-006
  6
Continuous
 62
     1
100
AcDbLine
 10
82.34870248885588
 20
-62.16475112785032
 30
0.0
 11
111.9783326672804
 21
-62.16475112785032
 31
0.0
  0
LINE
  5
594
330
1F
100
AcDbEntity
  8
LAYER-006
  6
Continuous
 62
     1
100
AcDbLine
 10
74.94129494409776
 20
-76.97956621701361
 30
0.0
 11
74.94129494409776
 21
-88.09067753319907
 31
0.0
  0
LINE
  5
595
330
1F
100
AcDbEntity
  8
LAYER-006
  6
Continuous
 62
     1
100
AcDbLine
 10
74.94129494409776
 20
-76.97956621701361
 30
0.0
 11
78.64499871678606
 21
-76.97956621701361
 31
0.0
  0
LINE
  5
596
330
1F
100
AcDbEntity
  8
LAYER-006
  6
Continuous
 62
     1
100
AcDbLine
 10
76.79314683064058
 20
-76.97956621701361
 30
0.0
 11
76.79314683064058
 21
-99.20178885075849
 31
0.0
  0
LINE
  5
597
330
1F
100
AcDbEntity
  8
LAYER-006
  6
Continuous
 62
     1
100
AcDbLine
 10
78.64499871678606
 20
-76.97956621701361
 30
0.0
 11
78.64499871678606
 21
-88.09067753319907
 31
0.0
  0
LINE
  5
598
330
1F
100
AcDbEntity
  8
LAYER-006
  6
Continuous
 62
     1
100
AcDbLine
 10
71.23759117220442
 20
-78.83141810315904
 30
0.0
 11
74.94129494409776
 21
-78.83141810315904
 31
0.0
  0
LINE
  5
599
330
1F
100
AcDbEntity
  8
LAYER-006
  6
Continuous
 62
     1
100
AcDbLine
 10
78.64499871678606
 20
-78.83141810315904
 30
0.0
 11
86.05240626077264
 21
-78.83141810315904
 31
0.0
  0
LINE
  5
59A
330
1F
100
AcDbEntity
  8
LAYER-006
  6
Continuous
 62
     1
100
AcDbLine
 10
104.5709251228217
 20
-78.83141810315904
 30
0.0
 11
108.2746288951126
 21
-78.83141810315904
 31
0.0
  0
LINE
  5
59B
330
1F
100
AcDbEntity
  8
LAYER-006
  6
Continuous
 62
     1
100
AcDbLine
 10
63.8301836275613
 20
-80.68326998930444
 30
0.0
 11
74.94129494409776
 21
-80.68326998930444
 31
0.0
  0
LINE
  5
59C
330
1F
100
AcDbEntity
  8
LAYER-006
  6
Continuous
 62
     1
100
AcDbLine
 10
78.64499871678606
 20
-80.68326998930444
 30
0.0
 11
86.05240626077264
 21
-80.68326998930444
 31
0.0
  0
LINE
  5
59D
330
1F
100
AcDbEntity
  8
LAYER-006
  6
Continuous
 62
     1
100
AcDbLine
 10
104.5709251228217
 20
-80.68326998930444
 30
0.0
 11
108.2746288951126
 21
-80.68326998930444
 31
0.0
  0
LINE
  5
59E
330
1F
100
AcDbEntity
  8
LAYER-007
  6
CENTER
 62
     4
100
AcDbLine
 10
63.8301836275613
 20
-82.53512187544983
 30
0.0
 11
109.7561104040289
 21
-82.53512187544983
 31
0.0
  0
LINE
  5
59F
330
1F
100
AcDbEntity
  8
LAYER-006
  6
Continuous
 62
     1
100
AcDbLine
 10
159.2005497455311
 20
-82.53512187544983
 30
0.0
 11
111.9783326672634
 21
-82.53512187544983
 31
0.0
  0
LINE
  5
5A0
330
1F
100
AcDbEntity
  8
LAYER-006
  6
Continuous
 62
     1
100
AcDbLine
 10
159.2005497455311
 20
-82.53512187544983
 30
0.0
 11
111.9783326672634
 21
-82.53512187544983
 31
0.0
  0
LINE
  5
5A1
330
1F
100
AcDbEntity
  8
LAYER-006
  6
Continuous
 62
     1
100
AcDbLine
 10
63.8301836275613
 20
-84.38697376159526
 30
0.0
 11
74.94129494409776
 21
-84.38697376159526
 31
0.0
  0
LINE
  5
5A2
330
1F
100
AcDbEntity
  8
LAYER-006
  6
Continuous
 62
     1
100
AcDbLine
 10
63.8301836275613
 20
-84.38697376159526
 30
0.0
 11
63.8301836275613
 21
-80.68326998930444
 31
0.0
  0
LINE
  5
5A3
330
1F
100
AcDbEntity
  8
LAYER-006
  6
Continuous
 62
     1
100
AcDbLine
 10
78.64499871678606
 20
-84.38697376159526
 30
0.0
 11
86.05240626077264
 21
-84.38697376159526
 31
0.0
  0
LINE
  5
5A4
330
1F
100
AcDbEntity
  8
LAYER-006
  6
Continuous
 62
     1
100
AcDbLine
 10
104.5709251228217
 20
-84.38697376159526
 30
0.0
 11
108.2746288951126
 21
-84.38697376159526
 31
0.0
  0
LINE
  5
5A5
330
1F
100
AcDbEntity
  8
LAYER-006
  6
Continuous
 62
     1
100
AcDbLine
 10
71.23759117220442
 20
-86.23882564738638
 30
0.0
 11
74.94129494409776
 21
-86.23882564738638
 31
0.0
  0
LINE
  5
5A6
330
1F
100
AcDbEntity
  8
LAYER-006
  6
Continuous
 62
     1
100
AcDbLine
 10
71.23759117220442
 20
-86.23882564738638
 30
0.0
 11
71.23759117220442
 21
-78.83141810315904
 31
0.0
  0
LINE
  5
5A7
330
1F
100
AcDbEntity
  8
LAYER-006
  6
Continuous
 62
     1
100
AcDbLine
 10
78.64499871678606
 20
-86.23882564738638
 30
0.0
 11
86.05240626077264
 21
-86.23882564738638
 31
0.0
  0
LINE
  5
5A8
330
1F
100
AcDbEntity
  8
LAYER-006
  6
Continuous
 62
     1
100
AcDbLine
 10
82.34870248885588
 20
-86.23882564738638
 30
0.0
 11
82.34870248885588
 21
-78.83141810315904
 31
0.0
  0
LINE
  5
5A9
330
1F
100
AcDbEntity
  8
LAYER-006
  6
Continuous
 62
     1
100
AcDbLine
 10
104.5709251228217
 20
-86.23882564738638
 30
0.0
 11
108.2746288951126
 21
-86.23882564738638
 31
0.0
  0
LINE
  5
5AA
330
1F
100
AcDbEntity
  8
LAYER-006
  6
Continuous
 62
     1
100
AcDbLine
 10
108.2746288951126
 20
-86.23882564738638
 30
0.0
 11
108.2746288951126
 21
-78.83141810315904
 31
0.0
  0
LINE
  5
5AB
330
1F
100
AcDbEntity
  8
LAYER-006
  6
Continuous
 62
     1
100
AcDbLine
 10
78.64499871678606
 20
-88.09067753319907
 30
0.0
 11
84.20055437482168
 21
-89.94252942003148
 31
0.0
  0
LINE
  5
5AC
330
1F
100
AcDbEntity
  8
LAYER-006
  6
Continuous
 62
     1
100
AcDbLine
 10
86.05240626077264
 20
-88.09067753319907
 30
0.0
 11
86.05240626077264
 21
-62.16475112785032
 31
0.0
  0
LINE
  5
5AD
330
1F
100
AcDbEntity
  8
LAYER-006
  6
Continuous
 62
     1
100
AcDbLine
 10
86.05240626077264
 20
-88.09067753319907
 30
0.0
 11
104.5709251228217
 21
-88.09067753319907
 31
0.0
  0
LINE
  5
5AE
330
1F
100
AcDbEntity
  8
LAYER-006
  6
Continuous
 62
     1
100
AcDbLine
 10
104.5709251228217
 20
-88.09067753319907
 30
0.0
 11
104.5709251228217
 21
-62.16475112785032
 31
0.0
  0
LINE
  5
5AF
330
1F
100
AcDbEntity
  8
LAYER-006
  6
Continuous
 62
     1
100
AcDbLine
 10
186.8301836275613
 20
-89.75734265734266
 30
0.0
 11
188.8301836275613
 21
-89.75734265734266
 31
0.0
  0
LINE
  5
5B0
330
1F
100
AcDbEntity
  8
LAYER-006
  6
Continuous
 62
     1
100
AcDbLine
 10
186.8301836275613
 20
-89.75734265734266
 30
0.0
 11
186.8301836275613
 21
-56.75734265734266
 31
0.0
  0
LINE
  5
5B1
330
1F
100
AcDbEntity
  8
LAYER-006
  6
Continuous
 62
     1
100
AcDbLine
 10
69.38573928622273
 20
-89.94252942003148
 30
0.0
 11
74.94129494409776
 21
-88.09067753319907
 31
0.0
  0
ARC
  5
5B2
330
1F
100
AcDbEntity
  8
LAYER-006
  6
Continuous
 62
     1
100
AcDbCircle
 10
159.2005497455311
 20
-93.646233192
 30
0.0
 40
11.11111131687245
100
AcDbArc
 50
269.9777129999997
 51
90.00105199999966
  0
LINE
  5
5B3
330
1F
100
AcDbEntity
  8
LAYER-006
  6
Continuous
 62
     1
100
AcDbLine
 10
69.38573928622273
 20
-99.20178885075849
 30
0.0
 11
69.38573928622273
 21
-89.94252942003148
 31
0.0
  0
LINE
  5
5B4
330
1F
100
AcDbEntity
  8
LAYER-006
  6
Continuous
 62
     1
100
AcDbLine
 10
69.38573928622273
 20
-99.20178885075849
 30
0.0
 11
84.20055437482168
 21
-99.20178885075849
 31
0.0
  0
LINE
  5
5B5
330
1F
100
AcDbEntity
  8
LAYER-007
  6
HIDDEN
 62
     4
100
AcDbLine
 10
78.64499871678606
 20
-99.20178885075849
 30
0.0
 11
78.64499871678606
 21
-88.09067753319907
 31
0.0
  0
LINE
  5
5B6
330
1F
100
AcDbEntity
  8
LAYER-007
  6
HIDDEN
 62
     4
100
AcDbLine
 10
82.34870248885588
 20
-99.20178885075849
 30
0.0
 11
82.34870248885588
 21
-89.20179236927713
 31
0.0
  0
LINE
  5
5B7
330
1F
100
AcDbEntity
  8
LAYER-006
  6
Continuous
 62
     1
100
AcDbLine
 10
84.20055437482168
 20
-99.20178885075849
 30
0.0
 11
84.20055437482168
 21
-89.94252942003148
 31
0.0
  0
ARC
  5
5B8
330
1F
100
AcDbEntity
  8
LAYER-006
  6
Continuous
 62
     1
100
AcDbCircle
 10
86.05240626077264
 20
-99.20178885075849
 30
0.0
 40
5.555555658436227
100
AcDbArc
 50
180.0233390000045
 51
269.9777130061363
  0
LINE
  5
5B9
330
1F
100
AcDbEntity
  8
LAYER-033
  6
Continuous
 62
     1
100
AcDbLine
 10
86.0502452523674
 20
-104.7573440888986
 30
0.0
 11
159.1962277285556
 21
-104.7573440888986
 31
0.0
  0
LINE
  5
5BA
330
1F
100
AcDbEntity
  8
LAYER-033
  6
Continuous
 62
     1
100
AcDbLine
 10
159.2003457359303
 20
95.24265919450942
 30
0.0
 11
86.05127470622276
 21
95.24265919450942
 31
0.0
  0
LINE
  5
5BB
330
1F
100
AcDbEntity
  8
LAYER-006
  6
Continuous
 62
     1
100
AcDbLine
 10
69.38573928622273
 20
89.68710353607311
 30
0.0
 11
69.38573928622273
 21
80.42784410534618
 31
0.0
  0
LINE
  5
5BC
330
1F
100
AcDbEntity
  8
LAYER-006
  6
Continuous
 62
     1
100
AcDbLine
 10
69.38573928622273
 20
89.68710353607311
 30
0.0
 11
84.20055437482168
 21
89.68710353607311
 31
0.0
  0
LINE
  5
5BD
330
1F
100
AcDbEntity
  8
LAYER-007
  6
HIDDEN
 62
     4
100
AcDbLine
 10
78.64499871678606
 20
89.68710353607311
 30
0.0
 11
78.64499871678606
 21
78.57599221964067
 31
0.0
  0
LINE
  5
5BE
330
1F
100
AcDbEntity
  8
LAYER-007
  6
HIDDEN
 62
     4
100
AcDbLine
 10
82.34870248885588
 20
89.68710353607311
 30
0.0
 11
82.34870248885588
 21
79.68710335048867
 31
0.0
  0
LINE
  5
5BF
330
1F
100
AcDbEntity
  8
LAYER-006
  6
Continuous
 62
     1
100
AcDbLine
 10
84.20055437482168
 20
89.68710353607311
 30
0.0
 11
84.20055437482168
 21
80.42784410534618
 31
0.0
  0
ARC
  5
5C0
330
1F
100
AcDbEntity
  8
LAYER-006
  6
Continuous
 62
     1
100
AcDbCircle
 10
86.05240626077264
 20
89.68710353607311
 30
0.0
 40
5.555555658436227
100
AcDbArc
 50
90.01166999362204
 51
180.0233390029199
  0
ARC
  5
5C1
330
1F
100
AcDbEntity
  8
LAYER-006
  6
Continuous
 62
     1
100
AcDbCircle
 10
159.2005497455311
 20
84.13154787763698
 30
0.0
 40
11.11111131687245
100
AcDbArc
 50
269.9777129999998
 51
90.00105199999962
  0
LINE
  5
5C2
330
1F
100
AcDbEntity
  8
LAYER-006
  6
Continuous
 62
     1
100
AcDbLine
 10
69.38573928622273
 20
80.42784410534618
 30
0.0
 11
74.94129494409776
 21
78.57599221964067
 31
0.0
  0
LINE
  5
5C3
330
1F
100
AcDbEntity
  8
LAYER-006
  6
Continuous
 62
     1
100
AcDbLine
 10
186.8301836275613
 20
80.24265734263345
 30
0.0
 11
188.8301836275613
 21
80.24265734263345
 31
0.0
  0
LINE
  5
5C4
330
1F
100
AcDbEntity
  8
LAYER-006
  6
Continuous
 62
     1
100
AcDbLine
 10
186.8301836275613
 20
80.24265734263345
 30
0.0
 11
186.8301836275613
 21
47.24265734263345
 31
0.0
  0
LINE
  5
5C5
330
1F
100
AcDbEntity
  8
LAYER-006
  6
Continuous
 62
     1
100
AcDbLine
 10
188.8301836275613
 20
80.24265734263345
 30
0.0
 11
188.8301836275613
 21
-89.75734265734268
 31
0.0
  0
LINE
  5
5C6
330
1F
100
AcDbEntity
  8
LAYER-006
  6
Continuous
 62
     1
100
AcDbLine
 10
78.64499871678606
 20
78.57599221964067
 30
0.0
 11
84.20055437482168
 21
80.42784410534618
 31
0.0
  0
LINE
  5
5C7
330
1F
100
AcDbEntity
  8
LAYER-006
  6
Continuous
 62
     1
100
AcDbLine
 10
86.05240626077264
 20
78.57599221964067
 30
0.0
 11
86.05240626077264
 21
52.65006210946125
 31
0.0
  0
LINE
  5
5C8
330
1F
100
AcDbEntity
  8
LAYER-006
  6
Continuous
 62
     1
100
AcDbLine
 10
86.05240626077264
 20
78.57599221964067
 30
0.0
 11
104.5709251228217
 21
78.57599221964067
 31
0.0
  0
LINE
  5
5C9
330
1F
100
AcDbEntity
  8
LAYER-006
  6
Continuous
 62
     1
100
AcDbLine
 10
104.5709251228217
 20
78.57599221964067
 30
0.0
 11
104.5709251228217
 21
52.65006210946125
 31
0.0
  0
LINE
  5
5CA
330
1F
100
AcDbEntity
  8
LAYER-006
  6
Continuous
 62
     1
100
AcDbLine
 10
71.23759117220442
 20
76.7241403330553
 30
0.0
 11
74.94129494409776
 21
76.7241403330553
 31
0.0
  0
LINE
  5
5CB
330
1F
100
AcDbEntity
  8
LAYER-006
  6
Continuous
 62
     1
100
AcDbLine
 10
71.23759117220442
 20
76.7241403330553
 30
0.0
 11
71.23759117220442
 21
69.31673649217744
 31
0.0
  0
LINE
  5
5CC
330
1F
100
AcDbEntity
  8
LAYER-006
  6
Continuous
 62
     1
100
AcDbLine
 10
78.64499871678606
 20
76.7241403330553
 30
0.0
 11
86.05240626077264
 21
76.7241403330553
 31
0.0
  0
LINE
  5
5CD
330
1F
100
AcDbEntity
  8
LAYER-006
  6
Continuous
 62
     1
100
AcDbLine
 10
82.34870248885588
 20
76.7241403330553
 30
0.0
 11
82.34870248885588
 21
69.31673649217744
 31
0.0
  0
LINE
  5
5CE
330
1F
100
AcDbEntity
  8
LAYER-006
  6
Continuous
 62
     1
100
AcDbLine
 10
104.5709251228217
 20
76.7241403330553
 30
0.0
 11
108.2746288951126
 21
76.7241403330553
 31
0.0
  0
LINE
  5
5CF
330
1F
100
AcDbEntity
  8
LAYER-006
  6
Continuous
 62
     1
100
AcDbLine
 10
108.2746288951126
 20
76.7241403330553
 30
0.0
 11
108.2746288951126
 21
69.31673649217744
 31
0.0
  0
LINE
  5
5D0
330
1F
100
AcDbEntity
  8
LAYER-006
  6
Continuous
 62
     1
100
AcDbLine
 10
63.8301836275613
 20
74.87229215061363
 30
0.0
 11
74.94129494409776
 21
74.87229215061363
 31
0.0
  0
LINE
  5
5D1
330
1F
100
AcDbEntity
  8
LAYER-006
  6
Continuous
 62
     1
100
AcDbLine
 10
63.8301836275613
 20
74.87229215061363
 30
0.0
 11
63.8301836275613
 21
71.16858837832281
 31
0.0
  0
LINE
  5
5D2
330
1F
100
AcDbEntity
  8
LAYER-006
  6
Continuous
 62
     1
100
AcDbLine
 10
78.64499871678606
 20
74.87229215061363
 30
0.0
 11
86.05240626077264
 21
74.87229215061363
 31
0.0
  0
LINE
  5
5D3
330
1F
100
AcDbEntity
  8
LAYER-006
  6
Continuous
 62
     1
100
AcDbLine
 10
104.5709251228217
 20
74.87229215061363
 30
0.0
 11
108.2746288951126
 21
74.87229215061363
 31
0.0
  0
LINE
  5
5D4
330
1F
100
AcDbEntity
  8
LAYER-007
  6
CENTER
 62
     4
100
AcDbLine
 10
63.8301836275613
 20
73.02044026512645
 30
0.0
 11
110.126480781258
 21
73.02044026512645
 31
0.0
  0
LINE
  5
5D5
330
1F
100
AcDbEntity
  8
LAYER-006
  6
Continuous
 62
     1
100
AcDbLine
 10
159.2005497455311
 20
73.02044026512645
 30
0.0
 11
159.2005497455311
 21
-82.53512187544983
 31
0.0
  0
LINE
  5
5D6
330
1F
100
AcDbEntity
  8
LAYER-006
  6
Continuous
 62
     1
100
AcDbLine
 10
159.2005497455311
 20
73.02044026512645
 30
0.0
 11
111.9783326672634
 21
73.02044026512645
 31
0.0
  0
LINE
  5
5D7
330
1F
100
AcDbEntity
  8
LAYER-006
  6
Continuous
 62
     1
100
AcDbLine
 10
63.8301836275613
 20
71.16858837832281
 30
0.0
 11
74.94129494409776
 21
71.16858837832281
 31
0.0
  0
LINE
  5
5D8
330
1F
100
AcDbEntity
  8
LAYER-006
  6
Continuous
 62
     1
100
AcDbLine
 10
78.64499871678606
 20
71.16858837832281
 30
0.0
 11
86.05240626077264
 21
71.16858837832281
 31
0.0
  0
LINE
  5
5D9
330
1F
100
AcDbEntity
  8
LAYER-006
  6
Continuous
 62
     1
100
AcDbLine
 10
104.5709251228217
 20
71.16858837832281
 30
0.0
 11
108.2746288951126
 21
71.16858837832281
 31
0.0
  0
LINE
  5
5DA
330
1F
100
AcDbEntity
  8
LAYER-006
  6
Continuous
 62
     1
100
AcDbLine
 10
71.23759117220442
 20
69.31673649217744
 30
0.0
 11
74.94129494409776
 21
69.31673649217744
 31
0.0
  0
LINE
  5
5DB
330
1F
100
AcDbEntity
  8
LAYER-006
  6
Continuous
 62
     1
100
AcDbLine
 10
78.64499871678606
 20
69.31673649217744
 30
0.0
 11
86.05240626077264
 21
69.31673649217744
 31
0.0
  0
LINE
  5
5DC
330
1F
100
AcDbEntity
  8
LAYER-006
  6
Continuous
 62
     1
100
AcDbLine
 10
104.5709251228217
 20
69.31673649217744
 30
0.0
 11
108.2746288951126
 21
69.31673649217744
 31
0.0
  0
LINE
  5
5DD
330
1F
100
AcDbEntity
  8
LAYER-006
  6
Continuous
 62
     1
100
AcDbLine
 10
74.94129494409776
 20
67.46488460603199
 30
0.0
 11
74.94129494409776
 21
78.57599221964067
 31
0.0
  0
LINE
  5
5DE
330
1F
100
AcDbEntity
  8
LAYER-006
  6
Continuous
 62
     1
100
AcDbLine
 10
74.94129494409776
 20
67.46488460603199
 30
0.0
 11
78.64499871678606
 21
67.46488460603199
 31
0.0
  0
LINE
  5
5DF
330
1F
100
AcDbEntity
  8
LAYER-006
  6
Continuous
 62
     1
100
AcDbLine
 10
76.79314683064058
 20
67.46488460603199
 30
0.0
 11
76.79314683064058
 21
89.68710353607311
 31
0.0
  0
LINE
  5
5E0
330
1F
100
AcDbEntity
  8
LAYER-006
  6
Continuous
 62
     1
100
AcDbLine
 10
78.64499871678606
 20
67.46488460603199
 30
0.0
 11
78.64499871678606
 21
78.57599221964067
 31
0.0
  0
LINE
  5
5E1
330
1F
100
AcDbEntity
  8
LAYER-006
  6
Continuous
 62
     1
100
AcDbLine
 10
82.34870248885588
 20
52.65006210946125
 30
0.0
 11
111.9783326672804
 21
52.65006210946125
 31
0.0
  0
LINE
  5
5E2
330
1F
100
AcDbEntity
  8
LAYER-006
  6
Continuous
 62
     1
100
AcDbLine
 10
82.34870248885588
 20
52.65006210946125
 30
0.0
 11
82.34870248885588
 21
-62.16475112785032
 31
0.0
  0
LINE
  5
5E3
330
1F
100
AcDbEntity
  8
LAYER-006
  6
Continuous
 62
     1
100
AcDbLine
 10
82.34870248885588
 20
50.79821022331582
 30
0.0
 11
111.9783326672804
 21
50.79821022331582
 31
0.0
  0
LINE
  5
5E4
330
1F
100
AcDbEntity
  8
LAYER-006
  6
Continuous
 62
     1
100
AcDbLine
 10
159.2005497455311
 20
47.24265734263345
 30
0.0
 11
186.8301836275613
 21
47.24265734263345
 31
0.0
  0
LINE
  5
5E5
330
1F
100
AcDbEntity
  8
LAYER-006
  6
Continuous
 62
     1
100
AcDbLine
 10
159.2005497455311
 20
45.24265734263345
 30
0.0
 11
188.8301836275613
 21
45.24265734263345
 31
0.0
  0
LINE
  5
5E6
330
1F
100
AcDbEntity
  8
LAYER-006
  6
Continuous
 62
     1
100
AcDbLine
 10
168.4598091762582
 20
42.27969802848515
 30
0.0
 11
188.8301836275613
 21
42.27969802848515
 31
0.0
  0
LINE
  5
5E7
330
1F
100
AcDbEntity
  8
LAYER-006
  6
Continuous
 62
     1
100
AcDbLine
 10
170.6820351433365
 20
39.31673501067193
 30
0.0
 11
188.8301836275613
 21
39.31673501067193
 31
0.0
  0
LINE
  5
5E8
330
1F
100
AcDbEntity
  8
LAYER-006
  6
Continuous
 62
     1
100
AcDbLine
 10
171.7931425713199
 20
37.46488312452648
 30
0.0
 11
188.8301836275613
 21
37.46488312452648
 31
0.0
  0
LINE
  5
5E9
330
1F
100
AcDbEntity
  8
LAYER-006
  6
Continuous
 62
     1
100
AcDbLine
 10
173.6449944574653
 20
34.50191640299001
 30
0.0
 11
188.8301836275613
 21
34.50191640299001
 31
0.0
  0
LINE
  5
5EA
330
1F
100
AcDbEntity
  8
LAYER-006
  6
Continuous
 62
     1
100
AcDbLine
 10
175.8672204228478
 20
31.538957089
 30
0.0
 11
188.8301836275613
 21
31.538957089
 31
0.0
  0
LINE
  5
5EB
330
1F
100
AcDbEntity
  8
LAYER-006
  6
Continuous
 62
     1
100
AcDbLine
 10
177.7190723106889
 20
28.57599407102852
 30
0.0
 11
188.8301836275613
 21
28.57599407102852
 31
0.0
  0
TEXT
  5
5EC
330
1F
100
AcDbEntity
  8
LAYER-033
  6
Continuous
 62
     7
100
AcDbText
 10
-78.59006319201528
 20
-233.7017527596956
 30
0.0
 40
4.0
  1
２００／２２０Ｖ　５０／６０Ｈｚ　５．５～７．５ｋＷ
  7
STRING_H
 11
-78.59006319201528
 21
-231.7017527596956
 31
0.0
100
AcDbText
 73
     2
  0
TEXT
  5
5ED
330
1F
100
AcDbEntity
  8
LAYER-033
  6
Continuous
 62
     7
100
AcDbText
 10
-78.59006319201528
 20
-241.7872028606628
 30
0.0
 40
4.0
  1
質　　量　　１４㎏
  7
STRING_H
 11
-78.59006319201528
 21
-239.7872028606628
 31
0.0
100
AcDbText
 73
     2
  0
TEXT
  5
5EE
330
1F
100
AcDbEntity
  8
LAYER-033
  6
Continuous
 62
     7
100
AcDbText
 10
-78.59006319201528
 20
-225.6163026583913
 30
0.0
 40
4.0
  1
ＫＲ－１Ｕ(低　圧)
  7
STRING_H
 11
-78.59006319201528
 21
-223.6163026583913
 31
0.0
100
AcDbText
 73
     2
  0
TEXT
  5
5EF
330
1F
100
AcDbEntity
  8
LAYER-007
  6
Continuous
 62
     4
100
AcDbText
 10
-153.3577717736808
 20
-11.75734265734267
 30
0.0
 40
14.0
  1
ＲＲＳ
  7
STRING_H
 72
     1
 11
-122.9077717736808
 21
-4.757342657342662
 31
0.0
100
AcDbText
 73
     2
  0
TEXT
  5
5F0
330
1F
100
AcDbEntity
  8
LAYER-007
  6
Continuous
 62
     4
100
AcDbText
 10
-186.2145092161874
 20
-75.40289650014756
 30
0.0
 40
10.18518499657066
  1
R
 41
1.272727272727273
  7
STRING_H
 11
-186.2145092161874
 21
-75.40289650014756
 31
0.0
100
AcDbText
 73
     1
  0
TEXT
  5
5F1
330
1F
100
AcDbEntity
  8
LAYER-007
  6
Continuous
 62
     4
100
AcDbText
 10
-162.1415695019736
 20
-75.40289661546319
 30
0.0
 40
10.18518499657066
  1
U
 41
1.272727272727273
  7
STRING_H
 11
-162.1415695019736
 21
-75.40289661546319
 31
0.0
100
AcDbText
 73
     1
  0
TEXT
  5
5F2
330
1F
100
AcDbEntity
  8
LAYER-007
  6
Continuous
 62
     4
100
AcDbText
 10
-138.0663630708131
 20
-75.40289650014756
 30
0.0
 40
10.18518499657066
  1
S
 41
1.272727272727273
  7
STRING_H
 11
-138.0663630708131
 21
-75.40289650014756
 31
0.0
100
AcDbText
 73
     1
  0
TEXT
  5
5F3
330
1F
100
AcDbEntity
  8
LAYER-007
  6
Continuous
 62
     4
100
AcDbText
 10
-113.9934196528953
 20
-75.40289661546319
 30
0.0
 40
10.18518499657066
  1
V
 41
1.272727272727273
  7
STRING_H
 11
-113.9934196528953
 21
-75.40289661546319
 31
0.0
100
AcDbText
 73
     1
  0
TEXT
  5
5F4
330
1F
100
AcDbEntity
  8
LAYER-007
  6
Continuous
 62
     4
100
AcDbText
 10
-89.91821322109686
 20
-75.40289650014756
 30
0.0
 40
10.18518499657066
  1
T
 41
1.272727272727273
  7
STRING_H
 11
-89.91821322109686
 21
-75.40289650014756
 31
0.0
100
AcDbText
 73
     1
  0
TEXT
  5
5F5
330
1F
100
AcDbEntity
  8
LAYER-007
  6
Continuous
 62
     4
100
AcDbText
 10
-65.84526609959849
 20
-75.40289661546319
 30
0.0
 40
10.18518499657066
  1
W
 41
1.272727272727273
  7
STRING_H
 11
-65.84526609959849
 21
-75.40289661546319
 31
0.0
100
AcDbText
 73
     1
  0
DIMENSION
  5
605
330
1F
100
AcDbEntity
  8
LAYER-035
  6
Continuous
 62
     5
100
AcDbDimension
  2
*D02
 10
6.332484473552682
 20
95.24265734265734
 30
0.0
 11
6.332484473552682
 21
170.2426573426573
 31
0.0
 70
   128
  1
<>
 71
     0
 42
0.0
  3
DIO_DIMSTYLE
100
AcDbAlignedDimension
 13
-22.90777177368082
 23
245.2426573426573
 33
0.0
 14
-28.69537815417655
 24
95.24265734265734
 34
0.0
 50
90.0
100
AcDbRotatedDimension
1001
ACAD
1000
DSTYLE
1002
{
1070
    41
1040
4.0
1070
    44
1040
1.0
1070
    42
1040
1.0
1070
     6
1000
_OPEN
1070
     7
1000
_OPEN
1070
   173
1070
     1
1070
   140
1040
4.0
1070
   178
1070
     5
1070
   147
1040
0.5
1002
}
  0
DIMENSION
  5
60F
330
1F
100
AcDbEntity
  8
LAYER-035
  6
Continuous
 62
     5
100
AcDbDimension
  2
*D13
 10
6.332484473552682
 20
-104.7573426573427
 30
0.0
 11
6.332484473552682
 21
-4.757342657342662
 31
0.0
 70
   129
  1
<>
 71
     0
 42
0.0
  3
DIO_DIMSTYLE
100
AcDbAlignedDimension
 13
-28.69537815417655
 23
95.24265734265734
 33
0.0
 14
-28.69537815417655
 24
-104.7573426573427
 34
0.0
1001
ACAD
1000
DSTYLE
1002
{
1070
    41
1040
4.0
1070
    44
1040
1.0
1070
    42
1040
1.0
1070
     6
1000
_OPEN
1070
     7
1000
_OPEN
1070
   173
1070
     1
1070
   140
1040
4.0
1070
   178
1070
     5
1070
   147
1040
0.5
1002
}
  0
DIMENSION
  5
619
330
1F
100
AcDbEntity
  8
LAYER-035
  6
Continuous
 62
     5
100
AcDbDimension
  2
*D24
 10
6.332484473552682
 20
-134.7573426573427
 30
0.0
 11
6.332484473552682
 21
-119.7573426573427
 31
0.0
 70
   128
  1
<>
 71
     0
 42
0.0
  3
DIO_DIMSTYLE
100
AcDbAlignedDimension
 13
-28.69537815417655
 23
-104.7573426573427
 33
0.0
 14
-22.90777177368082
 24
-134.7573426573427
 34
0.0
 50
90.0
100
AcDbRotatedDimension
1001
ACAD
1000
DSTYLE
1002
{
1070
    41
1040
4.0
1070
    44
1040
1.0
1070
    42
1040
1.0
1070
     6
1000
_OPEN
1070
     7
1000
_OPEN
1070
   173
1070
     1
1070
   140
1040
4.0
1070
   178
1070
     5
1070
   147
1040
0.5
1002
}
  0
DIMENSION
  5
623
330
1F
100
AcDbEntity
  8
LAYER-035
  6
Continuous
 62
     5
100
AcDbDimension
  2
*D35
 10
-37.90777177368082
 20
-153.8502666230861
 30
0.0
 11
-122.9077717736808
 21
-153.8502666230861
 31
0.0
 70
   129
  1
<>
 71
     0
 42
0.0
  3
DIO_DIMSTYLE
100
AcDbAlignedDimension
 13
-207.9077717736808
 23
-113.9697362768469
 33
0.0
 14
-37.90777177368082
 24
-113.9697362768469
 34
0.0
1001
ACAD
1000
DSTYLE
1002
{
1070
    41
1040
4.0
1070
    44
1040
1.0
1070
    42
1040
1.0
1070
     6
1000
_OPEN
1070
     7
1000
_OPEN
1070
   173
1070
     1
1070
   140
1040
4.0
1070
   178
1070
     5
1070
   147
1040
0.5
1002
}
  0
DIMENSION
  5
62D
330
1F
100
AcDbEntity
  8
LAYER-035
  6
Continuous
 62
     5
100
AcDbDimension
  2
*D46
 10
-22.90777177368082
 20
-167.7997298688704
 30
0.0
 11
-122.9077717736808
 21
-167.7997298688704
 31
0.0
 70
   129
  1
<>
 71
     0
 42
0.0
  3
DIO_DIMSTYLE
100
AcDbAlignedDimension
 13
-222.9077717736808
 23
-134.7573426573427
 33
0.0
 14
-22.90777177368082
 24
-134.7573426573427
 34
0.0
1001
ACAD
1000
DSTYLE
1002
{
1070
    41
1040
4.0
1070
    44
1040
1.0
1070
    42
1040
1.0
1070
     6
1000
_OPEN
1070
     7
1000
_OPEN
1070
   173
1070
     1
1070
   140
1040
4.0
1070
   178
1070
     5
1070
   147
1040
0.5
1002
}
  0
DIMENSION
  5
637
330
1F
100
AcDbEntity
  8
LAYER-035
  6
Continuous
 62
     5
100
AcDbDimension
  2
*D57
 10
29.35212968849334
 20
-134.7573426573427
 30
0.0
 11
29.35212968849334
 21
55.24265734265731
 31
0.0
 70
   128
  1
<>
 71
     0
 42
0.0
  3
DIO_DIMSTYLE
100
AcDbAlignedDimension
 13
-22.90777177368082
 23
245.2426573426573
 33
0.0
 14
-22.90777177368082
 24
-134.7573426573427
 34
0.0
 50
90.0
100
AcDbRotatedDimension
1001
ACAD
1000
DSTYLE
1002
{
1070
    41
1040
4.0
1070
    44
1040
1.0
1070
    42
1040
1.0
1070
     6
1000
_OPEN
1070
     7
1000
_OPEN
1070
   173
1070
     1
1070
   140
1040
4.0
1070
   178
1070
     5
1070
   147
1040
0.5
1002
}
  0
DIMENSION
  5
643
330
1F
100
AcDbEntity
  8
LAYER-035
  6
Continuous
 62
     5
100
AcDbDimension
  2
*D68
 10
188.8301836275613
 20
-153.8502666230861
 30
0.0
 11
182.8697808655613
 21
-153.8502666230861
 31
0.0
 70
   129
  1
<>
 71
     0
 42
0.0
  3
DIO_DIMSTYLE
100
AcDbAlignedDimension
 13
198.8301836275613
 23
-134.7573426573427
 33
0.0
 14
188.8301836275613
 24
-134.7573426573427
 34
0.0
1001
ACAD
1000
DSTYLE
1002
{
1070
    41
1040
4.0
1070
    44
1040
1.0
1070
    42
1040
1.0
1070
     6
1000
_OPEN
1070
     7
1000
_OPEN
1070
   173
1070
     1
1070
   140
1040
4.0
1070
   178
1070
     5
1070
   147
1040
0.5
1002
}
  0
LEADER
  5
644
330
1F
100
AcDbEntity
  8
LAYER-035
  6
Continuous
 62
     5
100
AcDbLeader
  3
DIO_DIMSTYLE
 76
     3
 10
-211.2383820193087
 20
92.19391444676315
 30
0.0
 10
-232.851002175069
 20
73.48448207311989
 30
0.0
 10
-258.351002175069
 20
73.48448207311989
 30
0.0
1001
ACAD
1000
DSTYLE
1002
{
1070
    41
1040
2.0
1070
     6
1000
_OPEN
1070
   341
1005
5F6
1002
}
  0
TEXT
  5
645
330
1F
100
AcDbEntity
  8
LAYER-036
  6
Continuous
 62
     5
100
AcDbText
 10
-267.151002175069
 20
77.98448207311989
 30
0.0
 40
4.0
  1
４－φ９．５
  7
STRING_H
 72
     2
 11
-232.351002175069
 21
77.98448207311989
 31
0.0
100
AcDbText
 73
     1
  0
TEXT
  5
646
330
1F
100
AcDbEntity
  8
LAYER-036
  6
Continuous
 62
     5
100
AcDbText
 10
-251.751002175069
 20
73.98448207311989
 30
0.0
 40
4.0
  1
取付穴
  7
STRING_H
 72
     2
 11
-234.351002175069
 21
73.98448207311989
 31
0.0
100
AcDbText
 73
     1
  0
DIMENSION
  5
650
330
1F
100
AcDbEntity
  8
LAYER-035
  6
Continuous
 62
     5
100
AcDbDimension
  2
*D79
 10
198.8301836275613
 20
-167.7997298688704
 30
0.0
 11
131.3301836275613
 21
-167.7997298688704
 31
0.0
 70
   128
  1
<>
 71
     0
 42
0.0
  3
DIO_DIMSTYLE
100
AcDbAlignedDimension
 13
63.8301836275613
 23
-84.38697376159526
 33
0.0
 14
198.8301836275613
 24
-134.7573426573427
 34
0.0
 50
180.0
100
AcDbRotatedDimension
1001
ACAD
1000
DSTYLE
1002
{
1070
    41
1040
4.0
1070
    44
1040
1.0
1070
    42
1040
1.0
1070
     6
1000
_OPEN
1070
     7
1000
_OPEN
1070
   173
1070
     1
1070
   140
1040
4.0
1070
   178
1070
     5
1070
   147
1040
0.5
1002
}
  0
XLINE
  5
651
330
1F
100
AcDbEntity
  8
SUPLINE
  6
Continuous
 62
     5
100
AcDbXline
 10
-122.9077717736808
 20
65.5204365967725
 30
0.0
 11
6.123031769111886E-17
 21
1.0
 31
0.0
  0
XLINE
  5
652
330
1F
100
AcDbEntity
  8
SUPLINE
  6
Continuous
 62
     5
100
AcDbXline
 10
-47.90777177368088
 20
-4.757342657342662
 30
0.0
 11
1.0
 21
0.0
 31
0.0
  0
ENDSEC
  0
SECTION
  2
OBJECTS
  0
DICTIONARY
  5
C
330
0
100
AcDbDictionary
281
     1
  3
ACAD_GROUP
350
D
  3
ACAD_LAYOUT
350
1A
  3
ACAD_MLINESTYLE
350
17
  3
ACAD_PLOTSETTINGS
350
19
  3
ACAD_PLOTSTYLENAME
350
E
  0
DICTIONARY
  5
D
102
{ACAD_REACTORS
330
C
102
}
330
C
100
AcDbDictionary
281
     1
  0
DICTIONARY
  5
1A
102
{ACAD_REACTORS
330
C
102
}
330
C
100
AcDbDictionary
281
     1
  3
Model
350
22
  3
ﾚｲｱｳﾄ1
350
1E
  3
ﾚｲｱｳﾄ2
350
26
  0
DICTIONARY
  5
17
102
{ACAD_REACTORS
330
C
102
}
330
C
100
AcDbDictionary
281
     1
  3
Standard
350
18
  0
DICTIONARY
  5
19
102
{ACAD_REACTORS
330
C
102
}
330
C
100
AcDbDictionary
281
     1
  0
ACDBDICTIONARYWDFLT
  5
E
102
{ACAD_REACTORS
330
C
102
}
330
C
100
AcDbDictionary
281
     1
  3
Normal
350
F
100
AcDbDictionaryWithDefault
340
F
  0
LAYOUT
  5
22
102
{ACAD_REACTORS
330
1A
102
}
330
1A
100
AcDbPlotSettings
  1

  2
DWF ePlot.pc3
  4
ANSI_A_(8.50_x_11.00_Inches)
  6

 40
5.793749809265137
 41
17.79375076293945
 42
5.793746948242188
 43
17.79376220703125
 44
215.8999938964844
 45
279.3999938964844
 46
0.0
 47
0.0
 48
0.0
 49
0.0
140
0.0
141
0.0
142
1.0
143
39.26051453979704
 70
 11952
 72
     0
 73
     1
 74
     0
  7
acad.ctb
 75
     0
147
0.0254708837039396
148
-1793.922354682663
149
1.490346453088415
100
AcDbLayout
  1
Model
 70
     1
 71
     0
 10
-594.5
 20
-420.5
 11
594.5
 21
420.5
 12
0.0
 22
0.0
 32
0.0
 14
-594.5
 24
-420.5
 34
0.0
 15
594.5
 25
420.5
 35
0.0
146
0.0
 13
0.0
 23
0.0
 33
0.0
 16
1.0
 26
0.0
 36
0.0
 17
0.0
 27
1.0
 37
0.0
 76
     0
330
1F
  0
LAYOUT
  5
1E
102
{ACAD_REACTORS
330
1A
102
}
330
1A
100
AcDbPlotSettings
  1

  2
RICOH IPSiO NX700
  4

  6

 40
0.0
 41
0.0
 42
0.0
 43
0.0
 44
0.0
 45
0.0
 46
0.0
 47
0.0
 48
0.0
 49
0.0
140
0.0
141
0.0
142
1.0
143
1.0
 70
   688
 72
     0
 73
     0
 74
     5
  7
acad.ctb
 75
    16
147
1.0
148
0.0
149
0.0
100
AcDbLayout
  1
ﾚｲｱｳﾄ1
 70
     1
 71
     1
 10
-594.5
 20
-420.5
 11
594.5
 21
420.5
 12
0.0
 22
0.0
 32
0.0
 14
-594.5
 24
-420.5
 34
0.0
 15
594.5
 25
420.5
 35
0.0
146
0.0
 13
0.0
 23
0.0
 33
0.0
 16
1.0
 26
0.0
 36
0.0
 17
0.0
 27
1.0
 37
0.0
 76
     0
330
1B
  0
LAYOUT
  5
26
102
{ACAD_REACTORS
330
1A
102
}
330
1A
100
AcDbPlotSettings
  1

  2
RICOH IPSiO NX700
  4

  6

 40
0.0
 41
0.0
 42
0.0
 43
0.0
 44
0.0
 45
0.0
 46
0.0
 47
0.0
 48
0.0
 49
0.0
140
0.0
141
0.0
142
1.0
143
1.0
 70
   688
 72
     0
 73
     0
 74
     5
  7
acad.ctb
 75
    16
147
1.0
148
0.0
149
0.0
100
AcDbLayout
  1
ﾚｲｱｳﾄ2
 70
     1
 71
     2
 10
0.0
 20
0.0
 11
12.0
 21
9.0
 12
0.0
 22
0.0
 32
0.0
 14
0.0
 24
0.0
 34
0.0
 15
0.0
 25
0.0
 35
0.0
146
0.0
 13
0.0
 23
0.0
 33
0.0
 16
1.0
 26
0.0
 36
0.0
 17
0.0
 27
1.0
 37
0.0
 76
     0
330
23
  0
MLINESTYLE
  5
18
102
{ACAD_REACTORS
330
17
102
}
330
17
100
AcDbMlineStyle
  2
STANDARD
 70
     0
  3

 62
   256
 51
90.0
 52
90.0
 71
     2
 49
0.5
 62
   256
  6
BYLAYER
 49
-0.5
 62
   256
  6
BYLAYER
  0
ACDBPLACEHOLDER
  5
F
102
{ACAD_REACTORS
330
E
102
}
330
E
  0
ENDSEC
  0
EOF
