  0
SECTION
  2
HEADER
  9
$ACADVER
  1
AC1015
  9
$ACADMAINTVER
 70
     6
  9
$DWGCODEPAGE
  3
ANSI_932
  9
$INSBASE
 10
0.0
 20
0.0
 30
0.0
  9
$EXTMIN
 10
-594.5
 20
-420.5
 30
0.0
  9
$EXTMAX
 10
594.5
 20
420.5
 30
0.0
  9
$LIMMIN
 10
-594.5
 20
-420.5
  9
$LIMMAX
 10
594.5
 20
420.5
  9
$ORTHOMODE
 70
     0
  9
$REGENMODE
 70
     1
  9
$FILLMODE
 70
     1
  9
$QTEXTMODE
 70
     0
  9
$MIRRTEXT
 70
     1
  9
$LTSCALE
 40
4.0
  9
$ATTMODE
 70
     1
  9
$TEXTSIZE
 40
2.5
  9
$TRACEWID
 40
1.0
  9
$TEXTSTYLE
  7
Standard
  9
$CLAYER
  8
0
  9
$CELTYPE
  6
ByLayer
  9
$CECOLOR
 62
   256
  9
$CELTSCALE
 40
1.0
  9
$DISPSILH
 70
     0
  9
$DIMSCALE
 40
1.0
  9
$DIMASZ
 40
4.0
  9
$DIMEXO
 40
1.0
  9
$DIMDLI
 40
3.75
  9
$DIMRND
 40
0.1
  9
$DIMDLE
 40
0.0
  9
$DIMEXE
 40
1.0
  9
$DIMTP
 40
0.0
  9
$DIMTM
 40
0.0
  9
$DIMTXT
 40
2.5
  9
$DIMCEN
 40
2.5
  9
$DIMTSZ
 40
0.0
  9
$DIMTOL
 70
     0
  9
$DIMLIM
 70
     0
  9
$DIMTIH
 70
     0
  9
$DIMTOH
 70
     0
  9
$DIMSE1
 70
     0
  9
$DIMSE2
 70
     0
  9
$DIMTAD
 70
     1
  9
$DIMZIN
 70
     8
  9
$DIMBLK
  1

  9
$DIMASO
 70
     1
  9
$DIMSHO
 70
     1
  9
$DIMPOST
  1

  9
$DIMAPOST
  1

  9
$DIMALT
 70
     0
  9
$DIMALTD
 70
     3
  9
$DIMALTF
 40
0.03937007874016
  9
$DIMLFAC
 40
1.0
  9
$DIMTOFL
 70
     1
  9
$DIMTVP
 40
0.0
  9
$DIMTIX
 70
     0
  9
$DIMSOXD
 70
     0
  9
$DIMSAH
 70
     1
  9
$DIMBLK1
  1

  9
$DIMBLK2
  1

  9
$DIMSTYLE
  2
ISO-25
  9
$DIMCLRD
 70
     0
  9
$DIMCLRE
 70
     0
  9
$DIMCLRT
 70
     0
  9
$DIMTFAC
 40
1.0
  9
$DIMGAP
 40
0.5
  9
$DIMJUST
 70
     0
  9
$DIMSD1
 70
     0
  9
$DIMSD2
 70
     0
  9
$DIMTOLJ
 70
     0
  9
$DIMTZIN
 70
     8
  9
$DIMALTZ
 70
     0
  9
$DIMALTTZ
 70
     0
  9
$DIMUPT
 70
     1
  9
$DIMDEC
 70
     1
  9
$DIMTDEC
 70
     2
  9
$DIMALTU
 70
     2
  9
$DIMALTTD
 70
     3
  9
$DIMTXSTY
  7
Standard
  9
$DIMAUNIT
 70
     0
  9
$DIMADEC
 70
     1
  9
$DIMALTRND
 40
0.0
  9
$DIMAZIN
 70
     2
  9
$DIMDSEP
 70
    46
  9
$DIMATFIT
 70
     0
  9
$DIMFRAC
 70
     0
  9
$DIMLDRBLK
  1

  9
$DIMLUNIT
 70
     2
  9
$DIMLWD
 70
    -2
  9
$DIMLWE
 70
    -2
  9
$DIMTMOVE
 70
     0
  9
$LUNITS
 70
     2
  9
$LUPREC
 70
     4
  9
$SKETCHINC
 40
1.0
  9
$FILLETRAD
 40
10.0
  9
$AUNITS
 70
     0
  9
$AUPREC
 70
     0
  9
$MENU
  1
.
  9
$ELEVATION
 40
0.0
  9
$PELEVATION
 40
0.0
  9
$THICKNESS
 40
0.0
  9
$LIMCHECK
 70
     0
  9
$CHAMFERA
 40
10.0
  9
$CHAMFERB
 40
10.0
  9
$CHAMFERC
 40
20.0
  9
$CHAMFERD
 40
0.0
  9
$SKPOLY
 70
     0
  9
$TDCREATE
 40
2455091.0
  9
$TDUCREATE
 40
2451562.87528772
  9
$TDUPDATE
 40
2455121.0
  9
$TDUUPDATE
 40
2452026.917654526
  9
$TDINDWG
 40
0.0010008681
  9
$TDUSRTIMER
 40
0.0009680671
  9
$USRTIMER
 70
     1
  9
$ANGBASE
 50
0.0
  9
$ANGDIR
 70
     0
  9
$PDMODE
 70
     0
  9
$PDSIZE
 40
0.0
  9
$PLINEWID
 40
0.0
  9
$SPLFRAME
 70
     0
  9
$SPLINETYPE
 70
     6
  9
$SPLINESEGS
 70
     8
  9
$HANDSEED
  5
4E7
  9
$SURFTAB1
 70
     6
  9
$SURFTAB2
 70
     6
  9
$SURFTYPE
 70
     6
  9
$SURFU
 70
     6
  9
$SURFV
 70
     6
  9
$UCSBASE
  2

  9
$UCSNAME
  2

  9
$UCSORG
 10
0.0
 20
0.0
 30
0.0
  9
$UCSXDIR
 10
1.0
 20
0.0
 30
0.0
  9
$UCSYDIR
 10
0.0
 20
1.0
 30
0.0
  9
$UCSORTHOREF
  2

  9
$UCSORTHOVIEW
 70
     0
  9
$UCSORGTOP
 10
0.0
 20
0.0
 30
0.0
  9
$UCSORGBOTTOM
 10
0.0
 20
0.0
 30
0.0
  9
$UCSORGLEFT
 10
0.0
 20
0.0
 30
0.0
  9
$UCSORGRIGHT
 10
0.0
 20
0.0
 30
0.0
  9
$UCSORGFRONT
 10
0.0
 20
0.0
 30
0.0
  9
$UCSORGBACK
 10
0.0
 20
0.0
 30
0.0
  9
$PUCSBASE
  2

  9
$PUCSNAME
  2

  9
$PUCSORG
 10
0.0
 20
0.0
 30
0.0
  9
$PUCSXDIR
 10
1.0
 20
0.0
 30
0.0
  9
$PUCSYDIR
 10
0.0
 20
1.0
 30
0.0
  9
$PUCSORTHOREF
  2

  9
$PUCSORTHOVIEW
 70
     0
  9
$PUCSORGTOP
 10
0.0
 20
0.0
 30
0.0
  9
$PUCSORGBOTTOM
 10
0.0
 20
0.0
 30
0.0
  9
$PUCSORGLEFT
 10
0.0
 20
0.0
 30
0.0
  9
$PUCSORGRIGHT
 10
0.0
 20
0.0
 30
0.0
  9
$PUCSORGFRONT
 10
0.0
 20
0.0
 30
0.0
  9
$PUCSORGBACK
 10
0.0
 20
0.0
 30
0.0
  9
$USERI1
 70
     0
  9
$USERI2
 70
     0
  9
$USERI3
 70
     0
  9
$USERI4
 70
     0
  9
$USERI5
 70
     0
  9
$USERR1
 40
0.0
  9
$USERR2
 40
0.0
  9
$USERR3
 40
0.0
  9
$USERR4
 40
0.0
  9
$USERR5
 40
0.0
  9
$WORLDVIEW
 70
     1
  9
$SHADEDGE
 70
     3
  9
$SHADEDIF
 70
    70
  9
$TILEMODE
 70
     1
  9
$MAXACTVP
 70
    64
  9
$PINSBASE
 10
0.0
 20
0.0
 30
0.0
  9
$PLIMCHECK
 70
     0
  9
$PEXTMIN
 10
-594.5
 20
-420.5
 30
0.0
  9
$PEXTMAX
 10
594.5
 20
420.5
 30
0.0
  9
$PLIMMIN
 10
-594.5
 20
-420.5
  9
$PLIMMAX
 10
594.5
 20
420.5
  9
$UNITMODE
 70
     0
  9
$VISRETAIN
 70
     1
  9
$PLINEGEN
 70
     0
  9
$PSLTSCALE
 70
     1
  9
$TREEDEPTH
 70
  3020
  9
$CMLSTYLE
  2
Standard
  9
$CMLJUST
 70
     0
  9
$CMLSCALE
 40
20.0
  9
$PROXYGRAPHICS
 70
     1
  9
$MEASUREMENT
 70
     1
  9
$CELWEIGHT
370
    -1
  9
$ENDCAPS
280
     0
  9
$JOINSTYLE
280
     0
  9
$LWDISPLAY
290
     0
  9
$INSUNITS
 70
     4
  9
$HYPERLINKBASE
  1

  9
$STYLESHEET
  1

  9
$XEDIT
290
     1
  9
$CEPSNTYPE
380
     0
  9
$PSTYLEMODE
290
     1
  9
$FINGERPRINTGUID
  2
{B6423330-CE35-11D3-AA43-00E0292263AD}
  9
$VERSIONGUID
  2
{EAA0F794-BAE8-4B09-85E0-65C527BE2B8E}
  9
$EXTNAMES
290
     1
  9
$PSVPSCALE
 40
0.0
  9
$OLESTARTUP
290
     0
  0
ENDSEC
  0
SECTION
  2
CLASSES
  0
CLASS
  1
ACDBDICTIONARYWDFLT
  2
AcDbDictionaryWithDefault
  3
ObjectDBX Classes
 90
        0
280
     0
281
     0
  0
CLASS
  1
ACDBPLACEHOLDER
  2
AcDbPlaceHolder
  3
ObjectDBX Classes
 90
        0
280
     0
281
     0
  0
CLASS
  1
LAYOUT
  2
AcDbLayout
  3
ObjectDBX Classes
 90
        0
280
     0
281
     0
  0
ENDSEC
  0
SECTION
  2
TABLES
  0
TABLE
  2
VPORT
  5
8
330
0
100
AcDbSymbolTable
 70
     3
  0
VPORT
  5
30
330
8
100
AcDbSymbolTableRecord
100
AcDbViewportTableRecord
  2
*Active
 70
     0
 10
0.0
 20
0.0
 11
1.0
 21
1.0
 12
259.0560661764706
 22
148.5
 13
0.0
 23
0.0
 14
10.0
 24
10.0
 15
10.0
 25
10.0
 16
0.0
 26
0.0
 36
1.0
 17
0.0
 27
0.0
 37
0.0
 40
297.1173501144164
 41
1.268382352941176
 42
50.0
 43
0.0
 44
0.0
 50
0.0
 51
0.0
 71
     0
 72
   100
 73
     1
 74
     3
 75
     0
 76
     0
 77
     0
 78
     0
281
     0
 65
     1
110
0.0
120
0.0
130
0.0
111
1.0
121
0.0
131
0.0
112
0.0
122
1.0
132
0.0
 79
     0
146
0.0
  0
ENDTAB
  0
TABLE
  2
LTYPE
  5
5
330
0
100
AcDbSymbolTable
 70
    26
  0
LTYPE
  5
14
330
5
100
AcDbSymbolTableRecord
100
AcDbLinetypeTableRecord
  2
ByBlock
 70
     0
  3

 72
    65
 73
     0
 40
0.0
  0
LTYPE
  5
15
330
5
100
AcDbSymbolTableRecord
100
AcDbLinetypeTableRecord
  2
ByLayer
 70
     0
  3

 72
    65
 73
     0
 40
0.0
  0
LTYPE
  5
16
330
5
100
AcDbSymbolTableRecord
100
AcDbLinetypeTableRecord
  2
Continuous
 70
     0
  3
Solid line
 72
    65
 73
     0
 40
0.0
  0
LTYPE
  5
37
330
5
100
AcDbSymbolTableRecord
100
AcDbLinetypeTableRecord
  2
BORDER
 70
     0
  3
 __ __ . __ __ . __ __ . __ __ . __ __ . __ __
 72
    65
 73
     6
 40
1.75
 49
0.5
 74
     0
 49
-0.25
 74
     0
 49
0.5
 74
     0
 49
-0.25
 74
     0
 49
0.0
 74
     0
 49
-0.25
 74
     0
  0
LTYPE
  5
38
330
5
100
AcDbSymbolTableRecord
100
AcDbLinetypeTableRecord
  2
BORDER2
 70
     0
  3
__.__.__.__.__.__.__.__.__.__.__.__.__.__.__
 72
    65
 73
     6
 40
0.875
 49
0.25
 74
     0
 49
-0.125
 74
     0
 49
0.25
 74
     0
 49
-0.125
 74
     0
 49
0.0
 74
     0
 49
-0.125
 74
     0
  0
LTYPE
  5
39
330
5
100
AcDbSymbolTableRecord
100
AcDbLinetypeTableRecord
  2
BORDERX2
 70
     0
  3
____  ____  .  ____  ____  .  ____  ____  .
 72
    65
 73
     6
 40
3.5
 49
1.0
 74
     0
 49
-0.5
 74
     0
 49
1.0
 74
     0
 49
-0.5
 74
     0
 49
0.0
 74
     0
 49
-0.5
 74
     0
  0
LTYPE
  5
3A
330
5
100
AcDbSymbolTableRecord
100
AcDbLinetypeTableRecord
  2
CENTER
 70
     0
  3
____ _ ____ _ ____ _ ____ _ ____ _ ____ _ ____
 72
    65
 73
     4
 40
2.0
 49
1.25
 74
     0
 49
-0.25
 74
     0
 49
0.25
 74
     0
 49
-0.25
 74
     0
  0
LTYPE
  5
3B
330
5
100
AcDbSymbolTableRecord
100
AcDbLinetypeTableRecord
  2
CENTER2
 70
     0
  3
___ _ ___ _ ___ _ ___ _ ___ _ ___ _ ___ _ ___ 
 72
    65
 73
     4
 40
1.125
 49
0.75
 74
     0
 49
-0.125
 74
     0
 49
0.125
 74
     0
 49
-0.125
 74
     0
  0
LTYPE
  5
3C
330
5
100
AcDbSymbolTableRecord
100
AcDbLinetypeTableRecord
  2
CENTERX2
 70
     0
  3
________  __  ________  __  ________  __
 72
    65
 73
     4
 40
4.0
 49
2.5
 74
     0
 49
-0.5
 74
     0
 49
0.5
 74
     0
 49
-0.5
 74
     0
  0
LTYPE
  5
3D
330
5
100
AcDbSymbolTableRecord
100
AcDbLinetypeTableRecord
  2
DASHDOT
 70
     0
  3
__ . __ . __ . __ . __ . __ . __ . __ . __ .
 72
    65
 73
     4
 40
1.0
 49
0.5
 74
     0
 49
-0.25
 74
     0
 49
0.0
 74
     0
 49
-0.25
 74
     0
  0
LTYPE
  5
3E
330
5
100
AcDbSymbolTableRecord
100
AcDbLinetypeTableRecord
  2
DASHDOT2
 70
     0
  3
_._._._._._._._._._._._._._._._._._._._._._._.
 72
    65
 73
     4
 40
0.5
 49
0.25
 74
     0
 49
-0.125
 74
     0
 49
0.0
 74
     0
 49
-0.125
 74
     0
  0
LTYPE
  5
3F
330
5
100
AcDbSymbolTableRecord
100
AcDbLinetypeTableRecord
  2
DASHDOTX2
 70
     0
  3
____  .  ____  .  ____  .  ____  .  ____  .
 72
    65
 73
     4
 40
2.0
 49
1.0
 74
     0
 49
-0.5
 74
     0
 49
0.0
 74
     0
 49
-0.5
 74
     0
  0
LTYPE
  5
40
330
5
100
AcDbSymbolTableRecord
100
AcDbLinetypeTableRecord
  2
DASHED
 70
     0
  3
__ __ __ __ __ __ __ __ __ __ __ __ __ __ __
 72
    65
 73
     2
 40
0.75
 49
0.5
 74
     0
 49
-0.25
 74
     0
  0
LTYPE
  5
41
330
5
100
AcDbSymbolTableRecord
100
AcDbLinetypeTableRecord
  2
DASHED2
 70
     0
  3
_ _ _ _ _ _ _ _ _ _ _ _ _ _ _ _ _ _ _ _ _ _ _
 72
    65
 73
     2
 40
0.375
 49
0.25
 74
     0
 49
-0.125
 74
     0
  0
LTYPE
  5
42
330
5
100
AcDbSymbolTableRecord
100
AcDbLinetypeTableRecord
  2
DASHEDX2
 70
     0
  3
____  ____  ____  ____  ____  ____  ____  ____
 72
    65
 73
     2
 40
1.5
 49
1.0
 74
     0
 49
-0.5
 74
     0
  0
LTYPE
  5
43
330
5
100
AcDbSymbolTableRecord
100
AcDbLinetypeTableRecord
  2
DIVIDE
 70
     0
  3
____ . . ____ . . ____ . . ____ . . ____ . .
 72
    65
 73
     6
 40
1.25
 49
0.5
 74
     0
 49
-0.25
 74
     0
 49
0.0
 74
     0
 49
-0.25
 74
     0
 49
0.0
 74
     0
 49
-0.25
 74
     0
  0
LTYPE
  5
44
330
5
100
AcDbSymbolTableRecord
100
AcDbLinetypeTableRecord
  2
DIVIDE2
 70
     0
  3
__..__..__..__..__..__..__..__..__..__..__..__
 72
    65
 73
     6
 40
0.625
 49
0.25
 74
     0
 49
-0.125
 74
     0
 49
0.0
 74
     0
 49
-0.125
 74
     0
 49
0.0
 74
     0
 49
-0.125
 74
     0
  0
LTYPE
  5
45
330
5
100
AcDbSymbolTableRecord
100
AcDbLinetypeTableRecord
  2
DIVIDEX2
 70
     0
  3
________  .  .  ________  .  .  ________  .  .
 72
    65
 73
     6
 40
2.5
 49
1.0
 74
     0
 49
-0.5
 74
     0
 49
0.0
 74
     0
 49
-0.5
 74
     0
 49
0.0
 74
     0
 49
-0.5
 74
     0
  0
LTYPE
  5
46
330
5
100
AcDbSymbolTableRecord
100
AcDbLinetypeTableRecord
  2
DOT
 70
     0
  3
. . . . . . . . . . . . . . . . . . . . . . .
 72
    65
 73
     2
 40
0.25
 49
0.0
 74
     0
 49
-0.25
 74
     0
  0
LTYPE
  5
47
330
5
100
AcDbSymbolTableRecord
100
AcDbLinetypeTableRecord
  2
DOT2
 70
     0
  3
..............................................
 72
    65
 73
     2
 40
0.125
 49
0.0
 74
     0
 49
-0.125
 74
     0
  0
LTYPE
  5
48
330
5
100
AcDbSymbolTableRecord
100
AcDbLinetypeTableRecord
  2
DOTX2
 70
     0
  3
.  .  .  .  .  .  .  .  .  .  .  .  .  .  .  .
 72
    65
 73
     2
 40
0.5
 49
0.0
 74
     0
 49
-0.5
 74
     0
  0
LTYPE
  5
49
330
5
100
AcDbSymbolTableRecord
100
AcDbLinetypeTableRecord
  2
HIDDEN
 70
     0
  3
__ __ __ __ __ __ __ __ __ __ __ __ __ __ __
 72
    65
 73
     2
 40
0.375
 49
0.25
 74
     0
 49
-0.125
 74
     0
  0
LTYPE
  5
4A
330
5
100
AcDbSymbolTableRecord
100
AcDbLinetypeTableRecord
  2
HIDDEN2
 70
     0
  3
_ _ _ _ _ _ _ _ _ _ _ _ _ _ _ _ _ _ _ _ _ _ _
 72
    65
 73
     2
 40
0.1875
 49
0.125
 74
     0
 49
-0.0625
 74
     0
  0
LTYPE
  5
4B
330
5
100
AcDbSymbolTableRecord
100
AcDbLinetypeTableRecord
  2
HIDDENX2
 70
     0
  3
____ ____ ____ ____ ____ ____ ____ ____ ____
 72
    65
 73
     2
 40
0.75
 49
0.5
 74
     0
 49
-0.25
 74
     0
  0
LTYPE
  5
4C
330
5
100
AcDbSymbolTableRecord
100
AcDbLinetypeTableRecord
  2
PHANTOM
 70
     0
  3
______  __  __  ______  __  __  ______  __
 72
    65
 73
     6
 40
2.5
 49
1.25
 74
     0
 49
-0.25
 74
     0
 49
0.25
 74
     0
 49
-0.25
 74
     0
 49
0.25
 74
     0
 49
-0.25
 74
     0
  0
LTYPE
  5
4D
330
5
100
AcDbSymbolTableRecord
100
AcDbLinetypeTableRecord
  2
PHANTOM2
 70
     0
  3
___ _ _ ___ _ _ ___ _ _ ___ _ _ ___ _ _ ___ _
 72
    65
 73
     6
 40
1.25
 49
0.625
 74
     0
 49
-0.125
 74
     0
 49
0.125
 74
     0
 49
-0.125
 74
     0
 49
0.125
 74
     0
 49
-0.125
 74
     0
  0
LTYPE
  5
4E
330
5
100
AcDbSymbolTableRecord
100
AcDbLinetypeTableRecord
  2
PHANTOMX2
 70
     0
  3
____________    ____    ____    ____________
 72
    65
 73
     6
 40
5.0
 49
2.5
 74
     0
 49
-0.5
 74
     0
 49
0.5
 74
     0
 49
-0.5
 74
     0
 49
0.5
 74
     0
 49
-0.5
 74
     0
  0
LTYPE
  5
4F
330
5
100
AcDbSymbolTableRecord
100
AcDbLinetypeTableRecord
  2
CONTINUOUS2
 70
     0
  3
Solid line
 72
    65
 73
     0
 40
0.0
  0
ENDTAB
  0
TABLE
  2
LAYER
  5
2
330
0
100
AcDbSymbolTable
 70
   514
  0
LAYER
  5
10
330
2
100
AcDbSymbolTableRecord
100
AcDbLayerTableRecord
  2
0
 70
     0
 62
     7
  6
Continuous
370
    -3
390
F
  0
LAYER
  5
50
330
2
100
AcDbSymbolTableRecord
100
AcDbLayerTableRecord
  2
LAYER-001
 70
     0
 62
     7
  6
Continuous
370
    -3
390
F
  0
LAYER
  5
51
330
2
100
AcDbSymbolTableRecord
100
AcDbLayerTableRecord
  2
LAYER-002
 70
     0
 62
     7
  6
Continuous
370
    -3
390
F
  0
LAYER
  5
52
330
2
100
AcDbSymbolTableRecord
100
AcDbLayerTableRecord
  2
LAYER-003
 70
     0
 62
     7
  6
Continuous
370
    -3
390
F
  0
LAYER
  5
53
330
2
100
AcDbSymbolTableRecord
100
AcDbLayerTableRecord
  2
LAYER-004
 70
     0
 62
     7
  6
Continuous
370
    -3
390
F
  0
LAYER
  5
54
330
2
100
AcDbSymbolTableRecord
100
AcDbLayerTableRecord
  2
LAYER-005
 70
     0
 62
     7
  6
Continuous
370
    -3
390
F
  0
LAYER
  5
55
330
2
100
AcDbSymbolTableRecord
100
AcDbLayerTableRecord
  2
LAYER-006
 70
     0
 62
     7
  6
Continuous
370
    -3
390
F
  0
LAYER
  5
56
330
2
100
AcDbSymbolTableRecord
100
AcDbLayerTableRecord
  2
LAYER-007
 70
     0
 62
     7
  6
Continuous
370
    -3
390
F
  0
LAYER
  5
57
330
2
100
AcDbSymbolTableRecord
100
AcDbLayerTableRecord
  2
LAYER-008
 70
     0
 62
     7
  6
Continuous
370
    -3
390
F
  0
LAYER
  5
58
330
2
100
AcDbSymbolTableRecord
100
AcDbLayerTableRecord
  2
LAYER-009
 70
     0
 62
     7
  6
Continuous
370
    -3
390
F
  0
LAYER
  5
59
330
2
100
AcDbSymbolTableRecord
100
AcDbLayerTableRecord
  2
LAYER-010
 70
     0
 62
     7
  6
Continuous
370
    -3
390
F
  0
LAYER
  5
5A
330
2
100
AcDbSymbolTableRecord
100
AcDbLayerTableRecord
  2
LAYER-011
 70
     0
 62
     7
  6
Continuous
370
    -3
390
F
  0
LAYER
  5
5B
330
2
100
AcDbSymbolTableRecord
100
AcDbLayerTableRecord
  2
LAYER-012
 70
     0
 62
     7
  6
Continuous
370
    -3
390
F
  0
LAYER
  5
5C
330
2
100
AcDbSymbolTableRecord
100
AcDbLayerTableRecord
  2
LAYER-013
 70
     0
 62
     7
  6
Continuous
370
    -3
390
F
  0
LAYER
  5
5D
330
2
100
AcDbSymbolTableRecord
100
AcDbLayerTableRecord
  2
LAYER-014
 70
     0
 62
     7
  6
Continuous
370
    -3
390
F
  0
LAYER
  5
5E
330
2
100
AcDbSymbolTableRecord
100
AcDbLayerTableRecord
  2
LAYER-015
 70
     0
 62
     7
  6
Continuous
370
    -3
390
F
  0
LAYER
  5
5F
330
2
100
AcDbSymbolTableRecord
100
AcDbLayerTableRecord
  2
LAYER-016
 70
     0
 62
     4
  6
Continuous
370
    -3
390
F
  0
LAYER
  5
60
330
2
100
AcDbSymbolTableRecord
100
AcDbLayerTableRecord
  2
LAYER-017
 70
     0
 62
     7
  6
Continuous
370
    -3
390
F
  0
LAYER
  5
61
330
2
100
AcDbSymbolTableRecord
100
AcDbLayerTableRecord
  2
LAYER-018
 70
     0
 62
     2
  6
Continuous
370
    -3
390
F
  0
LAYER
  5
62
330
2
100
AcDbSymbolTableRecord
100
AcDbLayerTableRecord
  2
LAYER-019
 70
     0
 62
     3
  6
Continuous
370
    -3
390
F
  0
LAYER
  5
63
330
2
100
AcDbSymbolTableRecord
100
AcDbLayerTableRecord
  2
LAYER-020
 70
     0
 62
     2
  6
Continuous
370
    -3
390
F
  0
LAYER
  5
64
330
2
100
AcDbSymbolTableRecord
100
AcDbLayerTableRecord
  2
LAYER-021
 70
     0
 62
     7
  6
Continuous
370
    -3
390
F
  0
LAYER
  5
65
330
2
100
AcDbSymbolTableRecord
100
AcDbLayerTableRecord
  2
LAYER-022
 70
     0
 62
     4
  6
Continuous
370
    -3
390
F
  0
LAYER
  5
66
330
2
100
AcDbSymbolTableRecord
100
AcDbLayerTableRecord
  2
LAYER-023
 70
     0
 62
     4
  6
Continuous
370
    -3
390
F
  0
LAYER
  5
67
330
2
100
AcDbSymbolTableRecord
100
AcDbLayerTableRecord
  2
LAYER-024
 70
     0
 62
     7
  6
Continuous
370
    -3
390
F
  0
LAYER
  5
68
330
2
100
AcDbSymbolTableRecord
100
AcDbLayerTableRecord
  2
LAYER-025
 70
     0
 62
     7
  6
Continuous
370
    -3
390
F
  0
LAYER
  5
69
330
2
100
AcDbSymbolTableRecord
100
AcDbLayerTableRecord
  2
LAYER-026
 70
     0
 62
    -7
  6
Continuous
370
    -3
390
F
  0
LAYER
  5
6A
330
2
100
AcDbSymbolTableRecord
100
AcDbLayerTableRecord
  2
LAYER-027
 70
     0
 62
     7
  6
Continuous
370
    -3
390
F
  0
LAYER
  5
6B
330
2
100
AcDbSymbolTableRecord
100
AcDbLayerTableRecord
  2
LAYER-028
 70
     0
 62
     7
  6
Continuous
370
    -3
390
F
  0
LAYER
  5
6C
330
2
100
AcDbSymbolTableRecord
100
AcDbLayerTableRecord
  2
LAYER-029
 70
     0
 62
     7
  6
Continuous
370
    -3
390
F
  0
LAYER
  5
6D
330
2
100
AcDbSymbolTableRecord
100
AcDbLayerTableRecord
  2
LAYER-030
 70
     0
 62
     2
  6
Continuous
370
    -3
390
F
  0
LAYER
  5
6E
330
2
100
AcDbSymbolTableRecord
100
AcDbLayerTableRecord
  2
LAYER-031
 70
     0
 62
     7
  6
Continuous
370
    -3
390
F
  0
LAYER
  5
6F
330
2
100
AcDbSymbolTableRecord
100
AcDbLayerTableRecord
  2
LAYER-032
 70
     0
 62
     2
  6
Continuous
370
    -3
390
F
  0
LAYER
  5
70
330
2
100
AcDbSymbolTableRecord
100
AcDbLayerTableRecord
  2
LAYER-033
 70
     0
 62
     7
  6
Continuous
370
    -3
390
F
  0
LAYER
  5
71
330
2
100
AcDbSymbolTableRecord
100
AcDbLayerTableRecord
  2
LAYER-034
 70
     0
 62
     7
  6
Continuous
370
    -3
390
F
  0
LAYER
  5
72
330
2
100
AcDbSymbolTableRecord
100
AcDbLayerTableRecord
  2
LAYER-035
 70
     0
 62
     3
  6
Continuous
370
    -3
390
F
  0
LAYER
  5
73
330
2
100
AcDbSymbolTableRecord
100
AcDbLayerTableRecord
  2
LAYER-036
 70
     0
 62
     2
  6
Continuous
370
    -3
390
F
  0
LAYER
  5
74
330
2
100
AcDbSymbolTableRecord
100
AcDbLayerTableRecord
  2
LAYER-037
 70
     0
 62
     7
  6
Continuous
370
    -3
390
F
  0
LAYER
  5
75
330
2
100
AcDbSymbolTableRecord
100
AcDbLayerTableRecord
  2
LAYER-038
 70
     0
 62
     7
  6
Continuous
370
    -3
390
F
  0
LAYER
  5
76
330
2
100
AcDbSymbolTableRecord
100
AcDbLayerTableRecord
  2
LAYER-039
 70
     0
 62
     7
  6
Continuous
370
    -3
390
F
  0
LAYER
  5
77
330
2
100
AcDbSymbolTableRecord
100
AcDbLayerTableRecord
  2
LAYER-040
 70
     0
 62
     7
  6
Continuous
370
    -3
390
F
  0
LAYER
  5
78
330
2
100
AcDbSymbolTableRecord
100
AcDbLayerTableRecord
  2
LAYER-041
 70
     0
 62
     7
  6
Continuous
370
    -3
390
F
  0
LAYER
  5
79
330
2
100
AcDbSymbolTableRecord
100
AcDbLayerTableRecord
  2
LAYER-042
 70
     0
 62
     7
  6
Continuous
370
    -3
390
F
  0
LAYER
  5
7A
330
2
100
AcDbSymbolTableRecord
100
AcDbLayerTableRecord
  2
LAYER-043
 70
     0
 62
     7
  6
Continuous
370
    -3
390
F
  0
LAYER
  5
7B
330
2
100
AcDbSymbolTableRecord
100
AcDbLayerTableRecord
  2
LAYER-044
 70
     0
 62
     7
  6
Continuous
370
    -3
390
F
  0
LAYER
  5
7C
330
2
100
AcDbSymbolTableRecord
100
AcDbLayerTableRecord
  2
LAYER-045
 70
     0
 62
     7
  6
Continuous
370
    -3
390
F
  0
LAYER
  5
7D
330
2
100
AcDbSymbolTableRecord
100
AcDbLayerTableRecord
  2
LAYER-046
 70
     0
 62
     7
  6
Continuous
370
    -3
390
F
  0
LAYER
  5
7E
330
2
100
AcDbSymbolTableRecord
100
AcDbLayerTableRecord
  2
LAYER-047
 70
     0
 62
     7
  6
Continuous
370
    -3
390
F
  0
LAYER
  5
7F
330
2
100
AcDbSymbolTableRecord
100
AcDbLayerTableRecord
  2
LAYER-048
 70
     0
 62
     2
  6
Continuous
370
    -3
390
F
  0
LAYER
  5
80
330
2
100
AcDbSymbolTableRecord
100
AcDbLayerTableRecord
  2
LAYER-049
 70
     0
 62
     3
  6
Continuous
370
    -3
390
F
  0
LAYER
  5
81
330
2
100
AcDbSymbolTableRecord
100
AcDbLayerTableRecord
  2
LAYER-050
 70
     0
 62
     7
  6
Continuous
370
    -3
390
F
  0
LAYER
  5
82
330
2
100
AcDbSymbolTableRecord
100
AcDbLayerTableRecord
  2
LAYER-051
 70
     0
 62
     2
  6
Continuous
370
    -3
390
F
  0
LAYER
  5
83
330
2
100
AcDbSymbolTableRecord
100
AcDbLayerTableRecord
  2
LAYER-052
 70
     0
 62
     7
  6
Continuous
370
    -3
390
F
  0
LAYER
  5
84
330
2
100
AcDbSymbolTableRecord
100
AcDbLayerTableRecord
  2
LAYER-053
 70
     0
 62
     7
  6
Continuous
370
    -3
390
F
  0
LAYER
  5
85
330
2
100
AcDbSymbolTableRecord
100
AcDbLayerTableRecord
  2
LAYER-054
 70
     0
 62
     7
  6
Continuous
370
    -3
390
F
  0
LAYER
  5
86
330
2
100
AcDbSymbolTableRecord
100
AcDbLayerTableRecord
  2
LAYER-055
 70
     0
 62
     7
  6
Continuous
370
    -3
390
F
  0
LAYER
  5
87
330
2
100
AcDbSymbolTableRecord
100
AcDbLayerTableRecord
  2
LAYER-056
 70
     0
 62
     7
  6
Continuous
370
    -3
390
F
  0
LAYER
  5
88
330
2
100
AcDbSymbolTableRecord
100
AcDbLayerTableRecord
  2
LAYER-057
 70
     0
 62
     7
  6
Continuous
370
    -3
390
F
  0
LAYER
  5
89
330
2
100
AcDbSymbolTableRecord
100
AcDbLayerTableRecord
  2
LAYER-058
 70
     0
 62
     7
  6
Continuous
370
    -3
390
F
  0
LAYER
  5
8A
330
2
100
AcDbSymbolTableRecord
100
AcDbLayerTableRecord
  2
LAYER-059
 70
     0
 62
     7
  6
Continuous
370
    -3
390
F
  0
LAYER
  5
8B
330
2
100
AcDbSymbolTableRecord
100
AcDbLayerTableRecord
  2
LAYER-060
 70
     0
 62
     7
  6
Continuous
370
    -3
390
F
  0
LAYER
  5
8C
330
2
100
AcDbSymbolTableRecord
100
AcDbLayerTableRecord
  2
LAYER-061
 70
     0
 62
     7
  6
Continuous
370
    -3
390
F
  0
LAYER
  5
8D
330
2
100
AcDbSymbolTableRecord
100
AcDbLayerTableRecord
  2
LAYER-062
 70
     0
 62
     7
  6
Continuous
370
    -3
390
F
  0
LAYER
  5
8E
330
2
100
AcDbSymbolTableRecord
100
AcDbLayerTableRecord
  2
LAYER-063
 70
     0
 62
     7
  6
Continuous
370
    -3
390
F
  0
LAYER
  5
8F
330
2
100
AcDbSymbolTableRecord
100
AcDbLayerTableRecord
  2
LAYER-064
 70
     0
 62
     2
  6
Continuous
370
    -3
390
F
  0
LAYER
  5
90
330
2
100
AcDbSymbolTableRecord
100
AcDbLayerTableRecord
  2
LAYER-065
 70
     0
 62
     7
  6
Continuous
370
    -3
390
F
  0
LAYER
  5
91
330
2
100
AcDbSymbolTableRecord
100
AcDbLayerTableRecord
  2
LAYER-066
 70
     0
 62
     2
  6
Continuous
370
    -3
390
F
  0
LAYER
  5
92
330
2
100
AcDbSymbolTableRecord
100
AcDbLayerTableRecord
  2
LAYER-067
 70
     0
 62
     2
  6
Continuous
370
    -3
390
F
  0
LAYER
  5
93
330
2
100
AcDbSymbolTableRecord
100
AcDbLayerTableRecord
  2
LAYER-068
 70
     0
 62
     7
  6
Continuous
370
    -3
390
F
  0
LAYER
  5
94
330
2
100
AcDbSymbolTableRecord
100
AcDbLayerTableRecord
  2
LAYER-069
 70
     0
 62
     7
  6
Continuous
370
    -3
390
F
  0
LAYER
  5
95
330
2
100
AcDbSymbolTableRecord
100
AcDbLayerTableRecord
  2
LAYER-070
 70
     0
 62
     7
  6
Continuous
370
    -3
390
F
  0
LAYER
  5
96
330
2
100
AcDbSymbolTableRecord
100
AcDbLayerTableRecord
  2
LAYER-071
 70
     0
 62
     7
  6
Continuous
370
    -3
390
F
  0
LAYER
  5
97
330
2
100
AcDbSymbolTableRecord
100
AcDbLayerTableRecord
  2
LAYER-072
 70
     0
 62
     7
  6
Continuous
370
    -3
390
F
  0
LAYER
  5
98
330
2
100
AcDbSymbolTableRecord
100
AcDbLayerTableRecord
  2
LAYER-073
 70
     0
 62
     7
  6
Continuous
370
    -3
390
F
  0
LAYER
  5
99
330
2
100
AcDbSymbolTableRecord
100
AcDbLayerTableRecord
  2
LAYER-074
 70
     0
 62
     7
  6
Continuous
370
    -3
390
F
  0
LAYER
  5
9A
330
2
100
AcDbSymbolTableRecord
100
AcDbLayerTableRecord
  2
LAYER-075
 70
     0
 62
     7
  6
Continuous
370
    -3
390
F
  0
LAYER
  5
9B
330
2
100
AcDbSymbolTableRecord
100
AcDbLayerTableRecord
  2
LAYER-076
 70
     0
 62
     7
  6
Continuous
370
    -3
390
F
  0
LAYER
  5
9C
330
2
100
AcDbSymbolTableRecord
100
AcDbLayerTableRecord
  2
LAYER-077
 70
     0
 62
     7
  6
Continuous
370
    -3
390
F
  0
LAYER
  5
9D
330
2
100
AcDbSymbolTableRecord
100
AcDbLayerTableRecord
  2
LAYER-078
 70
     0
 62
     7
  6
Continuous
370
    -3
390
F
  0
LAYER
  5
9E
330
2
100
AcDbSymbolTableRecord
100
AcDbLayerTableRecord
  2
LAYER-079
 70
     0
 62
     7
  6
Continuous
370
    -3
390
F
  0
LAYER
  5
9F
330
2
100
AcDbSymbolTableRecord
100
AcDbLayerTableRecord
  2
LAYER-080
 70
     0
 62
     2
  6
Continuous
370
    -3
390
F
  0
LAYER
  5
A0
330
2
100
AcDbSymbolTableRecord
100
AcDbLayerTableRecord
  2
LAYER-081
 70
     0
 62
     7
  6
Continuous
370
    -3
390
F
  0
LAYER
  5
A1
330
2
100
AcDbSymbolTableRecord
100
AcDbLayerTableRecord
  2
LAYER-082
 70
     0
 62
     7
  6
Continuous
370
    -3
390
F
  0
LAYER
  5
A2
330
2
100
AcDbSymbolTableRecord
100
AcDbLayerTableRecord
  2
LAYER-083
 70
     0
 62
     7
  6
Continuous
370
    -3
390
F
  0
LAYER
  5
A3
330
2
100
AcDbSymbolTableRecord
100
AcDbLayerTableRecord
  2
LAYER-084
 70
     0
 62
     7
  6
Continuous
370
    -3
390
F
  0
LAYER
  5
A4
330
2
100
AcDbSymbolTableRecord
100
AcDbLayerTableRecord
  2
LAYER-085
 70
     0
 62
     7
  6
Continuous
370
    -3
390
F
  0
LAYER
  5
A5
330
2
100
AcDbSymbolTableRecord
100
AcDbLayerTableRecord
  2
LAYER-086
 70
     0
 62
     7
  6
Continuous
370
    -3
390
F
  0
LAYER
  5
A6
330
2
100
AcDbSymbolTableRecord
100
AcDbLayerTableRecord
  2
LAYER-087
 70
     0
 62
     7
  6
Continuous
370
    -3
390
F
  0
LAYER
  5
A7
330
2
100
AcDbSymbolTableRecord
100
AcDbLayerTableRecord
  2
LAYER-088
 70
     0
 62
     7
  6
Continuous
370
    -3
390
F
  0
LAYER
  5
A8
330
2
100
AcDbSymbolTableRecord
100
AcDbLayerTableRecord
  2
LAYER-089
 70
     0
 62
     7
  6
Continuous
370
    -3
390
F
  0
LAYER
  5
A9
330
2
100
AcDbSymbolTableRecord
100
AcDbLayerTableRecord
  2
LAYER-090
 70
     0
 62
     7
  6
Continuous
370
    -3
390
F
  0
LAYER
  5
AA
330
2
100
AcDbSymbolTableRecord
100
AcDbLayerTableRecord
  2
LAYER-091
 70
     0
 62
     7
  6
Continuous
370
    -3
390
F
  0
LAYER
  5
AB
330
2
100
AcDbSymbolTableRecord
100
AcDbLayerTableRecord
  2
LAYER-092
 70
     0
 62
     7
  6
Continuous
370
    -3
390
F
  0
LAYER
  5
AC
330
2
100
AcDbSymbolTableRecord
100
AcDbLayerTableRecord
  2
LAYER-093
 70
     0
 62
     7
  6
Continuous
370
    -3
390
F
  0
LAYER
  5
AD
330
2
100
AcDbSymbolTableRecord
100
AcDbLayerTableRecord
  2
LAYER-094
 70
     0
 62
     7
  6
Continuous
370
    -3
390
F
  0
LAYER
  5
AE
330
2
100
AcDbSymbolTableRecord
100
AcDbLayerTableRecord
  2
LAYER-095
 70
     0
 62
     7
  6
Continuous
370
    -3
390
F
  0
LAYER
  5
AF
330
2
100
AcDbSymbolTableRecord
100
AcDbLayerTableRecord
  2
LAYER-096
 70
     0
 62
     7
  6
Continuous
370
    -3
390
F
  0
LAYER
  5
B0
330
2
100
AcDbSymbolTableRecord
100
AcDbLayerTableRecord
  2
LAYER-097
 70
     0
 62
     7
  6
Continuous
370
    -3
390
F
  0
LAYER
  5
B1
330
2
100
AcDbSymbolTableRecord
100
AcDbLayerTableRecord
  2
LAYER-098
 70
     0
 62
     7
  6
Continuous
370
    -3
390
F
  0
LAYER
  5
B2
330
2
100
AcDbSymbolTableRecord
100
AcDbLayerTableRecord
  2
LAYER-099
 70
     0
 62
     7
  6
Continuous
370
    -3
390
F
  0
LAYER
  5
B3
330
2
100
AcDbSymbolTableRecord
100
AcDbLayerTableRecord
  2
LAYER-100
 70
     0
 62
     7
  6
Continuous
370
    -3
390
F
  0
LAYER
  5
B4
330
2
100
AcDbSymbolTableRecord
100
AcDbLayerTableRecord
  2
LAYER-101
 70
     0
 62
     7
  6
Continuous
370
    -3
390
F
  0
LAYER
  5
B5
330
2
100
AcDbSymbolTableRecord
100
AcDbLayerTableRecord
  2
LAYER-102
 70
     0
 62
     7
  6
Continuous
370
    -3
390
F
  0
LAYER
  5
B6
330
2
100
AcDbSymbolTableRecord
100
AcDbLayerTableRecord
  2
LAYER-103
 70
     0
 62
     7
  6
Continuous
370
    -3
390
F
  0
LAYER
  5
B7
330
2
100
AcDbSymbolTableRecord
100
AcDbLayerTableRecord
  2
LAYER-104
 70
     0
 62
     7
  6
Continuous
370
    -3
390
F
  0
LAYER
  5
B8
330
2
100
AcDbSymbolTableRecord
100
AcDbLayerTableRecord
  2
LAYER-105
 70
     0
 62
     7
  6
Continuous
370
    -3
390
F
  0
LAYER
  5
B9
330
2
100
AcDbSymbolTableRecord
100
AcDbLayerTableRecord
  2
LAYER-106
 70
     0
 62
     7
  6
Continuous
370
    -3
390
F
  0
LAYER
  5
BA
330
2
100
AcDbSymbolTableRecord
100
AcDbLayerTableRecord
  2
LAYER-107
 70
     0
 62
     7
  6
Continuous
370
    -3
390
F
  0
LAYER
  5
BB
330
2
100
AcDbSymbolTableRecord
100
AcDbLayerTableRecord
  2
LAYER-108
 70
     0
 62
     7
  6
Continuous
370
    -3
390
F
  0
LAYER
  5
BC
330
2
100
AcDbSymbolTableRecord
100
AcDbLayerTableRecord
  2
LAYER-109
 70
     0
 62
     7
  6
Continuous
370
    -3
390
F
  0
LAYER
  5
BD
330
2
100
AcDbSymbolTableRecord
100
AcDbLayerTableRecord
  2
LAYER-110
 70
     0
 62
     7
  6
Continuous
370
    -3
390
F
  0
LAYER
  5
BE
330
2
100
AcDbSymbolTableRecord
100
AcDbLayerTableRecord
  2
LAYER-111
 70
     0
 62
     7
  6
Continuous
370
    -3
390
F
  0
LAYER
  5
BF
330
2
100
AcDbSymbolTableRecord
100
AcDbLayerTableRecord
  2
LAYER-112
 70
     0
 62
     7
  6
Continuous
370
    -3
390
F
  0
LAYER
  5
C0
330
2
100
AcDbSymbolTableRecord
100
AcDbLayerTableRecord
  2
LAYER-113
 70
     0
 62
     7
  6
Continuous
370
    -3
390
F
  0
LAYER
  5
C1
330
2
100
AcDbSymbolTableRecord
100
AcDbLayerTableRecord
  2
LAYER-114
 70
     0
 62
     7
  6
Continuous
370
    -3
390
F
  0
LAYER
  5
C2
330
2
100
AcDbSymbolTableRecord
100
AcDbLayerTableRecord
  2
LAYER-115
 70
     0
 62
     7
  6
Continuous
370
    -3
390
F
  0
LAYER
  5
C3
330
2
100
AcDbSymbolTableRecord
100
AcDbLayerTableRecord
  2
LAYER-116
 70
     0
 62
     7
  6
Continuous
370
    -3
390
F
  0
LAYER
  5
C4
330
2
100
AcDbSymbolTableRecord
100
AcDbLayerTableRecord
  2
LAYER-117
 70
     0
 62
     7
  6
Continuous
370
    -3
390
F
  0
LAYER
  5
C5
330
2
100
AcDbSymbolTableRecord
100
AcDbLayerTableRecord
  2
LAYER-118
 70
     0
 62
     7
  6
Continuous
370
    -3
390
F
  0
LAYER
  5
C6
330
2
100
AcDbSymbolTableRecord
100
AcDbLayerTableRecord
  2
LAYER-119
 70
     0
 62
     7
  6
Continuous
370
    -3
390
F
  0
LAYER
  5
C7
330
2
100
AcDbSymbolTableRecord
100
AcDbLayerTableRecord
  2
LAYER-120
 70
     0
 62
     7
  6
Continuous
370
    -3
390
F
  0
LAYER
  5
C8
330
2
100
AcDbSymbolTableRecord
100
AcDbLayerTableRecord
  2
LAYER-121
 70
     0
 62
     7
  6
Continuous
370
    -3
390
F
  0
LAYER
  5
C9
330
2
100
AcDbSymbolTableRecord
100
AcDbLayerTableRecord
  2
LAYER-122
 70
     0
 62
     7
  6
Continuous
370
    -3
390
F
  0
LAYER
  5
CA
330
2
100
AcDbSymbolTableRecord
100
AcDbLayerTableRecord
  2
LAYER-123
 70
     0
 62
     7
  6
Continuous
370
    -3
390
F
  0
LAYER
  5
CB
330
2
100
AcDbSymbolTableRecord
100
AcDbLayerTableRecord
  2
LAYER-124
 70
     0
 62
     7
  6
Continuous
370
    -3
390
F
  0
LAYER
  5
CC
330
2
100
AcDbSymbolTableRecord
100
AcDbLayerTableRecord
  2
LAYER-125
 70
     0
 62
     7
  6
Continuous
370
    -3
390
F
  0
LAYER
  5
CD
330
2
100
AcDbSymbolTableRecord
100
AcDbLayerTableRecord
  2
LAYER-126
 70
     0
 62
     7
  6
Continuous
370
    -3
390
F
  0
LAYER
  5
CE
330
2
100
AcDbSymbolTableRecord
100
AcDbLayerTableRecord
  2
LAYER-127
 70
     0
 62
     7
  6
Continuous
370
    -3
390
F
  0
LAYER
  5
CF
330
2
100
AcDbSymbolTableRecord
100
AcDbLayerTableRecord
  2
LAYER-128
 70
     0
 62
     7
  6
Continuous
370
    -3
390
F
  0
LAYER
  5
D0
330
2
100
AcDbSymbolTableRecord
100
AcDbLayerTableRecord
  2
LAYER-129
 70
     0
 62
     7
  6
Continuous
370
    -3
390
F
  0
LAYER
  5
D1
330
2
100
AcDbSymbolTableRecord
100
AcDbLayerTableRecord
  2
LAYER-130
 70
     0
 62
     7
  6
Continuous
370
    -3
390
F
  0
LAYER
  5
D2
330
2
100
AcDbSymbolTableRecord
100
AcDbLayerTableRecord
  2
LAYER-131
 70
     0
 62
     7
  6
Continuous
370
    -3
390
F
  0
LAYER
  5
D3
330
2
100
AcDbSymbolTableRecord
100
AcDbLayerTableRecord
  2
LAYER-132
 70
     0
 62
     7
  6
Continuous
370
    -3
390
F
  0
LAYER
  5
D4
330
2
100
AcDbSymbolTableRecord
100
AcDbLayerTableRecord
  2
LAYER-133
 70
     0
 62
     7
  6
Continuous
370
    -3
390
F
  0
LAYER
  5
D5
330
2
100
AcDbSymbolTableRecord
100
AcDbLayerTableRecord
  2
LAYER-134
 70
     0
 62
     7
  6
Continuous
370
    -3
390
F
  0
LAYER
  5
D6
330
2
100
AcDbSymbolTableRecord
100
AcDbLayerTableRecord
  2
LAYER-135
 70
     0
 62
     4
  6
Continuous
370
    -3
390
F
  0
LAYER
  5
D7
330
2
100
AcDbSymbolTableRecord
100
AcDbLayerTableRecord
  2
LAYER-136
 70
     0
 62
     3
  6
Continuous
370
    -3
390
F
  0
LAYER
  5
D8
330
2
100
AcDbSymbolTableRecord
100
AcDbLayerTableRecord
  2
LAYER-137
 70
     0
 62
     1
  6
Continuous
370
    -3
390
F
  0
LAYER
  5
D9
330
2
100
AcDbSymbolTableRecord
100
AcDbLayerTableRecord
  2
LAYER-138
 70
     0
 62
     7
  6
Continuous
370
    -3
390
F
  0
LAYER
  5
DA
330
2
100
AcDbSymbolTableRecord
100
AcDbLayerTableRecord
  2
LAYER-139
 70
     0
 62
     7
  6
Continuous
370
    -3
390
F
  0
LAYER
  5
DB
330
2
100
AcDbSymbolTableRecord
100
AcDbLayerTableRecord
  2
LAYER-140
 70
     0
 62
     7
  6
Continuous
370
    -3
390
F
  0
LAYER
  5
DC
330
2
100
AcDbSymbolTableRecord
100
AcDbLayerTableRecord
  2
LAYER-141
 70
     0
 62
     7
  6
Continuous
370
    -3
390
F
  0
LAYER
  5
DD
330
2
100
AcDbSymbolTableRecord
100
AcDbLayerTableRecord
  2
LAYER-142
 70
     0
 62
     3
  6
Continuous
370
    -3
390
F
  0
LAYER
  5
DE
330
2
100
AcDbSymbolTableRecord
100
AcDbLayerTableRecord
  2
LAYER-143
 70
     0
 62
     7
  6
Continuous
370
    -3
390
F
  0
LAYER
  5
DF
330
2
100
AcDbSymbolTableRecord
100
AcDbLayerTableRecord
  2
LAYER-144
 70
     0
 62
     7
  6
Continuous
370
    -3
390
F
  0
LAYER
  5
E0
330
2
100
AcDbSymbolTableRecord
100
AcDbLayerTableRecord
  2
LAYER-145
 70
     0
 62
     3
  6
Continuous
370
    -3
390
F
  0
LAYER
  5
E1
330
2
100
AcDbSymbolTableRecord
100
AcDbLayerTableRecord
  2
LAYER-146
 70
     0
 62
     7
  6
Continuous
370
    -3
390
F
  0
LAYER
  5
E2
330
2
100
AcDbSymbolTableRecord
100
AcDbLayerTableRecord
  2
LAYER-147
 70
     0
 62
     7
  6
Continuous
370
    -3
390
F
  0
LAYER
  5
E3
330
2
100
AcDbSymbolTableRecord
100
AcDbLayerTableRecord
  2
LAYER-148
 70
     0
 62
     7
  6
Continuous
370
    -3
390
F
  0
LAYER
  5
E4
330
2
100
AcDbSymbolTableRecord
100
AcDbLayerTableRecord
  2
LAYER-149
 70
     0
 62
     7
  6
Continuous
370
    -3
390
F
  0
LAYER
  5
E5
330
2
100
AcDbSymbolTableRecord
100
AcDbLayerTableRecord
  2
LAYER-150
 70
     0
 62
     7
  6
Continuous
370
    -3
390
F
  0
LAYER
  5
E6
330
2
100
AcDbSymbolTableRecord
100
AcDbLayerTableRecord
  2
LAYER-151
 70
     0
 62
     7
  6
Continuous
370
    -3
390
F
  0
LAYER
  5
E7
330
2
100
AcDbSymbolTableRecord
100
AcDbLayerTableRecord
  2
LAYER-152
 70
     0
 62
     7
  6
Continuous
370
    -3
390
F
  0
LAYER
  5
E8
330
2
100
AcDbSymbolTableRecord
100
AcDbLayerTableRecord
  2
LAYER-153
 70
     0
 62
     7
  6
Continuous
370
    -3
390
F
  0
LAYER
  5
E9
330
2
100
AcDbSymbolTableRecord
100
AcDbLayerTableRecord
  2
LAYER-154
 70
     0
 62
     7
  6
Continuous
370
    -3
390
F
  0
LAYER
  5
EA
330
2
100
AcDbSymbolTableRecord
100
AcDbLayerTableRecord
  2
LAYER-155
 70
     0
 62
     7
  6
Continuous
370
    -3
390
F
  0
LAYER
  5
EB
330
2
100
AcDbSymbolTableRecord
100
AcDbLayerTableRecord
  2
LAYER-156
 70
     0
 62
     7
  6
Continuous
370
    -3
390
F
  0
LAYER
  5
EC
330
2
100
AcDbSymbolTableRecord
100
AcDbLayerTableRecord
  2
LAYER-157
 70
     0
 62
     7
  6
Continuous
370
    -3
390
F
  0
LAYER
  5
ED
330
2
100
AcDbSymbolTableRecord
100
AcDbLayerTableRecord
  2
LAYER-158
 70
     0
 62
     7
  6
Continuous
370
    -3
390
F
  0
LAYER
  5
EE
330
2
100
AcDbSymbolTableRecord
100
AcDbLayerTableRecord
  2
LAYER-159
 70
     0
 62
     7
  6
Continuous
370
    -3
390
F
  0
LAYER
  5
EF
330
2
100
AcDbSymbolTableRecord
100
AcDbLayerTableRecord
  2
LAYER-160
 70
     0
 62
     7
  6
Continuous
370
    -3
390
F
  0
LAYER
  5
F0
330
2
100
AcDbSymbolTableRecord
100
AcDbLayerTableRecord
  2
LAYER-161
 70
     0
 62
     7
  6
Continuous
370
    -3
390
F
  0
LAYER
  5
F1
330
2
100
AcDbSymbolTableRecord
100
AcDbLayerTableRecord
  2
LAYER-162
 70
     0
 62
     7
  6
Continuous
370
    -3
390
F
  0
LAYER
  5
F2
330
2
100
AcDbSymbolTableRecord
100
AcDbLayerTableRecord
  2
LAYER-163
 70
     0
 62
     7
  6
Continuous
370
    -3
390
F
  0
LAYER
  5
F3
330
2
100
AcDbSymbolTableRecord
100
AcDbLayerTableRecord
  2
LAYER-164
 70
     0
 62
     7
  6
Continuous
370
    -3
390
F
  0
LAYER
  5
F4
330
2
100
AcDbSymbolTableRecord
100
AcDbLayerTableRecord
  2
LAYER-165
 70
     0
 62
     7
  6
Continuous
370
    -3
390
F
  0
LAYER
  5
F5
330
2
100
AcDbSymbolTableRecord
100
AcDbLayerTableRecord
  2
LAYER-166
 70
     0
 62
     7
  6
Continuous
370
    -3
390
F
  0
LAYER
  5
F6
330
2
100
AcDbSymbolTableRecord
100
AcDbLayerTableRecord
  2
LAYER-167
 70
     0
 62
     7
  6
Continuous
370
    -3
390
F
  0
LAYER
  5
F7
330
2
100
AcDbSymbolTableRecord
100
AcDbLayerTableRecord
  2
LAYER-168
 70
     0
 62
     7
  6
Continuous
370
    -3
390
F
  0
LAYER
  5
F8
330
2
100
AcDbSymbolTableRecord
100
AcDbLayerTableRecord
  2
LAYER-169
 70
     0
 62
     7
  6
Continuous
370
    -3
390
F
  0
LAYER
  5
F9
330
2
100
AcDbSymbolTableRecord
100
AcDbLayerTableRecord
  2
LAYER-170
 70
     0
 62
     7
  6
Continuous
370
    -3
390
F
  0
LAYER
  5
FA
330
2
100
AcDbSymbolTableRecord
100
AcDbLayerTableRecord
  2
LAYER-171
 70
     0
 62
     7
  6
Continuous
370
    -3
390
F
  0
LAYER
  5
FB
330
2
100
AcDbSymbolTableRecord
100
AcDbLayerTableRecord
  2
LAYER-172
 70
     0
 62
     7
  6
Continuous
370
    -3
390
F
  0
LAYER
  5
FC
330
2
100
AcDbSymbolTableRecord
100
AcDbLayerTableRecord
  2
LAYER-173
 70
     0
 62
     7
  6
Continuous
370
    -3
390
F
  0
LAYER
  5
FD
330
2
100
AcDbSymbolTableRecord
100
AcDbLayerTableRecord
  2
LAYER-174
 70
     0
 62
     7
  6
Continuous
370
    -3
390
F
  0
LAYER
  5
FE
330
2
100
AcDbSymbolTableRecord
100
AcDbLayerTableRecord
  2
LAYER-175
 70
     0
 62
     7
  6
Continuous
370
    -3
390
F
  0
LAYER
  5
FF
330
2
100
AcDbSymbolTableRecord
100
AcDbLayerTableRecord
  2
LAYER-176
 70
     0
 62
     7
  6
Continuous
370
    -3
390
F
  0
LAYER
  5
100
330
2
100
AcDbSymbolTableRecord
100
AcDbLayerTableRecord
  2
LAYER-177
 70
     0
 62
     7
  6
Continuous
370
    -3
390
F
  0
LAYER
  5
101
330
2
100
AcDbSymbolTableRecord
100
AcDbLayerTableRecord
  2
LAYER-178
 70
     0
 62
     7
  6
Continuous
370
    -3
390
F
  0
LAYER
  5
102
330
2
100
AcDbSymbolTableRecord
100
AcDbLayerTableRecord
  2
LAYER-179
 70
     0
 62
     7
  6
Continuous
370
    -3
390
F
  0
LAYER
  5
103
330
2
100
AcDbSymbolTableRecord
100
AcDbLayerTableRecord
  2
LAYER-180
 70
     0
 62
     7
  6
Continuous
370
    -3
390
F
  0
LAYER
  5
104
330
2
100
AcDbSymbolTableRecord
100
AcDbLayerTableRecord
  2
LAYER-181
 70
     0
 62
     7
  6
Continuous
370
    -3
390
F
  0
LAYER
  5
105
330
2
100
AcDbSymbolTableRecord
100
AcDbLayerTableRecord
  2
LAYER-182
 70
     0
 62
     7
  6
Continuous
370
    -3
390
F
  0
LAYER
  5
106
330
2
100
AcDbSymbolTableRecord
100
AcDbLayerTableRecord
  2
LAYER-183
 70
     0
 62
     7
  6
Continuous
370
    -3
390
F
  0
LAYER
  5
107
330
2
100
AcDbSymbolTableRecord
100
AcDbLayerTableRecord
  2
LAYER-184
 70
     0
 62
     7
  6
Continuous
370
    -3
390
F
  0
LAYER
  5
108
330
2
100
AcDbSymbolTableRecord
100
AcDbLayerTableRecord
  2
LAYER-185
 70
     0
 62
     7
  6
Continuous
370
    -3
390
F
  0
LAYER
  5
109
330
2
100
AcDbSymbolTableRecord
100
AcDbLayerTableRecord
  2
LAYER-186
 70
     0
 62
     7
  6
Continuous
370
    -3
390
F
  0
LAYER
  5
10A
330
2
100
AcDbSymbolTableRecord
100
AcDbLayerTableRecord
  2
LAYER-187
 70
     0
 62
     7
  6
Continuous
370
    -3
390
F
  0
LAYER
  5
10B
330
2
100
AcDbSymbolTableRecord
100
AcDbLayerTableRecord
  2
LAYER-188
 70
     0
 62
     7
  6
Continuous
370
    -3
390
F
  0
LAYER
  5
10C
330
2
100
AcDbSymbolTableRecord
100
AcDbLayerTableRecord
  2
LAYER-189
 70
     0
 62
     7
  6
Continuous
370
    -3
390
F
  0
LAYER
  5
10D
330
2
100
AcDbSymbolTableRecord
100
AcDbLayerTableRecord
  2
LAYER-190
 70
     0
 62
     7
  6
Continuous
370
    -3
390
F
  0
LAYER
  5
10E
330
2
100
AcDbSymbolTableRecord
100
AcDbLayerTableRecord
  2
LAYER-191
 70
     0
 62
     7
  6
Continuous
370
    -3
390
F
  0
LAYER
  5
10F
330
2
100
AcDbSymbolTableRecord
100
AcDbLayerTableRecord
  2
LAYER-192
 70
     0
 62
     7
  6
Continuous
370
    -3
390
F
  0
LAYER
  5
110
330
2
100
AcDbSymbolTableRecord
100
AcDbLayerTableRecord
  2
LAYER-193
 70
     0
 62
     7
  6
Continuous
370
    -3
390
F
  0
LAYER
  5
111
330
2
100
AcDbSymbolTableRecord
100
AcDbLayerTableRecord
  2
LAYER-194
 70
     0
 62
     2
  6
Continuous
370
    -3
390
F
  0
LAYER
  5
112
330
2
100
AcDbSymbolTableRecord
100
AcDbLayerTableRecord
  2
LAYER-195
 70
     0
 62
     2
  6
Continuous
370
    -3
390
F
  0
LAYER
  5
113
330
2
100
AcDbSymbolTableRecord
100
AcDbLayerTableRecord
  2
LAYER-196
 70
     0
 62
     2
  6
Continuous
370
    -3
390
F
  0
LAYER
  5
114
330
2
100
AcDbSymbolTableRecord
100
AcDbLayerTableRecord
  2
LAYER-197
 70
     0
 62
     7
  6
Continuous
370
    -3
390
F
  0
LAYER
  5
115
330
2
100
AcDbSymbolTableRecord
100
AcDbLayerTableRecord
  2
LAYER-198
 70
     0
 62
     7
  6
Continuous
370
    -3
390
F
  0
LAYER
  5
116
330
2
100
AcDbSymbolTableRecord
100
AcDbLayerTableRecord
  2
LAYER-199
 70
     0
 62
     4
  6
Continuous
370
    -3
390
F
  0
LAYER
  5
117
330
2
100
AcDbSymbolTableRecord
100
AcDbLayerTableRecord
  2
LAYER-200
 70
     0
 62
     1
  6
Continuous
370
    -3
390
F
  0
LAYER
  5
118
330
2
100
AcDbSymbolTableRecord
100
AcDbLayerTableRecord
  2
LAYER-201
 70
     0
 62
     1
  6
Continuous
370
    -3
390
F
  0
LAYER
  5
119
330
2
100
AcDbSymbolTableRecord
100
AcDbLayerTableRecord
  2
LAYER-202
 70
     0
 62
     2
  6
Continuous
370
    -3
390
F
  0
LAYER
  5
11A
330
2
100
AcDbSymbolTableRecord
100
AcDbLayerTableRecord
  2
LAYER-203
 70
     0
 62
     2
  6
Continuous
370
    -3
390
F
  0
LAYER
  5
11B
330
2
100
AcDbSymbolTableRecord
100
AcDbLayerTableRecord
  2
LAYER-204
 70
     0
 62
     7
  6
Continuous
370
    -3
390
F
  0
LAYER
  5
11C
330
2
100
AcDbSymbolTableRecord
100
AcDbLayerTableRecord
  2
LAYER-205
 70
     0
 62
     7
  6
Continuous
370
    -3
390
F
  0
LAYER
  5
11D
330
2
100
AcDbSymbolTableRecord
100
AcDbLayerTableRecord
  2
LAYER-206
 70
     0
 62
     7
  6
Continuous
370
    -3
390
F
  0
LAYER
  5
11E
330
2
100
AcDbSymbolTableRecord
100
AcDbLayerTableRecord
  2
LAYER-207
 70
     0
 62
    -7
  6
Continuous
370
    -3
390
F
  0
LAYER
  5
11F
330
2
100
AcDbSymbolTableRecord
100
AcDbLayerTableRecord
  2
LAYER-208
 70
     0
 62
     2
  6
Continuous
370
    -3
390
F
  0
LAYER
  5
120
330
2
100
AcDbSymbolTableRecord
100
AcDbLayerTableRecord
  2
LAYER-209
 70
     0
 62
     7
  6
Continuous
370
    -3
390
F
  0
LAYER
  5
121
330
2
100
AcDbSymbolTableRecord
100
AcDbLayerTableRecord
  2
LAYER-210
 70
     0
 62
     2
  6
Continuous
370
    -3
390
F
  0
LAYER
  5
122
330
2
100
AcDbSymbolTableRecord
100
AcDbLayerTableRecord
  2
LAYER-211
 70
     0
 62
     7
  6
Continuous
370
    -3
390
F
  0
LAYER
  5
123
330
2
100
AcDbSymbolTableRecord
100
AcDbLayerTableRecord
  2
LAYER-212
 70
     0
 62
     7
  6
Continuous
370
    -3
390
F
  0
LAYER
  5
124
330
2
100
AcDbSymbolTableRecord
100
AcDbLayerTableRecord
  2
LAYER-213
 70
     0
 62
     2
  6
Continuous
370
    -3
390
F
  0
LAYER
  5
125
330
2
100
AcDbSymbolTableRecord
100
AcDbLayerTableRecord
  2
LAYER-214
 70
     0
 62
     7
  6
Continuous
370
    -3
390
F
  0
LAYER
  5
126
330
2
100
AcDbSymbolTableRecord
100
AcDbLayerTableRecord
  2
LAYER-215
 70
     0
 62
     7
  6
Continuous
370
    -3
390
F
  0
LAYER
  5
127
330
2
100
AcDbSymbolTableRecord
100
AcDbLayerTableRecord
  2
LAYER-216
 70
     0
 62
     4
  6
Continuous
370
    -3
390
F
  0
LAYER
  5
128
330
2
100
AcDbSymbolTableRecord
100
AcDbLayerTableRecord
  2
LAYER-217
 70
     0
 62
     7
  6
Continuous
370
    -3
390
F
  0
LAYER
  5
129
330
2
100
AcDbSymbolTableRecord
100
AcDbLayerTableRecord
  2
LAYER-218
 70
     0
 62
     7
  6
Continuous
370
    -3
390
F
  0
LAYER
  5
12A
330
2
100
AcDbSymbolTableRecord
100
AcDbLayerTableRecord
  2
LAYER-219
 70
     0
 62
     7
  6
Continuous
370
    -3
390
F
  0
LAYER
  5
12B
330
2
100
AcDbSymbolTableRecord
100
AcDbLayerTableRecord
  2
LAYER-220
 70
     0
 62
     4
  6
Continuous
370
    -3
390
F
  0
LAYER
  5
12C
330
2
100
AcDbSymbolTableRecord
100
AcDbLayerTableRecord
  2
LAYER-221
 70
     0
 62
     7
  6
Continuous
370
    -3
390
F
  0
LAYER
  5
12D
330
2
100
AcDbSymbolTableRecord
100
AcDbLayerTableRecord
  2
LAYER-222
 70
     0
 62
     4
  6
Continuous
370
    -3
390
F
  0
LAYER
  5
12E
330
2
100
AcDbSymbolTableRecord
100
AcDbLayerTableRecord
  2
LAYER-223
 70
     0
 62
     1
  6
Continuous
370
    -3
390
F
  0
LAYER
  5
12F
330
2
100
AcDbSymbolTableRecord
100
AcDbLayerTableRecord
  2
LAYER-224
 70
     0
 62
     1
  6
Continuous
370
    -3
390
F
  0
LAYER
  5
130
330
2
100
AcDbSymbolTableRecord
100
AcDbLayerTableRecord
  2
LAYER-225
 70
     0
 62
     7
  6
Continuous
370
    -3
390
F
  0
LAYER
  5
131
330
2
100
AcDbSymbolTableRecord
100
AcDbLayerTableRecord
  2
LAYER-226
 70
     0
 62
     2
  6
Continuous
370
    -3
390
F
  0
LAYER
  5
132
330
2
100
AcDbSymbolTableRecord
100
AcDbLayerTableRecord
  2
LAYER-227
 70
     0
 62
     7
  6
Continuous
370
    -3
390
F
  0
LAYER
  5
133
330
2
100
AcDbSymbolTableRecord
100
AcDbLayerTableRecord
  2
LAYER-228
 70
     0
 62
     7
  6
Continuous
370
    -3
390
F
  0
LAYER
  5
134
330
2
100
AcDbSymbolTableRecord
100
AcDbLayerTableRecord
  2
LAYER-229
 70
     0
 62
     7
  6
Continuous
370
    -3
390
F
  0
LAYER
  5
135
330
2
100
AcDbSymbolTableRecord
100
AcDbLayerTableRecord
  2
LAYER-230
 70
     0
 62
     7
  6
Continuous
370
    -3
390
F
  0
LAYER
  5
136
330
2
100
AcDbSymbolTableRecord
100
AcDbLayerTableRecord
  2
LAYER-231
 70
     0
 62
     7
  6
Continuous
370
    -3
390
F
  0
LAYER
  5
137
330
2
100
AcDbSymbolTableRecord
100
AcDbLayerTableRecord
  2
LAYER-232
 70
     0
 62
     7
  6
Continuous
370
    -3
390
F
  0
LAYER
  5
138
330
2
100
AcDbSymbolTableRecord
100
AcDbLayerTableRecord
  2
LAYER-233
 70
     0
 62
     7
  6
Continuous
370
    -3
390
F
  0
LAYER
  5
139
330
2
100
AcDbSymbolTableRecord
100
AcDbLayerTableRecord
  2
LAYER-234
 70
     0
 62
     7
  6
Continuous
370
    -3
390
F
  0
LAYER
  5
13A
330
2
100
AcDbSymbolTableRecord
100
AcDbLayerTableRecord
  2
LAYER-235
 70
     0
 62
     7
  6
Continuous
370
    -3
390
F
  0
LAYER
  5
13B
330
2
100
AcDbSymbolTableRecord
100
AcDbLayerTableRecord
  2
LAYER-236
 70
     0
 62
     7
  6
Continuous
370
    -3
390
F
  0
LAYER
  5
13C
330
2
100
AcDbSymbolTableRecord
100
AcDbLayerTableRecord
  2
LAYER-237
 70
     0
 62
     7
  6
Continuous
370
    -3
390
F
  0
LAYER
  5
13D
330
2
100
AcDbSymbolTableRecord
100
AcDbLayerTableRecord
  2
LAYER-238
 70
     0
 62
     7
  6
Continuous
370
    -3
390
F
  0
LAYER
  5
13E
330
2
100
AcDbSymbolTableRecord
100
AcDbLayerTableRecord
  2
LAYER-239
 70
     0
 62
     7
  6
Continuous
370
    -3
390
F
  0
LAYER
  5
13F
330
2
100
AcDbSymbolTableRecord
100
AcDbLayerTableRecord
  2
LAYER-240
 70
     0
 62
     7
  6
Continuous
370
    -3
390
F
  0
LAYER
  5
140
330
2
100
AcDbSymbolTableRecord
100
AcDbLayerTableRecord
  2
LAYER-241
 70
     0
 62
     7
  6
Continuous
370
    -3
390
F
  0
LAYER
  5
141
330
2
100
AcDbSymbolTableRecord
100
AcDbLayerTableRecord
  2
LAYER-242
 70
     0
 62
     7
  6
Continuous
370
    -3
390
F
  0
LAYER
  5
142
330
2
100
AcDbSymbolTableRecord
100
AcDbLayerTableRecord
  2
LAYER-243
 70
     0
 62
     7
  6
Continuous
370
    -3
390
F
  0
LAYER
  5
143
330
2
100
AcDbSymbolTableRecord
100
AcDbLayerTableRecord
  2
LAYER-244
 70
     0
 62
     7
  6
Continuous
370
    -3
390
F
  0
LAYER
  5
144
330
2
100
AcDbSymbolTableRecord
100
AcDbLayerTableRecord
  2
LAYER-245
 70
     0
 62
     7
  6
Continuous
370
    -3
390
F
  0
LAYER
  5
145
330
2
100
AcDbSymbolTableRecord
100
AcDbLayerTableRecord
  2
LAYER-246
 70
     0
 62
     7
  6
Continuous
370
    -3
390
F
  0
LAYER
  5
146
330
2
100
AcDbSymbolTableRecord
100
AcDbLayerTableRecord
  2
LAYER-247
 70
     0
 62
     7
  6
Continuous
370
    -3
390
F
  0
LAYER
  5
147
330
2
100
AcDbSymbolTableRecord
100
AcDbLayerTableRecord
  2
LAYER-248
 70
     0
 62
     7
  6
Continuous
370
    -3
390
F
  0
LAYER
  5
148
330
2
100
AcDbSymbolTableRecord
100
AcDbLayerTableRecord
  2
LAYER-249
 70
     0
 62
     7
  6
Continuous
370
    -3
390
F
  0
LAYER
  5
149
330
2
100
AcDbSymbolTableRecord
100
AcDbLayerTableRecord
  2
LAYER-250
 70
     0
 62
     7
  6
Continuous
370
    -3
390
F
  0
LAYER
  5
14A
330
2
100
AcDbSymbolTableRecord
100
AcDbLayerTableRecord
  2
LAYER-251
 70
     0
 62
     7
  6
Continuous
370
    -3
390
F
  0
LAYER
  5
14B
330
2
100
AcDbSymbolTableRecord
100
AcDbLayerTableRecord
  2
LAYER-252
 70
     0
 62
     7
  6
Continuous
370
    -3
390
F
  0
LAYER
  5
14C
330
2
100
AcDbSymbolTableRecord
100
AcDbLayerTableRecord
  2
LAYER-253
 70
     0
 62
     7
  6
Continuous
370
    -3
390
F
  0
LAYER
  5
14D
330
2
100
AcDbSymbolTableRecord
100
AcDbLayerTableRecord
  2
LAYER-254
 70
     0
 62
     7
  6
Continuous
370
    -3
390
F
  0
LAYER
  5
14E
330
2
100
AcDbSymbolTableRecord
100
AcDbLayerTableRecord
  2
LAYER-255
 70
     0
 62
     7
  6
Continuous
370
    -3
390
F
  0
LAYER
  5
14F
330
2
100
AcDbSymbolTableRecord
100
AcDbLayerTableRecord
  2
LAYER-256
 70
     0
 62
     7
  6
Continuous
370
    -3
390
F
  0
LAYER
  5
150
330
2
100
AcDbSymbolTableRecord
100
AcDbLayerTableRecord
  2
SUPLINE
 70
     0
 62
    -7
  6
Continuous
290
     0
370
    -3
390
F
  0
LAYER
  5
151
330
2
100
AcDbSymbolTableRecord
100
AcDbLayerTableRecord
  2
FRAMELAYER-001
 70
     0
 62
     7
  6
Continuous
370
    -3
390
F
  0
LAYER
  5
152
330
2
100
AcDbSymbolTableRecord
100
AcDbLayerTableRecord
  2
FRAMELAYER-002
 70
     0
 62
     7
  6
Continuous
370
    -3
390
F
  0
LAYER
  5
153
330
2
100
AcDbSymbolTableRecord
100
AcDbLayerTableRecord
  2
FRAMELAYER-003
 70
     0
 62
     7
  6
Continuous
370
    -3
390
F
  0
LAYER
  5
154
330
2
100
AcDbSymbolTableRecord
100
AcDbLayerTableRecord
  2
FRAMELAYER-004
 70
     0
 62
     7
  6
Continuous
370
    -3
390
F
  0
LAYER
  5
155
330
2
100
AcDbSymbolTableRecord
100
AcDbLayerTableRecord
  2
FRAMELAYER-005
 70
     0
 62
     7
  6
Continuous
370
    -3
390
F
  0
LAYER
  5
156
330
2
100
AcDbSymbolTableRecord
100
AcDbLayerTableRecord
  2
FRAMELAYER-006
 70
     0
 62
     7
  6
Continuous
370
    -3
390
F
  0
LAYER
  5
157
330
2
100
AcDbSymbolTableRecord
100
AcDbLayerTableRecord
  2
FRAMELAYER-007
 70
     0
 62
     7
  6
Continuous
370
    -3
390
F
  0
LAYER
  5
158
330
2
100
AcDbSymbolTableRecord
100
AcDbLayerTableRecord
  2
FRAMELAYER-008
 70
     0
 62
     7
  6
Continuous
370
    -3
390
F
  0
LAYER
  5
159
330
2
100
AcDbSymbolTableRecord
100
AcDbLayerTableRecord
  2
FRAMELAYER-009
 70
     0
 62
     7
  6
Continuous
370
    -3
390
F
  0
LAYER
  5
15A
330
2
100
AcDbSymbolTableRecord
100
AcDbLayerTableRecord
  2
FRAMELAYER-010
 70
     0
 62
     7
  6
Continuous
370
    -3
390
F
  0
LAYER
  5
15B
330
2
100
AcDbSymbolTableRecord
100
AcDbLayerTableRecord
  2
FRAMELAYER-011
 70
     0
 62
     7
  6
Continuous
370
    -3
390
F
  0
LAYER
  5
15C
330
2
100
AcDbSymbolTableRecord
100
AcDbLayerTableRecord
  2
FRAMELAYER-012
 70
     0
 62
     7
  6
Continuous
370
    -3
390
F
  0
LAYER
  5
15D
330
2
100
AcDbSymbolTableRecord
100
AcDbLayerTableRecord
  2
FRAMELAYER-013
 70
     0
 62
     7
  6
Continuous
370
    -3
390
F
  0
LAYER
  5
15E
330
2
100
AcDbSymbolTableRecord
100
AcDbLayerTableRecord
  2
FRAMELAYER-014
 70
     0
 62
     7
  6
Continuous
370
    -3
390
F
  0
LAYER
  5
15F
330
2
100
AcDbSymbolTableRecord
100
AcDbLayerTableRecord
  2
FRAMELAYER-015
 70
     0
 62
     7
  6
Continuous
370
    -3
390
F
  0
LAYER
  5
160
330
2
100
AcDbSymbolTableRecord
100
AcDbLayerTableRecord
  2
FRAMELAYER-016
 70
     0
 62
     4
  6
Continuous
370
    -3
390
F
  0
LAYER
  5
161
330
2
100
AcDbSymbolTableRecord
100
AcDbLayerTableRecord
  2
FRAMELAYER-017
 70
     0
 62
     7
  6
Continuous
370
    -3
390
F
  0
LAYER
  5
162
330
2
100
AcDbSymbolTableRecord
100
AcDbLayerTableRecord
  2
FRAMELAYER-018
 70
     0
 62
     2
  6
Continuous
370
    -3
390
F
  0
LAYER
  5
163
330
2
100
AcDbSymbolTableRecord
100
AcDbLayerTableRecord
  2
FRAMELAYER-019
 70
     0
 62
     3
  6
Continuous
370
    -3
390
F
  0
LAYER
  5
164
330
2
100
AcDbSymbolTableRecord
100
AcDbLayerTableRecord
  2
FRAMELAYER-020
 70
     0
 62
     2
  6
Continuous
370
    -3
390
F
  0
LAYER
  5
165
330
2
100
AcDbSymbolTableRecord
100
AcDbLayerTableRecord
  2
FRAMELAYER-021
 70
     0
 62
     7
  6
Continuous
370
    -3
390
F
  0
LAYER
  5
166
330
2
100
AcDbSymbolTableRecord
100
AcDbLayerTableRecord
  2
FRAMELAYER-022
 70
     0
 62
     4
  6
Continuous
370
    -3
390
F
  0
LAYER
  5
167
330
2
100
AcDbSymbolTableRecord
100
AcDbLayerTableRecord
  2
FRAMELAYER-023
 70
     0
 62
     4
  6
Continuous
370
    -3
390
F
  0
LAYER
  5
168
330
2
100
AcDbSymbolTableRecord
100
AcDbLayerTableRecord
  2
FRAMELAYER-024
 70
     0
 62
     7
  6
Continuous
370
    -3
390
F
  0
LAYER
  5
169
330
2
100
AcDbSymbolTableRecord
100
AcDbLayerTableRecord
  2
FRAMELAYER-025
 70
     0
 62
     7
  6
Continuous
370
    -3
390
F
  0
LAYER
  5
16A
330
2
100
AcDbSymbolTableRecord
100
AcDbLayerTableRecord
  2
FRAMELAYER-026
 70
     0
 62
    -7
  6
Continuous
370
    -3
390
F
  0
LAYER
  5
16B
330
2
100
AcDbSymbolTableRecord
100
AcDbLayerTableRecord
  2
FRAMELAYER-027
 70
     0
 62
     7
  6
Continuous
370
    -3
390
F
  0
LAYER
  5
16C
330
2
100
AcDbSymbolTableRecord
100
AcDbLayerTableRecord
  2
FRAMELAYER-028
 70
     0
 62
     7
  6
Continuous
370
    -3
390
F
  0
LAYER
  5
16D
330
2
100
AcDbSymbolTableRecord
100
AcDbLayerTableRecord
  2
FRAMELAYER-029
 70
     0
 62
     7
  6
Continuous
370
    -3
390
F
  0
LAYER
  5
16E
330
2
100
AcDbSymbolTableRecord
100
AcDbLayerTableRecord
  2
FRAMELAYER-030
 70
     0
 62
     2
  6
Continuous
370
    -3
390
F
  0
LAYER
  5
16F
330
2
100
AcDbSymbolTableRecord
100
AcDbLayerTableRecord
  2
FRAMELAYER-031
 70
     0
 62
     7
  6
Continuous
370
    -3
390
F
  0
LAYER
  5
170
330
2
100
AcDbSymbolTableRecord
100
AcDbLayerTableRecord
  2
FRAMELAYER-032
 70
     0
 62
     2
  6
Continuous
370
    -3
390
F
  0
LAYER
  5
171
330
2
100
AcDbSymbolTableRecord
100
AcDbLayerTableRecord
  2
FRAMELAYER-033
 70
     0
 62
     7
  6
Continuous
370
    -3
390
F
  0
LAYER
  5
172
330
2
100
AcDbSymbolTableRecord
100
AcDbLayerTableRecord
  2
FRAMELAYER-034
 70
     0
 62
     7
  6
Continuous
370
    -3
390
F
  0
LAYER
  5
173
330
2
100
AcDbSymbolTableRecord
100
AcDbLayerTableRecord
  2
FRAMELAYER-035
 70
     0
 62
     3
  6
Continuous
370
    -3
390
F
  0
LAYER
  5
174
330
2
100
AcDbSymbolTableRecord
100
AcDbLayerTableRecord
  2
FRAMELAYER-036
 70
     0
 62
     2
  6
Continuous
370
    -3
390
F
  0
LAYER
  5
175
330
2
100
AcDbSymbolTableRecord
100
AcDbLayerTableRecord
  2
FRAMELAYER-037
 70
     0
 62
     7
  6
Continuous
370
    -3
390
F
  0
LAYER
  5
176
330
2
100
AcDbSymbolTableRecord
100
AcDbLayerTableRecord
  2
FRAMELAYER-038
 70
     0
 62
     7
  6
Continuous
370
    -3
390
F
  0
LAYER
  5
177
330
2
100
AcDbSymbolTableRecord
100
AcDbLayerTableRecord
  2
FRAMELAYER-039
 70
     0
 62
     7
  6
Continuous
370
    -3
390
F
  0
LAYER
  5
178
330
2
100
AcDbSymbolTableRecord
100
AcDbLayerTableRecord
  2
FRAMELAYER-040
 70
     0
 62
     7
  6
Continuous
370
    -3
390
F
  0
LAYER
  5
179
330
2
100
AcDbSymbolTableRecord
100
AcDbLayerTableRecord
  2
FRAMELAYER-041
 70
     0
 62
     7
  6
Continuous
370
    -3
390
F
  0
LAYER
  5
17A
330
2
100
AcDbSymbolTableRecord
100
AcDbLayerTableRecord
  2
FRAMELAYER-042
 70
     0
 62
     7
  6
Continuous
370
    -3
390
F
  0
LAYER
  5
17B
330
2
100
AcDbSymbolTableRecord
100
AcDbLayerTableRecord
  2
FRAMELAYER-043
 70
     0
 62
     7
  6
Continuous
370
    -3
390
F
  0
LAYER
  5
17C
330
2
100
AcDbSymbolTableRecord
100
AcDbLayerTableRecord
  2
FRAMELAYER-044
 70
     0
 62
     7
  6
Continuous
370
    -3
390
F
  0
LAYER
  5
17D
330
2
100
AcDbSymbolTableRecord
100
AcDbLayerTableRecord
  2
FRAMELAYER-045
 70
     0
 62
     7
  6
Continuous
370
    -3
390
F
  0
LAYER
  5
17E
330
2
100
AcDbSymbolTableRecord
100
AcDbLayerTableRecord
  2
FRAMELAYER-046
 70
     0
 62
     7
  6
Continuous
370
    -3
390
F
  0
LAYER
  5
17F
330
2
100
AcDbSymbolTableRecord
100
AcDbLayerTableRecord
  2
FRAMELAYER-047
 70
     0
 62
     7
  6
Continuous
370
    -3
390
F
  0
LAYER
  5
180
330
2
100
AcDbSymbolTableRecord
100
AcDbLayerTableRecord
  2
FRAMELAYER-048
 70
     0
 62
     2
  6
Continuous
370
    -3
390
F
  0
LAYER
  5
181
330
2
100
AcDbSymbolTableRecord
100
AcDbLayerTableRecord
  2
FRAMELAYER-049
 70
     0
 62
     3
  6
Continuous
370
    -3
390
F
  0
LAYER
  5
182
330
2
100
AcDbSymbolTableRecord
100
AcDbLayerTableRecord
  2
FRAMELAYER-050
 70
     0
 62
     7
  6
Continuous
370
    -3
390
F
  0
LAYER
  5
183
330
2
100
AcDbSymbolTableRecord
100
AcDbLayerTableRecord
  2
FRAMELAYER-051
 70
     0
 62
     2
  6
Continuous
370
    -3
390
F
  0
LAYER
  5
184
330
2
100
AcDbSymbolTableRecord
100
AcDbLayerTableRecord
  2
FRAMELAYER-052
 70
     0
 62
     7
  6
Continuous
370
    -3
390
F
  0
LAYER
  5
185
330
2
100
AcDbSymbolTableRecord
100
AcDbLayerTableRecord
  2
FRAMELAYER-053
 70
     0
 62
     7
  6
Continuous
370
    -3
390
F
  0
LAYER
  5
186
330
2
100
AcDbSymbolTableRecord
100
AcDbLayerTableRecord
  2
FRAMELAYER-054
 70
     0
 62
     7
  6
Continuous
370
    -3
390
F
  0
LAYER
  5
187
330
2
100
AcDbSymbolTableRecord
100
AcDbLayerTableRecord
  2
FRAMELAYER-055
 70
     0
 62
     7
  6
Continuous
370
    -3
390
F
  0
LAYER
  5
188
330
2
100
AcDbSymbolTableRecord
100
AcDbLayerTableRecord
  2
FRAMELAYER-056
 70
     0
 62
     7
  6
Continuous
370
    -3
390
F
  0
LAYER
  5
189
330
2
100
AcDbSymbolTableRecord
100
AcDbLayerTableRecord
  2
FRAMELAYER-057
 70
     0
 62
     7
  6
Continuous
370
    -3
390
F
  0
LAYER
  5
18A
330
2
100
AcDbSymbolTableRecord
100
AcDbLayerTableRecord
  2
FRAMELAYER-058
 70
     0
 62
     7
  6
Continuous
370
    -3
390
F
  0
LAYER
  5
18B
330
2
100
AcDbSymbolTableRecord
100
AcDbLayerTableRecord
  2
FRAMELAYER-059
 70
     0
 62
     7
  6
Continuous
370
    -3
390
F
  0
LAYER
  5
18C
330
2
100
AcDbSymbolTableRecord
100
AcDbLayerTableRecord
  2
FRAMELAYER-060
 70
     0
 62
     7
  6
Continuous
370
    -3
390
F
  0
LAYER
  5
18D
330
2
100
AcDbSymbolTableRecord
100
AcDbLayerTableRecord
  2
FRAMELAYER-061
 70
     0
 62
     7
  6
Continuous
370
    -3
390
F
  0
LAYER
  5
18E
330
2
100
AcDbSymbolTableRecord
100
AcDbLayerTableRecord
  2
FRAMELAYER-062
 70
     0
 62
     7
  6
Continuous
370
    -3
390
F
  0
LAYER
  5
18F
330
2
100
AcDbSymbolTableRecord
100
AcDbLayerTableRecord
  2
FRAMELAYER-063
 70
     0
 62
     7
  6
Continuous
370
    -3
390
F
  0
LAYER
  5
190
330
2
100
AcDbSymbolTableRecord
100
AcDbLayerTableRecord
  2
FRAMELAYER-064
 70
     0
 62
     2
  6
Continuous
370
    -3
390
F
  0
LAYER
  5
191
330
2
100
AcDbSymbolTableRecord
100
AcDbLayerTableRecord
  2
FRAMELAYER-065
 70
     0
 62
     7
  6
Continuous
370
    -3
390
F
  0
LAYER
  5
192
330
2
100
AcDbSymbolTableRecord
100
AcDbLayerTableRecord
  2
FRAMELAYER-066
 70
     0
 62
     2
  6
Continuous
370
    -3
390
F
  0
LAYER
  5
193
330
2
100
AcDbSymbolTableRecord
100
AcDbLayerTableRecord
  2
FRAMELAYER-067
 70
     0
 62
     2
  6
Continuous
370
    -3
390
F
  0
LAYER
  5
194
330
2
100
AcDbSymbolTableRecord
100
AcDbLayerTableRecord
  2
FRAMELAYER-068
 70
     0
 62
     7
  6
Continuous
370
    -3
390
F
  0
LAYER
  5
195
330
2
100
AcDbSymbolTableRecord
100
AcDbLayerTableRecord
  2
FRAMELAYER-069
 70
     0
 62
     7
  6
Continuous
370
    -3
390
F
  0
LAYER
  5
196
330
2
100
AcDbSymbolTableRecord
100
AcDbLayerTableRecord
  2
FRAMELAYER-070
 70
     0
 62
     7
  6
Continuous
370
    -3
390
F
  0
LAYER
  5
197
330
2
100
AcDbSymbolTableRecord
100
AcDbLayerTableRecord
  2
FRAMELAYER-071
 70
     0
 62
     7
  6
Continuous
370
    -3
390
F
  0
LAYER
  5
198
330
2
100
AcDbSymbolTableRecord
100
AcDbLayerTableRecord
  2
FRAMELAYER-072
 70
     0
 62
     7
  6
Continuous
370
    -3
390
F
  0
LAYER
  5
199
330
2
100
AcDbSymbolTableRecord
100
AcDbLayerTableRecord
  2
FRAMELAYER-073
 70
     0
 62
     7
  6
Continuous
370
    -3
390
F
  0
LAYER
  5
19A
330
2
100
AcDbSymbolTableRecord
100
AcDbLayerTableRecord
  2
FRAMELAYER-074
 70
     0
 62
     7
  6
Continuous
370
    -3
390
F
  0
LAYER
  5
19B
330
2
100
AcDbSymbolTableRecord
100
AcDbLayerTableRecord
  2
FRAMELAYER-075
 70
     0
 62
     7
  6
Continuous
370
    -3
390
F
  0
LAYER
  5
19C
330
2
100
AcDbSymbolTableRecord
100
AcDbLayerTableRecord
  2
FRAMELAYER-076
 70
     0
 62
     7
  6
Continuous
370
    -3
390
F
  0
LAYER
  5
19D
330
2
100
AcDbSymbolTableRecord
100
AcDbLayerTableRecord
  2
FRAMELAYER-077
 70
     0
 62
     7
  6
Continuous
370
    -3
390
F
  0
LAYER
  5
19E
330
2
100
AcDbSymbolTableRecord
100
AcDbLayerTableRecord
  2
FRAMELAYER-078
 70
     0
 62
     7
  6
Continuous
370
    -3
390
F
  0
LAYER
  5
19F
330
2
100
AcDbSymbolTableRecord
100
AcDbLayerTableRecord
  2
FRAMELAYER-079
 70
     0
 62
     7
  6
Continuous
370
    -3
390
F
  0
LAYER
  5
1A0
330
2
100
AcDbSymbolTableRecord
100
AcDbLayerTableRecord
  2
FRAMELAYER-080
 70
     0
 62
     2
  6
Continuous
370
    -3
390
F
  0
LAYER
  5
1A1
330
2
100
AcDbSymbolTableRecord
100
AcDbLayerTableRecord
  2
FRAMELAYER-081
 70
     0
 62
     7
  6
Continuous
370
    -3
390
F
  0
LAYER
  5
1A2
330
2
100
AcDbSymbolTableRecord
100
AcDbLayerTableRecord
  2
FRAMELAYER-082
 70
     0
 62
     7
  6
Continuous
370
    -3
390
F
  0
LAYER
  5
1A3
330
2
100
AcDbSymbolTableRecord
100
AcDbLayerTableRecord
  2
FRAMELAYER-083
 70
     0
 62
     7
  6
Continuous
370
    -3
390
F
  0
LAYER
  5
1A4
330
2
100
AcDbSymbolTableRecord
100
AcDbLayerTableRecord
  2
FRAMELAYER-084
 70
     0
 62
     7
  6
Continuous
370
    -3
390
F
  0
LAYER
  5
1A5
330
2
100
AcDbSymbolTableRecord
100
AcDbLayerTableRecord
  2
FRAMELAYER-085
 70
     0
 62
     7
  6
Continuous
370
    -3
390
F
  0
LAYER
  5
1A6
330
2
100
AcDbSymbolTableRecord
100
AcDbLayerTableRecord
  2
FRAMELAYER-086
 70
     0
 62
     7
  6
Continuous
370
    -3
390
F
  0
LAYER
  5
1A7
330
2
100
AcDbSymbolTableRecord
100
AcDbLayerTableRecord
  2
FRAMELAYER-087
 70
     0
 62
     7
  6
Continuous
370
    -3
390
F
  0
LAYER
  5
1A8
330
2
100
AcDbSymbolTableRecord
100
AcDbLayerTableRecord
  2
FRAMELAYER-088
 70
     0
 62
     7
  6
Continuous
370
    -3
390
F
  0
LAYER
  5
1A9
330
2
100
AcDbSymbolTableRecord
100
AcDbLayerTableRecord
  2
FRAMELAYER-089
 70
     0
 62
     7
  6
Continuous
370
    -3
390
F
  0
LAYER
  5
1AA
330
2
100
AcDbSymbolTableRecord
100
AcDbLayerTableRecord
  2
FRAMELAYER-090
 70
     0
 62
     7
  6
Continuous
370
    -3
390
F
  0
LAYER
  5
1AB
330
2
100
AcDbSymbolTableRecord
100
AcDbLayerTableRecord
  2
FRAMELAYER-091
 70
     0
 62
     7
  6
Continuous
370
    -3
390
F
  0
LAYER
  5
1AC
330
2
100
AcDbSymbolTableRecord
100
AcDbLayerTableRecord
  2
FRAMELAYER-092
 70
     0
 62
     7
  6
Continuous
370
    -3
390
F
  0
LAYER
  5
1AD
330
2
100
AcDbSymbolTableRecord
100
AcDbLayerTableRecord
  2
FRAMELAYER-093
 70
     0
 62
     7
  6
Continuous
370
    -3
390
F
  0
LAYER
  5
1AE
330
2
100
AcDbSymbolTableRecord
100
AcDbLayerTableRecord
  2
FRAMELAYER-094
 70
     0
 62
     7
  6
Continuous
370
    -3
390
F
  0
LAYER
  5
1AF
330
2
100
AcDbSymbolTableRecord
100
AcDbLayerTableRecord
  2
FRAMELAYER-095
 70
     0
 62
     7
  6
Continuous
370
    -3
390
F
  0
LAYER
  5
1B0
330
2
100
AcDbSymbolTableRecord
100
AcDbLayerTableRecord
  2
FRAMELAYER-096
 70
     0
 62
     7
  6
Continuous
370
    -3
390
F
  0
LAYER
  5
1B1
330
2
100
AcDbSymbolTableRecord
100
AcDbLayerTableRecord
  2
FRAMELAYER-097
 70
     0
 62
     7
  6
Continuous
370
    -3
390
F
  0
LAYER
  5
1B2
330
2
100
AcDbSymbolTableRecord
100
AcDbLayerTableRecord
  2
FRAMELAYER-098
 70
     0
 62
     7
  6
Continuous
370
    -3
390
F
  0
LAYER
  5
1B3
330
2
100
AcDbSymbolTableRecord
100
AcDbLayerTableRecord
  2
FRAMELAYER-099
 70
     0
 62
     7
  6
Continuous
370
    -3
390
F
  0
LAYER
  5
1B4
330
2
100
AcDbSymbolTableRecord
100
AcDbLayerTableRecord
  2
FRAMELAYER-100
 70
     0
 62
     7
  6
Continuous
370
    -3
390
F
  0
LAYER
  5
1B5
330
2
100
AcDbSymbolTableRecord
100
AcDbLayerTableRecord
  2
FRAMELAYER-101
 70
     0
 62
     7
  6
Continuous
370
    -3
390
F
  0
LAYER
  5
1B6
330
2
100
AcDbSymbolTableRecord
100
AcDbLayerTableRecord
  2
FRAMELAYER-102
 70
     0
 62
     7
  6
Continuous
370
    -3
390
F
  0
LAYER
  5
1B7
330
2
100
AcDbSymbolTableRecord
100
AcDbLayerTableRecord
  2
FRAMELAYER-103
 70
     0
 62
     7
  6
Continuous
370
    -3
390
F
  0
LAYER
  5
1B8
330
2
100
AcDbSymbolTableRecord
100
AcDbLayerTableRecord
  2
FRAMELAYER-104
 70
     0
 62
     7
  6
Continuous
370
    -3
390
F
  0
LAYER
  5
1B9
330
2
100
AcDbSymbolTableRecord
100
AcDbLayerTableRecord
  2
FRAMELAYER-105
 70
     0
 62
     7
  6
Continuous
370
    -3
390
F
  0
LAYER
  5
1BA
330
2
100
AcDbSymbolTableRecord
100
AcDbLayerTableRecord
  2
FRAMELAYER-106
 70
     0
 62
     7
  6
Continuous
370
    -3
390
F
  0
LAYER
  5
1BB
330
2
100
AcDbSymbolTableRecord
100
AcDbLayerTableRecord
  2
FRAMELAYER-107
 70
     0
 62
     7
  6
Continuous
370
    -3
390
F
  0
LAYER
  5
1BC
330
2
100
AcDbSymbolTableRecord
100
AcDbLayerTableRecord
  2
FRAMELAYER-108
 70
     0
 62
     7
  6
Continuous
370
    -3
390
F
  0
LAYER
  5
1BD
330
2
100
AcDbSymbolTableRecord
100
AcDbLayerTableRecord
  2
FRAMELAYER-109
 70
     0
 62
     7
  6
Continuous
370
    -3
390
F
  0
LAYER
  5
1BE
330
2
100
AcDbSymbolTableRecord
100
AcDbLayerTableRecord
  2
FRAMELAYER-110
 70
     0
 62
     7
  6
Continuous
370
    -3
390
F
  0
LAYER
  5
1BF
330
2
100
AcDbSymbolTableRecord
100
AcDbLayerTableRecord
  2
FRAMELAYER-111
 70
     0
 62
     7
  6
Continuous
370
    -3
390
F
  0
LAYER
  5
1C0
330
2
100
AcDbSymbolTableRecord
100
AcDbLayerTableRecord
  2
FRAMELAYER-112
 70
     0
 62
     7
  6
Continuous
370
    -3
390
F
  0
LAYER
  5
1C1
330
2
100
AcDbSymbolTableRecord
100
AcDbLayerTableRecord
  2
FRAMELAYER-113
 70
     0
 62
     7
  6
Continuous
370
    -3
390
F
  0
LAYER
  5
1C2
330
2
100
AcDbSymbolTableRecord
100
AcDbLayerTableRecord
  2
FRAMELAYER-114
 70
     0
 62
     7
  6
Continuous
370
    -3
390
F
  0
LAYER
  5
1C3
330
2
100
AcDbSymbolTableRecord
100
AcDbLayerTableRecord
  2
FRAMELAYER-115
 70
     0
 62
     7
  6
Continuous
370
    -3
390
F
  0
LAYER
  5
1C4
330
2
100
AcDbSymbolTableRecord
100
AcDbLayerTableRecord
  2
FRAMELAYER-116
 70
     0
 62
     7
  6
Continuous
370
    -3
390
F
  0
LAYER
  5
1C5
330
2
100
AcDbSymbolTableRecord
100
AcDbLayerTableRecord
  2
FRAMELAYER-117
 70
     0
 62
     7
  6
Continuous
370
    -3
390
F
  0
LAYER
  5
1C6
330
2
100
AcDbSymbolTableRecord
100
AcDbLayerTableRecord
  2
FRAMELAYER-118
 70
     0
 62
     7
  6
Continuous
370
    -3
390
F
  0
LAYER
  5
1C7
330
2
100
AcDbSymbolTableRecord
100
AcDbLayerTableRecord
  2
FRAMELAYER-119
 70
     0
 62
     7
  6
Continuous
370
    -3
390
F
  0
LAYER
  5
1C8
330
2
100
AcDbSymbolTableRecord
100
AcDbLayerTableRecord
  2
FRAMELAYER-120
 70
     0
 62
     7
  6
Continuous
370
    -3
390
F
  0
LAYER
  5
1C9
330
2
100
AcDbSymbolTableRecord
100
AcDbLayerTableRecord
  2
FRAMELAYER-121
 70
     0
 62
     7
  6
Continuous
370
    -3
390
F
  0
LAYER
  5
1CA
330
2
100
AcDbSymbolTableRecord
100
AcDbLayerTableRecord
  2
FRAMELAYER-122
 70
     0
 62
     7
  6
Continuous
370
    -3
390
F
  0
LAYER
  5
1CB
330
2
100
AcDbSymbolTableRecord
100
AcDbLayerTableRecord
  2
FRAMELAYER-123
 70
     0
 62
     7
  6
Continuous
370
    -3
390
F
  0
LAYER
  5
1CC
330
2
100
AcDbSymbolTableRecord
100
AcDbLayerTableRecord
  2
FRAMELAYER-124
 70
     0
 62
     7
  6
Continuous
370
    -3
390
F
  0
LAYER
  5
1CD
330
2
100
AcDbSymbolTableRecord
100
AcDbLayerTableRecord
  2
FRAMELAYER-125
 70
     0
 62
     7
  6
Continuous
370
    -3
390
F
  0
LAYER
  5
1CE
330
2
100
AcDbSymbolTableRecord
100
AcDbLayerTableRecord
  2
FRAMELAYER-126
 70
     0
 62
     7
  6
Continuous
370
    -3
390
F
  0
LAYER
  5
1CF
330
2
100
AcDbSymbolTableRecord
100
AcDbLayerTableRecord
  2
FRAMELAYER-127
 70
     0
 62
     7
  6
Continuous
370
    -3
390
F
  0
LAYER
  5
1D0
330
2
100
AcDbSymbolTableRecord
100
AcDbLayerTableRecord
  2
FRAMELAYER-128
 70
     0
 62
     7
  6
Continuous
370
    -3
390
F
  0
LAYER
  5
1D1
330
2
100
AcDbSymbolTableRecord
100
AcDbLayerTableRecord
  2
FRAMELAYER-129
 70
     0
 62
     7
  6
Continuous
370
    -3
390
F
  0
LAYER
  5
1D2
330
2
100
AcDbSymbolTableRecord
100
AcDbLayerTableRecord
  2
FRAMELAYER-130
 70
     0
 62
     7
  6
Continuous
370
    -3
390
F
  0
LAYER
  5
1D3
330
2
100
AcDbSymbolTableRecord
100
AcDbLayerTableRecord
  2
FRAMELAYER-131
 70
     0
 62
     7
  6
Continuous
370
    -3
390
F
  0
LAYER
  5
1D4
330
2
100
AcDbSymbolTableRecord
100
AcDbLayerTableRecord
  2
FRAMELAYER-132
 70
     0
 62
     7
  6
Continuous
370
    -3
390
F
  0
LAYER
  5
1D5
330
2
100
AcDbSymbolTableRecord
100
AcDbLayerTableRecord
  2
FRAMELAYER-133
 70
     0
 62
     7
  6
Continuous
370
    -3
390
F
  0
LAYER
  5
1D6
330
2
100
AcDbSymbolTableRecord
100
AcDbLayerTableRecord
  2
FRAMELAYER-134
 70
     0
 62
     7
  6
Continuous
370
    -3
390
F
  0
LAYER
  5
1D7
330
2
100
AcDbSymbolTableRecord
100
AcDbLayerTableRecord
  2
FRAMELAYER-135
 70
     0
 62
     4
  6
Continuous
370
    -3
390
F
  0
LAYER
  5
1D8
330
2
100
AcDbSymbolTableRecord
100
AcDbLayerTableRecord
  2
FRAMELAYER-136
 70
     0
 62
     3
  6
Continuous
370
    -3
390
F
  0
LAYER
  5
1D9
330
2
100
AcDbSymbolTableRecord
100
AcDbLayerTableRecord
  2
FRAMELAYER-137
 70
     0
 62
     1
  6
Continuous
370
    -3
390
F
  0
LAYER
  5
1DA
330
2
100
AcDbSymbolTableRecord
100
AcDbLayerTableRecord
  2
FRAMELAYER-138
 70
     0
 62
     7
  6
Continuous
370
    -3
390
F
  0
LAYER
  5
1DB
330
2
100
AcDbSymbolTableRecord
100
AcDbLayerTableRecord
  2
FRAMELAYER-139
 70
     0
 62
     7
  6
Continuous
370
    -3
390
F
  0
LAYER
  5
1DC
330
2
100
AcDbSymbolTableRecord
100
AcDbLayerTableRecord
  2
FRAMELAYER-140
 70
     0
 62
     7
  6
Continuous
370
    -3
390
F
  0
LAYER
  5
1DD
330
2
100
AcDbSymbolTableRecord
100
AcDbLayerTableRecord
  2
FRAMELAYER-141
 70
     0
 62
     7
  6
Continuous
370
    -3
390
F
  0
LAYER
  5
1DE
330
2
100
AcDbSymbolTableRecord
100
AcDbLayerTableRecord
  2
FRAMELAYER-142
 70
     0
 62
     3
  6
Continuous
370
    -3
390
F
  0
LAYER
  5
1DF
330
2
100
AcDbSymbolTableRecord
100
AcDbLayerTableRecord
  2
FRAMELAYER-143
 70
     0
 62
     7
  6
Continuous
370
    -3
390
F
  0
LAYER
  5
1E0
330
2
100
AcDbSymbolTableRecord
100
AcDbLayerTableRecord
  2
FRAMELAYER-144
 70
     0
 62
     7
  6
Continuous
370
    -3
390
F
  0
LAYER
  5
1E1
330
2
100
AcDbSymbolTableRecord
100
AcDbLayerTableRecord
  2
FRAMELAYER-145
 70
     0
 62
     3
  6
Continuous
370
    -3
390
F
  0
LAYER
  5
1E2
330
2
100
AcDbSymbolTableRecord
100
AcDbLayerTableRecord
  2
FRAMELAYER-146
 70
     0
 62
     7
  6
Continuous
370
    -3
390
F
  0
LAYER
  5
1E3
330
2
100
AcDbSymbolTableRecord
100
AcDbLayerTableRecord
  2
FRAMELAYER-147
 70
     0
 62
     7
  6
Continuous
370
    -3
390
F
  0
LAYER
  5
1E4
330
2
100
AcDbSymbolTableRecord
100
AcDbLayerTableRecord
  2
FRAMELAYER-148
 70
     0
 62
     7
  6
Continuous
370
    -3
390
F
  0
LAYER
  5
1E5
330
2
100
AcDbSymbolTableRecord
100
AcDbLayerTableRecord
  2
FRAMELAYER-149
 70
     0
 62
     7
  6
Continuous
370
    -3
390
F
  0
LAYER
  5
1E6
330
2
100
AcDbSymbolTableRecord
100
AcDbLayerTableRecord
  2
FRAMELAYER-150
 70
     0
 62
     7
  6
Continuous
370
    -3
390
F
  0
LAYER
  5
1E7
330
2
100
AcDbSymbolTableRecord
100
AcDbLayerTableRecord
  2
FRAMELAYER-151
 70
     0
 62
     7
  6
Continuous
370
    -3
390
F
  0
LAYER
  5
1E8
330
2
100
AcDbSymbolTableRecord
100
AcDbLayerTableRecord
  2
FRAMELAYER-152
 70
     0
 62
     7
  6
Continuous
370
    -3
390
F
  0
LAYER
  5
1E9
330
2
100
AcDbSymbolTableRecord
100
AcDbLayerTableRecord
  2
FRAMELAYER-153
 70
     0
 62
     7
  6
Continuous
370
    -3
390
F
  0
LAYER
  5
1EA
330
2
100
AcDbSymbolTableRecord
100
AcDbLayerTableRecord
  2
FRAMELAYER-154
 70
     0
 62
     7
  6
Continuous
370
    -3
390
F
  0
LAYER
  5
1EB
330
2
100
AcDbSymbolTableRecord
100
AcDbLayerTableRecord
  2
FRAMELAYER-155
 70
     0
 62
     7
  6
Continuous
370
    -3
390
F
  0
LAYER
  5
1EC
330
2
100
AcDbSymbolTableRecord
100
AcDbLayerTableRecord
  2
FRAMELAYER-156
 70
     0
 62
     7
  6
Continuous
370
    -3
390
F
  0
LAYER
  5
1ED
330
2
100
AcDbSymbolTableRecord
100
AcDbLayerTableRecord
  2
FRAMELAYER-157
 70
     0
 62
     7
  6
Continuous
370
    -3
390
F
  0
LAYER
  5
1EE
330
2
100
AcDbSymbolTableRecord
100
AcDbLayerTableRecord
  2
FRAMELAYER-158
 70
     0
 62
     7
  6
Continuous
370
    -3
390
F
  0
LAYER
  5
1EF
330
2
100
AcDbSymbolTableRecord
100
AcDbLayerTableRecord
  2
FRAMELAYER-159
 70
     0
 62
     7
  6
Continuous
370
    -3
390
F
  0
LAYER
  5
1F0
330
2
100
AcDbSymbolTableRecord
100
AcDbLayerTableRecord
  2
FRAMELAYER-160
 70
     0
 62
     7
  6
Continuous
370
    -3
390
F
  0
LAYER
  5
1F1
330
2
100
AcDbSymbolTableRecord
100
AcDbLayerTableRecord
  2
FRAMELAYER-161
 70
     0
 62
     7
  6
Continuous
370
    -3
390
F
  0
LAYER
  5
1F2
330
2
100
AcDbSymbolTableRecord
100
AcDbLayerTableRecord
  2
FRAMELAYER-162
 70
     0
 62
     7
  6
Continuous
370
    -3
390
F
  0
LAYER
  5
1F3
330
2
100
AcDbSymbolTableRecord
100
AcDbLayerTableRecord
  2
FRAMELAYER-163
 70
     0
 62
     7
  6
Continuous
370
    -3
390
F
  0
LAYER
  5
1F4
330
2
100
AcDbSymbolTableRecord
100
AcDbLayerTableRecord
  2
FRAMELAYER-164
 70
     0
 62
     7
  6
Continuous
370
    -3
390
F
  0
LAYER
  5
1F5
330
2
100
AcDbSymbolTableRecord
100
AcDbLayerTableRecord
  2
FRAMELAYER-165
 70
     0
 62
     7
  6
Continuous
370
    -3
390
F
  0
LAYER
  5
1F6
330
2
100
AcDbSymbolTableRecord
100
AcDbLayerTableRecord
  2
FRAMELAYER-166
 70
     0
 62
     7
  6
Continuous
370
    -3
390
F
  0
LAYER
  5
1F7
330
2
100
AcDbSymbolTableRecord
100
AcDbLayerTableRecord
  2
FRAMELAYER-167
 70
     0
 62
     7
  6
Continuous
370
    -3
390
F
  0
LAYER
  5
1F8
330
2
100
AcDbSymbolTableRecord
100
AcDbLayerTableRecord
  2
FRAMELAYER-168
 70
     0
 62
     7
  6
Continuous
370
    -3
390
F
  0
LAYER
  5
1F9
330
2
100
AcDbSymbolTableRecord
100
AcDbLayerTableRecord
  2
FRAMELAYER-169
 70
     0
 62
     7
  6
Continuous
370
    -3
390
F
  0
LAYER
  5
1FA
330
2
100
AcDbSymbolTableRecord
100
AcDbLayerTableRecord
  2
FRAMELAYER-170
 70
     0
 62
     7
  6
Continuous
370
    -3
390
F
  0
LAYER
  5
1FB
330
2
100
AcDbSymbolTableRecord
100
AcDbLayerTableRecord
  2
FRAMELAYER-171
 70
     0
 62
     7
  6
Continuous
370
    -3
390
F
  0
LAYER
  5
1FC
330
2
100
AcDbSymbolTableRecord
100
AcDbLayerTableRecord
  2
FRAMELAYER-172
 70
     0
 62
     7
  6
Continuous
370
    -3
390
F
  0
LAYER
  5
1FD
330
2
100
AcDbSymbolTableRecord
100
AcDbLayerTableRecord
  2
FRAMELAYER-173
 70
     0
 62
     7
  6
Continuous
370
    -3
390
F
  0
LAYER
  5
1FE
330
2
100
AcDbSymbolTableRecord
100
AcDbLayerTableRecord
  2
FRAMELAYER-174
 70
     0
 62
     7
  6
Continuous
370
    -3
390
F
  0
LAYER
  5
1FF
330
2
100
AcDbSymbolTableRecord
100
AcDbLayerTableRecord
  2
FRAMELAYER-175
 70
     0
 62
     7
  6
Continuous
370
    -3
390
F
  0
LAYER
  5
200
330
2
100
AcDbSymbolTableRecord
100
AcDbLayerTableRecord
  2
FRAMELAYER-176
 70
     0
 62
     7
  6
Continuous
370
    -3
390
F
  0
LAYER
  5
201
330
2
100
AcDbSymbolTableRecord
100
AcDbLayerTableRecord
  2
FRAMELAYER-177
 70
     0
 62
     7
  6
Continuous
370
    -3
390
F
  0
LAYER
  5
202
330
2
100
AcDbSymbolTableRecord
100
AcDbLayerTableRecord
  2
FRAMELAYER-178
 70
     0
 62
     7
  6
Continuous
370
    -3
390
F
  0
LAYER
  5
203
330
2
100
AcDbSymbolTableRecord
100
AcDbLayerTableRecord
  2
FRAMELAYER-179
 70
     0
 62
     7
  6
Continuous
370
    -3
390
F
  0
LAYER
  5
204
330
2
100
AcDbSymbolTableRecord
100
AcDbLayerTableRecord
  2
FRAMELAYER-180
 70
     0
 62
     7
  6
Continuous
370
    -3
390
F
  0
LAYER
  5
205
330
2
100
AcDbSymbolTableRecord
100
AcDbLayerTableRecord
  2
FRAMELAYER-181
 70
     0
 62
     7
  6
Continuous
370
    -3
390
F
  0
LAYER
  5
206
330
2
100
AcDbSymbolTableRecord
100
AcDbLayerTableRecord
  2
FRAMELAYER-182
 70
     0
 62
     7
  6
Continuous
370
    -3
390
F
  0
LAYER
  5
207
330
2
100
AcDbSymbolTableRecord
100
AcDbLayerTableRecord
  2
FRAMELAYER-183
 70
     0
 62
     7
  6
Continuous
370
    -3
390
F
  0
LAYER
  5
208
330
2
100
AcDbSymbolTableRecord
100
AcDbLayerTableRecord
  2
FRAMELAYER-184
 70
     0
 62
     7
  6
Continuous
370
    -3
390
F
  0
LAYER
  5
209
330
2
100
AcDbSymbolTableRecord
100
AcDbLayerTableRecord
  2
FRAMELAYER-185
 70
     0
 62
     7
  6
Continuous
370
    -3
390
F
  0
LAYER
  5
20A
330
2
100
AcDbSymbolTableRecord
100
AcDbLayerTableRecord
  2
FRAMELAYER-186
 70
     0
 62
     7
  6
Continuous
370
    -3
390
F
  0
LAYER
  5
20B
330
2
100
AcDbSymbolTableRecord
100
AcDbLayerTableRecord
  2
FRAMELAYER-187
 70
     0
 62
     7
  6
Continuous
370
    -3
390
F
  0
LAYER
  5
20C
330
2
100
AcDbSymbolTableRecord
100
AcDbLayerTableRecord
  2
FRAMELAYER-188
 70
     0
 62
     7
  6
Continuous
370
    -3
390
F
  0
LAYER
  5
20D
330
2
100
AcDbSymbolTableRecord
100
AcDbLayerTableRecord
  2
FRAMELAYER-189
 70
     0
 62
     7
  6
Continuous
370
    -3
390
F
  0
LAYER
  5
20E
330
2
100
AcDbSymbolTableRecord
100
AcDbLayerTableRecord
  2
FRAMELAYER-190
 70
     0
 62
     7
  6
Continuous
370
    -3
390
F
  0
LAYER
  5
20F
330
2
100
AcDbSymbolTableRecord
100
AcDbLayerTableRecord
  2
FRAMELAYER-191
 70
     0
 62
     7
  6
Continuous
370
    -3
390
F
  0
LAYER
  5
210
330
2
100
AcDbSymbolTableRecord
100
AcDbLayerTableRecord
  2
FRAMELAYER-192
 70
     0
 62
     7
  6
Continuous
370
    -3
390
F
  0
LAYER
  5
211
330
2
100
AcDbSymbolTableRecord
100
AcDbLayerTableRecord
  2
FRAMELAYER-193
 70
     0
 62
     7
  6
Continuous
370
    -3
390
F
  0
LAYER
  5
212
330
2
100
AcDbSymbolTableRecord
100
AcDbLayerTableRecord
  2
FRAMELAYER-194
 70
     0
 62
     2
  6
Continuous
370
    -3
390
F
  0
LAYER
  5
213
330
2
100
AcDbSymbolTableRecord
100
AcDbLayerTableRecord
  2
FRAMELAYER-195
 70
     0
 62
     2
  6
Continuous
370
    -3
390
F
  0
LAYER
  5
214
330
2
100
AcDbSymbolTableRecord
100
AcDbLayerTableRecord
  2
FRAMELAYER-196
 70
     0
 62
     2
  6
Continuous
370
    -3
390
F
  0
LAYER
  5
215
330
2
100
AcDbSymbolTableRecord
100
AcDbLayerTableRecord
  2
FRAMELAYER-197
 70
     0
 62
     7
  6
Continuous
370
    -3
390
F
  0
LAYER
  5
216
330
2
100
AcDbSymbolTableRecord
100
AcDbLayerTableRecord
  2
FRAMELAYER-198
 70
     0
 62
     7
  6
Continuous
370
    -3
390
F
  0
LAYER
  5
217
330
2
100
AcDbSymbolTableRecord
100
AcDbLayerTableRecord
  2
FRAMELAYER-199
 70
     0
 62
     4
  6
Continuous
370
    -3
390
F
  0
LAYER
  5
218
330
2
100
AcDbSymbolTableRecord
100
AcDbLayerTableRecord
  2
FRAMELAYER-200
 70
     0
 62
     1
  6
Continuous
370
    -3
390
F
  0
LAYER
  5
219
330
2
100
AcDbSymbolTableRecord
100
AcDbLayerTableRecord
  2
FRAMELAYER-201
 70
     0
 62
     1
  6
Continuous
370
    -3
390
F
  0
LAYER
  5
21A
330
2
100
AcDbSymbolTableRecord
100
AcDbLayerTableRecord
  2
FRAMELAYER-202
 70
     0
 62
     2
  6
Continuous
370
    -3
390
F
  0
LAYER
  5
21B
330
2
100
AcDbSymbolTableRecord
100
AcDbLayerTableRecord
  2
FRAMELAYER-203
 70
     0
 62
     2
  6
Continuous
370
    -3
390
F
  0
LAYER
  5
21C
330
2
100
AcDbSymbolTableRecord
100
AcDbLayerTableRecord
  2
FRAMELAYER-204
 70
     0
 62
     7
  6
Continuous
370
    -3
390
F
  0
LAYER
  5
21D
330
2
100
AcDbSymbolTableRecord
100
AcDbLayerTableRecord
  2
FRAMELAYER-205
 70
     0
 62
     7
  6
Continuous
370
    -3
390
F
  0
LAYER
  5
21E
330
2
100
AcDbSymbolTableRecord
100
AcDbLayerTableRecord
  2
FRAMELAYER-206
 70
     0
 62
     7
  6
Continuous
370
    -3
390
F
  0
LAYER
  5
21F
330
2
100
AcDbSymbolTableRecord
100
AcDbLayerTableRecord
  2
FRAMELAYER-207
 70
     0
 62
    -7
  6
Continuous
370
    -3
390
F
  0
LAYER
  5
220
330
2
100
AcDbSymbolTableRecord
100
AcDbLayerTableRecord
  2
FRAMELAYER-208
 70
     0
 62
     2
  6
Continuous
370
    -3
390
F
  0
LAYER
  5
221
330
2
100
AcDbSymbolTableRecord
100
AcDbLayerTableRecord
  2
FRAMELAYER-209
 70
     0
 62
     7
  6
Continuous
370
    -3
390
F
  0
LAYER
  5
222
330
2
100
AcDbSymbolTableRecord
100
AcDbLayerTableRecord
  2
FRAMELAYER-210
 70
     0
 62
     2
  6
Continuous
370
    -3
390
F
  0
LAYER
  5
223
330
2
100
AcDbSymbolTableRecord
100
AcDbLayerTableRecord
  2
FRAMELAYER-211
 70
     0
 62
     7
  6
Continuous
370
    -3
390
F
  0
LAYER
  5
224
330
2
100
AcDbSymbolTableRecord
100
AcDbLayerTableRecord
  2
FRAMELAYER-212
 70
     0
 62
     7
  6
Continuous
370
    -3
390
F
  0
LAYER
  5
225
330
2
100
AcDbSymbolTableRecord
100
AcDbLayerTableRecord
  2
FRAMELAYER-213
 70
     0
 62
     2
  6
Continuous
370
    -3
390
F
  0
LAYER
  5
226
330
2
100
AcDbSymbolTableRecord
100
AcDbLayerTableRecord
  2
FRAMELAYER-214
 70
     0
 62
     7
  6
Continuous
370
    -3
390
F
  0
LAYER
  5
227
330
2
100
AcDbSymbolTableRecord
100
AcDbLayerTableRecord
  2
FRAMELAYER-215
 70
     0
 62
     7
  6
Continuous
370
    -3
390
F
  0
LAYER
  5
228
330
2
100
AcDbSymbolTableRecord
100
AcDbLayerTableRecord
  2
FRAMELAYER-216
 70
     0
 62
     4
  6
Continuous
370
    -3
390
F
  0
LAYER
  5
229
330
2
100
AcDbSymbolTableRecord
100
AcDbLayerTableRecord
  2
FRAMELAYER-217
 70
     0
 62
     7
  6
Continuous
370
    -3
390
F
  0
LAYER
  5
22A
330
2
100
AcDbSymbolTableRecord
100
AcDbLayerTableRecord
  2
FRAMELAYER-218
 70
     0
 62
     7
  6
Continuous
370
    -3
390
F
  0
LAYER
  5
22B
330
2
100
AcDbSymbolTableRecord
100
AcDbLayerTableRecord
  2
FRAMELAYER-219
 70
     0
 62
     7
  6
Continuous
370
    -3
390
F
  0
LAYER
  5
22C
330
2
100
AcDbSymbolTableRecord
100
AcDbLayerTableRecord
  2
FRAMELAYER-220
 70
     0
 62
     4
  6
Continuous
370
    -3
390
F
  0
LAYER
  5
22D
330
2
100
AcDbSymbolTableRecord
100
AcDbLayerTableRecord
  2
FRAMELAYER-221
 70
     0
 62
     7
  6
Continuous
370
    -3
390
F
  0
LAYER
  5
22E
330
2
100
AcDbSymbolTableRecord
100
AcDbLayerTableRecord
  2
FRAMELAYER-222
 70
     0
 62
     4
  6
Continuous
370
    -3
390
F
  0
LAYER
  5
22F
330
2
100
AcDbSymbolTableRecord
100
AcDbLayerTableRecord
  2
FRAMELAYER-223
 70
     0
 62
     1
  6
Continuous
370
    -3
390
F
  0
LAYER
  5
230
330
2
100
AcDbSymbolTableRecord
100
AcDbLayerTableRecord
  2
FRAMELAYER-224
 70
     0
 62
     1
  6
Continuous
370
    -3
390
F
  0
LAYER
  5
231
330
2
100
AcDbSymbolTableRecord
100
AcDbLayerTableRecord
  2
FRAMELAYER-225
 70
     0
 62
     7
  6
Continuous
370
    -3
390
F
  0
LAYER
  5
232
330
2
100
AcDbSymbolTableRecord
100
AcDbLayerTableRecord
  2
FRAMELAYER-226
 70
     0
 62
     2
  6
Continuous
370
    -3
390
F
  0
LAYER
  5
233
330
2
100
AcDbSymbolTableRecord
100
AcDbLayerTableRecord
  2
FRAMELAYER-227
 70
     0
 62
     7
  6
Continuous
370
    -3
390
F
  0
LAYER
  5
234
330
2
100
AcDbSymbolTableRecord
100
AcDbLayerTableRecord
  2
FRAMELAYER-228
 70
     0
 62
     7
  6
Continuous
370
    -3
390
F
  0
LAYER
  5
235
330
2
100
AcDbSymbolTableRecord
100
AcDbLayerTableRecord
  2
FRAMELAYER-229
 70
     0
 62
     7
  6
Continuous
370
    -3
390
F
  0
LAYER
  5
236
330
2
100
AcDbSymbolTableRecord
100
AcDbLayerTableRecord
  2
FRAMELAYER-230
 70
     0
 62
     7
  6
Continuous
370
    -3
390
F
  0
LAYER
  5
237
330
2
100
AcDbSymbolTableRecord
100
AcDbLayerTableRecord
  2
FRAMELAYER-231
 70
     0
 62
     7
  6
Continuous
370
    -3
390
F
  0
LAYER
  5
238
330
2
100
AcDbSymbolTableRecord
100
AcDbLayerTableRecord
  2
FRAMELAYER-232
 70
     0
 62
     7
  6
Continuous
370
    -3
390
F
  0
LAYER
  5
239
330
2
100
AcDbSymbolTableRecord
100
AcDbLayerTableRecord
  2
FRAMELAYER-233
 70
     0
 62
     7
  6
Continuous
370
    -3
390
F
  0
LAYER
  5
23A
330
2
100
AcDbSymbolTableRecord
100
AcDbLayerTableRecord
  2
FRAMELAYER-234
 70
     0
 62
     7
  6
Continuous
370
    -3
390
F
  0
LAYER
  5
23B
330
2
100
AcDbSymbolTableRecord
100
AcDbLayerTableRecord
  2
FRAMELAYER-235
 70
     0
 62
     7
  6
Continuous
370
    -3
390
F
  0
LAYER
  5
23C
330
2
100
AcDbSymbolTableRecord
100
AcDbLayerTableRecord
  2
FRAMELAYER-236
 70
     0
 62
     7
  6
Continuous
370
    -3
390
F
  0
LAYER
  5
23D
330
2
100
AcDbSymbolTableRecord
100
AcDbLayerTableRecord
  2
FRAMELAYER-237
 70
     0
 62
     7
  6
Continuous
370
    -3
390
F
  0
LAYER
  5
23E
330
2
100
AcDbSymbolTableRecord
100
AcDbLayerTableRecord
  2
FRAMELAYER-238
 70
     0
 62
     7
  6
Continuous
370
    -3
390
F
  0
LAYER
  5
23F
330
2
100
AcDbSymbolTableRecord
100
AcDbLayerTableRecord
  2
FRAMELAYER-239
 70
     0
 62
     7
  6
Continuous
370
    -3
390
F
  0
LAYER
  5
240
330
2
100
AcDbSymbolTableRecord
100
AcDbLayerTableRecord
  2
FRAMELAYER-240
 70
     0
 62
     7
  6
Continuous
370
    -3
390
F
  0
LAYER
  5
241
330
2
100
AcDbSymbolTableRecord
100
AcDbLayerTableRecord
  2
FRAMELAYER-241
 70
     0
 62
     7
  6
Continuous
370
    -3
390
F
  0
LAYER
  5
242
330
2
100
AcDbSymbolTableRecord
100
AcDbLayerTableRecord
  2
FRAMELAYER-242
 70
     0
 62
     7
  6
Continuous
370
    -3
390
F
  0
LAYER
  5
243
330
2
100
AcDbSymbolTableRecord
100
AcDbLayerTableRecord
  2
FRAMELAYER-243
 70
     0
 62
     7
  6
Continuous
370
    -3
390
F
  0
LAYER
  5
244
330
2
100
AcDbSymbolTableRecord
100
AcDbLayerTableRecord
  2
FRAMELAYER-244
 70
     0
 62
     7
  6
Continuous
370
    -3
390
F
  0
LAYER
  5
245
330
2
100
AcDbSymbolTableRecord
100
AcDbLayerTableRecord
  2
FRAMELAYER-245
 70
     0
 62
     7
  6
Continuous
370
    -3
390
F
  0
LAYER
  5
246
330
2
100
AcDbSymbolTableRecord
100
AcDbLayerTableRecord
  2
FRAMELAYER-246
 70
     0
 62
     7
  6
Continuous
370
    -3
390
F
  0
LAYER
  5
247
330
2
100
AcDbSymbolTableRecord
100
AcDbLayerTableRecord
  2
FRAMELAYER-247
 70
     0
 62
     7
  6
Continuous
370
    -3
390
F
  0
LAYER
  5
248
330
2
100
AcDbSymbolTableRecord
100
AcDbLayerTableRecord
  2
FRAMELAYER-248
 70
     0
 62
     7
  6
Continuous
370
    -3
390
F
  0
LAYER
  5
249
330
2
100
AcDbSymbolTableRecord
100
AcDbLayerTableRecord
  2
FRAMELAYER-249
 70
     0
 62
     7
  6
Continuous
370
    -3
390
F
  0
LAYER
  5
24A
330
2
100
AcDbSymbolTableRecord
100
AcDbLayerTableRecord
  2
FRAMELAYER-250
 70
     0
 62
     7
  6
Continuous
370
    -3
390
F
  0
LAYER
  5
24B
330
2
100
AcDbSymbolTableRecord
100
AcDbLayerTableRecord
  2
FRAMELAYER-251
 70
     0
 62
     7
  6
Continuous
370
    -3
390
F
  0
LAYER
  5
24C
330
2
100
AcDbSymbolTableRecord
100
AcDbLayerTableRecord
  2
FRAMELAYER-252
 70
     0
 62
     7
  6
Continuous
370
    -3
390
F
  0
LAYER
  5
24D
330
2
100
AcDbSymbolTableRecord
100
AcDbLayerTableRecord
  2
FRAMELAYER-253
 70
     0
 62
     7
  6
Continuous
370
    -3
390
F
  0
LAYER
  5
24E
330
2
100
AcDbSymbolTableRecord
100
AcDbLayerTableRecord
  2
FRAMELAYER-254
 70
     0
 62
     7
  6
Continuous
370
    -3
390
F
  0
LAYER
  5
24F
330
2
100
AcDbSymbolTableRecord
100
AcDbLayerTableRecord
  2
FRAMELAYER-255
 70
     0
 62
     7
  6
Continuous
370
    -3
390
F
  0
LAYER
  5
250
330
2
100
AcDbSymbolTableRecord
100
AcDbLayerTableRecord
  2
FRAMELAYER-256
 70
     0
 62
     7
  6
Continuous
370
    -3
390
F
  0
ENDTAB
  0
TABLE
  2
STYLE
  5
3
330
0
100
AcDbSymbolTable
 70
     7
  0
STYLE
  5
11
330
3
100
AcDbSymbolTableRecord
100
AcDbTextStyleTableRecord
  2
Standard
 70
     0
 40
0.0
 41
1.0
 50
0.0
 71
     0
 42
2.5
  3
txt
  4

  0
STYLE
  5
31
330
3
100
AcDbSymbolTableRecord
100
AcDbTextStyleTableRecord
  2
STANDARD2
 70
     0
 40
0.0
 41
1.0
 50
0.0
 71
     0
 42
4.0
  3
MS Mincho.ttf
  4

1001
ACAD
1000
MS Mincho
1071
    32785
  0
STYLE
  5
32
330
3
100
AcDbSymbolTableRecord
100
AcDbTextStyleTableRecord
  2
STRING_H
 70
     0
 40
0.0
 41
1.0
 50
0.0
 71
     0
 42
4.0
  3
MS Mincho.ttf
  4

1001
ACAD
1000
MS Mincho
1071
    32785
  0
STYLE
  5
33
330
3
100
AcDbSymbolTableRecord
100
AcDbTextStyleTableRecord
  2
STRING_H_ITALIC
 70
     0
 40
0.0
 41
1.0
 50
15.0
 71
     0
 42
4.0
  3
MS Mincho.ttf
  4

1001
ACAD
1000
MS Mincho
1071
    32785
  0
STYLE
  5
34
330
3
100
AcDbSymbolTableRecord
100
AcDbTextStyleTableRecord
  2
STRING_V
 70
     0
 40
0.0
 41
1.0
 50
0.0
 71
     0
 42
4.0
  3
@MS Mincho.ttf
  4

1001
ACAD
1000
@MS Mincho
1071
    32785
  0
STYLE
  5
35
330
3
100
AcDbSymbolTableRecord
100
AcDbTextStyleTableRecord
  2
STRING_V_ITALIC
 70
     0
 40
0.0
 41
1.0
 50
15.0
 71
     0
 42
4.0
  3
@MS Mincho.ttf
  4

1001
ACAD
1000
@MS Mincho
1071
    32785
  0
STYLE
  5
36
330
3
100
AcDbSymbolTableRecord
100
AcDbTextStyleTableRecord
  2

 70
     1
 40
0.0
 41
1.0
 50
0.0
 71
     0
 42
0.2
  3
ltypeshp.shx
  4

  0
ENDTAB
  0
TABLE
  2
VIEW
  5
6
330
0
100
AcDbSymbolTable
 70
     0
  0
ENDTAB
  0
TABLE
  2
UCS
  5
7
330
0
100
AcDbSymbolTable
 70
     0
  0
ENDTAB
  0
TABLE
  2
APPID
  5
9
330
0
100
AcDbSymbolTable
 70
     1
  0
APPID
  5
12
330
9
100
AcDbSymbolTableRecord
100
AcDbRegAppTableRecord
  2
ACAD
 70
     0
  0
ENDTAB
  0
TABLE
  2
DIMSTYLE
  5
A
330
0
100
AcDbSymbolTable
 70
     2
100
AcDbDimStyleTable
  0
DIMSTYLE
105
27
330
A
100
AcDbSymbolTableRecord
100
AcDbDimStyleTableRecord
  2
ISO-25
 70
     0
 41
2.5
 42
0.625
 43
3.75
 44
1.25
 73
     0
 74
     0
 77
     1
 78
     8
140
2.5
141
2.5
143
0.03937007874016
147
0.625
171
     3
172
     1
271
     2
272
     2
274
     3
283
     0
284
     8
340
11
  0
DIMSTYLE
105
251
102
{ACAD_REACTORS
330
499
330
4A3
330
4AD
330
4B7
330
4C1
330
4CB
330
4D7
330
4E1
102
}
330
A
100
AcDbSymbolTableRecord
100
AcDbDimStyleTableRecord
  2
DIO_DIMSTYLE
 70
     0
 41
4.0
 42
1.0
 43
3.75
 44
1.0
 45
0.1
 73
     0
 74
     0
 77
     1
 78
     8
 79
     2
140
3.0
141
2.5
143
0.03937007874016
147
0.5
171
     3
172
     1
173
     1
179
     1
271
     1
272
     1
274
     3
283
     0
284
     8
288
     1
289
     0
340
31
  0
ENDTAB
  0
TABLE
  2
BLOCK_RECORD
  5
1
330
0
100
AcDbSymbolTable
 70
    10
  0
BLOCK_RECORD
  5
1F
330
1
100
AcDbSymbolTableRecord
100
AcDbBlockTableRecord
  2
*Model_Space
340
22
  0
BLOCK_RECORD
  5
1B
330
1
100
AcDbSymbolTableRecord
100
AcDbBlockTableRecord
  2
*Paper_Space
340
1E
  0
BLOCK_RECORD
  5
23
330
1
100
AcDbSymbolTableRecord
100
AcDbBlockTableRecord
  2
*Paper_Space0
340
26
  0
BLOCK_RECORD
  5
48A
330
1
100
AcDbSymbolTableRecord
100
AcDbBlockTableRecord
  2
_OPEN
340
0
102
{BLKREFS
331
493
331
494
331
49D
331
49E
331
4A7
331
4A8
331
4B1
331
4B2
331
4BB
331
4BC
331
4C5
331
4C6
331
4CF
331
4D0
331
4DB
331
4DC
102
}
  0
BLOCK_RECORD
  5
490
330
1
100
AcDbSymbolTableRecord
100
AcDbBlockTableRecord
  2
*D02
340
0
  0
BLOCK_RECORD
  5
49A
330
1
100
AcDbSymbolTableRecord
100
AcDbBlockTableRecord
  2
*D13
340
0
  0
BLOCK_RECORD
  5
4A4
330
1
100
AcDbSymbolTableRecord
100
AcDbBlockTableRecord
  2
*D24
340
0
  0
BLOCK_RECORD
  5
4AE
330
1
100
AcDbSymbolTableRecord
100
AcDbBlockTableRecord
  2
*D35
340
0
  0
BLOCK_RECORD
  5
4B8
330
1
100
AcDbSymbolTableRecord
100
AcDbBlockTableRecord
  2
*D46
340
0
  0
BLOCK_RECORD
  5
4C2
330
1
100
AcDbSymbolTableRecord
100
AcDbBlockTableRecord
  2
*D57
340
0
  0
BLOCK_RECORD
  5
4CC
330
1
100
AcDbSymbolTableRecord
100
AcDbBlockTableRecord
  2
*D68
340
0
  0
BLOCK_RECORD
  5
4D8
330
1
100
AcDbSymbolTableRecord
100
AcDbBlockTableRecord
  2
*D79
340
0
  0
ENDTAB
  0
ENDSEC
  0
SECTION
  2
BLOCKS
  0
BLOCK
  5
20
330
1F
100
AcDbEntity
  8
0
100
AcDbBlockBegin
  2
*Model_Space
 70
     0
 71
     0
 10
0.0
 20
0.0
 30
0.0
  3
*Model_Space
  1

  0
ENDBLK
  5
21
330
1F
100
AcDbEntity
  8
0
100
AcDbBlockEnd
  0
BLOCK
  5
1C
330
1B
100
AcDbEntity
 67
     1
  8
0
100
AcDbBlockBegin
  2
*Paper_Space
 70
     0
 71
     0
 10
0.0
 20
0.0
 30
0.0
  3
*Paper_Space
  1

  0
ENDBLK
  5
1D
330
1B
100
AcDbEntity
 67
     1
  8
0
100
AcDbBlockEnd
  0
BLOCK
  5
24
330
23
100
AcDbEntity
  8
0
100
AcDbBlockBegin
  2
*Paper_Space0
 70
     0
 71
     0
 10
0.0
 20
0.0
 30
0.0
  3
*Paper_Space0
  1

  0
ENDBLK
  5
25
330
23
100
AcDbEntity
  8
0
100
AcDbBlockEnd
  0
BLOCK
  5
48B
330
48A
100
AcDbEntity
  8
0
100
AcDbBlockBegin
  2
_OPEN
 70
     0
 71
     0
 10
0.0
 20
0.0
 30
0.0
  3
_OPEN
  1

  0
LINE
  5
48D
330
48A
100
AcDbEntity
  8
LAYER-035
  6
Continuous
 62
     0
100
AcDbLine
 10
0.0
 20
0.0
 30
0.0
 11
-1.0
 21
0.0
 31
0.0
  0
LINE
  5
48E
330
48A
100
AcDbEntity
  8
LAYER-035
  6
Continuous
 62
     0
100
AcDbLine
 10
0.0
 20
0.0
 30
0.0
 11
-1.0
 21
0.1666250109338451
 31
0.0
  0
LINE
  5
48F
330
48A
100
AcDbEntity
  8
LAYER-035
  6
Continuous
 62
     0
100
AcDbLine
 10
0.0
 20
0.0
 30
0.0
 11
-1.0
 21
-0.1666250109338451
 31
0.0
  0
ENDBLK
  5
48C
330
48A
100
AcDbEntity
  8
0
100
AcDbBlockEnd
  0
BLOCK
  5
491
330
490
100
AcDbEntity
  8
0
100
AcDbBlockBegin
  2
*D02
 70
     1
 71
     0
 10
0.0
 20
0.0
 30
0.0
  3
*D02
  1

  0
INSERT
  5
493
330
490
100
AcDbEntity
  8
LAYER-035
  6
Continuous
 62
     5
100
AcDbBlockReference
  2
_OPEN
 10
6.332484473552682
 20
245.2426573426573
 30
0.0
 41
4.0
 42
4.0
 43
4.0
 50
90.0
  0
INSERT
  5
494
330
490
100
AcDbEntity
  8
LAYER-035
  6
Continuous
 62
     5
100
AcDbBlockReference
  2
_OPEN
 10
6.332484473552682
 20
95.24265734265734
 30
0.0
 41
4.0
 42
4.0
 43
4.0
 50
-90.0
  0
LINE
  5
495
330
490
100
AcDbEntity
  8
LAYER-035
  6
Continuous
 62
     5
100
AcDbLine
 10
-21.90777177368082
 20
245.2426573426573
 30
0.0
 11
7.332484473552682
 21
245.2426573426573
 31
0.0
  0
LINE
  5
496
330
490
100
AcDbEntity
  8
LAYER-035
  6
Continuous
 62
     5
100
AcDbLine
 10
-27.69537815417655
 20
95.24265734265734
 30
0.0
 11
7.332484473552682
 21
95.24265734265734
 31
0.0
  0
LINE
  5
497
330
490
100
AcDbEntity
  8
LAYER-035
  6
Continuous
 62
     5
100
AcDbLine
 10
6.332484473552682
 20
245.2426573426573
 30
0.0
 11
6.332484473552682
 21
95.24265734265734
 31
0.0
  0
MTEXT
  5
498
330
490
100
AcDbEntity
  8
LAYER-036
  6
Continuous
 62
     5
100
AcDbMText
 10
5.832484473552682
 20
170.2426573426573
 30
0.0
 40
4.0
 41
0.0
 71
     8
 72
     1
  1
150
  7
STRING_H
 11
6.123031769111886E-17
 21
1.0
 31
0.0
 73
     1
 44
1.0
  0
ENDBLK
  5
492
330
490
100
AcDbEntity
  8
0
100
AcDbBlockEnd
  0
BLOCK
  5
49B
330
49A
100
AcDbEntity
  8
0
100
AcDbBlockBegin
  2
*D13
 70
     1
 71
     0
 10
0.0
 20
0.0
 30
0.0
  3
*D13
  1

  0
INSERT
  5
49D
330
49A
100
AcDbEntity
  8
LAYER-035
  6
Continuous
 62
     5
100
AcDbBlockReference
  2
_OPEN
 10
6.332484473552682
 20
95.24265734265734
 30
0.0
 41
4.0
 42
4.0
 43
4.0
 50
90.0
  0
INSERT
  5
49E
330
49A
100
AcDbEntity
  8
LAYER-035
  6
Continuous
 62
     5
100
AcDbBlockReference
  2
_OPEN
 10
6.332484473552682
 20
-104.7573426573427
 30
0.0
 41
4.0
 42
4.0
 43
4.0
 50
-90.0
  0
LINE
  5
49F
330
49A
100
AcDbEntity
  8
LAYER-035
  6
Continuous
 62
     5
100
AcDbLine
 10
-27.69537815417655
 20
95.24265734265734
 30
0.0
 11
7.332484473552682
 21
95.24265734265734
 31
0.0
  0
LINE
  5
4A0
330
49A
100
AcDbEntity
  8
LAYER-035
  6
Continuous
 62
     5
100
AcDbLine
 10
-27.69537815417655
 20
-104.7573426573427
 30
0.0
 11
7.332484473552682
 21
-104.7573426573427
 31
0.0
  0
LINE
  5
4A1
330
49A
100
AcDbEntity
  8
LAYER-035
  6
Continuous
 62
     5
100
AcDbLine
 10
6.332484473552682
 20
95.24265734265734
 30
0.0
 11
6.332484473552682
 21
-104.7573426573427
 31
0.0
  0
MTEXT
  5
4A2
330
49A
100
AcDbEntity
  8
LAYER-036
  6
Continuous
 62
     5
100
AcDbMText
 10
5.832484473552682
 20
-4.757342657342662
 30
0.0
 40
4.0
 41
0.0
 71
     8
 72
     1
  1
200
  7
STRING_H
 11
6.123031769111886E-17
 21
1.0
 31
0.0
 73
     1
 44
1.0
  0
ENDBLK
  5
49C
330
49A
100
AcDbEntity
  8
0
100
AcDbBlockEnd
  0
BLOCK
  5
4A5
330
4A4
100
AcDbEntity
  8
0
100
AcDbBlockBegin
  2
*D24
 70
     1
 71
     0
 10
0.0
 20
0.0
 30
0.0
  3
*D24
  1

  0
INSERT
  5
4A7
330
4A4
100
AcDbEntity
  8
LAYER-035
  6
Continuous
 62
     5
100
AcDbBlockReference
  2
_OPEN
 10
6.332484473552682
 20
-104.7573426573427
 30
0.0
 41
4.0
 42
4.0
 43
4.0
 50
90.0
  0
INSERT
  5
4A8
330
4A4
100
AcDbEntity
  8
LAYER-035
  6
Continuous
 62
     5
100
AcDbBlockReference
  2
_OPEN
 10
6.332484473552682
 20
-134.7573426573427
 30
0.0
 41
4.0
 42
4.0
 43
4.0
 50
-90.0
  0
LINE
  5
4A9
330
4A4
100
AcDbEntity
  8
LAYER-035
  6
Continuous
 62
     5
100
AcDbLine
 10
-27.69537815417655
 20
-104.7573426573427
 30
0.0
 11
7.332484473552682
 21
-104.7573426573427
 31
0.0
  0
LINE
  5
4AA
330
4A4
100
AcDbEntity
  8
LAYER-035
  6
Continuous
 62
     5
100
AcDbLine
 10
-21.90777177368082
 20
-134.7573426573427
 30
0.0
 11
7.332484473552682
 21
-134.7573426573427
 31
0.0
  0
LINE
  5
4AB
330
4A4
100
AcDbEntity
  8
LAYER-035
  6
Continuous
 62
     5
100
AcDbLine
 10
6.332484473552682
 20
-104.7573426573427
 30
0.0
 11
6.332484473552682
 21
-134.7573426573427
 31
0.0
  0
MTEXT
  5
4AC
330
4A4
100
AcDbEntity
  8
LAYER-036
  6
Continuous
 62
     5
100
AcDbMText
 10
5.832484473552682
 20
-119.7573426573427
 30
0.0
 40
4.0
 41
0.0
 71
     8
 72
     1
  1
30
  7
STRING_H
 11
6.123031769111886E-17
 21
1.0
 31
0.0
 73
     1
 44
1.0
  0
ENDBLK
  5
4A6
330
4A4
100
AcDbEntity
  8
0
100
AcDbBlockEnd
  0
BLOCK
  5
4AF
330
4AE
100
AcDbEntity
  8
0
100
AcDbBlockBegin
  2
*D35
 70
     1
 71
     0
 10
0.0
 20
0.0
 30
0.0
  3
*D35
  1

  0
INSERT
  5
4B1
330
4AE
100
AcDbEntity
  8
LAYER-035
  6
Continuous
 62
     5
100
AcDbBlockReference
  2
_OPEN
 10
-207.9077717736808
 20
-153.8502666230861
 30
0.0
 41
4.0
 42
4.0
 43
4.0
 50
180.0
  0
INSERT
  5
4B2
330
4AE
100
AcDbEntity
  8
LAYER-035
  6
Continuous
 62
     5
100
AcDbBlockReference
  2
_OPEN
 10
-37.90777177368082
 20
-153.8502666230861
 30
0.0
 41
4.0
 42
4.0
 43
4.0
  0
LINE
  5
4B3
330
4AE
100
AcDbEntity
  8
LAYER-035
  6
Continuous
 62
     5
100
AcDbLine
 10
-207.9077717736808
 20
-114.9697362768469
 30
0.0
 11
-207.9077717736808
 21
-154.8502666230861
 31
0.0
  0
LINE
  5
4B4
330
4AE
100
AcDbEntity
  8
LAYER-035
  6
Continuous
 62
     5
100
AcDbLine
 10
-37.90777177368082
 20
-114.9697362768469
 30
0.0
 11
-37.90777177368082
 21
-154.8502666230861
 31
0.0
  0
LINE
  5
4B5
330
4AE
100
AcDbEntity
  8
LAYER-035
  6
Continuous
 62
     5
100
AcDbLine
 10
-207.9077717736808
 20
-153.8502666230861
 30
0.0
 11
-37.90777177368082
 21
-153.8502666230861
 31
0.0
  0
MTEXT
  5
4B6
330
4AE
100
AcDbEntity
  8
LAYER-036
  6
Continuous
 62
     5
100
AcDbMText
 10
-122.9077717736808
 20
-153.3502666230861
 30
0.0
 40
4.0
 41
0.0
 71
     8
 72
     1
  1
170
  7
STRING_H
 73
     1
 44
1.0
  0
ENDBLK
  5
4B0
330
4AE
100
AcDbEntity
  8
0
100
AcDbBlockEnd
  0
BLOCK
  5
4B9
330
4B8
100
AcDbEntity
  8
0
100
AcDbBlockBegin
  2
*D46
 70
     1
 71
     0
 10
0.0
 20
0.0
 30
0.0
  3
*D46
  1

  0
INSERT
  5
4BB
330
4B8
100
AcDbEntity
  8
LAYER-035
  6
Continuous
 62
     5
100
AcDbBlockReference
  2
_OPEN
 10
-222.9077717736808
 20
-167.7997298688704
 30
0.0
 41
4.0
 42
4.0
 43
4.0
 50
180.0
  0
INSERT
  5
4BC
330
4B8
100
AcDbEntity
  8
LAYER-035
  6
Continuous
 62
     5
100
AcDbBlockReference
  2
_OPEN
 10
-22.90777177368082
 20
-167.7997298688704
 30
0.0
 41
4.0
 42
4.0
 43
4.0
  0
LINE
  5
4BD
330
4B8
100
AcDbEntity
  8
LAYER-035
  6
Continuous
 62
     5
100
AcDbLine
 10
-222.9077717736808
 20
-135.7573426573427
 30
0.0
 11
-222.9077717736808
 21
-168.7997298688704
 31
0.0
  0
LINE
  5
4BE
330
4B8
100
AcDbEntity
  8
LAYER-035
  6
Continuous
 62
     5
100
AcDbLine
 10
-22.90777177368082
 20
-135.7573426573427
 30
0.0
 11
-22.90777177368082
 21
-168.7997298688704
 31
0.0
  0
LINE
  5
4BF
330
4B8
100
AcDbEntity
  8
LAYER-035
  6
Continuous
 62
     5
100
AcDbLine
 10
-222.9077717736808
 20
-167.7997298688704
 30
0.0
 11
-22.90777177368082
 21
-167.7997298688704
 31
0.0
  0
MTEXT
  5
4C0
330
4B8
100
AcDbEntity
  8
LAYER-036
  6
Continuous
 62
     5
100
AcDbMText
 10
-122.9077717736808
 20
-167.2997298688704
 30
0.0
 40
4.0
 41
0.0
 71
     8
 72
     1
  1
200
  7
STRING_H
 73
     1
 44
1.0
  0
ENDBLK
  5
4BA
330
4B8
100
AcDbEntity
  8
0
100
AcDbBlockEnd
  0
BLOCK
  5
4C3
330
4C2
100
AcDbEntity
  8
0
100
AcDbBlockBegin
  2
*D57
 70
     1
 71
     0
 10
0.0
 20
0.0
 30
0.0
  3
*D57
  1

  0
INSERT
  5
4C5
330
4C2
100
AcDbEntity
  8
LAYER-035
  6
Continuous
 62
     5
100
AcDbBlockReference
  2
_OPEN
 10
29.35212968849334
 20
245.2426573426573
 30
0.0
 41
4.0
 42
4.0
 43
4.0
 50
90.0
  0
INSERT
  5
4C6
330
4C2
100
AcDbEntity
  8
LAYER-035
  6
Continuous
 62
     5
100
AcDbBlockReference
  2
_OPEN
 10
29.35212968849334
 20
-134.7573426573427
 30
0.0
 41
4.0
 42
4.0
 43
4.0
 50
-90.0
  0
LINE
  5
4C7
330
4C2
100
AcDbEntity
  8
LAYER-035
  6
Continuous
 62
     5
100
AcDbLine
 10
-21.90777177368082
 20
245.2426573426573
 30
0.0
 11
30.35212968849334
 21
245.2426573426573
 31
0.0
  0
LINE
  5
4C8
330
4C2
100
AcDbEntity
  8
LAYER-035
  6
Continuous
 62
     5
100
AcDbLine
 10
-21.90777177368082
 20
-134.7573426573427
 30
0.0
 11
30.35212968849334
 21
-134.7573426573427
 31
0.0
  0
LINE
  5
4C9
330
4C2
100
AcDbEntity
  8
LAYER-035
  6
Continuous
 62
     5
100
AcDbLine
 10
29.35212968849334
 20
245.2426573426573
 30
0.0
 11
29.35212968849334
 21
-134.7573426573427
 31
0.0
  0
MTEXT
  5
4CA
330
4C2
100
AcDbEntity
  8
LAYER-036
  6
Continuous
 62
     5
100
AcDbMText
 10
28.85212968849334
 20
55.24265734265731
 30
0.0
 40
4.0
 41
0.0
 71
     8
 72
     1
  1
380
  7
STRING_H
 11
6.123031769111886E-17
 21
1.0
 31
0.0
 73
     1
 44
1.0
  0
ENDBLK
  5
4C4
330
4C2
100
AcDbEntity
  8
0
100
AcDbBlockEnd
  0
BLOCK
  5
4CD
330
4CC
100
AcDbEntity
  8
0
100
AcDbBlockBegin
  2
*D68
 70
     1
 71
     0
 10
0.0
 20
0.0
 30
0.0
  3
*D68
  1

  0
INSERT
  5
4CF
330
4CC
100
AcDbEntity
  8
LAYER-035
  6
Continuous
 62
     5
100
AcDbBlockReference
  2
_OPEN
 10
198.8301836275613
 20
-153.8502666230861
 30
0.0
 41
4.0
 42
4.0
 43
4.0
 50
180.0
  0
INSERT
  5
4D0
330
4CC
100
AcDbEntity
  8
LAYER-035
  6
Continuous
 62
     5
100
AcDbBlockReference
  2
_OPEN
 10
188.8301836275613
 20
-153.8502666230861
 30
0.0
 41
4.0
 42
4.0
 43
4.0
  0
LINE
  5
4D1
330
4CC
100
AcDbEntity
  8
LAYER-035
  6
Continuous
 62
     5
100
AcDbLine
 10
198.8301836275613
 20
-135.7573426573427
 30
0.0
 11
198.8301836275613
 21
-154.8502666230861
 31
0.0
  0
LINE
  5
4D2
330
4CC
100
AcDbEntity
  8
LAYER-035
  6
Continuous
 62
     5
100
AcDbLine
 10
188.8301836275613
 20
-135.7573426573427
 30
0.0
 11
188.8301836275613
 21
-154.8502666230861
 31
0.0
  0
LINE
  5
4D3
330
4CC
100
AcDbEntity
  8
LAYER-035
  6
Continuous
 62
     5
100
AcDbLine
 10
198.8301836275613
 20
-153.8502666230861
 30
0.0
 11
188.8301836275613
 21
-153.8502666230861
 31
0.0
  0
LINE
  5
4D4
330
4CC
100
AcDbEntity
  8
LAYER-035
  6
Continuous
 62
     5
100
AcDbLine
 10
188.8301836275613
 20
-153.8502666230861
 30
0.0
 11
176.8697808655613
 21
-153.8502666230861
 31
0.0
  0
LINE
  5
4D5
330
4CC
100
AcDbEntity
  8
LAYER-035
  6
Continuous
 62
     5
100
AcDbLine
 10
198.8301836275613
 20
-153.8502666230861
 30
0.0
 11
206.8301836275613
 21
-153.8502666230861
 31
0.0
  0
MTEXT
  5
4D6
330
4CC
100
AcDbEntity
  8
LAYER-036
  6
Continuous
 62
     5
100
AcDbMText
 10
186.8697808655613
 20
-153.3502666230861
 30
0.0
 40
4.0
 41
0.0
 71
     9
 72
     1
  1
10
  7
STRING_H
 73
     1
 44
1.0
  0
ENDBLK
  5
4CE
330
4CC
100
AcDbEntity
  8
0
100
AcDbBlockEnd
  0
BLOCK
  5
4D9
330
4D8
100
AcDbEntity
  8
0
100
AcDbBlockBegin
  2
*D79
 70
     1
 71
     0
 10
0.0
 20
0.0
 30
0.0
  3
*D79
  1

  0
INSERT
  5
4DB
330
4D8
100
AcDbEntity
  8
LAYER-035
  6
Continuous
 62
     5
100
AcDbBlockReference
  2
_OPEN
 10
63.83018362756133
 20
-167.7997298688704
 30
0.0
 41
4.0
 42
4.0
 43
4.0
 50
180.0
  0
INSERT
  5
4DC
330
4D8
100
AcDbEntity
  8
LAYER-035
  6
Continuous
 62
     5
100
AcDbBlockReference
  2
_OPEN
 10
198.8301836275613
 20
-167.7997298688704
 30
0.0
 41
4.0
 42
4.0
 43
4.0
  0
LINE
  5
4DD
330
4D8
100
AcDbEntity
  8
LAYER-035
  6
Continuous
 62
     5
100
AcDbLine
 10
63.83018362756133
 20
-57.51660095809716
 30
0.0
 11
63.83018362756133
 21
-168.7997298688704
 31
0.0
  0
LINE
  5
4DE
330
4D8
100
AcDbEntity
  8
LAYER-035
  6
Continuous
 62
     5
100
AcDbLine
 10
198.8301836275613
 20
-135.7573426573427
 30
0.0
 11
198.8301836275613
 21
-168.7997298688704
 31
0.0
  0
LINE
  5
4DF
330
4D8
100
AcDbEntity
  8
LAYER-035
  6
Continuous
 62
     5
100
AcDbLine
 10
63.83018362756133
 20
-167.7997298688704
 30
0.0
 11
198.8301836275613
 21
-167.7997298688704
 31
0.0
  0
MTEXT
  5
4E0
330
4D8
100
AcDbEntity
  8
LAYER-036
  6
Continuous
 62
     5
100
AcDbMText
 10
131.3301836275613
 20
-167.2997298688704
 30
0.0
 40
4.0
 41
0.0
 71
     8
 72
     1
  1
135
  7
STRING_H
 73
     1
 44
1.0
  0
ENDBLK
  5
4DA
330
4D8
100
AcDbEntity
  8
0
100
AcDbBlockEnd
  0
ENDSEC
  0
SECTION
  2
ENTITIES
  0
LINE
  5
252
330
1F
100
AcDbEntity
  8
LAYER-033
  6
Continuous
 62
     1
100
AcDbLine
 10
-80.71560684896083
 20
-235.2017527596956
 30
0.0
 11
53.99385090940275
 21
-235.2017527596956
 31
0.0
  0
LINE
  5
253
330
1F
100
AcDbEntity
  8
LAYER-033
  6
Continuous
 62
     1
100
AcDbLine
 10
-80.71560684896083
 20
-243.287202861
 30
0.0
 11
-22.64859653968249
 21
-243.287202861
 31
0.0
  0
LINE
  5
254
330
1F
100
AcDbEntity
  8
LAYER-033
  6
Continuous
 62
     1
100
AcDbLine
 10
-80.71560684896083
 20
-227.1163026583913
 30
0.0
 11
-22.64859653968249
 21
-227.1163026583913
 31
0.0
  0
LINE
  5
255
330
1F
100
AcDbEntity
  8
LAYER-033
  6
Continuous
 62
     1
100
AcDbLine
 10
-222.9077717736808
 20
245.2426573426573
 30
0.0
 11
-22.90777177368082
 21
245.2426573426573
 31
0.0
  0
LINE
  5
256
330
1F
100
AcDbEntity
  8
LAYER-033
  6
Continuous
 62
     1
100
AcDbLine
 10
-222.9077717736808
 20
245.2426573426573
 30
0.0
 11
-222.9077717736808
 21
-134.7573426573427
 31
0.0
  0
LINE
  5
257
330
1F
100
AcDbEntity
  8
LAYER-033
  6
Continuous
 62
     1
100
AcDbLine
 10
-22.90777177368082
 20
245.2426573426573
 30
0.0
 11
-22.90777177368082
 21
-134.7573426573427
 31
0.0
  0
LINE
  5
258
330
1F
100
AcDbEntity
  8
LAYER-033
  6
Continuous
 62
     1
100
AcDbLine
 10
-222.9077717736808
 20
-134.7573426573427
 30
0.0
 11
-22.90777177368082
 21
-134.7573426573427
 31
0.0
  0
CIRCLE
  5
259
330
1F
100
AcDbEntity
  8
LAYER-033
  6
Continuous
 62
     1
100
AcDbCircle
 10
-37.90777177368082
 20
-104.7573426573427
 30
0.0
 40
4.75
  0
LINE
  5
25A
330
1F
100
AcDbEntity
  8
LAYER-033
  6
CENTER
 62
     4
100
AcDbLine
 10
-47.12016539368082
 20
-104.7573426573427
 30
0.0
 11
-28.69537815417655
 21
-104.7573426573427
 31
0.0
  0
LINE
  5
25B
330
1F
100
AcDbEntity
  8
LAYER-033
  6
CENTER
 62
     4
100
AcDbLine
 10
-37.90777177368082
 20
-95.54494903734266
 30
0.0
 11
-37.90777177368082
 21
-113.9697362768469
 31
0.0
  0
CIRCLE
  5
25C
330
1F
100
AcDbEntity
  8
LAYER-033
  6
Continuous
 62
     1
100
AcDbCircle
 10
-37.90777177368082
 20
95.24265734265734
 30
0.0
 40
4.75
  0
LINE
  5
25D
330
1F
100
AcDbEntity
  8
LAYER-033
  6
CENTER
 62
     4
100
AcDbLine
 10
-37.90777177368082
 20
104.4550509626573
 30
0.0
 11
-37.90777177368082
 21
86.03026372315307
 31
0.0
  0
LINE
  5
25E
330
1F
100
AcDbEntity
  8
LAYER-033
  6
CENTER
 62
     4
100
AcDbLine
 10
-47.12016539368082
 20
95.24265734265734
 30
0.0
 11
-28.69537815417655
 21
95.24265734265734
 31
0.0
  0
CIRCLE
  5
25F
330
1F
100
AcDbEntity
  8
LAYER-033
  6
Continuous
 62
     1
100
AcDbCircle
 10
-207.9077717736808
 20
95.24265734265734
 30
0.0
 40
4.75
  0
LINE
  5
260
330
1F
100
AcDbEntity
  8
LAYER-033
  6
CENTER
 62
     4
100
AcDbLine
 10
-207.9077717736808
 20
104.4550509626573
 30
0.0
 11
-207.9077717736808
 21
86.03026372315307
 31
0.0
  0
LINE
  5
261
330
1F
100
AcDbEntity
  8
LAYER-033
  6
CENTER
 62
     4
100
AcDbLine
 10
-217.1201653936808
 20
95.24265734265734
 30
0.0
 11
-198.6953781541766
 21
95.24265734265734
 31
0.0
  0
CIRCLE
  5
262
330
1F
100
AcDbEntity
  8
LAYER-033
  6
Continuous
 62
     1
100
AcDbCircle
 10
-207.9077717736808
 20
-104.7573426573427
 30
0.0
 40
4.75
  0
LINE
  5
263
330
1F
100
AcDbEntity
  8
LAYER-033
  6
CENTER
 62
     4
100
AcDbLine
 10
-207.9077717736808
 20
-95.54494903734266
 30
0.0
 11
-207.9077717736808
 21
-113.9697362768469
 31
0.0
  0
LINE
  5
264
330
1F
100
AcDbEntity
  8
LAYER-033
  6
CENTER
 62
     4
100
AcDbLine
 10
-217.1201653936808
 20
-104.7573426573427
 30
0.0
 11
-198.6953781541766
 21
-104.7573426573427
 31
0.0
  0
LINE
  5
265
330
1F
100
AcDbEntity
  8
LAYER-007
  6
CENTER
 62
     4
100
AcDbLine
 10
-122.9077717736808
 20
56.15006602955711
 30
0.0
 11
-122.9077717736808
 21
7.279694156786292
 31
0.0
  0
LINE
  5
266
330
1F
100
AcDbEntity
  8
LAYER-007
  6
CENTER
 62
     4
100
AcDbLine
 10
-197.9077717736808
 20
-4.757342657342662
 30
0.0
 11
-146.9818478093461
 21
-4.757342657342662
 31
0.0
  0
LINE
  5
267
330
1F
100
AcDbEntity
  8
LAYER-007
  6
CENTER
 62
     4
100
AcDbLine
 10
-98.83369814542292
 20
-4.757342657342662
 30
0.0
 11
-47.90777177368082
 21
-4.757342657342662
 31
0.0
  0
LINE
  5
268
330
1F
100
AcDbEntity
  8
LAYER-007
  6
CENTER
 62
     4
100
AcDbLine
 10
-122.9077717736808
 20
-16.7943818784764
 30
0.0
 11
-122.9077717736808
 21
-69.75734145363899
 31
0.0
  0
LINE
  5
269
330
1F
100
AcDbEntity
  8
LAYER-033
  6
Continuous
 62
     1
100
AcDbLine
 10
-213.629703855
 20
212.9910949190669
 30
0.0
 11
-213.629703855
 21
137.9910949190669
 31
0.0
  0
LINE
  5
26A
330
1F
100
AcDbEntity
  8
LAYER-033
  6
Continuous
 62
     1
100
AcDbLine
 10
-213.629703855
 20
212.9910949190669
 30
0.0
 11
-113.629703855
 21
212.9910949190669
 31
0.0
  0
LINE
  5
26B
330
1F
100
AcDbEntity
  8
LAYER-033
  6
Continuous
 62
     1
100
AcDbLine
 10
-113.629703855
 20
212.9910949190669
 30
0.0
 11
-113.629703855
 21
137.9910949190669
 31
0.0
  0
LINE
  5
26C
330
1F
100
AcDbEntity
  8
LAYER-033
  6
Continuous
 62
     1
100
AcDbLine
 10
-213.629703855
 20
137.9910949190669
 30
0.0
 11
-113.629703855
 21
137.9910949190669
 31
0.0
  0
LINE
  5
26D
330
1F
100
AcDbEntity
  8
LAYER-002
  6
Continuous
 62
     1
100
AcDbLine
 10
-173.1297038550771
 20
176.0465878527068
 30
0.0
 11
-173.1297038550771
 21
148.2465878527067
 31
0.0
  0
LINE
  5
26E
330
1F
100
AcDbEntity
  8
LAYER-002
  6
Continuous
 62
     1
100
AcDbLine
 10
-194.1297038550771
 20
176.0465878527068
 30
0.0
 11
-173.1297038550771
 21
176.0465878527068
 31
0.0
  0
LINE
  5
26F
330
1F
100
AcDbEntity
  8
LAYER-002
  6
Continuous
 62
     1
100
AcDbLine
 10
-194.1297038550771
 20
148.2465878527067
 30
0.0
 11
-194.1297038550771
 21
176.0465878527068
 31
0.0
  0
LINE
  5
270
330
1F
100
AcDbEntity
  8
LAYER-002
  6
Continuous
 62
     1
100
AcDbLine
 10
-173.1297038550771
 20
148.2465878527067
 30
0.0
 11
-194.1297038550771
 21
148.2465878527067
 31
0.0
  0
LINE
  5
271
330
1F
100
AcDbEntity
  8
LAYER-003
  6
CENTER
 62
     4
100
AcDbLine
 10
-183.629703855
 20
179.1465878527067
 30
0.0
 11
-183.629703855
 21
145.1465878527067
 31
0.0
  0
LINE
  5
272
330
1F
100
AcDbEntity
  8
LAYER-003
  6
CENTER
 62
     4
100
AcDbLine
 10
-197.129703855077
 20
162.1465878527067
 30
0.0
 11
-170.1297038550771
 21
162.1465878527067
 31
0.0
  0
LINE
  5
273
330
1F
100
AcDbEntity
  8
LAYER-131
  6
CENTER
 62
     4
100
AcDbLine
 10
-159.129703855077
 20
162.1465878527067
 30
0.0
 11
-128.129703855077
 21
162.1465878527067
 31
0.0
  0
LINE
  5
274
330
1F
100
AcDbEntity
  8
LAYER-129
  6
Continuous
 62
     1
100
AcDbLine
 10
-154.129703855077
 20
176.0465878527068
 30
0.0
 11
-133.129703855077
 21
176.0465878527068
 31
0.0
  0
LINE
  5
275
330
1F
100
AcDbEntity
  8
LAYER-129
  6
Continuous
 62
     1
100
AcDbLine
 10
-154.129703855077
 20
148.2465878527067
 30
0.0
 11
-154.129703855077
 21
176.0465878527068
 31
0.0
  0
LINE
  5
276
330
1F
100
AcDbEntity
  8
LAYER-131
  6
CENTER
 62
     4
100
AcDbLine
 10
-143.629703855
 20
181.0465878527068
 30
0.0
 11
-143.629703855
 21
143.2465878527067
 31
0.0
  0
CIRCLE
  5
277
330
1F
100
AcDbEntity
  8
LAYER-129
  6
Continuous
 62
     1
100
AcDbCircle
 10
-143.629703855
 20
162.1465878527067
 30
0.0
 40
5.25
  0
CIRCLE
  5
278
330
1F
100
AcDbEntity
  8
LAYER-129
  6
Continuous
 62
     1
100
AcDbCircle
 10
-143.629703855
 20
162.1465878527067
 30
0.0
 40
9.25
  0
LINE
  5
279
330
1F
100
AcDbEntity
  8
LAYER-129
  6
Continuous
 62
     1
100
AcDbLine
 10
-133.129703855077
 20
176.0465878527068
 30
0.0
 11
-133.129703855077
 21
148.2465878527067
 31
0.0
  0
LINE
  5
27A
330
1F
100
AcDbEntity
  8
LAYER-129
  6
Continuous
 62
     1
100
AcDbLine
 10
-133.129703855077
 20
148.2465878527067
 30
0.0
 11
-154.129703855077
 21
148.2465878527067
 31
0.0
  0
CIRCLE
  5
27B
330
1F
100
AcDbEntity
  8
LAYER-033
  6
Continuous
 62
     1
100
AcDbCircle
 10
-118.629703855
 20
207.9910949190669
 30
0.0
 40
2.5
  0
LINE
  5
27C
330
1F
100
AcDbEntity
  8
LAYER-033
  6
CENTER
 62
     4
100
AcDbLine
 10
-122.6079271947659
 20
207.9910949190669
 30
0.0
 11
-114.6514805153882
 21
207.9910949190669
 31
0.0
  0
LINE
  5
27D
330
1F
100
AcDbEntity
  8
LAYER-033
  6
CENTER
 62
     4
100
AcDbLine
 10
-118.629703855
 20
211.9693182587558
 30
0.0
 11
-118.629703855
 21
204.0128715793781
 31
0.0
  0
CIRCLE
  5
27E
330
1F
100
AcDbEntity
  8
LAYER-033
  6
Continuous
 62
     1
100
AcDbCircle
 10
-118.629703855
 20
142.9910949190669
 30
0.0
 40
2.5
  0
LINE
  5
27F
330
1F
100
AcDbEntity
  8
LAYER-033
  6
CENTER
 62
     4
100
AcDbLine
 10
-122.6079271947659
 20
142.9910949190669
 30
0.0
 11
-114.6514805153882
 21
142.9910949190669
 31
0.0
  0
LINE
  5
280
330
1F
100
AcDbEntity
  8
LAYER-033
  6
CENTER
 62
     4
100
AcDbLine
 10
-118.629703855
 20
146.9693182587558
 30
0.0
 11
-118.629703855
 21
139.0128715793781
 31
0.0
  0
CIRCLE
  5
281
330
1F
100
AcDbEntity
  8
LAYER-033
  6
Continuous
 62
     1
100
AcDbCircle
 10
-208.629703855
 20
142.9910949190669
 30
0.0
 40
2.5
  0
LINE
  5
282
330
1F
100
AcDbEntity
  8
LAYER-033
  6
CENTER
 62
     4
100
AcDbLine
 10
-212.6079271947659
 20
142.9910949190669
 30
0.0
 11
-204.6514805153882
 21
142.9910949190669
 31
0.0
  0
LINE
  5
283
330
1F
100
AcDbEntity
  8
LAYER-033
  6
CENTER
 62
     4
100
AcDbLine
 10
-208.629703855
 20
146.9693182587558
 30
0.0
 11
-208.629703855
 21
139.0128715793781
 31
0.0
  0
CIRCLE
  5
284
330
1F
100
AcDbEntity
  8
LAYER-033
  6
Continuous
 62
     1
100
AcDbCircle
 10
-208.629703855
 20
207.9910949190669
 30
0.0
 40
2.5
  0
LINE
  5
285
330
1F
100
AcDbEntity
  8
LAYER-033
  6
CENTER
 62
     4
100
AcDbLine
 10
-212.6079271947659
 20
207.9910949190669
 30
0.0
 11
-204.6514805153882
 21
207.9910949190669
 31
0.0
  0
LINE
  5
286
330
1F
100
AcDbEntity
  8
LAYER-033
  6
CENTER
 62
     4
100
AcDbLine
 10
-208.629703855
 20
211.9693182587558
 30
0.0
 11
-208.629703855
 21
204.0128715793781
 31
0.0
  0
LINE
  5
287
330
1F
100
AcDbEntity
  8
LAYER-033
  6
Continuous
 62
     1
100
AcDbLine
 10
-202.8797038548741
 20
212.9910949190669
 30
0.0
 11
-124.379703855077
 21
212.9910949190669
 31
0.0
  0
LINE
  5
288
330
1F
100
AcDbEntity
  8
LAYER-033
  6
Continuous
 62
     1
100
AcDbLine
 10
-202.8797038548741
 20
212.9910949190669
 30
0.0
 11
-202.8797038548741
 21
197.9910949190669
 31
0.0
  0
LINE
  5
289
330
1F
100
AcDbEntity
  8
LAYER-033
  6
Continuous
 62
     1
100
AcDbLine
 10
-124.379703855077
 20
212.9910949190669
 30
0.0
 11
-124.379703855077
 21
197.9910949190669
 31
0.0
  0
LINE
  5
28A
330
1F
100
AcDbEntity
  8
LAYER-033
  6
Continuous
 62
     1
100
AcDbLine
 10
-202.8797038548741
 20
197.9910949190669
 30
0.0
 11
-124.379703855077
 21
197.9910949190669
 31
0.0
  0
LINE
  5
28B
330
1F
100
AcDbEntity
  8
LAYER-033
  6
Continuous
 62
     1
100
AcDbLine
 10
-126.279703855077
 20
212.9910949190669
 30
0.0
 11
-126.279703855077
 21
197.9910949190669
 31
0.0
  0
LINE
  5
28C
330
1F
100
AcDbEntity
  8
LAYER-033
  6
Continuous
 62
     1
100
AcDbLine
 10
-134.479703855077
 20
212.9910949190669
 30
0.0
 11
-134.479703855077
 21
197.9910949190669
 31
0.0
  0
LINE
  5
28D
330
1F
100
AcDbEntity
  8
LAYER-033
  6
Continuous
 62
     1
100
AcDbLine
 10
-135.779703855077
 20
212.9910949190669
 30
0.0
 11
-135.779703855077
 21
197.9910949190669
 31
0.0
  0
LINE
  5
28E
330
1F
100
AcDbEntity
  8
LAYER-033
  6
Continuous
 62
     1
100
AcDbLine
 10
-143.979703855077
 20
212.9910949190669
 30
0.0
 11
-143.979703855077
 21
197.9910949190669
 31
0.0
  0
LINE
  5
28F
330
1F
100
AcDbEntity
  8
LAYER-033
  6
Continuous
 62
     1
100
AcDbLine
 10
-145.279703855077
 20
212.9910949190669
 30
0.0
 11
-145.279703855077
 21
197.9910949190669
 31
0.0
  0
LINE
  5
290
330
1F
100
AcDbEntity
  8
LAYER-033
  6
Continuous
 62
     1
100
AcDbLine
 10
-153.479703855077
 20
212.9910949190669
 30
0.0
 11
-153.479703855077
 21
197.9910949190669
 31
0.0
  0
LINE
  5
291
330
1F
100
AcDbEntity
  8
LAYER-033
  6
Continuous
 62
     1
100
AcDbLine
 10
-154.779703855077
 20
212.9910949190669
 30
0.0
 11
-154.779703855077
 21
197.9910949190669
 31
0.0
  0
LINE
  5
292
330
1F
100
AcDbEntity
  8
LAYER-033
  6
Continuous
 62
     1
100
AcDbLine
 10
-164.279703855077
 20
212.9910949190669
 30
0.0
 11
-164.279703855077
 21
197.9910949190669
 31
0.0
  0
LINE
  5
293
330
1F
100
AcDbEntity
  8
LAYER-033
  6
Continuous
 62
     1
100
AcDbLine
 10
-162.979703855077
 20
212.9910949190669
 30
0.0
 11
-162.979703855077
 21
197.9910949190669
 31
0.0
  0
LINE
  5
294
330
1F
100
AcDbEntity
  8
LAYER-033
  6
Continuous
 62
     1
100
AcDbLine
 10
-172.479703855077
 20
212.9910949190669
 30
0.0
 11
-172.479703855077
 21
197.9910949190669
 31
0.0
  0
LINE
  5
295
330
1F
100
AcDbEntity
  8
LAYER-033
  6
Continuous
 62
     1
100
AcDbLine
 10
-173.779703855077
 20
212.9910949190669
 30
0.0
 11
-173.779703855077
 21
197.9910949190669
 31
0.0
  0
LINE
  5
296
330
1F
100
AcDbEntity
  8
LAYER-033
  6
Continuous
 62
     1
100
AcDbLine
 10
-181.979703855077
 20
212.9910949190669
 30
0.0
 11
-181.979703855077
 21
197.9910949190669
 31
0.0
  0
LINE
  5
297
330
1F
100
AcDbEntity
  8
LAYER-033
  6
Continuous
 62
     1
100
AcDbLine
 10
-183.279703855077
 20
212.9910949190669
 30
0.0
 11
-183.279703855077
 21
197.9910949190669
 31
0.0
  0
LINE
  5
298
330
1F
100
AcDbEntity
  8
LAYER-033
  6
Continuous
 62
     1
100
AcDbLine
 10
-191.479703855077
 20
212.9910949190669
 30
0.0
 11
-191.479703855077
 21
197.9910949190669
 31
0.0
  0
LINE
  5
299
330
1F
100
AcDbEntity
  8
LAYER-033
  6
Continuous
 62
     1
100
AcDbLine
 10
-192.779703855077
 20
212.9910949190669
 30
0.0
 11
-192.779703855077
 21
197.9910949190669
 31
0.0
  0
LINE
  5
29A
330
1F
100
AcDbEntity
  8
LAYER-033
  6
Continuous
 62
     1
100
AcDbLine
 10
-200.979703855077
 20
212.9910949190669
 30
0.0
 11
-200.979703855077
 21
197.9910949190669
 31
0.0
  0
CIRCLE
  5
29B
330
1F
100
AcDbEntity
  8
LAYER-033
  6
Continuous
 62
     1
100
AcDbCircle
 10
-130.379703855077
 20
205.49109491878
 30
0.0
 40
2.779786057168341
  0
ARC
  5
29C
330
1F
100
AcDbEntity
  8
LAYER-033
  6
Continuous
 62
     1
100
AcDbCircle
 10
-130.379703855077
 20
205.49109491878
 30
0.0
 40
2.051187003369524
100
AcDbArc
 50
75.89135806941579
 51
104.1086419195893
  0
ARC
  5
29D
330
1F
100
AcDbEntity
  8
LAYER-033
  6
Continuous
 62
     1
100
AcDbCircle
 10
-130.379703855077
 20
205.49109491878
 30
0.0
 40
2.051187003369524
100
AcDbArc
 50
165.8913580623782
 51
194.1086419220765
  0
ARC
  5
29E
330
1F
100
AcDbEntity
  8
LAYER-033
  6
Continuous
 62
     1
100
AcDbCircle
 10
-130.379703855077
 20
205.49109491878
 30
0.0
 40
2.051187003369524
100
AcDbArc
 50
255.8913580765035
 51
284.1086419344915
  0
ARC
  5
29F
330
1F
100
AcDbEntity
  8
LAYER-033
  6
Continuous
 62
     1
100
AcDbCircle
 10
-130.379703855077
 20
205.49109491878
 30
0.0
 40
2.051187003369524
100
AcDbArc
 50
345.8913580779236
 51
14.10864193762186
  0
LINE
  5
2A0
330
1F
100
AcDbEntity
  8
LAYER-033
  6
Continuous
 62
     1
100
AcDbLine
 10
-129.8797038548741
 20
206.49109491878
 30
0.0
 11
-129.8797038548741
 21
207.480408399339
 31
0.0
  0
LINE
  5
2A1
330
1F
100
AcDbEntity
  8
LAYER-033
  6
Continuous
 62
     1
100
AcDbLine
 10
-129.8797038548741
 20
204.49109491878
 30
0.0
 11
-129.8797038548741
 21
203.5017814387949
 31
0.0
  0
LINE
  5
2A2
330
1F
100
AcDbEntity
  8
LAYER-033
  6
Continuous
 62
     1
100
AcDbLine
 10
-129.379703855077
 20
205.9910949190669
 30
0.0
 11
-128.3903903752175
 21
205.9910949190669
 31
0.0
  0
LINE
  5
2A3
330
1F
100
AcDbEntity
  8
LAYER-033
  6
Continuous
 62
     1
100
AcDbLine
 10
-130.8797038548741
 20
206.49109491878
 30
0.0
 11
-130.8797038548741
 21
207.480408399339
 31
0.0
  0
LINE
  5
2A4
330
1F
100
AcDbEntity
  8
LAYER-033
  6
Continuous
 62
     1
100
AcDbLine
 10
-130.8797038548741
 20
204.49109491878
 30
0.0
 11
-130.8797038548741
 21
203.5017814387949
 31
0.0
  0
LINE
  5
2A5
330
1F
100
AcDbEntity
  8
LAYER-033
  6
Continuous
 62
     1
100
AcDbLine
 10
-131.379703855077
 20
204.9910949190669
 30
0.0
 11
-132.3690173349365
 21
204.9910949190669
 31
0.0
  0
LINE
  5
2A6
330
1F
100
AcDbEntity
  8
LAYER-033
  6
Continuous
 62
     1
100
AcDbLine
 10
-129.379703855077
 20
204.9910949190669
 30
0.0
 11
-128.3903903752175
 21
204.9910949190669
 31
0.0
  0
LINE
  5
2A7
330
1F
100
AcDbEntity
  8
LAYER-033
  6
Continuous
 62
     1
100
AcDbLine
 10
-131.379703855077
 20
205.9910949190669
 30
0.0
 11
-132.3690173349365
 21
205.9910949190669
 31
0.0
  0
ARC
  5
2A8
330
1F
100
AcDbEntity
  8
LAYER-033
  6
Continuous
 62
     1
100
AcDbCircle
 10
-129.379703855077
 20
206.49109491878
 30
0.0
 40
0.5
100
AcDbArc
 50
180.0
 51
270.0
  0
ARC
  5
2A9
330
1F
100
AcDbEntity
  8
LAYER-033
  6
Continuous
 62
     1
100
AcDbCircle
 10
-131.379703855077
 20
206.49109491878
 30
0.0
 40
0.5
100
AcDbArc
 50
270.0
 51
0.0
  0
ARC
  5
2AA
330
1F
100
AcDbEntity
  8
LAYER-033
  6
Continuous
 62
     1
100
AcDbCircle
 10
-131.379703855077
 20
204.49109491878
 30
0.0
 40
0.5
100
AcDbArc
 50
0.0
 51
90.0
  0
ARC
  5
2AB
330
1F
100
AcDbEntity
  8
LAYER-033
  6
Continuous
 62
     1
100
AcDbCircle
 10
-129.379703855077
 20
204.49109491878
 30
0.0
 40
0.5
100
AcDbArc
 50
90.0
 51
180.0
  0
CIRCLE
  5
2AC
330
1F
100
AcDbEntity
  8
LAYER-033
  6
Continuous
 62
     1
100
AcDbCircle
 10
-139.8797038548741
 20
205.49109491878
 30
0.0
 40
2.779786057168341
  0
ARC
  5
2AD
330
1F
100
AcDbEntity
  8
LAYER-033
  6
Continuous
 62
     1
100
AcDbCircle
 10
-139.8797038548741
 20
205.49109491878
 30
0.0
 40
2.051187003369524
100
AcDbArc
 50
255.8913580655085
 51
284.1086419234965
  0
LINE
  5
2AE
330
1F
100
AcDbEntity
  8
LAYER-033
  6
Continuous
 62
     1
100
AcDbLine
 10
-139.379703855077
 20
204.49109491878
 30
0.0
 11
-139.379703855077
 21
203.5017814387949
 31
0.0
  0
ARC
  5
2AF
330
1F
100
AcDbEntity
  8
LAYER-033
  6
Continuous
 62
     1
100
AcDbCircle
 10
-138.8797038548741
 20
204.49109491878
 30
0.0
 40
0.5
100
AcDbArc
 50
90.0
 51
180.0
  0
LINE
  5
2B0
330
1F
100
AcDbEntity
  8
LAYER-033
  6
Continuous
 62
     1
100
AcDbLine
 10
-138.8797038548741
 20
204.9910949190669
 30
0.0
 11
-137.8903903753279
 21
204.9910949190669
 31
0.0
  0
ARC
  5
2B1
330
1F
100
AcDbEntity
  8
LAYER-033
  6
Continuous
 62
     1
100
AcDbCircle
 10
-139.8797038548741
 20
205.49109491878
 30
0.0
 40
2.051187003369524
100
AcDbArc
 50
345.8913580757903
 51
14.10864193975506
  0
LINE
  5
2B2
330
1F
100
AcDbEntity
  8
LAYER-033
  6
Continuous
 62
     1
100
AcDbLine
 10
-138.8797038548741
 20
205.9910949190669
 30
0.0
 11
-137.8903903753279
 21
205.9910949190669
 31
0.0
  0
ARC
  5
2B3
330
1F
100
AcDbEntity
  8
LAYER-033
  6
Continuous
 62
     1
100
AcDbCircle
 10
-138.8797038548741
 20
206.49109491878
 30
0.0
 40
0.5
100
AcDbArc
 50
180.0
 51
270.0
  0
LINE
  5
2B4
330
1F
100
AcDbEntity
  8
LAYER-033
  6
Continuous
 62
     1
100
AcDbLine
 10
-139.379703855077
 20
206.49109491878
 30
0.0
 11
-139.379703855077
 21
207.480408399339
 31
0.0
  0
ARC
  5
2B5
330
1F
100
AcDbEntity
  8
LAYER-033
  6
Continuous
 62
     1
100
AcDbCircle
 10
-139.8797038548741
 20
205.49109491878
 30
0.0
 40
2.051187003369524
100
AcDbArc
 50
75.89135808041074
 51
104.1086419305842
  0
LINE
  5
2B6
330
1F
100
AcDbEntity
  8
LAYER-033
  6
Continuous
 62
     1
100
AcDbLine
 10
-140.379703855077
 20
206.49109491878
 30
0.0
 11
-140.379703855077
 21
207.480408399339
 31
0.0
  0
ARC
  5
2B7
330
1F
100
AcDbEntity
  8
LAYER-033
  6
Continuous
 62
     1
100
AcDbCircle
 10
-140.8797038548741
 20
206.49109491878
 30
0.0
 40
0.5
100
AcDbArc
 50
270.0
 51
0.0
  0
LINE
  5
2B8
330
1F
100
AcDbEntity
  8
LAYER-033
  6
Continuous
 62
     1
100
AcDbLine
 10
-140.379703855077
 20
204.49109491878
 30
0.0
 11
-140.379703855077
 21
203.5017814387949
 31
0.0
  0
ARC
  5
2B9
330
1F
100
AcDbEntity
  8
LAYER-033
  6
Continuous
 62
     1
100
AcDbCircle
 10
-140.8797038548741
 20
204.49109491878
 30
0.0
 40
0.5
100
AcDbArc
 50
0.0
 51
90.0
  0
LINE
  5
2BA
330
1F
100
AcDbEntity
  8
LAYER-033
  6
Continuous
 62
     1
100
AcDbLine
 10
-140.8797038548741
 20
204.9910949190669
 30
0.0
 11
-141.8690173349365
 21
204.9910949190669
 31
0.0
  0
LINE
  5
2BB
330
1F
100
AcDbEntity
  8
LAYER-033
  6
Continuous
 62
     1
100
AcDbLine
 10
-140.8797038548741
 20
205.9910949190669
 30
0.0
 11
-141.8690173349365
 21
205.9910949190669
 31
0.0
  0
ARC
  5
2BC
330
1F
100
AcDbEntity
  8
LAYER-033
  6
Continuous
 62
     1
100
AcDbCircle
 10
-139.8797038548741
 20
205.49109491878
 30
0.0
 40
2.051187003369524
100
AcDbArc
 50
165.8913580637599
 51
194.1086419206947
  0
CIRCLE
  5
2BD
330
1F
100
AcDbEntity
  8
LAYER-033
  6
Continuous
 62
     1
100
AcDbCircle
 10
-149.379703855077
 20
205.49109491878
 30
0.0
 40
2.779786057168341
  0
ARC
  5
2BE
330
1F
100
AcDbEntity
  8
LAYER-033
  6
Continuous
 62
     1
100
AcDbCircle
 10
-149.379703855077
 20
205.49109491878
 30
0.0
 40
2.051187003369524
100
AcDbArc
 50
255.8913580765035
 51
284.1086419344915
  0
LINE
  5
2BF
330
1F
100
AcDbEntity
  8
LAYER-033
  6
Continuous
 62
     1
100
AcDbLine
 10
-148.8797038548741
 20
204.49109491878
 30
0.0
 11
-148.8797038548741
 21
203.5017814387949
 31
0.0
  0
ARC
  5
2C0
330
1F
100
AcDbEntity
  8
LAYER-033
  6
Continuous
 62
     1
100
AcDbCircle
 10
-148.379703855077
 20
204.49109491878
 30
0.0
 40
0.5
100
AcDbArc
 50
90.0
 51
180.0
  0
LINE
  5
2C1
330
1F
100
AcDbEntity
  8
LAYER-033
  6
Continuous
 62
     1
100
AcDbLine
 10
-148.379703855077
 20
204.9910949190669
 30
0.0
 11
-147.3903903752175
 21
204.9910949190669
 31
0.0
  0
ARC
  5
2C2
330
1F
100
AcDbEntity
  8
LAYER-033
  6
Continuous
 62
     1
100
AcDbCircle
 10
-149.379703855077
 20
205.49109491878
 30
0.0
 40
2.051187003369524
100
AcDbArc
 50
345.8913580779236
 51
14.10864193762186
  0
LINE
  5
2C3
330
1F
100
AcDbEntity
  8
LAYER-033
  6
Continuous
 62
     1
100
AcDbLine
 10
-148.379703855077
 20
205.9910949190669
 30
0.0
 11
-147.3903903752175
 21
205.9910949190669
 31
0.0
  0
ARC
  5
2C4
330
1F
100
AcDbEntity
  8
LAYER-033
  6
Continuous
 62
     1
100
AcDbCircle
 10
-148.379703855077
 20
206.49109491878
 30
0.0
 40
0.5
100
AcDbArc
 50
180.0
 51
270.0
  0
LINE
  5
2C5
330
1F
100
AcDbEntity
  8
LAYER-033
  6
Continuous
 62
     1
100
AcDbLine
 10
-148.8797038548741
 20
206.49109491878
 30
0.0
 11
-148.8797038548741
 21
207.480408399339
 31
0.0
  0
ARC
  5
2C6
330
1F
100
AcDbEntity
  8
LAYER-033
  6
Continuous
 62
     1
100
AcDbCircle
 10
-149.379703855077
 20
205.49109491878
 30
0.0
 40
2.051187003369524
100
AcDbArc
 50
75.89135806941579
 51
104.1086419195893
  0
LINE
  5
2C7
330
1F
100
AcDbEntity
  8
LAYER-033
  6
Continuous
 62
     1
100
AcDbLine
 10
-149.8797038548741
 20
206.49109491878
 30
0.0
 11
-149.8797038548741
 21
207.480408399339
 31
0.0
  0
ARC
  5
2C8
330
1F
100
AcDbEntity
  8
LAYER-033
  6
Continuous
 62
     1
100
AcDbCircle
 10
-150.379703855077
 20
206.49109491878
 30
0.0
 40
0.5
100
AcDbArc
 50
270.0
 51
0.0
  0
LINE
  5
2C9
330
1F
100
AcDbEntity
  8
LAYER-033
  6
Continuous
 62
     1
100
AcDbLine
 10
-149.8797038548741
 20
204.49109491878
 30
0.0
 11
-149.8797038548741
 21
203.5017814387949
 31
0.0
  0
ARC
  5
2CA
330
1F
100
AcDbEntity
  8
LAYER-033
  6
Continuous
 62
     1
100
AcDbCircle
 10
-150.379703855077
 20
204.49109491878
 30
0.0
 40
0.5
100
AcDbArc
 50
0.0
 51
90.0
  0
LINE
  5
2CB
330
1F
100
AcDbEntity
  8
LAYER-033
  6
Continuous
 62
     1
100
AcDbLine
 10
-150.379703855077
 20
204.9910949190669
 30
0.0
 11
-151.3690173349365
 21
204.9910949190669
 31
0.0
  0
LINE
  5
2CC
330
1F
100
AcDbEntity
  8
LAYER-033
  6
Continuous
 62
     1
100
AcDbLine
 10
-150.379703855077
 20
205.9910949190669
 30
0.0
 11
-151.3690173349365
 21
205.9910949190669
 31
0.0
  0
ARC
  5
2CD
330
1F
100
AcDbEntity
  8
LAYER-033
  6
Continuous
 62
     1
100
AcDbCircle
 10
-149.379703855077
 20
205.49109491878
 30
0.0
 40
2.051187003369524
100
AcDbArc
 50
165.8913580623782
 51
194.1086419220765
  0
CIRCLE
  5
2CE
330
1F
100
AcDbEntity
  8
LAYER-033
  6
Continuous
 62
     1
100
AcDbCircle
 10
-158.8797038548741
 20
205.49109491878
 30
0.0
 40
2.779786057168341
  0
ARC
  5
2CF
330
1F
100
AcDbEntity
  8
LAYER-033
  6
Continuous
 62
     1
100
AcDbCircle
 10
-158.8797038548741
 20
205.49109491878
 30
0.0
 40
2.051187003369524
100
AcDbArc
 50
255.8913580655085
 51
284.1086419234965
  0
LINE
  5
2D0
330
1F
100
AcDbEntity
  8
LAYER-033
  6
Continuous
 62
     1
100
AcDbLine
 10
-158.379703855077
 20
204.49109491878
 30
0.0
 11
-158.379703855077
 21
203.5017814387949
 31
0.0
  0
ARC
  5
2D1
330
1F
100
AcDbEntity
  8
LAYER-033
  6
Continuous
 62
     1
100
AcDbCircle
 10
-157.8797038548741
 20
204.49109491878
 30
0.0
 40
0.5
100
AcDbArc
 50
90.0
 51
180.0
  0
LINE
  5
2D2
330
1F
100
AcDbEntity
  8
LAYER-033
  6
Continuous
 62
     1
100
AcDbLine
 10
-157.8797038548741
 20
204.9910949190669
 30
0.0
 11
-156.8903903753279
 21
204.9910949190669
 31
0.0
  0
ARC
  5
2D3
330
1F
100
AcDbEntity
  8
LAYER-033
  6
Continuous
 62
     1
100
AcDbCircle
 10
-158.8797038548741
 20
205.49109491878
 30
0.0
 40
2.051187003369524
100
AcDbArc
 50
345.8913580757903
 51
14.10864193975506
  0
LINE
  5
2D4
330
1F
100
AcDbEntity
  8
LAYER-033
  6
Continuous
 62
     1
100
AcDbLine
 10
-157.8797038548741
 20
205.9910949190669
 30
0.0
 11
-156.8903903753279
 21
205.9910949190669
 31
0.0
  0
ARC
  5
2D5
330
1F
100
AcDbEntity
  8
LAYER-033
  6
Continuous
 62
     1
100
AcDbCircle
 10
-157.8797038548741
 20
206.49109491878
 30
0.0
 40
0.5
100
AcDbArc
 50
180.0
 51
270.0
  0
LINE
  5
2D6
330
1F
100
AcDbEntity
  8
LAYER-033
  6
Continuous
 62
     1
100
AcDbLine
 10
-158.379703855077
 20
206.49109491878
 30
0.0
 11
-158.379703855077
 21
207.480408399339
 31
0.0
  0
ARC
  5
2D7
330
1F
100
AcDbEntity
  8
LAYER-033
  6
Continuous
 62
     1
100
AcDbCircle
 10
-158.8797038548741
 20
205.49109491878
 30
0.0
 40
2.051187003369524
100
AcDbArc
 50
75.89135808041074
 51
104.1086419305842
  0
LINE
  5
2D8
330
1F
100
AcDbEntity
  8
LAYER-033
  6
Continuous
 62
     1
100
AcDbLine
 10
-159.379703855077
 20
206.49109491878
 30
0.0
 11
-159.379703855077
 21
207.480408399339
 31
0.0
  0
ARC
  5
2D9
330
1F
100
AcDbEntity
  8
LAYER-033
  6
Continuous
 62
     1
100
AcDbCircle
 10
-159.8797038548741
 20
206.49109491878
 30
0.0
 40
0.5
100
AcDbArc
 50
270.0
 51
0.0
  0
LINE
  5
2DA
330
1F
100
AcDbEntity
  8
LAYER-033
  6
Continuous
 62
     1
100
AcDbLine
 10
-159.379703855077
 20
204.49109491878
 30
0.0
 11
-159.379703855077
 21
203.5017814387949
 31
0.0
  0
ARC
  5
2DB
330
1F
100
AcDbEntity
  8
LAYER-033
  6
Continuous
 62
     1
100
AcDbCircle
 10
-159.8797038548741
 20
204.49109491878
 30
0.0
 40
0.5
100
AcDbArc
 50
0.0
 51
90.0
  0
LINE
  5
2DC
330
1F
100
AcDbEntity
  8
LAYER-033
  6
Continuous
 62
     1
100
AcDbLine
 10
-159.8797038548741
 20
204.9910949190669
 30
0.0
 11
-160.8690173349365
 21
204.9910949190669
 31
0.0
  0
LINE
  5
2DD
330
1F
100
AcDbEntity
  8
LAYER-033
  6
Continuous
 62
     1
100
AcDbLine
 10
-159.8797038548741
 20
205.9910949190669
 30
0.0
 11
-160.8690173349365
 21
205.9910949190669
 31
0.0
  0
ARC
  5
2DE
330
1F
100
AcDbEntity
  8
LAYER-033
  6
Continuous
 62
     1
100
AcDbCircle
 10
-158.8797038548741
 20
205.49109491878
 30
0.0
 40
2.051187003369524
100
AcDbArc
 50
165.8913580637599
 51
194.1086419206947
  0
CIRCLE
  5
2DF
330
1F
100
AcDbEntity
  8
LAYER-033
  6
Continuous
 62
     1
100
AcDbCircle
 10
-168.379703855077
 20
205.49109491878
 30
0.0
 40
2.779786057168341
  0
ARC
  5
2E0
330
1F
100
AcDbEntity
  8
LAYER-033
  6
Continuous
 62
     1
100
AcDbCircle
 10
-168.379703855077
 20
205.49109491878
 30
0.0
 40
2.051187003369524
100
AcDbArc
 50
255.8913580765035
 51
284.1086419344915
  0
LINE
  5
2E1
330
1F
100
AcDbEntity
  8
LAYER-033
  6
Continuous
 62
     1
100
AcDbLine
 10
-167.8797038548741
 20
204.49109491878
 30
0.0
 11
-167.8797038548741
 21
203.5017814387949
 31
0.0
  0
ARC
  5
2E2
330
1F
100
AcDbEntity
  8
LAYER-033
  6
Continuous
 62
     1
100
AcDbCircle
 10
-167.379703855077
 20
204.49109491878
 30
0.0
 40
0.5
100
AcDbArc
 50
90.0
 51
180.0
  0
LINE
  5
2E3
330
1F
100
AcDbEntity
  8
LAYER-033
  6
Continuous
 62
     1
100
AcDbLine
 10
-167.379703855077
 20
204.9910949190669
 30
0.0
 11
-166.3903903752175
 21
204.9910949190669
 31
0.0
  0
ARC
  5
2E4
330
1F
100
AcDbEntity
  8
LAYER-033
  6
Continuous
 62
     1
100
AcDbCircle
 10
-168.379703855077
 20
205.49109491878
 30
0.0
 40
2.051187003369524
100
AcDbArc
 50
345.8913580779236
 51
14.10864193762186
  0
LINE
  5
2E5
330
1F
100
AcDbEntity
  8
LAYER-033
  6
Continuous
 62
     1
100
AcDbLine
 10
-167.379703855077
 20
205.9910949190669
 30
0.0
 11
-166.3903903752175
 21
205.9910949190669
 31
0.0
  0
ARC
  5
2E6
330
1F
100
AcDbEntity
  8
LAYER-033
  6
Continuous
 62
     1
100
AcDbCircle
 10
-167.379703855077
 20
206.49109491878
 30
0.0
 40
0.5
100
AcDbArc
 50
180.0
 51
270.0
  0
LINE
  5
2E7
330
1F
100
AcDbEntity
  8
LAYER-033
  6
Continuous
 62
     1
100
AcDbLine
 10
-167.8797038548741
 20
206.49109491878
 30
0.0
 11
-167.8797038548741
 21
207.480408399339
 31
0.0
  0
ARC
  5
2E8
330
1F
100
AcDbEntity
  8
LAYER-033
  6
Continuous
 62
     1
100
AcDbCircle
 10
-168.379703855077
 20
205.49109491878
 30
0.0
 40
2.051187003369524
100
AcDbArc
 50
75.89135806941579
 51
104.1086419195893
  0
LINE
  5
2E9
330
1F
100
AcDbEntity
  8
LAYER-033
  6
Continuous
 62
     1
100
AcDbLine
 10
-168.8797038548741
 20
206.49109491878
 30
0.0
 11
-168.8797038548741
 21
207.480408399339
 31
0.0
  0
ARC
  5
2EA
330
1F
100
AcDbEntity
  8
LAYER-033
  6
Continuous
 62
     1
100
AcDbCircle
 10
-169.379703855077
 20
206.49109491878
 30
0.0
 40
0.5
100
AcDbArc
 50
270.0
 51
0.0
  0
LINE
  5
2EB
330
1F
100
AcDbEntity
  8
LAYER-033
  6
Continuous
 62
     1
100
AcDbLine
 10
-168.8797038548741
 20
204.49109491878
 30
0.0
 11
-168.8797038548741
 21
203.5017814387949
 31
0.0
  0
ARC
  5
2EC
330
1F
100
AcDbEntity
  8
LAYER-033
  6
Continuous
 62
     1
100
AcDbCircle
 10
-169.379703855077
 20
204.49109491878
 30
0.0
 40
0.5
100
AcDbArc
 50
0.0
 51
90.0
  0
LINE
  5
2ED
330
1F
100
AcDbEntity
  8
LAYER-033
  6
Continuous
 62
     1
100
AcDbLine
 10
-169.379703855077
 20
204.9910949190669
 30
0.0
 11
-170.3690173349365
 21
204.9910949190669
 31
0.0
  0
LINE
  5
2EE
330
1F
100
AcDbEntity
  8
LAYER-033
  6
Continuous
 62
     1
100
AcDbLine
 10
-169.379703855077
 20
205.9910949190669
 30
0.0
 11
-170.3690173349365
 21
205.9910949190669
 31
0.0
  0
ARC
  5
2EF
330
1F
100
AcDbEntity
  8
LAYER-033
  6
Continuous
 62
     1
100
AcDbCircle
 10
-168.379703855077
 20
205.49109491878
 30
0.0
 40
2.051187003369524
100
AcDbArc
 50
165.8913580623782
 51
194.1086419220765
  0
CIRCLE
  5
2F0
330
1F
100
AcDbEntity
  8
LAYER-033
  6
Continuous
 62
     1
100
AcDbCircle
 10
-177.8797038548741
 20
205.49109491878
 30
0.0
 40
2.779786057168341
  0
ARC
  5
2F1
330
1F
100
AcDbEntity
  8
LAYER-033
  6
Continuous
 62
     1
100
AcDbCircle
 10
-177.8797038548741
 20
205.49109491878
 30
0.0
 40
2.051187003369524
100
AcDbArc
 50
255.8913580655085
 51
284.1086419234965
  0
LINE
  5
2F2
330
1F
100
AcDbEntity
  8
LAYER-033
  6
Continuous
 62
     1
100
AcDbLine
 10
-177.379703855077
 20
204.49109491878
 30
0.0
 11
-177.379703855077
 21
203.5017814387949
 31
0.0
  0
ARC
  5
2F3
330
1F
100
AcDbEntity
  8
LAYER-033
  6
Continuous
 62
     1
100
AcDbCircle
 10
-176.8797038548741
 20
204.49109491878
 30
0.0
 40
0.5
100
AcDbArc
 50
90.0
 51
180.0
  0
LINE
  5
2F4
330
1F
100
AcDbEntity
  8
LAYER-033
  6
Continuous
 62
     1
100
AcDbLine
 10
-176.8797038548741
 20
204.9910949190669
 30
0.0
 11
-175.8903903753279
 21
204.9910949190669
 31
0.0
  0
ARC
  5
2F5
330
1F
100
AcDbEntity
  8
LAYER-033
  6
Continuous
 62
     1
100
AcDbCircle
 10
-177.8797038548741
 20
205.49109491878
 30
0.0
 40
2.051187003369524
100
AcDbArc
 50
345.8913580757903
 51
14.10864193975506
  0
LINE
  5
2F6
330
1F
100
AcDbEntity
  8
LAYER-033
  6
Continuous
 62
     1
100
AcDbLine
 10
-176.8797038548741
 20
205.9910949190669
 30
0.0
 11
-175.8903903753279
 21
205.9910949190669
 31
0.0
  0
ARC
  5
2F7
330
1F
100
AcDbEntity
  8
LAYER-033
  6
Continuous
 62
     1
100
AcDbCircle
 10
-176.8797038548741
 20
206.49109491878
 30
0.0
 40
0.5
100
AcDbArc
 50
180.0
 51
270.0
  0
LINE
  5
2F8
330
1F
100
AcDbEntity
  8
LAYER-033
  6
Continuous
 62
     1
100
AcDbLine
 10
-177.379703855077
 20
206.49109491878
 30
0.0
 11
-177.379703855077
 21
207.480408399339
 31
0.0
  0
ARC
  5
2F9
330
1F
100
AcDbEntity
  8
LAYER-033
  6
Continuous
 62
     1
100
AcDbCircle
 10
-177.8797038548741
 20
205.49109491878
 30
0.0
 40
2.051187003369524
100
AcDbArc
 50
75.89135808041074
 51
104.1086419305842
  0
LINE
  5
2FA
330
1F
100
AcDbEntity
  8
LAYER-033
  6
Continuous
 62
     1
100
AcDbLine
 10
-178.379703855077
 20
206.49109491878
 30
0.0
 11
-178.379703855077
 21
207.480408399339
 31
0.0
  0
ARC
  5
2FB
330
1F
100
AcDbEntity
  8
LAYER-033
  6
Continuous
 62
     1
100
AcDbCircle
 10
-178.8797038548741
 20
206.49109491878
 30
0.0
 40
0.5
100
AcDbArc
 50
270.0
 51
0.0
  0
LINE
  5
2FC
330
1F
100
AcDbEntity
  8
LAYER-033
  6
Continuous
 62
     1
100
AcDbLine
 10
-178.379703855077
 20
204.49109491878
 30
0.0
 11
-178.379703855077
 21
203.5017814387949
 31
0.0
  0
ARC
  5
2FD
330
1F
100
AcDbEntity
  8
LAYER-033
  6
Continuous
 62
     1
100
AcDbCircle
 10
-178.8797038548741
 20
204.49109491878
 30
0.0
 40
0.5
100
AcDbArc
 50
0.0
 51
90.0
  0
LINE
  5
2FE
330
1F
100
AcDbEntity
  8
LAYER-033
  6
Continuous
 62
     1
100
AcDbLine
 10
-178.8797038548741
 20
204.9910949190669
 30
0.0
 11
-179.8690173349365
 21
204.9910949190669
 31
0.0
  0
LINE
  5
2FF
330
1F
100
AcDbEntity
  8
LAYER-033
  6
Continuous
 62
     1
100
AcDbLine
 10
-178.8797038548741
 20
205.9910949190669
 30
0.0
 11
-179.8690173349365
 21
205.9910949190669
 31
0.0
  0
ARC
  5
300
330
1F
100
AcDbEntity
  8
LAYER-033
  6
Continuous
 62
     1
100
AcDbCircle
 10
-177.8797038548741
 20
205.49109491878
 30
0.0
 40
2.051187003369524
100
AcDbArc
 50
165.8913580637599
 51
194.1086419206947
  0
CIRCLE
  5
301
330
1F
100
AcDbEntity
  8
LAYER-033
  6
Continuous
 62
     1
100
AcDbCircle
 10
-187.379703855077
 20
205.49109491878
 30
0.0
 40
2.779786057168341
  0
ARC
  5
302
330
1F
100
AcDbEntity
  8
LAYER-033
  6
Continuous
 62
     1
100
AcDbCircle
 10
-187.379703855077
 20
205.49109491878
 30
0.0
 40
2.051187003369524
100
AcDbArc
 50
255.8913580765035
 51
284.1086419344915
  0
LINE
  5
303
330
1F
100
AcDbEntity
  8
LAYER-033
  6
Continuous
 62
     1
100
AcDbLine
 10
-186.8797038548741
 20
204.49109491878
 30
0.0
 11
-186.8797038548741
 21
203.5017814387949
 31
0.0
  0
ARC
  5
304
330
1F
100
AcDbEntity
  8
LAYER-033
  6
Continuous
 62
     1
100
AcDbCircle
 10
-186.379703855077
 20
204.49109491878
 30
0.0
 40
0.5
100
AcDbArc
 50
90.0
 51
180.0
  0
LINE
  5
305
330
1F
100
AcDbEntity
  8
LAYER-033
  6
Continuous
 62
     1
100
AcDbLine
 10
-186.379703855077
 20
204.9910949190669
 30
0.0
 11
-185.3903903752175
 21
204.9910949190669
 31
0.0
  0
ARC
  5
306
330
1F
100
AcDbEntity
  8
LAYER-033
  6
Continuous
 62
     1
100
AcDbCircle
 10
-187.379703855077
 20
205.49109491878
 30
0.0
 40
2.051187003369524
100
AcDbArc
 50
345.8913580779236
 51
14.10864193762186
  0
LINE
  5
307
330
1F
100
AcDbEntity
  8
LAYER-033
  6
Continuous
 62
     1
100
AcDbLine
 10
-186.379703855077
 20
205.9910949190669
 30
0.0
 11
-185.3903903752175
 21
205.9910949190669
 31
0.0
  0
ARC
  5
308
330
1F
100
AcDbEntity
  8
LAYER-033
  6
Continuous
 62
     1
100
AcDbCircle
 10
-186.379703855077
 20
206.49109491878
 30
0.0
 40
0.5
100
AcDbArc
 50
180.0
 51
270.0
  0
LINE
  5
309
330
1F
100
AcDbEntity
  8
LAYER-033
  6
Continuous
 62
     1
100
AcDbLine
 10
-186.8797038548741
 20
206.49109491878
 30
0.0
 11
-186.8797038548741
 21
207.480408399339
 31
0.0
  0
ARC
  5
30A
330
1F
100
AcDbEntity
  8
LAYER-033
  6
Continuous
 62
     1
100
AcDbCircle
 10
-187.379703855077
 20
205.49109491878
 30
0.0
 40
2.051187003369524
100
AcDbArc
 50
75.89135806941579
 51
104.1086419195893
  0
LINE
  5
30B
330
1F
100
AcDbEntity
  8
LAYER-033
  6
Continuous
 62
     1
100
AcDbLine
 10
-187.8797038548741
 20
206.49109491878
 30
0.0
 11
-187.8797038548741
 21
207.480408399339
 31
0.0
  0
ARC
  5
30C
330
1F
100
AcDbEntity
  8
LAYER-033
  6
Continuous
 62
     1
100
AcDbCircle
 10
-188.379703855077
 20
206.49109491878
 30
0.0
 40
0.5
100
AcDbArc
 50
270.0
 51
0.0
  0
LINE
  5
30D
330
1F
100
AcDbEntity
  8
LAYER-033
  6
Continuous
 62
     1
100
AcDbLine
 10
-187.8797038548741
 20
204.49109491878
 30
0.0
 11
-187.8797038548741
 21
203.5017814387949
 31
0.0
  0
ARC
  5
30E
330
1F
100
AcDbEntity
  8
LAYER-033
  6
Continuous
 62
     1
100
AcDbCircle
 10
-188.379703855077
 20
204.49109491878
 30
0.0
 40
0.5
100
AcDbArc
 50
0.0
 51
90.0
  0
LINE
  5
30F
330
1F
100
AcDbEntity
  8
LAYER-033
  6
Continuous
 62
     1
100
AcDbLine
 10
-188.379703855077
 20
204.9910949190669
 30
0.0
 11
-189.3690173349365
 21
204.9910949190669
 31
0.0
  0
LINE
  5
310
330
1F
100
AcDbEntity
  8
LAYER-033
  6
Continuous
 62
     1
100
AcDbLine
 10
-188.379703855077
 20
205.9910949190669
 30
0.0
 11
-189.3690173349365
 21
205.9910949190669
 31
0.0
  0
ARC
  5
311
330
1F
100
AcDbEntity
  8
LAYER-033
  6
Continuous
 62
     1
100
AcDbCircle
 10
-187.379703855077
 20
205.49109491878
 30
0.0
 40
2.051187003369524
100
AcDbArc
 50
165.8913580623782
 51
194.1086419220765
  0
CIRCLE
  5
312
330
1F
100
AcDbEntity
  8
LAYER-033
  6
Continuous
 62
     1
100
AcDbCircle
 10
-196.8797038548741
 20
205.49109491878
 30
0.0
 40
2.779786057168341
  0
ARC
  5
313
330
1F
100
AcDbEntity
  8
LAYER-033
  6
Continuous
 62
     1
100
AcDbCircle
 10
-196.8797038548741
 20
205.49109491878
 30
0.0
 40
2.051187003369524
100
AcDbArc
 50
255.8913580655085
 51
284.1086419234965
  0
LINE
  5
314
330
1F
100
AcDbEntity
  8
LAYER-033
  6
Continuous
 62
     1
100
AcDbLine
 10
-196.379703855077
 20
204.49109491878
 30
0.0
 11
-196.379703855077
 21
203.5017814387949
 31
0.0
  0
ARC
  5
315
330
1F
100
AcDbEntity
  8
LAYER-033
  6
Continuous
 62
     1
100
AcDbCircle
 10
-195.8797038548741
 20
204.49109491878
 30
0.0
 40
0.5
100
AcDbArc
 50
90.0
 51
180.0
  0
LINE
  5
316
330
1F
100
AcDbEntity
  8
LAYER-033
  6
Continuous
 62
     1
100
AcDbLine
 10
-195.8797038548741
 20
204.9910949190669
 30
0.0
 11
-194.8903903753279
 21
204.9910949190669
 31
0.0
  0
ARC
  5
317
330
1F
100
AcDbEntity
  8
LAYER-033
  6
Continuous
 62
     1
100
AcDbCircle
 10
-196.8797038548741
 20
205.49109491878
 30
0.0
 40
2.051187003369524
100
AcDbArc
 50
345.8913580757903
 51
14.10864193975506
  0
LINE
  5
318
330
1F
100
AcDbEntity
  8
LAYER-033
  6
Continuous
 62
     1
100
AcDbLine
 10
-195.8797038548741
 20
205.9910949190669
 30
0.0
 11
-194.8903903753279
 21
205.9910949190669
 31
0.0
  0
ARC
  5
319
330
1F
100
AcDbEntity
  8
LAYER-033
  6
Continuous
 62
     1
100
AcDbCircle
 10
-195.8797038548741
 20
206.49109491878
 30
0.0
 40
0.5
100
AcDbArc
 50
180.0
 51
270.0
  0
LINE
  5
31A
330
1F
100
AcDbEntity
  8
LAYER-033
  6
Continuous
 62
     1
100
AcDbLine
 10
-196.379703855077
 20
206.49109491878
 30
0.0
 11
-196.379703855077
 21
207.480408399339
 31
0.0
  0
ARC
  5
31B
330
1F
100
AcDbEntity
  8
LAYER-033
  6
Continuous
 62
     1
100
AcDbCircle
 10
-196.8797038548741
 20
205.49109491878
 30
0.0
 40
2.051187003369524
100
AcDbArc
 50
75.89135808041074
 51
104.1086419305842
  0
LINE
  5
31C
330
1F
100
AcDbEntity
  8
LAYER-033
  6
Continuous
 62
     1
100
AcDbLine
 10
-197.379703855077
 20
206.49109491878
 30
0.0
 11
-197.379703855077
 21
207.480408399339
 31
0.0
  0
ARC
  5
31D
330
1F
100
AcDbEntity
  8
LAYER-033
  6
Continuous
 62
     1
100
AcDbCircle
 10
-197.8797038548741
 20
206.49109491878
 30
0.0
 40
0.5
100
AcDbArc
 50
270.0
 51
0.0
  0
LINE
  5
31E
330
1F
100
AcDbEntity
  8
LAYER-033
  6
Continuous
 62
     1
100
AcDbLine
 10
-197.379703855077
 20
204.49109491878
 30
0.0
 11
-197.379703855077
 21
203.5017814387949
 31
0.0
  0
ARC
  5
31F
330
1F
100
AcDbEntity
  8
LAYER-033
  6
Continuous
 62
     1
100
AcDbCircle
 10
-197.8797038548741
 20
204.49109491878
 30
0.0
 40
0.5
100
AcDbArc
 50
0.0
 51
90.0
  0
LINE
  5
320
330
1F
100
AcDbEntity
  8
LAYER-033
  6
Continuous
 62
     1
100
AcDbLine
 10
-197.8797038548741
 20
204.9910949190669
 30
0.0
 11
-198.8690173349365
 21
204.9910949190669
 31
0.0
  0
LINE
  5
321
330
1F
100
AcDbEntity
  8
LAYER-033
  6
Continuous
 62
     1
100
AcDbLine
 10
-197.8797038548741
 20
205.9910949190669
 30
0.0
 11
-198.8690173349365
 21
205.9910949190669
 31
0.0
  0
ARC
  5
322
330
1F
100
AcDbEntity
  8
LAYER-033
  6
Continuous
 62
     1
100
AcDbCircle
 10
-196.8797038548741
 20
205.49109491878
 30
0.0
 40
2.051187003369524
100
AcDbArc
 50
165.8913580637599
 51
194.1086419206947
  0
LINE
  5
323
330
1F
100
AcDbEntity
  8
LAYER-005
  6
CENTER
 62
     4
100
AcDbLine
 10
-71.10124067934521
 20
221.9902949190667
 30
0.0
 11
-71.10124067934521
 21
137.3566949190668
 31
0.0
  0
LINE
  5
324
330
1F
100
AcDbEntity
  8
LAYER-005
  6
CENTER
 62
     4
100
AcDbLine
 10
-56.10124067934524
 20
201.1910949190669
 30
0.0
 11
-56.10124067934524
 21
192.7339949190669
 31
0.0
  0
LINE
  5
325
330
1F
100
AcDbEntity
  8
LAYER-005
  6
CENTER
 62
     4
100
AcDbLine
 10
-76.10124067934521
 20
200.9702949190667
 30
0.0
 11
-76.10124067934521
 21
192.8074949190669
 31
0.0
  0
LINE
  5
326
330
1F
100
AcDbEntity
  8
LAYER-005
  6
CENTER
 62
     4
100
AcDbLine
 10
-66.10124067934521
 20
200.9702949190667
 30
0.0
 11
-66.10124067934521
 21
192.8810949190667
 31
0.0
  0
LINE
  5
327
330
1F
100
AcDbEntity
  8
LAYER-005
  6
CENTER
 62
     4
100
AcDbLine
 10
-86.10124067934521
 20
201.1174949190668
 30
0.0
 11
-86.10124067934521
 21
192.8074949190669
 31
0.0
  0
CIRCLE
  5
328
330
1F
100
AcDbEntity
  8
LAYER-004
  6
Continuous
 62
     4
100
AcDbCircle
 10
-56.10124067934524
 20
196.9910949190668
 30
0.0
 40
3.0
  0
CIRCLE
  5
329
330
1F
100
AcDbEntity
  8
LAYER-004
  6
Continuous
 62
     4
100
AcDbCircle
 10
-66.10124067934521
 20
196.9910949190668
 30
0.0
 40
3.0
  0
CIRCLE
  5
32A
330
1F
100
AcDbEntity
  8
LAYER-004
  6
Continuous
 62
     4
100
AcDbCircle
 10
-86.10124067934521
 20
196.9910949190668
 30
0.0
 40
3.0
  0
CIRCLE
  5
32B
330
1F
100
AcDbEntity
  8
LAYER-004
  6
Continuous
 62
     4
100
AcDbCircle
 10
-76.10124067934521
 20
196.9910949190668
 30
0.0
 40
3.0
  0
LINE
  5
32C
330
1F
100
AcDbEntity
  8
LAYER-003
  6
Continuous
 62
     4
100
AcDbLine
 10
-52.25124067934533
 20
205.1910949190669
 30
0.0
 11
-52.25124067934533
 21
193.4910949190668
 31
0.0
  0
LINE
  5
32D
330
1F
100
AcDbEntity
  8
LAYER-003
  6
Continuous
 62
     4
100
AcDbLine
 10
-59.95124067934512
 20
193.4910949190668
 30
0.0
 11
-59.95124067934512
 21
207.1910949190668
 31
0.0
  0
LINE
  5
32E
330
1F
100
AcDbEntity
  8
LAYER-003
  6
Continuous
 62
     4
100
AcDbLine
 10
-72.2512406793453
 20
207.1910949190668
 30
0.0
 11
-72.2512406793453
 21
193.4910949190668
 31
0.0
  0
LINE
  5
32F
330
1F
100
AcDbEntity
  8
LAYER-003
  6
Continuous
 62
     4
100
AcDbLine
 10
-62.2512406793453
 20
207.1910949190668
 30
0.0
 11
-62.2512406793453
 21
193.4910949190668
 31
0.0
  0
LINE
  5
330
330
1F
100
AcDbEntity
  8
LAYER-003
  6
Continuous
 62
     4
100
AcDbLine
 10
-69.95124067934512
 20
207.1910949190668
 30
0.0
 11
-69.95124067934512
 21
193.4910949190668
 31
0.0
  0
LINE
  5
331
330
1F
100
AcDbEntity
  8
LAYER-003
  6
Continuous
 62
     4
100
AcDbLine
 10
-82.2512406793453
 20
207.1910949190668
 30
0.0
 11
-82.2512406793453
 21
193.4910949190668
 31
0.0
  0
LINE
  5
332
330
1F
100
AcDbEntity
  8
LAYER-003
  6
Continuous
 62
     4
100
AcDbLine
 10
-79.95124067934512
 20
207.1910949190668
 30
0.0
 11
-79.95124067934512
 21
193.4910949190668
 31
0.0
  0
LINE
  5
333
330
1F
100
AcDbEntity
  8
LAYER-003
  6
Continuous
 62
     4
100
AcDbLine
 10
-89.95124067934512
 20
205.1910949190669
 30
0.0
 11
-89.95124067934512
 21
193.4910949190668
 31
0.0
  0
LINE
  5
334
330
1F
100
AcDbEntity
  8
LAYER-002
  6
Continuous
 62
     1
100
AcDbLine
 10
-49.60124067934513
 20
145.791094919067
 30
0.0
 11
-49.60124067934513
 21
206.6090949190668
 31
0.0
  0
LINE
  5
335
330
1F
100
AcDbEntity
  8
LAYER-002
  6
Continuous
 62
     1
100
AcDbLine
 10
-92.60124067934513
 20
205.1910949190669
 30
0.0
 11
-92.60124067934513
 21
144.3730949190668
 31
0.0
  0
LINE
  5
336
330
1F
100
AcDbEntity
  8
LAYER-005
  6
CENTER
 62
     4
100
AcDbLine
 10
-90.97224067934519
 20
153.9910949190669
 30
0.0
 11
-50.96724067934534
 21
153.9910949190669
 31
0.0
  0
LINE
  5
337
330
1F
100
AcDbEntity
  8
LAYER-005
  6
CENTER
 62
     4
100
AcDbLine
 10
-95.38224067934522
 20
175.4910949190669
 30
0.0
 11
-46.89924067934501
 21
175.4910949190669
 31
0.0
  0
CIRCLE
  5
338
330
1F
100
AcDbEntity
  8
LAYER-004
  6
Continuous
 62
     4
100
AcDbCircle
 10
-86.10124067934521
 20
153.9910949190669
 30
0.0
 40
3.0
  0
LINE
  5
339
330
1F
100
AcDbEntity
  8
LAYER-003
  6
Continuous
 62
     4
100
AcDbLine
 10
-49.60124067934513
 20
193.4910949190668
 30
0.0
 11
-92.60124067934513
 21
193.4910949190668
 31
0.0
  0
LINE
  5
33A
330
1F
100
AcDbEntity
  8
LAYER-003
  6
Continuous
 62
     4
100
AcDbLine
 10
-49.60124067934513
 20
157.4910949190669
 30
0.0
 11
-92.60124067934513
 21
157.4910949190669
 31
0.0
  0
LINE
  5
33B
330
1F
100
AcDbEntity
  8
LAYER-003
  6
Continuous
 62
     4
100
AcDbLine
 10
-89.95124067934512
 20
149.2910949190669
 30
0.0
 11
-82.2512406793453
 21
149.2910949190669
 31
0.0
  0
LINE
  5
33C
330
1F
100
AcDbEntity
  8
LAYER-002
  6
Continuous
 62
     1
100
AcDbLine
 10
-84.10124067934521
 20
145.4410949190667
 30
0.0
 11
-82.2512406793453
 21
145.4410949190667
 31
0.0
  0
LINE
  5
33D
330
1F
100
AcDbEntity
  8
LAYER-005
  6
CENTER
 62
     4
100
AcDbLine
 10
-86.10124067934521
 20
149.8646949190668
 30
0.0
 11
-86.10124067934521
 21
158.174694919067
 31
0.0
  0
LINE
  5
33E
330
1F
100
AcDbEntity
  8
LAYER-004
  6
Continuous
 62
     4
100
AcDbLine
 10
-83.98024067900001
 20
151.8698949190669
 30
0.0
 11
-88.22224067934513
 21
156.1123949190669
 31
0.0
  0
LINE
  5
33F
330
1F
100
AcDbEntity
  8
LAYER-004
  6
Continuous
 62
     4
100
AcDbLine
 10
-87.33824067934521
 20
152.7536949190668
 30
0.0
 11
-84.86424067934536
 21
155.2284949190669
 31
0.0
  0
LINE
  5
340
330
1F
100
AcDbEntity
  8
LAYER-003
  6
Continuous
 62
     4
100
AcDbLine
 10
-89.95124067934512
 20
145.791094919067
 30
0.0
 11
-89.95124067934512
 21
157.4910949190669
 31
0.0
  0
ARC
  5
341
330
1F
100
AcDbEntity
  8
LAYER-003
  6
Continuous
 62
     4
100
AcDbCircle
 10
-88.60124067934515
 20
145.4910949190669
 30
0.0
 40
2.25
100
AcDbArc
 50
172.3380000010801
 51
233.1300000111728
  0
ARC
  5
342
330
1F
100
AcDbEntity
  8
LAYER-003
  6
Continuous
 62
     4
100
AcDbCircle
 10
-88.60124067934515
 20
145.4910949190669
 30
0.0
 40
2.25
100
AcDbArc
 50
233.1300000111728
 51
126.8699999888315
  0
LINE
  5
343
330
1F
100
AcDbEntity
  8
LAYER-003
  6
Continuous
 62
     4
100
AcDbLine
 10
-89.95124067934512
 20
145.791094919067
 30
0.0
 11
-92.60124067934513
 21
145.791094919067
 31
0.0
  0
ARC
  5
344
330
1F
100
AcDbEntity
  8
LAYER-002
  6
Continuous
 62
     1
100
AcDbCircle
 10
-88.60124067934521
 20
145.4910949190669
 30
0.0
 40
4.5
100
AcDbArc
 50
228.1900000000019
 51
359.3630000037783
  0
ARC
  5
345
330
1F
100
AcDbEntity
  8
LAYER-002
  6
Continuous
 62
     1
100
AcDbCircle
 10
-89.60124067934515
 20
144.3730949190668
 30
0.0
 40
3.0
100
AcDbArc
 50
180.0
 51
228.1899999999988
  0
CIRCLE
  5
346
330
1F
100
AcDbEntity
  8
LAYER-004
  6
Continuous
 62
     4
100
AcDbCircle
 10
-56.10124067934524
 20
153.9910949190669
 30
0.0
 40
3.0
  0
LINE
  5
347
330
1F
100
AcDbEntity
  8
LAYER-004
  6
Continuous
 62
     4
100
AcDbLine
 10
-53.97924067934528
 20
151.8698949190669
 30
0.0
 11
-58.22124067934513
 21
156.1123949190669
 31
0.0
  0
LINE
  5
348
330
1F
100
AcDbEntity
  8
LAYER-004
  6
Continuous
 62
     4
100
AcDbLine
 10
-57.33724067934534
 20
152.7536949190668
 30
0.0
 11
-54.86324067934507
 21
155.2284949190669
 31
0.0
  0
ARC
  5
349
330
1F
100
AcDbEntity
  8
LAYER-003
  6
Continuous
 62
     4
100
AcDbCircle
 10
-54.10124067934535
 20
149.4910949190669
 30
0.0
 40
2.25002
100
AcDbArc
 50
185.1000000000063
 51
325.3080000000006
  0
LINE
  5
34A
330
1F
100
AcDbEntity
  8
LAYER-003
  6
Continuous
 62
     4
100
AcDbLine
 10
-52.25124067934533
 20
149.2910949190669
 30
0.0
 11
-59.95124067934512
 21
149.2910949190669
 31
0.0
  0
LINE
  5
34B
330
1F
100
AcDbEntity
  8
LAYER-002
  6
Continuous
 62
     1
100
AcDbLine
 10
-58.60124067934524
 20
144.8910949190669
 30
0.0
 11
-54.10124067934535
 21
144.8910949190669
 31
0.0
  0
LINE
  5
34C
330
1F
100
AcDbEntity
  8
LAYER-005
  6
CENTER
 62
     4
100
AcDbLine
 10
-66.10124067934521
 20
150.0118949190669
 30
0.0
 11
-66.10124067934521
 21
158.1010949190669
 31
0.0
  0
LINE
  5
34D
330
1F
100
AcDbEntity
  8
LAYER-005
  6
CENTER
 62
     4
100
AcDbLine
 10
-76.10124067934521
 20
150.0118949190669
 30
0.0
 11
-76.10124067934521
 21
158.174694919067
 31
0.0
  0
LINE
  5
34E
330
1F
100
AcDbEntity
  8
LAYER-005
  6
CENTER
 62
     4
100
AcDbLine
 10
-56.10124067934524
 20
149.7910949190667
 30
0.0
 11
-56.10124067934524
 21
158.2481949190667
 31
0.0
  0
CIRCLE
  5
34F
330
1F
100
AcDbEntity
  8
LAYER-004
  6
Continuous
 62
     4
100
AcDbCircle
 10
-66.10124067934521
 20
153.9910949190669
 30
0.0
 40
3.0
  0
CIRCLE
  5
350
330
1F
100
AcDbEntity
  8
LAYER-004
  6
Continuous
 62
     4
100
AcDbCircle
 10
-76.10124067934521
 20
153.9910949190669
 30
0.0
 40
3.0
  0
LINE
  5
351
330
1F
100
AcDbEntity
  8
LAYER-004
  6
Continuous
 62
     4
100
AcDbLine
 10
-63.97924067934525
 20
151.8698949190669
 30
0.0
 11
-68.2212406793451
 21
156.1123949190669
 31
0.0
  0
LINE
  5
352
330
1F
100
AcDbEntity
  8
LAYER-004
  6
Continuous
 62
     4
100
AcDbLine
 10
-67.33724067934531
 20
152.7536949190668
 30
0.0
 11
-64.86324067934504
 21
155.2284949190669
 31
0.0
  0
LINE
  5
353
330
1F
100
AcDbEntity
  8
LAYER-004
  6
Continuous
 62
     4
100
AcDbLine
 10
-73.97924067934525
 20
151.8698949190669
 30
0.0
 11
-78.2212406793451
 21
156.1123949190669
 31
0.0
  0
LINE
  5
354
330
1F
100
AcDbEntity
  8
LAYER-004
  6
Continuous
 62
     4
100
AcDbLine
 10
-77.33724067934531
 20
152.7536949190668
 30
0.0
 11
-74.86324067934504
 21
155.2284949190669
 31
0.0
  0
LINE
  5
355
330
1F
100
AcDbEntity
  8
LAYER-003
  6
Continuous
 62
     4
100
AcDbLine
 10
-82.2512406793453
 20
145.4410949190667
 30
0.0
 11
-82.2512406793453
 21
157.4910949190669
 31
0.0
  0
LINE
  5
356
330
1F
100
AcDbEntity
  8
LAYER-003
  6
Continuous
 62
     4
100
AcDbLine
 10
-59.95124067934512
 20
157.4910949190669
 30
0.0
 11
-59.95124067934512
 21
143.7910949190668
 31
0.0
  0
LINE
  5
357
330
1F
100
AcDbEntity
  8
LAYER-003
  6
Continuous
 62
     4
100
AcDbLine
 10
-69.95124067934512
 20
143.7910949190668
 30
0.0
 11
-69.95124067934512
 21
157.4910949190669
 31
0.0
  0
LINE
  5
358
330
1F
100
AcDbEntity
  8
LAYER-003
  6
Continuous
 62
     4
100
AcDbLine
 10
-62.2512406793453
 20
143.7910949190668
 30
0.0
 11
-62.2512406793453
 21
157.4910949190669
 31
0.0
  0
LINE
  5
359
330
1F
100
AcDbEntity
  8
LAYER-003
  6
Continuous
 62
     4
100
AcDbLine
 10
-79.95124067934512
 20
157.4910949190669
 30
0.0
 11
-79.95124067934512
 21
143.7910949190668
 31
0.0
  0
LINE
  5
35A
330
1F
100
AcDbEntity
  8
LAYER-003
  6
Continuous
 62
     4
100
AcDbLine
 10
-72.2512406793453
 20
157.4910949190669
 30
0.0
 11
-72.2512406793453
 21
143.7910949190668
 31
0.0
  0
LINE
  5
35B
330
1F
100
AcDbEntity
  8
LAYER-003
  6
Continuous
 62
     4
100
AcDbLine
 10
-82.2512406793453
 20
143.7910949190668
 30
0.0
 11
-59.95124067934512
 21
143.7910949190668
 31
0.0
  0
LINE
  5
35C
330
1F
100
AcDbEntity
  8
LAYER-003
  6
Continuous
 62
     4
100
AcDbLine
 10
-62.2512406793453
 20
149.2910949190669
 30
0.0
 11
-69.95124067934512
 21
149.2910949190669
 31
0.0
  0
LINE
  5
35D
330
1F
100
AcDbEntity
  8
LAYER-002
  6
Continuous
 62
     1
100
AcDbLine
 10
-78.60124067934521
 20
139.9910949190669
 30
0.0
 11
-63.60124067934521
 21
139.9910949190669
 31
0.0
  0
LINE
  5
35E
330
1F
100
AcDbEntity
  8
LAYER-003
  6
Continuous
 62
     4
100
AcDbLine
 10
-79.95124067934512
 20
149.2910949190669
 30
0.0
 11
-72.2512406793453
 21
149.2910949190669
 31
0.0
  0
LINE
  5
35F
330
1F
100
AcDbEntity
  8
LAYER-002
  6
Continuous
 62
     1
100
AcDbLine
 10
-82.2512406793453
 20
142.1910949190668
 30
0.0
 11
-82.2512406793453
 21
145.4410949190667
 31
0.0
  0
LINE
  5
360
330
1F
100
AcDbEntity
  8
LAYER-002
  6
Continuous
 62
     1
100
AcDbLine
 10
-79.60124067934515
 20
142.1910949190668
 30
0.0
 11
-82.2512406793453
 21
142.1910949190668
 31
0.0
  0
LINE
  5
361
330
1F
100
AcDbEntity
  8
LAYER-002
  6
Continuous
 62
     1
100
AcDbLine
 10
-78.60124067934521
 20
140.791094919067
 30
0.0
 11
-78.60124067934521
 21
139.9910949190669
 31
0.0
  0
LINE
  5
362
330
1F
100
AcDbEntity
  8
LAYER-002
  6
Continuous
 62
     1
100
AcDbLine
 10
-79.60124067934515
 20
140.791094919067
 30
0.0
 11
-78.60124067934521
 21
140.791094919067
 31
0.0
  0
LINE
  5
363
330
1F
100
AcDbEntity
  8
LAYER-002
  6
Continuous
 62
     1
100
AcDbLine
 10
-79.60124067934515
 20
142.1910949190668
 30
0.0
 11
-79.60124067934515
 21
140.791094919067
 31
0.0
  0
LINE
  5
364
330
1F
100
AcDbEntity
  8
LAYER-002
  6
Continuous
 62
     1
100
AcDbLine
 10
-63.60124067934521
 20
140.791094919067
 30
0.0
 11
-58.60124067934524
 21
140.791094919067
 31
0.0
  0
LINE
  5
365
330
1F
100
AcDbEntity
  8
LAYER-002
  6
Continuous
 62
     1
100
AcDbLine
 10
-63.60124067934521
 20
140.791094919067
 30
0.0
 11
-63.60124067934521
 21
139.9910949190669
 31
0.0
  0
LINE
  5
366
330
1F
100
AcDbEntity
  8
LAYER-002
  6
Continuous
 62
     1
100
AcDbLine
 10
-58.60124067934524
 20
140.791094919067
 30
0.0
 11
-58.60124067934524
 21
144.8910949190669
 31
0.0
  0
LINE
  5
367
330
1F
100
AcDbEntity
  8
LAYER-003
  6
Continuous
 62
     4
100
AcDbLine
 10
-61.10124067934521
 20
170.791094919067
 30
0.0
 11
-81.10124067934521
 21
170.791094919067
 31
0.0
  0
LINE
  5
368
330
1F
100
AcDbEntity
  8
LAYER-003
  6
Continuous
 62
     4
100
AcDbLine
 10
-61.10124067934521
 20
187.9910949190669
 30
0.0
 11
-81.10124067934521
 21
187.9910949190669
 31
0.0
  0
LINE
  5
369
330
1F
100
AcDbEntity
  8
LAYER-003
  6
Continuous
 62
     4
100
AcDbLine
 10
-81.10124067934521
 20
162.9910949190669
 30
0.0
 11
-61.10124067934521
 21
162.9910949190669
 31
0.0
  0
LINE
  5
36A
330
1F
100
AcDbEntity
  8
LAYER-003
  6
Continuous
 62
     4
100
AcDbLine
 10
-61.10124067934521
 20
180.1910949190669
 30
0.0
 11
-81.10124067934521
 21
180.1910949190669
 31
0.0
  0
LINE
  5
36B
330
1F
100
AcDbEntity
  8
LAYER-003
  6
Continuous
 62
     4
100
AcDbLine
 10
-77.85124067934532
 20
170.791094919067
 30
0.0
 11
-77.85124067934532
 21
180.1910949190669
 31
0.0
  0
LINE
  5
36C
330
1F
100
AcDbEntity
  8
LAYER-003
  6
Continuous
 62
     4
100
AcDbLine
 10
-73.35124067913537
 20
180.1910949190669
 30
0.0
 11
-73.35124067913537
 21
170.791094919067
 31
0.0
  0
LINE
  5
36D
330
1F
100
AcDbEntity
  8
LAYER-003
  6
Continuous
 62
     4
100
AcDbLine
 10
-81.10124067934521
 20
187.9910949190669
 30
0.0
 11
-81.10124067934521
 21
162.9910949190669
 31
0.0
  0
LINE
  5
36E
330
1F
100
AcDbEntity
  8
LAYER-003
  6
Continuous
 62
     4
100
AcDbLine
 10
-76.10124067934521
 20
187.9910949190669
 30
0.0
 11
-76.10124067934521
 21
180.1910949190669
 31
0.0
  0
LINE
  5
36F
330
1F
100
AcDbEntity
  8
LAYER-003
  6
Continuous
 62
     4
100
AcDbLine
 10
-68.85124067934498
 20
180.1910949190669
 30
0.0
 11
-68.85124067934498
 21
170.791094919067
 31
0.0
  0
LINE
  5
370
330
1F
100
AcDbEntity
  8
LAYER-003
  6
Continuous
 62
     4
100
AcDbLine
 10
-64.35124067913537
 20
170.791094919067
 30
0.0
 11
-64.35124067913537
 21
180.1910949190669
 31
0.0
  0
LINE
  5
371
330
1F
100
AcDbEntity
  8
LAYER-003
  6
Continuous
 62
     4
100
AcDbLine
 10
-61.10124067934521
 20
187.9910949190669
 30
0.0
 11
-61.10124067934521
 21
162.9910949190669
 31
0.0
  0
LINE
  5
372
330
1F
100
AcDbEntity
  8
LAYER-003
  6
Continuous
 62
     4
100
AcDbLine
 10
-66.10124067934521
 20
187.9910949190669
 30
0.0
 11
-66.10124067934521
 21
180.1910949190669
 31
0.0
  0
LINE
  5
373
330
1F
100
AcDbEntity
  8
LAYER-003
  6
Continuous
 62
     4
100
AcDbLine
 10
-52.25124067934533
 20
145.791094919067
 30
0.0
 11
-52.25124067934533
 21
157.4910949190669
 31
0.0
  0
ARC
  5
374
330
1F
100
AcDbEntity
  8
LAYER-002
  6
Continuous
 62
     1
100
AcDbCircle
 10
-54.10124067934535
 20
149.3910949190668
 30
0.0
 40
4.5
100
AcDbArc
 50
270.0
 51
306.8700000000007
  0
LINE
  5
375
330
1F
100
AcDbEntity
  8
LAYER-003
  6
Continuous
 62
     4
100
AcDbLine
 10
-51.40124067934519
 20
145.791094919067
 30
0.0
 11
-52.25124067934533
 21
145.791094919067
 31
0.0
  0
LINE
  5
376
330
1F
100
AcDbEntity
  8
LAYER-002
  6
Continuous
 62
     1
100
AcDbLine
 10
-49.60124067934513
 20
145.791094919067
 30
0.0
 11
-51.40124067934519
 21
145.791094919067
 31
0.0
  0
LINE
  5
377
330
1F
100
AcDbEntity
  8
LAYER-005
  6
CENTER
 62
     4
100
AcDbLine
 10
-90.97224067934519
 20
196.9910949190668
 30
0.0
 11
-50.96724067934534
 21
196.9910949190668
 31
0.0
  0
LINE
  5
378
330
1F
100
AcDbEntity
  8
LAYER-003
  6
Continuous
 62
     4
100
AcDbLine
 10
-72.70124067941825
 20
209.5910949190669
 30
0.0
 11
-85.05124067934503
 21
209.5910949190669
 31
0.0
  0
LINE
  5
379
330
1F
100
AcDbEntity
  8
LAYER-003
  6
Continuous
 62
     4
100
AcDbLine
 10
-89.95124067934512
 20
201.6910949190667
 30
0.0
 11
-82.2512406793453
 21
201.6910949190667
 31
0.0
  0
LINE
  5
37A
330
1F
100
AcDbEntity
  8
LAYER-003
  6
Continuous
 62
     4
100
AcDbLine
 10
-82.2512406793453
 20
206.091094919067
 30
0.0
 11
-85.05124067934503
 21
206.091094919067
 31
0.0
  0
LINE
  5
37B
330
1F
100
AcDbEntity
  8
LAYER-002
  6
Continuous
 62
     1
100
AcDbLine
 10
-85.05124067934503
 20
219.0910949190668
 30
0.0
 11
-82.45124067934512
 21
219.0910949190668
 31
0.0
  0
LINE
  5
37C
330
1F
100
AcDbEntity
  8
LAYER-002
  6
Continuous
 62
     1
100
AcDbLine
 10
-85.05124067934503
 20
206.091094919067
 30
0.0
 11
-85.05124067934503
 21
219.0910949190668
 31
0.0
  0
LINE
  5
37D
330
1F
100
AcDbEntity
  8
LAYER-003
  6
Continuous
 62
     4
100
AcDbLine
 10
-90.8012406793452
 20
205.1910949190669
 30
0.0
 11
-89.95124067934512
 21
205.1910949190669
 31
0.0
  0
ARC
  5
37E
330
1F
100
AcDbEntity
  8
LAYER-002
  6
Continuous
 62
     1
100
AcDbCircle
 10
-88.10124067934521
 20
201.5910949190668
 30
0.0
 40
4.5
100
AcDbArc
 50
90.00019999999879
 51
126.8699999999996
  0
LINE
  5
37F
330
1F
100
AcDbEntity
  8
LAYER-002
  6
Continuous
 62
     1
100
AcDbLine
 10
-92.60124067934513
 20
205.1910949190669
 30
0.0
 11
-90.8012406793452
 21
205.1910949190669
 31
0.0
  0
LINE
  5
380
330
1F
100
AcDbEntity
  8
LAYER-003
  6
Continuous
 62
     4
100
AcDbLine
 10
-85.05124067934503
 20
201.6910949190667
 30
0.0
 11
-85.05124067934503
 21
206.091094919067
 31
0.0
  0
LINE
  5
381
330
1F
100
AcDbEntity
  8
LAYER-004
  6
Continuous
 62
     4
100
AcDbLine
 10
-87.33824067934521
 20
195.7536949190667
 30
0.0
 11
-84.86424067934536
 21
198.2284949190667
 31
0.0
  0
LINE
  5
382
330
1F
100
AcDbEntity
  8
LAYER-004
  6
Continuous
 62
     4
100
AcDbLine
 10
-83.98024067900001
 20
194.8697949190667
 30
0.0
 11
-88.22224067934513
 21
199.1122949190667
 31
0.0
  0
ARC
  5
383
330
1F
100
AcDbEntity
  8
LAYER-003
  6
Continuous
 62
     4
100
AcDbCircle
 10
-88.10124067934521
 20
201.4910949190669
 30
0.0
 40
2.25002
100
AcDbArc
 50
5.099680000001099
 51
145.3079999982439
  0
LINE
  5
384
330
1F
100
AcDbEntity
  8
LAYER-002
  6
Continuous
 62
     1
100
AcDbLine
 10
-85.05124067934503
 20
206.091094919067
 30
0.0
 11
-88.10124067934521
 21
206.091094919067
 31
0.0
  0
LINE
  5
385
330
1F
100
AcDbEntity
  8
LAYER-004
  6
Continuous
 62
     4
100
AcDbLine
 10
-57.33724067934534
 20
195.7536949190667
 30
0.0
 11
-54.86324067934507
 21
198.2284949190667
 31
0.0
  0
LINE
  5
386
330
1F
100
AcDbEntity
  8
LAYER-004
  6
Continuous
 62
     4
100
AcDbLine
 10
-53.97924067934528
 20
194.8697949190667
 30
0.0
 11
-58.22124067934513
 21
199.1122949190667
 31
0.0
  0
LINE
  5
387
330
1F
100
AcDbEntity
  8
LAYER-003
  6
Continuous
 62
     4
100
AcDbLine
 10
-52.25124067934533
 20
201.6910949190667
 30
0.0
 11
-59.95124067934512
 21
201.6910949190667
 31
0.0
  0
ARC
  5
388
330
1F
100
AcDbEntity
  8
LAYER-002
  6
Continuous
 62
     1
100
AcDbCircle
 10
-53.60124067934524
 20
205.4910949190669
 30
0.0
 40
4.5
100
AcDbArc
 50
48.18960000326332
 51
142.0820000036022
  0
LINE
  5
389
330
1F
100
AcDbEntity
  8
LAYER-003
  6
Continuous
 62
     4
100
AcDbLine
 10
-62.2512406793453
 20
201.6910949190667
 30
0.0
 11
-69.95124067934512
 21
201.6910949190667
 31
0.0
  0
LINE
  5
38A
330
1F
100
AcDbEntity
  8
LAYER-003
  6
Continuous
 62
     4
100
AcDbLine
 10
-62.2512406793453
 20
206.091094919067
 30
0.0
 11
-69.95124067934512
 21
206.091094919067
 31
0.0
  0
LINE
  5
38B
330
1F
100
AcDbEntity
  8
LAYER-002
  6
Continuous
 62
     1
100
AcDbLine
 10
-69.50124067934524
 20
209.5910949190669
 30
0.0
 11
-72.70124067941825
 21
209.5910949190669
 31
0.0
  0
LINE
  5
38C
330
1F
100
AcDbEntity
  8
LAYER-005
  6
CENTER
 62
     4
100
AcDbLine
 10
-78.60124067934521
 20
209.8862949190668
 30
0.0
 11
-78.60124067934521
 21
217.9018949190669
 31
0.0
  0
CIRCLE
  5
38D
330
1F
100
AcDbEntity
  8
LAYER-004
  6
Continuous
 62
     4
100
AcDbCircle
 10
-78.60124067934521
 20
213.9910949190669
 30
0.0
 40
3.0
  0
LINE
  5
38E
330
1F
100
AcDbEntity
  8
LAYER-004
  6
Continuous
 62
     4
100
AcDbLine
 10
-76.47924067934525
 20
211.8698949190669
 30
0.0
 11
-80.7212406793451
 21
216.1124949190669
 31
0.0
  0
LINE
  5
38F
330
1F
100
AcDbEntity
  8
LAYER-004
  6
Continuous
 62
     4
100
AcDbLine
 10
-79.83724067934531
 20
212.7536949190668
 30
0.0
 11
-77.36324067934504
 21
215.2284949190669
 31
0.0
  0
LINE
  5
390
330
1F
100
AcDbEntity
  8
LAYER-003
  6
Continuous
 62
     4
100
AcDbLine
 10
-82.45124067934512
 20
218.0910949190669
 30
0.0
 11
-82.45124067934512
 21
209.5910949190669
 31
0.0
  0
LINE
  5
391
330
1F
100
AcDbEntity
  8
LAYER-003
  6
Continuous
 62
     4
100
AcDbLine
 10
-74.7512406793453
 20
218.0910949190669
 30
0.0
 11
-74.7512406793453
 21
209.5910949190669
 31
0.0
  0
LINE
  5
392
330
1F
100
AcDbEntity
  8
LAYER-002
  6
Continuous
 62
     1
100
AcDbLine
 10
-72.70124067941825
 20
209.5910949190669
 30
0.0
 11
-72.70124067941825
 21
219.9910949190668
 31
0.0
  0
LINE
  5
393
330
1F
100
AcDbEntity
  8
LAYER-005
  6
CENTER
 62
     4
100
AcDbLine
 10
-73.83724067934509
 20
213.9910949190669
 30
0.0
 11
-83.25024067934521
 21
213.9910949190669
 31
0.0
  0
LINE
  5
394
330
1F
100
AcDbEntity
  8
LAYER-004
  6
Continuous
 62
     4
100
AcDbLine
 10
-73.97924067934525
 20
194.8697949190667
 30
0.0
 11
-78.2212406793451
 21
199.1122949190667
 31
0.0
  0
LINE
  5
395
330
1F
100
AcDbEntity
  8
LAYER-004
  6
Continuous
 62
     4
100
AcDbLine
 10
-77.33724067934531
 20
195.7536949190667
 30
0.0
 11
-74.86324067934504
 21
198.2284949190667
 31
0.0
  0
LINE
  5
396
330
1F
100
AcDbEntity
  8
LAYER-003
  6
Continuous
 62
     4
100
AcDbLine
 10
-79.95124067934512
 20
201.6910949190667
 30
0.0
 11
-72.2512406793453
 21
201.6910949190667
 31
0.0
  0
LINE
  5
397
330
1F
100
AcDbEntity
  8
LAYER-003
  6
Continuous
 62
     4
100
AcDbLine
 10
-79.95124067934512
 20
206.091094919067
 30
0.0
 11
-72.2512406793453
 21
206.091094919067
 31
0.0
  0
LINE
  5
398
330
1F
100
AcDbEntity
  8
LAYER-003
  6
Continuous
 62
     4
100
AcDbLine
 10
-79.95124067934512
 20
207.1910949190668
 30
0.0
 11
-82.2512406793453
 21
207.1910949190668
 31
0.0
  0
LINE
  5
399
330
1F
100
AcDbEntity
  8
LAYER-003
  6
Continuous
 62
     4
100
AcDbLine
 10
-69.95124067934512
 20
207.1910949190668
 30
0.0
 11
-72.2512406793453
 21
207.1910949190668
 31
0.0
  0
LINE
  5
39A
330
1F
100
AcDbEntity
  8
LAYER-002
  6
Continuous
 62
     1
100
AcDbLine
 10
-82.45124067934512
 20
218.0910949190669
 30
0.0
 11
-74.7512406793453
 21
218.0910949190669
 31
0.0
  0
LINE
  5
39B
330
1F
100
AcDbEntity
  8
LAYER-002
  6
Continuous
 62
     1
100
AcDbLine
 10
-82.45124067934512
 20
219.0910949190668
 30
0.0
 11
-82.45124067934512
 21
218.0910949190669
 31
0.0
  0
LINE
  5
39C
330
1F
100
AcDbEntity
  8
LAYER-002
  6
Continuous
 62
     1
100
AcDbLine
 10
-74.7512406793453
 20
219.9910949190668
 30
0.0
 11
-72.70124067941825
 21
219.9910949190668
 31
0.0
  0
LINE
  5
39D
330
1F
100
AcDbEntity
  8
LAYER-002
  6
Continuous
 62
     1
100
AcDbLine
 10
-74.7512406793453
 20
219.9910949190668
 30
0.0
 11
-74.7512406793453
 21
218.0910949190669
 31
0.0
  0
LINE
  5
39E
330
1F
100
AcDbEntity
  8
LAYER-005
  6
CENTER
 62
     4
100
AcDbLine
 10
-63.60124067934521
 20
209.8862949190668
 30
0.0
 11
-63.60124067934521
 21
217.9018949190669
 31
0.0
  0
CIRCLE
  5
39F
330
1F
100
AcDbEntity
  8
LAYER-004
  6
Continuous
 62
     4
100
AcDbCircle
 10
-63.60124067934521
 20
213.9910949190669
 30
0.0
 40
3.0
  0
LINE
  5
3A0
330
1F
100
AcDbEntity
  8
LAYER-004
  6
Continuous
 62
     4
100
AcDbLine
 10
-61.47924067934525
 20
211.8698949190669
 30
0.0
 11
-65.7212406793451
 21
216.1124949190669
 31
0.0
  0
LINE
  5
3A1
330
1F
100
AcDbEntity
  8
LAYER-004
  6
Continuous
 62
     4
100
AcDbLine
 10
-64.83724067934531
 20
212.7536949190668
 30
0.0
 11
-62.36324067934504
 21
215.2284949190669
 31
0.0
  0
LINE
  5
3A2
330
1F
100
AcDbEntity
  8
LAYER-003
  6
Continuous
 62
     4
100
AcDbLine
 10
-59.7512406793453
 20
218.0910949190669
 30
0.0
 11
-59.7512406793453
 21
209.5910949190669
 31
0.0
  0
LINE
  5
3A3
330
1F
100
AcDbEntity
  8
LAYER-003
  6
Continuous
 62
     4
100
AcDbLine
 10
-67.45124067934512
 20
218.0910949190669
 30
0.0
 11
-67.45124067934512
 21
209.5910949190669
 31
0.0
  0
LINE
  5
3A4
330
1F
100
AcDbEntity
  8
LAYER-002
  6
Continuous
 62
     1
100
AcDbLine
 10
-57.15124067934542
 20
208.2564949190668
 30
0.0
 11
-57.15124067934542
 21
219.0910949190668
 31
0.0
  0
LINE
  5
3A5
330
1F
100
AcDbEntity
  8
LAYER-002
  6
Continuous
 62
     1
100
AcDbLine
 10
-69.50124067934524
 20
209.5910949190669
 30
0.0
 11
-69.50124067934524
 21
219.9910949190668
 31
0.0
  0
LINE
  5
3A6
330
1F
100
AcDbEntity
  8
LAYER-005
  6
CENTER
 62
     4
100
AcDbLine
 10
-68.32124067934501
 20
213.9910949190669
 30
0.0
 11
-58.83524067934502
 21
213.9910949190669
 31
0.0
  0
LINE
  5
3A7
330
1F
100
AcDbEntity
  8
LAYER-003
  6
Continuous
 62
     4
100
AcDbLine
 10
-57.15124067934542
 20
209.5910949190669
 30
0.0
 11
-69.50124067934524
 21
209.5910949190669
 31
0.0
  0
LINE
  5
3A8
330
1F
100
AcDbEntity
  8
LAYER-004
  6
Continuous
 62
     4
100
AcDbLine
 10
-63.97924067934525
 20
194.8697949190667
 30
0.0
 11
-68.2212406793451
 21
199.1122949190667
 31
0.0
  0
LINE
  5
3A9
330
1F
100
AcDbEntity
  8
LAYER-004
  6
Continuous
 62
     4
100
AcDbLine
 10
-67.33724067934531
 20
195.7536949190667
 30
0.0
 11
-64.86324067934504
 21
198.2284949190667
 31
0.0
  0
LINE
  5
3AA
330
1F
100
AcDbEntity
  8
LAYER-003
  6
Continuous
 62
     4
100
AcDbLine
 10
-57.15124067934542
 20
201.6910949190667
 30
0.0
 11
-57.15124067934542
 21
208.2564949190668
 31
0.0
  0
LINE
  5
3AB
330
1F
100
AcDbEntity
  8
LAYER-003
  6
Continuous
 62
     4
100
AcDbLine
 10
-59.95124067934512
 20
206.091094919067
 30
0.0
 11
-57.15124067934542
 21
206.091094919067
 31
0.0
  0
LINE
  5
3AC
330
1F
100
AcDbEntity
  8
LAYER-003
  6
Continuous
 62
     4
100
AcDbLine
 10
-62.2512406793453
 20
207.1910949190668
 30
0.0
 11
-59.95124067934512
 21
207.1910949190668
 31
0.0
  0
LINE
  5
3AD
330
1F
100
AcDbEntity
  8
LAYER-002
  6
Continuous
 62
     1
100
AcDbLine
 10
-59.7512406793453
 20
218.0910949190669
 30
0.0
 11
-67.45124067934512
 21
218.0910949190669
 31
0.0
  0
LINE
  5
3AE
330
1F
100
AcDbEntity
  8
LAYER-002
  6
Continuous
 62
     1
100
AcDbLine
 10
-67.45124067934512
 20
219.9910949190668
 30
0.0
 11
-69.50124067934524
 21
219.9910949190668
 31
0.0
  0
LINE
  5
3AF
330
1F
100
AcDbEntity
  8
LAYER-002
  6
Continuous
 62
     1
100
AcDbLine
 10
-67.45124067934512
 20
219.9910949190668
 30
0.0
 11
-67.45124067934512
 21
218.0910949190669
 31
0.0
  0
LINE
  5
3B0
330
1F
100
AcDbEntity
  8
LAYER-002
  6
Continuous
 62
     1
100
AcDbLine
 10
-57.15124067934542
 20
219.0910949190668
 30
0.0
 11
-59.7512406793453
 21
219.0910949190668
 31
0.0
  0
LINE
  5
3B1
330
1F
100
AcDbEntity
  8
LAYER-002
  6
Continuous
 62
     1
100
AcDbLine
 10
-59.7512406793453
 20
219.0910949190668
 30
0.0
 11
-59.7512406793453
 21
218.0910949190669
 31
0.0
  0
ARC
  5
3B2
330
1F
100
AcDbEntity
  8
LAYER-003
  6
Continuous
 62
     4
100
AcDbCircle
 10
-53.60124067934524
 20
205.4910949190669
 30
0.0
 40
2.25
100
AcDbArc
 50
352.3379999999943
 51
306.8700000000007
  0
LINE
  5
3B3
330
1F
100
AcDbEntity
  8
LAYER-003
  6
Continuous
 62
     4
100
AcDbLine
 10
-52.25124067934533
 20
205.1910949190669
 30
0.0
 11
-49.60124067934513
 21
205.1910949190669
 31
0.0
  0
ARC
  5
3B4
330
1F
100
AcDbEntity
  8
LAYER-002
  6
Continuous
 62
     1
100
AcDbCircle
 10
-52.60124067934513
 20
206.6090949190668
 30
0.0
 40
3.0
100
AcDbArc
 50
0.0
 51
48.18969999999852
  0
LINE
  5
3B5
330
1F
100
AcDbEntity
  8
LAYER-033
  6
Continuous
 62
     1
100
AcDbLine
 10
188.8301836275613
 20
245.2426573426573
 30
0.0
 11
198.8301836275613
 21
245.2426573426573
 31
0.0
  0
LINE
  5
3B6
330
1F
100
AcDbEntity
  8
LAYER-033
  6
Continuous
 62
     1
100
AcDbLine
 10
188.8301836275613
 20
-134.7573426573427
 30
0.0
 11
198.8301836275613
 21
-134.7573426573427
 31
0.0
  0
LINE
  5
3B7
330
1F
100
AcDbEntity
  8
LAYER-033
  6
Continuous
 62
     1
100
AcDbLine
 10
198.8301836275613
 20
245.2426573426573
 30
0.0
 11
198.8301836275613
 21
-134.7573426573427
 31
0.0
  0
LINE
  5
3B8
330
1F
100
AcDbEntity
  8
LAYER-033
  6
Continuous
 62
     1
100
AcDbLine
 10
188.8301836275613
 20
245.2426573426573
 30
0.0
 11
188.8301836275613
 21
-134.7573426573427
 31
0.0
  0
LINE
  5
3B9
330
1F
100
AcDbEntity
  8
LAYER-033
  6
HIDDEN
 62
     4
100
AcDbLine
 10
-25.20777177368083
 20
242.9426573426573
 30
0.0
 11
-25.20777177368083
 21
-132.4573426573427
 31
0.0
  0
LINE
  5
3BA
330
1F
100
AcDbEntity
  8
LAYER-033
  6
HIDDEN
 62
     4
100
AcDbLine
 10
-220.6077717736808
 20
242.9426573426573
 30
0.0
 11
-25.20777177368083
 21
242.9426573426573
 31
0.0
  0
LINE
  5
3BB
330
1F
100
AcDbEntity
  8
LAYER-033
  6
HIDDEN
 62
     4
100
AcDbLine
 10
-220.6077717736808
 20
242.9426573426573
 30
0.0
 11
-220.6077717736808
 21
-132.4573426573427
 31
0.0
  0
LINE
  5
3BC
330
1F
100
AcDbEntity
  8
LAYER-033
  6
HIDDEN
 62
     4
100
AcDbLine
 10
-220.6077717736808
 20
-132.4573426573427
 30
0.0
 11
-25.20777177368083
 21
-132.4573426573427
 31
0.0
  0
LINE
  5
3BD
330
1F
100
AcDbEntity
  8
LAYER-033
  6
HIDDEN
 62
     4
100
AcDbLine
 10
191.1301836275613
 20
242.9426573426573
 30
0.0
 11
198.8301836275613
 21
242.9426573426573
 31
0.0
  0
LINE
  5
3BE
330
1F
100
AcDbEntity
  8
LAYER-033
  6
HIDDEN
 62
     4
100
AcDbLine
 10
191.1301836275613
 20
242.9426573426573
 30
0.0
 11
191.1301836275613
 21
-132.4573426573427
 31
0.0
  0
LINE
  5
3BF
330
1F
100
AcDbEntity
  8
LAYER-033
  6
HIDDEN
 62
     4
100
AcDbLine
 10
191.1301836275613
 20
-132.4573426573427
 30
0.0
 11
198.8301836275613
 21
-132.4573426573427
 31
0.0
  0
ARC
  5
3C0
330
1F
100
AcDbEntity
  8
LAYER-008
  6
Continuous
 62
     4
100
AcDbCircle
 10
153.3801836275614
 20
160.5660949190672
 30
0.0
 40
2.0
100
AcDbArc
 50
270.0
 51
89.9998000000043
  0
ARC
  5
3C1
330
1F
100
AcDbEntity
  8
LAYER-008
  6
Continuous
 62
     4
100
AcDbCircle
 10
153.3801836275614
 20
190.416094919067
 30
0.0
 40
2.0
100
AcDbArc
 50
270.0
 51
89.9998000000043
  0
LINE
  5
3C2
330
1F
100
AcDbEntity
  8
LAYER-008
  6
Continuous
 62
     4
100
AcDbLine
 10
180.3301836275613
 20
156.4910949190672
 30
0.0
 11
154.8301836275613
 21
156.4910949190672
 31
0.0
  0
LINE
  5
3C3
330
1F
100
AcDbEntity
  8
LAYER-008
  6
Continuous
 62
     4
100
AcDbLine
 10
180.3301836275612
 20
194.4910949190669
 30
0.0
 11
154.8301836275613
 21
194.4910949190669
 31
0.0
  0
LINE
  5
3C4
330
1F
100
AcDbEntity
  8
LAYER-007
  6
Continuous
 62
     1
100
AcDbLine
 10
158.8801836275613
 20
140.791094919067
 30
0.0
 11
141.3801836275612
 21
140.791094919067
 31
0.0
  0
LINE
  5
3C5
330
1F
100
AcDbEntity
  8
LAYER-007
  6
Continuous
 62
     1
100
AcDbLine
 10
160.3301836275613
 20
217.891094919067
 30
0.0
 11
155.1301836275612
 21
217.891094919067
 31
0.0
  0
LINE
  5
3C6
330
1F
100
AcDbEntity
  8
LAYER-007
  6
Continuous
 62
     1
100
AcDbLine
 10
188.8301836275613
 20
209.9910949190671
 30
0.0
 11
188.8301836275613
 21
190.691094919067
 31
0.0
  0
LINE
  5
3C7
330
1F
100
AcDbEntity
  8
LAYER-008
  6
Continuous
 62
     4
100
AcDbLine
 10
157.3801836275612
 20
162.1410949190671
 30
0.0
 11
183.8301836275613
 21
162.1410949190671
 31
0.0
  0
LINE
  5
3C8
330
1F
100
AcDbEntity
  8
LAYER-008
  6
Continuous
 62
     4
100
AcDbLine
 10
157.3801836275612
 20
159.6410949190671
 30
0.0
 11
183.8301836275613
 21
159.6410949190671
 31
0.0
  0
LINE
  5
3C9
330
1F
100
AcDbEntity
  8
LAYER-008
  6
Continuous
 62
     4
100
AcDbLine
 10
157.3801836275612
 20
191.341094919067
 30
0.0
 11
183.8301836275613
 21
191.341094919067
 31
0.0
  0
LINE
  5
3CA
330
1F
100
AcDbEntity
  8
LAYER-008
  6
Continuous
 62
     4
100
AcDbLine
 10
157.3801836275612
 20
188.841094919067
 30
0.0
 11
183.8301836275613
 21
188.841094919067
 31
0.0
  0
LINE
  5
3CB
330
1F
100
AcDbEntity
  8
LAYER-007
  6
Continuous
 62
     1
100
AcDbLine
 10
180.3301836275613
 20
139.9910949190671
 30
0.0
 11
188.8301836275613
 21
139.9910949190671
 31
0.0
  0
LINE
  5
3CC
330
1F
100
AcDbEntity
  8
LAYER-007
  6
Continuous
 62
     1
100
AcDbLine
 10
188.8301836275613
 20
139.9910949190671
 30
0.0
 11
188.8301836275613
 21
157.791094919067
 31
0.0
  0
LINE
  5
3CD
330
1F
100
AcDbEntity
  8
LAYER-007
  6
Continuous
 62
     1
100
AcDbLine
 10
183.8301836275613
 20
157.7910949190671
 30
0.0
 11
183.8301836275613
 21
193.191094919067
 31
0.0
  0
LINE
  5
3CE
330
1F
100
AcDbEntity
  8
LAYER-006
  6
Continuous
 62
     4
100
AcDbLine
 10
188.8301836275613
 20
177.9910949190671
 30
0.0
 11
188.8301836275613
 21
172.9910949190671
 31
0.0
  0
LINE
  5
3CF
330
1F
100
AcDbEntity
  8
LAYER-009
  6
Continuous
 62
     2
100
AcDbLine
 10
183.8301836275613
 20
157.9910949190671
 30
0.0
 11
183.8301836275613
 21
163.9910949190671
 31
0.0
  0
LINE
  5
3D0
330
1F
100
AcDbEntity
  8
LAYER-007
  6
Continuous
 62
     1
100
AcDbLine
 10
185.8301836275613
 20
159.491094919067
 30
0.0
 11
188.8301826275613
 21
157.791094919067
 31
0.0
  0
LINE
  5
3D1
330
1F
100
AcDbEntity
  8
LAYER-007
  6
Continuous
 62
     1
100
AcDbLine
 10
184.8301836275613
 20
157.7910949190671
 30
0.0
 11
183.8301836275613
 21
157.7910949190671
 31
0.0
  0
LINE
  5
3D2
330
1F
100
AcDbEntity
  8
LAYER-007
  6
Continuous
 62
     1
100
AcDbLine
 10
184.8301836275613
 20
157.7910949190671
 30
0.0
 11
184.8301836275613
 21
159.491094919067
 31
0.0
  0
LINE
  5
3D3
330
1F
100
AcDbEntity
  8
LAYER-007
  6
Continuous
 62
     1
100
AcDbLine
 10
185.8301836275613
 20
159.491094919067
 30
0.0
 11
184.8301836275613
 21
159.491094919067
 31
0.0
  0
LINE
  5
3D4
330
1F
100
AcDbEntity
  8
LAYER-006
  6
Continuous
 62
     4
100
AcDbLine
 10
191.3301836275613
 20
175.4910949190669
 30
0.0
 11
186.3301836275613
 21
175.4910949190669
 31
0.0
  0
LINE
  5
3D5
330
1F
100
AcDbEntity
  8
LAYER-007
  6
Continuous
 62
     1
100
AcDbLine
 10
188.8301836275613
 20
190.691094919067
 30
0.0
 11
185.5807436275614
 21
190.691094919067
 31
0.0
  0
LINE
  5
3D6
330
1F
100
AcDbEntity
  8
LAYER-009
  6
Continuous
 62
     2
100
AcDbLine
 10
183.8301836275613
 20
192.9910949190671
 30
0.0
 11
183.8301836275613
 21
186.9910949190671
 31
0.0
  0
LINE
  5
3D7
330
1F
100
AcDbEntity
  8
LAYER-007
  6
Continuous
 62
     1
100
AcDbLine
 10
184.8301836275613
 20
191.9910949190671
 30
0.0
 11
184.8301836275613
 21
193.191094919067
 31
0.0
  0
LINE
  5
3D8
330
1F
100
AcDbEntity
  8
LAYER-007
  6
Continuous
 62
     1
100
AcDbLine
 10
184.8301836275613
 20
191.9910949190671
 30
0.0
 11
185.5807436275614
 21
190.691094919067
 31
0.0
  0
LINE
  5
3D9
330
1F
100
AcDbEntity
  8
LAYER-007
  6
Continuous
 62
     1
100
AcDbLine
 10
183.8301836275613
 20
193.191094919067
 30
0.0
 11
184.8301836275613
 21
193.191094919067
 31
0.0
  0
LINE
  5
3DA
330
1F
100
AcDbEntity
  8
LAYER-008
  6
Continuous
 62
     4
100
AcDbLine
 10
180.3301836275613
 20
145.441094919067
 30
0.0
 11
180.3301836275613
 21
156.4910949190672
 31
0.0
  0
LINE
  5
3DB
330
1F
100
AcDbEntity
  8
LAYER-007
  6
Continuous
 62
     1
100
AcDbLine
 10
180.3301836275613
 20
145.441094919067
 30
0.0
 11
158.8801836275613
 21
145.441094919067
 31
0.0
  0
LINE
  5
3DC
330
1F
100
AcDbEntity
  8
LAYER-007
  6
Continuous
 62
     1
100
AcDbLine
 10
180.3301836275613
 20
139.9910949190671
 30
0.0
 11
180.3301836275613
 21
145.441094919067
 31
0.0
  0
LINE
  5
3DD
330
1F
100
AcDbEntity
  8
LAYER-007
  6
Continuous
 62
     1
100
AcDbLine
 10
158.8801836275613
 20
145.441094919067
 30
0.0
 11
158.8801836275613
 21
140.791094919067
 31
0.0
  0
LINE
  5
3DE
330
1F
100
AcDbEntity
  8
LAYER-008
  6
Continuous
 62
     4
100
AcDbLine
 10
157.3801836275612
 20
162.1410949190671
 30
0.0
 11
157.3801836275612
 21
159.6410949190671
 31
0.0
  0
LINE
  5
3DF
330
1F
100
AcDbEntity
  8
LAYER-008
  6
Continuous
 62
     4
100
AcDbLine
 10
157.3801836275612
 20
188.841094919067
 30
0.0
 11
157.3801836275612
 21
191.341094919067
 31
0.0
  0
LINE
  5
3E0
330
1F
100
AcDbEntity
  8
LAYER-007
  6
Continuous
 62
     1
100
AcDbLine
 10
188.8301836275613
 20
209.9910949190671
 30
0.0
 11
180.3301836275613
 21
209.9910949190671
 31
0.0
  0
LINE
  5
3E1
330
1F
100
AcDbEntity
  8
LAYER-007
  6
Continuous
 62
     1
100
AcDbLine
 10
160.3301836275613
 20
206.091094919067
 30
0.0
 11
180.3301836275613
 21
206.091094919067
 31
0.0
  0
LINE
  5
3E2
330
1F
100
AcDbEntity
  8
LAYER-008
  6
Continuous
 62
     4
100
AcDbLine
 10
180.3301836275613
 20
206.091094919067
 30
0.0
 11
180.3301836275613
 21
194.4910949190669
 31
0.0
  0
LINE
  5
3E3
330
1F
100
AcDbEntity
  8
LAYER-007
  6
Continuous
 62
     1
100
AcDbLine
 10
180.3301836275613
 20
209.9910949190671
 30
0.0
 11
180.3301836275613
 21
206.091094919067
 31
0.0
  0
LINE
  5
3E4
330
1F
100
AcDbEntity
  8
LAYER-007
  6
Continuous
 62
     1
100
AcDbLine
 10
160.3301836275613
 20
217.891094919067
 30
0.0
 11
160.3301836275613
 21
206.091094919067
 31
0.0
  0
LINE
  5
3E5
330
1F
100
AcDbEntity
  8
LAYER-009
  6
HIDDEN
 62
     4
100
AcDbLine
 10
128.8301836275613
 20
200.1910949190669
 30
0.0
 11
128.8301836275613
 21
192.0655949190671
 31
0.0
  0
LINE
  5
3E6
330
1F
100
AcDbEntity
  8
LAYER-009
  6
HIDDEN
 62
     4
100
AcDbLine
 10
127.8301836275613
 20
200.1910949190669
 30
0.0
 11
127.8301836275613
 21
192.1372949190671
 31
0.0
  0
LINE
  5
3E7
330
1F
100
AcDbEntity
  8
LAYER-007
  6
Continuous
 62
     1
100
AcDbLine
 10
116.3801836275612
 20
203.191094919067
 30
0.0
 11
116.3801836275612
 21
193.4910949190669
 31
0.0
  0
LINE
  5
3E8
330
1F
100
AcDbEntity
  8
LAYER-008
  6
Continuous
 62
     4
100
AcDbLine
 10
117.5347836275614
 20
145.791094919067
 30
0.0
 11
136.0801836275612
 21
145.791094919067
 31
0.0
  0
LINE
  5
3E9
330
1F
100
AcDbEntity
  8
LAYER-007
  6
Continuous
 62
     1
100
AcDbLine
 10
139.7801836275613
 20
143.7910949190671
 30
0.0
 11
119.8441836275613
 21
143.7910949190671
 31
0.0
  0
LINE
  5
3EA
330
1F
100
AcDbEntity
  8
LAYER-008
  6
Continuous
 62
     4
100
AcDbLine
 10
154.8301836275613
 20
156.4910949190672
 30
0.0
 11
154.8301836275613
 21
151.4910949190672
 31
0.0
  0
LINE
  5
3EB
330
1F
100
AcDbEntity
  8
LAYER-008
  6
Continuous
 62
     4
100
AcDbLine
 10
154.8301836275613
 20
151.4910949190672
 30
0.0
 11
138.5801836275612
 21
151.4910949190672
 31
0.0
  0
ARC
  5
3EC
330
1F
100
AcDbEntity
  8
LAYER-007
  6
Continuous
 62
     1
100
AcDbCircle
 10
140.5801836275614
 20
142.9910949190671
 30
0.0
 40
0.8000000000000002
100
AcDbArc
 50
179.9204959927482
 51
270.0
  0
LINE
  5
3ED
330
1F
100
AcDbEntity
  8
LAYER-007
  6
Continuous
 62
     1
100
AcDbLine
 10
141.3801836275612
 20
142.1910949190671
 30
0.0
 11
140.5801836275614
 21
142.1910949190671
 31
0.0
  0
LINE
  5
3EE
330
1F
100
AcDbEntity
  8
LAYER-007
  6
Continuous
 62
     1
100
AcDbLine
 10
141.3801836275612
 20
142.1910949190671
 30
0.0
 11
141.3801836275612
 21
140.791094919067
 31
0.0
  0
ARC
  5
3EF
330
1F
100
AcDbEntity
  8
LAYER-008
  6
Continuous
 62
     4
100
AcDbCircle
 10
136.0801836275612
 20
148.291094919067
 30
0.0
 40
2.5
100
AcDbArc
 50
270.0
 51
0.0
  0
LINE
  5
3F0
330
1F
100
AcDbEntity
  8
LAYER-008
  6
Continuous
 62
     4
100
AcDbLine
 10
138.5801836275612
 20
151.4910949190672
 30
0.0
 11
138.5801836275612
 21
148.291094919067
 31
0.0
  0
LINE
  5
3F1
330
1F
100
AcDbEntity
  8
LAYER-007
  6
Continuous
 62
     1
100
AcDbLine
 10
139.7801836275613
 20
142.9910949190671
 30
0.0
 11
139.7801836275613
 21
143.791094919067
 31
0.0
  0
LINE
  5
3F2
330
1F
100
AcDbEntity
  8
LAYER-008
  6
Continuous
 62
     4
100
AcDbLine
 10
148.8801836275613
 20
177.9910949190671
 30
0.0
 11
134.0801836275613
 21
177.9910949190671
 31
0.0
  0
LINE
  5
3F3
330
1F
100
AcDbEntity
  8
LAYER-008
  6
Continuous
 62
     4
100
AcDbLine
 10
148.8801836275613
 20
172.9910949190671
 30
0.0
 11
134.0801836275613
 21
172.9910949190671
 31
0.0
  0
LINE
  5
3F4
330
1F
100
AcDbEntity
  8
LAYER-008
  6
Continuous
 62
     4
100
AcDbLine
 10
148.8801836275613
 20
172.9910949190671
 30
0.0
 11
148.8801836275613
 21
177.9910949190671
 31
0.0
  0
LINE
  5
3F5
330
1F
100
AcDbEntity
  8
LAYER-008
  6
Continuous
 62
     4
100
AcDbLine
 10
153.3801836275614
 20
158.566094919067
 30
0.0
 11
151.3801836275612
 21
158.566094919067
 31
0.0
  0
LINE
  5
3F6
330
1F
100
AcDbEntity
  8
LAYER-008
  6
Continuous
 62
     4
100
AcDbLine
 10
153.3801836275614
 20
162.566094919067
 30
0.0
 11
151.3801836275612
 21
162.566094919067
 31
0.0
  0
LINE
  5
3F7
330
1F
100
AcDbEntity
  8
LAYER-008
  6
Continuous
 62
     4
100
AcDbLine
 10
151.3801836275612
 20
158.566094919067
 30
0.0
 11
151.3801836275612
 21
162.566094919067
 31
0.0
  0
LINE
  5
3F8
330
1F
100
AcDbEntity
  8
LAYER-008
  6
Continuous
 62
     4
100
AcDbLine
 10
153.3801836275614
 20
192.4160949190672
 30
0.0
 11
151.3801836275612
 21
192.4160949190672
 31
0.0
  0
LINE
  5
3F9
330
1F
100
AcDbEntity
  8
LAYER-008
  6
Continuous
 62
     4
100
AcDbLine
 10
153.3801836275614
 20
188.4160949190671
 30
0.0
 11
151.3801836275612
 21
188.4160949190671
 31
0.0
  0
LINE
  5
3FA
330
1F
100
AcDbEntity
  8
LAYER-008
  6
Continuous
 62
     4
100
AcDbLine
 10
151.3801836275612
 20
192.4160949190672
 30
0.0
 11
151.3801836275612
 21
188.4160949190671
 31
0.0
  0
LINE
  5
3FB
330
1F
100
AcDbEntity
  8
LAYER-008
  6
Continuous
 62
     4
100
AcDbLine
 10
134.0801836275613
 20
172.9910949190671
 30
0.0
 11
134.0801836275613
 21
177.9910949190671
 31
0.0
  0
LINE
  5
3FC
330
1F
100
AcDbEntity
  8
LAYER-007
  6
Continuous
 62
     1
100
AcDbLine
 10
116.3801836275612
 20
157.4910949190671
 30
0.0
 11
116.3801836275612
 21
147.7910949190671
 31
0.0
  0
LINE
  5
3FD
330
1F
100
AcDbEntity
  8
LAYER-007
  6
Continuous
 62
     1
100
AcDbLine
 10
118.1121836275614
 20
144.791094919067
 30
0.0
 11
116.3801836275612
 21
147.7910949190671
 31
0.0
  0
ARC
  5
3FE
330
1F
100
AcDbEntity
  8
LAYER-007
  6
Continuous
 62
     1
100
AcDbCircle
 10
119.8441836275613
 20
145.791094919067
 30
0.0
 40
2.0
100
AcDbArc
 50
209.9999999999975
 51
270.0
  0
LINE
  5
3FF
330
1F
100
AcDbEntity
  8
LAYER-008
  6
Continuous
 62
     4
100
AcDbLine
 10
114.4801836275613
 20
180.1910949190669
 30
0.0
 11
108.8301836275613
 21
180.1910949190669
 31
0.0
  0
LINE
  5
400
330
1F
100
AcDbEntity
  8
LAYER-008
  6
Continuous
 62
     4
100
AcDbLine
 10
114.4801836275613
 20
170.791094919067
 30
0.0
 11
108.8301836275613
 21
170.791094919067
 31
0.0
  0
LINE
  5
401
330
1F
100
AcDbEntity
  8
LAYER-007
  6
Continuous
 62
     1
100
AcDbLine
 10
108.8301836275613
 20
187.9910949190671
 30
0.0
 11
114.4801836275613
 21
187.9910949190671
 31
0.0
  0
LINE
  5
402
330
1F
100
AcDbEntity
  8
LAYER-007
  6
Continuous
 62
     1
100
AcDbLine
 10
114.4801836275613
 20
162.9910949190671
 30
0.0
 11
108.8301836275613
 21
162.9910949190671
 31
0.0
  0
LINE
  5
403
330
1F
100
AcDbEntity
  8
LAYER-008
  6
Continuous
 62
     4
100
AcDbLine
 10
114.4801836275613
 20
162.9910949190671
 30
0.0
 11
114.4801836275613
 21
187.9910949190671
 31
0.0
  0
LINE
  5
404
330
1F
100
AcDbEntity
  8
LAYER-007
  6
Continuous
 62
     1
100
AcDbLine
 10
114.4801836275613
 20
159.9910949190671
 30
0.0
 11
115.9235836275612
 21
157.4910949190671
 31
0.0
  0
LINE
  5
405
330
1F
100
AcDbEntity
  8
LAYER-007
  6
Continuous
 62
     1
100
AcDbLine
 10
114.4801836275613
 20
159.9910949190671
 30
0.0
 11
114.4801836275613
 21
162.9910949190671
 31
0.0
  0
LINE
  5
406
330
1F
100
AcDbEntity
  8
LAYER-007
  6
Continuous
 62
     1
100
AcDbLine
 10
115.9235836275612
 20
157.4910949190671
 30
0.0
 11
116.3801836275612
 21
157.4910949190671
 31
0.0
  0
LINE
  5
407
330
1F
100
AcDbEntity
  8
LAYER-007
  6
Continuous
 62
     1
100
AcDbLine
 10
114.4801836275613
 20
187.9910949190671
 30
0.0
 11
114.4801836275613
 21
190.9910949190671
 31
0.0
  0
LINE
  5
408
330
1F
100
AcDbEntity
  8
LAYER-007
  6
Continuous
 62
     1
100
AcDbLine
 10
114.4801836275613
 20
190.9910949190671
 30
0.0
 11
115.9235836275612
 21
193.4910949190669
 31
0.0
  0
LINE
  5
409
330
1F
100
AcDbEntity
  8
LAYER-007
  6
Continuous
 62
     1
100
AcDbLine
 10
116.3801836275612
 20
193.4910949190669
 30
0.0
 11
115.9235836275612
 21
193.4910949190669
 31
0.0
  0
LINE
  5
40A
330
1F
100
AcDbEntity
  8
LAYER-007
  6
Continuous
 62
     1
100
AcDbLine
 10
108.8301836275613
 20
162.9910949190671
 30
0.0
 11
108.8301836275613
 21
187.9910949190671
 31
0.0
  0
LINE
  5
40B
330
1F
100
AcDbEntity
  8
LAYER-010
  6
CENTER
 62
     4
100
AcDbLine
 10
132.2999836275613
 20
196.9910949190671
 30
0.0
 11
124.6211836275614
 21
196.9910949190671
 31
0.0
  0
ARC
  5
40C
330
1F
100
AcDbEntity
  8
LAYER-009
  6
HIDDEN
 62
     4
100
AcDbCircle
 10
129.3301836275614
 20
200.1910949190669
 30
0.0
 40
1.5
100
AcDbArc
 50
89.99980000000159
 51
180.0
  0
LINE
  5
40D
330
1F
100
AcDbEntity
  8
LAYER-008
  6
Continuous
 62
     4
100
AcDbLine
 10
117.5347836275614
 20
205.1910949190669
 30
0.0
 11
136.0801836275612
 21
205.1910949190669
 31
0.0
  0
LINE
  5
40E
330
1F
100
AcDbEntity
  8
LAYER-007
  6
Continuous
 62
     1
100
AcDbLine
 10
135.6801836275613
 20
207.1910949190671
 30
0.0
 11
119.8441836275613
 21
207.1910949190671
 31
0.0
  0
LINE
  5
40F
330
1F
100
AcDbEntity
  8
LAYER-008
  6
Continuous
 62
     4
100
AcDbLine
 10
154.8301836275613
 20
199.4910949190669
 30
0.0
 11
138.5801836275612
 21
199.4910949190669
 31
0.0
  0
LINE
  5
410
330
1F
100
AcDbEntity
  8
LAYER-007
  6
Continuous
 62
     1
100
AcDbLine
 10
155.1301836275612
 20
219.9910949190671
 30
0.0
 11
138.0801836275614
 21
219.9910949190671
 31
0.0
  0
LINE
  5
411
330
1F
100
AcDbEntity
  8
LAYER-009
  6
HIDDEN
 62
     4
100
AcDbLine
 10
151.2905836275612
 20
217.8468949190669
 30
0.0
 11
150.2975836273567
 21
209.405094919067
 31
0.0
  0
LINE
  5
412
330
1F
100
AcDbEntity
  8
LAYER-009
  6
HIDDEN
 62
     4
100
AcDbLine
 10
149.3245836275613
 20
209.6940949190671
 30
0.0
 11
150.2975836273567
 21
217.9636949190671
 31
0.0
  0
LINE
  5
413
330
1F
100
AcDbEntity
  8
LAYER-010
  6
CENTER
 62
     4
100
AcDbLine
 10
153.2953836275612
 20
213.5834949190671
 30
0.0
 11
146.8019836275612
 21
214.3474949190671
 31
0.0
  0
LINE
  5
414
330
1F
100
AcDbEntity
  8
LAYER-008
  6
Continuous
 62
     4
100
AcDbLine
 10
154.8301836275613
 20
194.4910949190669
 30
0.0
 11
154.8301836275613
 21
199.4910949190669
 31
0.0
  0
LINE
  5
415
330
1F
100
AcDbEntity
  8
LAYER-007
  6
Continuous
 62
     1
100
AcDbLine
 10
155.1301836275612
 20
219.9910949190671
 30
0.0
 11
155.1301836275612
 21
217.891094919067
 31
0.0
  0
LINE
  5
416
330
1F
100
AcDbEntity
  8
LAYER-009
  6
HIDDEN
 62
     4
100
AcDbLine
 10
151.2905836275612
 20
217.8468949190669
 30
0.0
 11
150.2975836273567
 21
217.9636949190671
 31
0.0
  0
LINE
  5
417
330
1F
100
AcDbEntity
  8
LAYER-007
  6
Continuous
 62
     1
100
AcDbLine
 10
138.0801836275614
 20
219.9910949190671
 30
0.0
 11
138.0801836275614
 21
209.5910949190672
 31
0.0
  0
ARC
  5
418
330
1F
100
AcDbEntity
  8
LAYER-008
  6
Continuous
 62
     4
100
AcDbCircle
 10
136.0801836275612
 20
202.6910949190669
 30
0.0
 40
2.5
100
AcDbArc
 50
0.0
 51
89.99979999999941
  0
LINE
  5
419
330
1F
100
AcDbEntity
  8
LAYER-008
  6
Continuous
 62
     4
100
AcDbLine
 10
138.5801836275612
 20
202.6910949190669
 30
0.0
 11
138.5801836275612
 21
199.4910949190669
 31
0.0
  0
LINE
  5
41A
330
1F
100
AcDbEntity
  8
LAYER-007
  6
Continuous
 62
     1
100
AcDbLine
 10
138.0801836275614
 20
209.5910949190672
 30
0.0
 11
135.6801836275613
 21
207.1910949190671
 31
0.0
  0
LINE
  5
41B
330
1F
100
AcDbEntity
  8
LAYER-009
  6
HIDDEN
 62
     4
100
AcDbLine
 10
131.8301836275614
 20
201.691094919067
 30
0.0
 11
129.3301836275614
 21
201.691094919067
 31
0.0
  0
LINE
  5
41C
330
1F
100
AcDbEntity
  8
LAYER-009
  6
HIDDEN
 62
     4
100
AcDbLine
 10
131.8301836275614
 20
200.691094919067
 30
0.0
 11
129.3301836275614
 21
200.691094919067
 31
0.0
  0
LINE
  5
41D
330
1F
100
AcDbEntity
  8
LAYER-009
  6
HIDDEN
 62
     4
100
AcDbLine
 10
131.8301836275614
 20
201.691094919067
 30
0.0
 11
131.8301836275614
 21
200.691094919067
 31
0.0
  0
ARC
  5
41E
330
1F
100
AcDbEntity
  8
LAYER-009
  6
HIDDEN
 62
     4
100
AcDbCircle
 10
129.3301836275614
 20
200.1910949190669
 30
0.0
 40
0.5
100
AcDbArc
 50
89.99980000001244
 51
180.0
  0
LINE
  5
41F
330
1F
100
AcDbEntity
  8
LAYER-007
  6
Continuous
 62
     1
100
AcDbLine
 10
118.1121836275614
 20
206.1910949190672
 30
0.0
 11
116.3801836275612
 21
203.191094919067
 31
0.0
  0
ARC
  5
420
330
1F
100
AcDbEntity
  8
LAYER-007
  6
Continuous
 62
     1
100
AcDbCircle
 10
119.8441836275613
 20
205.1910949190669
 30
0.0
 40
2.0
100
AcDbArc
 50
89.99980000000267
 51
149.9998999999975
  0
LINE
  5
421
330
1F
100
AcDbEntity
  8
LAYER-010
  6
CENTER
 62
     4
100
AcDbLine
 10
201.7465836275613
 20
175.4910949190669
 30
0.0
 11
103.6485512739009
 21
175.4910949190669
 31
0.0
  0
LINE
  5
422
330
1F
100
AcDbEntity
  8
LAYER-006
  6
Continuous
 62
     1
100
AcDbLine
 10
78.27389229373907
 20
60.24265613895368
 30
0.0
 11
169.5709223175477
 21
60.24265613895368
 31
0.0
  0
LINE
  5
423
330
1F
100
AcDbEntity
  8
LAYER-006
  6
Continuous
 62
     1
100
AcDbLine
 10
67.44129467183998
 20
56.63154509471495
 30
0.0
 11
67.44129467183998
 21
50.61302668765053
 31
0.0
  0
LINE
  5
424
330
1F
100
AcDbEntity
  8
LAYER-006
  6
Continuous
 62
     1
100
AcDbLine
 10
67.44129467183998
 20
56.63154509471495
 30
0.0
 11
77.07092412314316
 21
56.63154509471495
 31
0.0
  0
LINE
  5
425
330
1F
100
AcDbEntity
  8
LAYER-007
  6
HIDDEN
 62
     4
100
AcDbLine
 10
73.45981307890446
 20
56.63154509471495
 30
0.0
 11
73.45981307890446
 21
49.40932300652359
 31
0.0
  0
LINE
  5
426
330
1F
100
AcDbEntity
  8
LAYER-007
  6
HIDDEN
 62
     4
100
AcDbLine
 10
75.8672204415866
 20
56.63154509471495
 30
0.0
 11
75.8672204415866
 21
50.13154521508535
 31
0.0
  0
LINE
  5
427
330
1F
100
AcDbEntity
  8
LAYER-006
  6
Continuous
 62
     1
100
AcDbLine
 10
77.07092412314316
 20
56.63154509471495
 30
0.0
 11
77.07092412314316
 21
50.61302668765053
 31
0.0
  0
ARC
  5
428
330
1F
100
AcDbEntity
  8
LAYER-006
  6
Continuous
 62
     1
100
AcDbCircle
 10
78.27462780455599
 20
56.63154509471495
 30
0.0
 40
3.611111044238686
100
AcDbArc
 50
90.01166999975823
 51
180.0233390029155
  0
ARC
  5
429
330
1F
100
AcDbEntity
  8
LAYER-006
  6
Continuous
 62
     1
100
AcDbCircle
 10
169.5709223175477
 20
53.02043405047631
 30
0.0
 40
7.222222088477372
100
AcDbArc
 50
269.9777129999998
 51
90.00105200391265
  0
LINE
  5
42A
330
1F
100
AcDbEntity
  8
LAYER-006
  6
Continuous
 62
     1
100
AcDbLine
 10
67.44129467183998
 20
50.61302668765053
 30
0.0
 11
71.0524057158203
 21
49.40932300652359
 31
0.0
  0
LINE
  5
42B
330
1F
100
AcDbEntity
  8
LAYER-006
  6
Continuous
 62
     1
100
AcDbLine
 10
186.8301836275613
 20
50.24265734265734
 30
0.0
 11
188.8301836275613
 21
50.24265734265734
 31
0.0
  0
LINE
  5
42C
330
1F
100
AcDbEntity
  8
LAYER-006
  6
Continuous
 62
     1
100
AcDbLine
 10
186.8301836275613
 20
50.24265734265734
 30
0.0
 11
186.8301836275613
 21
17.24265734265734
 31
0.0
  0
LINE
  5
42D
330
1F
100
AcDbEntity
  8
LAYER-006
  6
Continuous
 62
     1
100
AcDbLine
 10
188.8301836275613
 20
50.24265734265734
 30
0.0
 11
188.8301836275613
 21
-59.75734265734266
 31
0.0
  0
LINE
  5
42E
330
1F
100
AcDbEntity
  8
LAYER-006
  6
Continuous
 62
     1
100
AcDbLine
 10
73.45981307890446
 20
49.40932300652359
 30
0.0
 11
77.07092412314316
 21
50.61302668765053
 31
0.0
  0
LINE
  5
42F
330
1F
100
AcDbEntity
  8
LAYER-006
  6
Continuous
 62
     1
100
AcDbLine
 10
78.27462780455599
 20
49.40932300652359
 30
0.0
 11
78.27462780455599
 21
32.55746905904972
 31
0.0
  0
LINE
  5
430
330
1F
100
AcDbEntity
  8
LAYER-006
  6
Continuous
 62
     1
100
AcDbLine
 10
78.27462780455599
 20
49.40932300652359
 30
0.0
 11
90.31166461868497
 21
49.40932300652359
 31
0.0
  0
LINE
  5
431
330
1F
100
AcDbEntity
  8
LAYER-006
  6
Continuous
 62
     1
100
AcDbLine
 10
90.31166461868497
 20
49.40932300652359
 30
0.0
 11
90.31166461868497
 21
32.55746905904972
 31
0.0
  0
LINE
  5
432
330
1F
100
AcDbEntity
  8
LAYER-006
  6
Continuous
 62
     1
100
AcDbLine
 10
68.64499835325287
 20
48.20561932482472
 30
0.0
 11
71.0524057158203
 21
48.20561932482472
 31
0.0
  0
LINE
  5
433
330
1F
100
AcDbEntity
  8
LAYER-006
  6
Continuous
 62
     1
100
AcDbLine
 10
68.64499835325287
 20
48.20561932482472
 30
0.0
 11
68.64499835325287
 21
43.3908070065805
 31
0.0
  0
LINE
  5
434
330
1F
100
AcDbEntity
  8
LAYER-006
  6
Continuous
 62
     1
100
AcDbLine
 10
73.45981307890446
 20
48.20561932482472
 30
0.0
 11
78.27462780455599
 21
48.20561932482472
 31
0.0
  0
LINE
  5
435
330
1F
100
AcDbEntity
  8
LAYER-006
  6
Continuous
 62
     1
100
AcDbLine
 10
75.8672204415866
 20
48.20561932482472
 30
0.0
 11
75.8672204415866
 21
43.3908070065805
 31
0.0
  0
LINE
  5
436
330
1F
100
AcDbEntity
  8
LAYER-006
  6
Continuous
 62
     1
100
AcDbLine
 10
90.31166461868497
 20
48.20561932482472
 30
0.0
 11
92.71907198151075
 21
48.20561932482472
 31
0.0
  0
LINE
  5
437
330
1F
100
AcDbEntity
  8
LAYER-006
  6
Continuous
 62
     1
100
AcDbLine
 10
92.71907198151075
 20
48.20561932482472
 30
0.0
 11
92.71907198151075
 21
43.3908070065805
 31
0.0
  0
LINE
  5
438
330
1F
100
AcDbEntity
  8
LAYER-006
  6
Continuous
 62
     1
100
AcDbLine
 10
63.83018362756133
 20
47.00191805081916
 30
0.0
 11
71.0524057158203
 21
47.00191805081916
 31
0.0
  0
LINE
  5
439
330
1F
100
AcDbEntity
  8
LAYER-006
  6
Continuous
 62
     1
100
AcDbLine
 10
63.83018362756133
 20
47.00191805081916
 30
0.0
 11
63.83018362756133
 21
44.59451068799336
 31
0.0
  0
LINE
  5
43A
330
1F
100
AcDbEntity
  8
LAYER-006
  6
Continuous
 62
     1
100
AcDbLine
 10
73.45981307890446
 20
47.00191805081916
 30
0.0
 11
78.27462780455599
 21
47.00191805081916
 31
0.0
  0
LINE
  5
43B
330
1F
100
AcDbEntity
  8
LAYER-006
  6
Continuous
 62
     1
100
AcDbLine
 10
90.31166461868497
 20
47.00191805081916
 30
0.0
 11
92.71907198151075
 21
47.00191805081916
 31
0.0
  0
LINE
  5
43C
330
1F
100
AcDbEntity
  8
LAYER-007
  6
CENTER
 62
     4
100
AcDbLine
 10
63.83018362756133
 20
45.7982143694063
 30
0.0
 11
93.9227756629237
 21
45.7982143694063
 31
0.0
  0
LINE
  5
43D
330
1F
100
AcDbEntity
  8
LAYER-006
  6
Continuous
 62
     1
100
AcDbLine
 10
169.5709223175477
 20
45.7982143694063
 30
0.0
 11
169.5709223175477
 21
-55.31289727668427
 31
0.0
  0
LINE
  5
43E
330
1F
100
AcDbEntity
  8
LAYER-006
  6
Continuous
 62
     1
100
AcDbLine
 10
169.5709223175477
 20
45.7982143694063
 30
0.0
 11
95.12647934425661
 21
45.7982143694063
 31
0.0
  0
LINE
  5
43F
330
1F
100
AcDbEntity
  8
LAYER-006
  6
Continuous
 62
     1
100
AcDbLine
 10
63.83018362756133
 20
44.59451068799336
 30
0.0
 11
71.0524057158203
 21
44.59451068799336
 31
0.0
  0
LINE
  5
440
330
1F
100
AcDbEntity
  8
LAYER-006
  6
Continuous
 62
     1
100
AcDbLine
 10
73.45981307890446
 20
44.59451068799336
 30
0.0
 11
78.27462780455599
 21
44.59451068799336
 31
0.0
  0
LINE
  5
441
330
1F
100
AcDbEntity
  8
LAYER-006
  6
Continuous
 62
     1
100
AcDbLine
 10
90.31166461868497
 20
44.59451068799336
 30
0.0
 11
92.71907198151075
 21
44.59451068799336
 31
0.0
  0
LINE
  5
442
330
1F
100
AcDbEntity
  8
LAYER-006
  6
Continuous
 62
     1
100
AcDbLine
 10
68.64499835325287
 20
43.3908070065805
 30
0.0
 11
71.0524057158203
 21
43.3908070065805
 31
0.0
  0
LINE
  5
443
330
1F
100
AcDbEntity
  8
LAYER-006
  6
Continuous
 62
     1
100
AcDbLine
 10
73.45981307890446
 20
43.3908070065805
 30
0.0
 11
78.27462780455599
 21
43.3908070065805
 31
0.0
  0
LINE
  5
444
330
1F
100
AcDbEntity
  8
LAYER-006
  6
Continuous
 62
     1
100
AcDbLine
 10
90.31166461868497
 20
43.3908070065805
 30
0.0
 11
92.71907198151075
 21
43.3908070065805
 31
0.0
  0
LINE
  5
445
330
1F
100
AcDbEntity
  8
LAYER-006
  6
Continuous
 62
     1
100
AcDbLine
 10
71.0524057158203
 20
42.18710332516757
 30
0.0
 11
71.0524057158203
 21
49.40932300652359
 31
0.0
  0
LINE
  5
446
330
1F
100
AcDbEntity
  8
LAYER-006
  6
Continuous
 62
     1
100
AcDbLine
 10
71.0524057158203
 20
42.18710332516757
 30
0.0
 11
73.45981307890446
 21
42.18710332516757
 31
0.0
  0
LINE
  5
447
330
1F
100
AcDbEntity
  8
LAYER-006
  6
Continuous
 62
     1
100
AcDbLine
 10
72.25610939749151
 20
42.18710332516757
 30
0.0
 11
72.25610939749151
 21
56.63154509471495
 31
0.0
  0
LINE
  5
448
330
1F
100
AcDbEntity
  8
LAYER-006
  6
Continuous
 62
     1
100
AcDbLine
 10
73.45981307890446
 20
42.18710332516757
 30
0.0
 11
73.45981307890446
 21
49.40932300652359
 31
0.0
  0
LINE
  5
449
330
1F
100
AcDbEntity
  8
LAYER-006
  6
Continuous
 62
     1
100
AcDbLine
 10
75.8672204415866
 20
32.55746905904972
 30
0.0
 11
95.12647934425661
 21
32.55746905904972
 31
0.0
  0
LINE
  5
44A
330
1F
100
AcDbEntity
  8
LAYER-006
  6
Continuous
 62
     1
100
AcDbLine
 10
75.8672204415866
 20
32.55746905904972
 30
0.0
 11
75.8672204415866
 21
-42.07215678114241
 31
0.0
  0
LINE
  5
44B
330
1F
100
AcDbEntity
  8
LAYER-006
  6
Continuous
 62
     1
100
AcDbLine
 10
75.8672204415866
 20
31.35376537763683
 30
0.0
 11
95.12647934425661
 21
31.35376537763683
 31
0.0
  0
LINE
  5
44C
330
1F
100
AcDbEntity
  8
LAYER-006
  6
Continuous
 62
     1
100
AcDbLine
 10
169.5709223175477
 20
17.24265734265734
 30
0.0
 11
186.8301836275613
 21
17.24265734265734
 31
0.0
  0
LINE
  5
44D
330
1F
100
AcDbEntity
  8
LAYER-006
  6
Continuous
 62
     1
100
AcDbLine
 10
169.5709223175477
 20
15.24265734265734
 30
0.0
 11
188.8301836275613
 21
15.24265734265734
 31
0.0
  0
LINE
  5
44E
330
1F
100
AcDbEntity
  8
LAYER-006
  6
Continuous
 62
     1
100
AcDbLine
 10
175.5894407246122
 20
13.3167338599646
 30
0.0
 11
188.8301836275613
 21
13.3167338599646
 31
0.0
  0
LINE
  5
44F
330
1F
100
AcDbEntity
  8
LAYER-006
  6
Continuous
 62
     1
100
AcDbLine
 10
177.0338875497151
 20
11.39080796970397
 30
0.0
 11
188.8301836275613
 21
11.39080796970397
 31
0.0
  0
LINE
  5
450
330
1F
100
AcDbEntity
  8
LAYER-006
  6
Continuous
 62
     1
100
AcDbLine
 10
177.7561073512256
 20
10.18710428829104
 30
0.0
 11
188.8301836275613
 21
10.18710428829104
 31
0.0
  0
LINE
  5
451
330
1F
100
AcDbEntity
  8
LAYER-006
  6
Continuous
 62
     1
100
AcDbLine
 10
178.9598110325683
 20
8.26117599062303
 30
0.0
 11
188.8301836275613
 21
8.26117599062303
 31
0.0
  0
LINE
  5
452
330
1F
100
AcDbEntity
  8
LAYER-006
  6
Continuous
 62
     1
100
AcDbLine
 10
180.4042578565914
 20
6.335252507769795
 30
0.0
 11
188.8301836275613
 21
6.335252507769795
 31
0.0
  0
LINE
  5
453
330
1F
100
AcDbEntity
  8
LAYER-006
  6
Continuous
 62
     1
100
AcDbLine
 10
181.6079615390839
 20
4.409326617509137
 30
0.0
 11
188.8301836275613
 21
4.409326617509137
 31
0.0
  0
LINE
  5
454
330
1F
100
AcDbEntity
  8
LAYER-007
  6
CENTER
 62
     4
100
AcDbLine
 10
63.83018362756133
 20
-4.757342657342662
 30
0.0
 11
188.8301836275613
 21
-4.757342657342662
 31
0.0
  0
LINE
  5
455
330
1F
100
AcDbEntity
  8
LAYER-006
  6
Continuous
 62
     1
100
AcDbLine
 10
169.5709223175477
 20
-24.75734265734266
 30
0.0
 11
188.8301836275613
 21
-24.75734265734266
 31
0.0
  0
LINE
  5
456
330
1F
100
AcDbEntity
  8
LAYER-006
  6
Continuous
 62
     1
100
AcDbLine
 10
169.5709223175477
 20
-26.75734265734266
 30
0.0
 11
186.8301836275613
 21
-26.75734265734266
 31
0.0
  0
LINE
  5
457
330
1F
100
AcDbEntity
  8
LAYER-006
  6
Continuous
 62
     1
100
AcDbLine
 10
83.08944253020758
 20
-30.03512237442082
 30
0.0
 11
75.8672204415866
 21
-30.03512237442082
 31
0.0
  0
LINE
  5
458
330
1F
100
AcDbEntity
  8
LAYER-006
  6
Continuous
 62
     1
100
AcDbLine
 10
84.2931462116205
 20
-31.96104585727409
 30
0.0
 11
75.8672204415866
 21
-31.96104585727409
 31
0.0
  0
LINE
  5
459
330
1F
100
AcDbEntity
  8
LAYER-006
  6
Continuous
 62
     1
100
AcDbLine
 10
85.737590629316
 20
-33.88697174753474
 30
0.0
 11
75.8672204415866
 21
-33.88697174753474
 31
0.0
  0
LINE
  5
45A
330
1F
100
AcDbEntity
  8
LAYER-006
  6
Continuous
 62
     1
100
AcDbLine
 10
86.94129431058661
 20
-35.81290004520272
 30
0.0
 11
75.8672204415866
 21
-35.81290004520272
 31
0.0
  0
LINE
  5
45B
330
1F
100
AcDbEntity
  8
LAYER-006
  6
Continuous
 62
     1
100
AcDbLine
 10
87.6635165195766
 20
-37.01660372661563
 30
0.0
 11
75.8672204415866
 21
-37.01660372661563
 31
0.0
  0
LINE
  5
45C
330
1F
100
AcDbEntity
  8
LAYER-006
  6
Continuous
 62
     1
100
AcDbLine
 10
89.10796093727214
 20
-38.94252720946889
 30
0.0
 11
75.8672204415866
 21
-38.94252720946889
 31
0.0
  0
LINE
  5
45D
330
1F
100
AcDbEntity
  8
LAYER-006
  6
Continuous
 62
     1
100
AcDbLine
 10
75.8672204415866
 20
-40.86845309972951
 30
0.0
 11
95.12647934425661
 21
-40.86845309972951
 31
0.0
  0
LINE
  5
45E
330
1F
100
AcDbEntity
  8
LAYER-006
  6
Continuous
 62
     1
100
AcDbLine
 10
75.8672204415866
 20
-42.07215678114241
 30
0.0
 11
95.12647934425661
 21
-42.07215678114241
 31
0.0
  0
LINE
  5
45F
330
1F
100
AcDbEntity
  8
LAYER-006
  6
Continuous
 62
     1
100
AcDbLine
 10
71.0524057158203
 20
-51.70178623244557
 30
0.0
 11
71.0524057158203
 21
-58.9240083204764
 31
0.0
  0
LINE
  5
460
330
1F
100
AcDbEntity
  8
LAYER-006
  6
Continuous
 62
     1
100
AcDbLine
 10
71.0524057158203
 20
-51.70178623244557
 30
0.0
 11
73.45981307890446
 21
-51.70178623244557
 31
0.0
  0
LINE
  5
461
330
1F
100
AcDbEntity
  8
LAYER-006
  6
Continuous
 62
     1
100
AcDbLine
 10
72.25610939749151
 20
-51.70178623244557
 30
0.0
 11
72.25610939749151
 21
-66.14623040940032
 31
0.0
  0
LINE
  5
462
330
1F
100
AcDbEntity
  8
LAYER-006
  6
Continuous
 62
     1
100
AcDbLine
 10
73.45981307890446
 20
-51.70178623244557
 30
0.0
 11
73.45981307890446
 21
-58.9240083204764
 31
0.0
  0
LINE
  5
463
330
1F
100
AcDbEntity
  8
LAYER-006
  6
Continuous
 62
     1
100
AcDbLine
 10
68.64499835325287
 20
-52.90548991385846
 30
0.0
 11
71.0524057158203
 21
-52.90548991385846
 31
0.0
  0
LINE
  5
464
330
1F
100
AcDbEntity
  8
LAYER-006
  6
Continuous
 62
     1
100
AcDbLine
 10
73.45981307890446
 20
-52.90548991385846
 30
0.0
 11
78.27462780455599
 21
-52.90548991385846
 31
0.0
  0
LINE
  5
465
330
1F
100
AcDbEntity
  8
LAYER-006
  6
Continuous
 62
     1
100
AcDbLine
 10
90.31166461868497
 20
-52.90548991385846
 30
0.0
 11
92.71907198151075
 21
-52.90548991385846
 31
0.0
  0
LINE
  5
466
330
1F
100
AcDbEntity
  8
LAYER-006
  6
Continuous
 62
     1
100
AcDbLine
 10
63.83018362756133
 20
-54.10919359527136
 30
0.0
 11
71.0524057158203
 21
-54.10919359527136
 31
0.0
  0
LINE
  5
467
330
1F
100
AcDbEntity
  8
LAYER-006
  6
Continuous
 62
     1
100
AcDbLine
 10
73.45981307890446
 20
-54.10919359527136
 30
0.0
 11
78.27462780455599
 21
-54.10919359527136
 31
0.0
  0
LINE
  5
468
330
1F
100
AcDbEntity
  8
LAYER-006
  6
Continuous
 62
     1
100
AcDbLine
 10
90.31166461868497
 20
-54.10919359527136
 30
0.0
 11
92.71907198151075
 21
-54.10919359527136
 31
0.0
  0
LINE
  5
469
330
1F
100
AcDbEntity
  8
LAYER-007
  6
CENTER
 62
     4
100
AcDbLine
 10
63.83018362756133
 20
-55.31289727668427
 30
0.0
 11
93.68203492664111
 21
-55.31289727668427
 31
0.0
  0
LINE
  5
46A
330
1F
100
AcDbEntity
  8
LAYER-006
  6
Continuous
 62
     1
100
AcDbLine
 10
95.12647934425661
 20
-55.31289727668427
 30
0.0
 11
95.12647934425661
 21
45.7982143694063
 31
0.0
  0
LINE
  5
46B
330
1F
100
AcDbEntity
  8
LAYER-006
  6
Continuous
 62
     1
100
AcDbLine
 10
169.5709223175477
 20
-55.31289727668427
 30
0.0
 11
95.12647934425661
 21
-55.31289727668427
 31
0.0
  0
LINE
  5
46C
330
1F
100
AcDbEntity
  8
LAYER-006
  6
Continuous
 62
     1
100
AcDbLine
 10
169.5709223175477
 20
-55.31289727668427
 30
0.0
 11
121.4227750610318
 21
-55.31289727668427
 31
0.0
  0
LINE
  5
46D
330
1F
100
AcDbEntity
  8
LAYER-006
  6
Continuous
 62
     1
100
AcDbLine
 10
63.83018362756133
 20
-56.51660095809716
 30
0.0
 11
71.0524057158203
 21
-56.51660095809716
 31
0.0
  0
LINE
  5
46E
330
1F
100
AcDbEntity
  8
LAYER-006
  6
Continuous
 62
     1
100
AcDbLine
 10
63.83018362756133
 20
-56.51660095809716
 30
0.0
 11
63.83018362756133
 21
-54.10919359527136
 31
0.0
  0
LINE
  5
46F
330
1F
100
AcDbEntity
  8
LAYER-006
  6
Continuous
 62
     1
100
AcDbLine
 10
73.45981307890446
 20
-56.51660095809716
 30
0.0
 11
78.27462780455599
 21
-56.51660095809716
 31
0.0
  0
LINE
  5
470
330
1F
100
AcDbEntity
  8
LAYER-006
  6
Continuous
 62
     1
100
AcDbLine
 10
90.31166461868497
 20
-56.51660095809716
 30
0.0
 11
92.71907198151075
 21
-56.51660095809716
 31
0.0
  0
LINE
  5
471
330
1F
100
AcDbEntity
  8
LAYER-006
  6
Continuous
 62
     1
100
AcDbLine
 10
68.64499835325287
 20
-57.72030463951005
 30
0.0
 11
71.0524057158203
 21
-57.72030463951005
 31
0.0
  0
LINE
  5
472
330
1F
100
AcDbEntity
  8
LAYER-006
  6
Continuous
 62
     1
100
AcDbLine
 10
68.64499835325287
 20
-57.72030463951005
 30
0.0
 11
68.64499835325287
 21
-52.90548991385846
 31
0.0
  0
LINE
  5
473
330
1F
100
AcDbEntity
  8
LAYER-006
  6
Continuous
 62
     1
100
AcDbLine
 10
73.45981307890446
 20
-57.72030463951005
 30
0.0
 11
78.27462780455599
 21
-57.72030463951005
 31
0.0
  0
LINE
  5
474
330
1F
100
AcDbEntity
  8
LAYER-006
  6
Continuous
 62
     1
100
AcDbLine
 10
75.8672204415866
 20
-57.72030463951005
 30
0.0
 11
75.8672204415866
 21
-52.90548991385846
 31
0.0
  0
LINE
  5
475
330
1F
100
AcDbEntity
  8
LAYER-006
  6
Continuous
 62
     1
100
AcDbLine
 10
90.31166461868497
 20
-57.72030463951005
 30
0.0
 11
92.71907198151075
 21
-57.72030463951005
 31
0.0
  0
LINE
  5
476
330
1F
100
AcDbEntity
  8
LAYER-006
  6
Continuous
 62
     1
100
AcDbLine
 10
92.71907198151075
 20
-57.72030463951005
 30
0.0
 11
92.71907198151075
 21
-52.90548991385846
 31
0.0
  0
LINE
  5
477
330
1F
100
AcDbEntity
  8
LAYER-006
  6
Continuous
 62
     1
100
AcDbLine
 10
73.45981307890446
 20
-58.9240083204764
 30
0.0
 11
77.07092412314316
 21
-60.12771200233584
 31
0.0
  0
LINE
  5
478
330
1F
100
AcDbEntity
  8
LAYER-006
  6
Continuous
 62
     1
100
AcDbLine
 10
78.27462780455599
 20
-58.9240083204764
 30
0.0
 11
78.27462780455599
 21
-42.07215678114241
 31
0.0
  0
LINE
  5
479
330
1F
100
AcDbEntity
  8
LAYER-006
  6
Continuous
 62
     1
100
AcDbLine
 10
78.27462780455599
 20
-58.9240083204764
 30
0.0
 11
90.31166461868497
 21
-58.9240083204764
 31
0.0
  0
LINE
  5
47A
330
1F
100
AcDbEntity
  8
LAYER-006
  6
Continuous
 62
     1
100
AcDbLine
 10
90.31166461868497
 20
-58.9240083204764
 30
0.0
 11
90.31166461868497
 21
-42.07215678114241
 31
0.0
  0
LINE
  5
47B
330
1F
100
AcDbEntity
  8
LAYER-006
  6
Continuous
 62
     1
100
AcDbLine
 10
186.8301836275613
 20
-59.75734265734266
 30
0.0
 11
188.8301836275613
 21
-59.75734265734266
 31
0.0
  0
LINE
  5
47C
330
1F
100
AcDbEntity
  8
LAYER-006
  6
Continuous
 62
     1
100
AcDbLine
 10
186.8301836275613
 20
-59.75734265734266
 30
0.0
 11
186.8301836275613
 21
-26.75734265734266
 31
0.0
  0
LINE
  5
47D
330
1F
100
AcDbEntity
  8
LAYER-006
  6
Continuous
 62
     1
100
AcDbLine
 10
67.44129467183998
 20
-60.12771200233584
 30
0.0
 11
71.0524057158203
 21
-58.9240083204764
 31
0.0
  0
ARC
  5
47E
330
1F
100
AcDbEntity
  8
LAYER-006
  6
Continuous
 62
     1
100
AcDbCircle
 10
169.5709223175477
 20
-62.53511936516163
 30
0.0
 40
7.222222088477372
100
AcDbArc
 50
269.9777129999998
 51
90.00105200391265
  0
LINE
  5
47F
330
1F
100
AcDbEntity
  8
LAYER-006
  6
Continuous
 62
     1
100
AcDbLine
 10
67.44129467183998
 20
-66.14623040940032
 30
0.0
 11
67.44129467183998
 21
-60.12771200233584
 31
0.0
  0
LINE
  5
480
330
1F
100
AcDbEntity
  8
LAYER-006
  6
Continuous
 62
     1
100
AcDbLine
 10
67.44129467183998
 20
-66.14623040940032
 30
0.0
 11
77.07092412314316
 21
-66.14623040940032
 31
0.0
  0
LINE
  5
481
330
1F
100
AcDbEntity
  8
LAYER-007
  6
HIDDEN
 62
     4
100
AcDbLine
 10
73.45981307890446
 20
-66.14623040940032
 30
0.0
 11
73.45981307890446
 21
-58.9240083204764
 31
0.0
  0
LINE
  5
482
330
1F
100
AcDbEntity
  8
LAYER-007
  6
HIDDEN
 62
     4
100
AcDbLine
 10
75.8672204415866
 20
-66.14623040940032
 30
0.0
 11
75.8672204415866
 21
-59.64623293717807
 31
0.0
  0
LINE
  5
483
330
1F
100
AcDbEntity
  8
LAYER-006
  6
Continuous
 62
     1
100
AcDbLine
 10
77.07092412314316
 20
-66.14623040940032
 30
0.0
 11
77.07092412314316
 21
-60.12771200233584
 31
0.0
  0
ARC
  5
484
330
1F
100
AcDbEntity
  8
LAYER-006
  6
Continuous
 62
     1
100
AcDbCircle
 10
78.27462780455599
 20
-66.14623040940032
 30
0.0
 40
3.611111044238686
100
AcDbArc
 50
180.0233389999999
 51
269.9777130000002
  0
LINE
  5
485
330
1F
100
AcDbEntity
  8
LAYER-006
  6
Continuous
 62
     1
100
AcDbLine
 10
78.27389229373907
 20
-69.75734386104632
 30
0.0
 11
169.5709223175477
 21
-69.75734386104632
 31
0.0
  0
TEXT
  5
486
330
1F
100
AcDbEntity
  8
LAYER-033
  6
Continuous
 62
     7
100
AcDbText
 10
-78.59006319201528
 20
-233.7017527596956
 30
0.0
 40
4.0
  1
４００／４４０Ｖ　５０／６０Ｈｚ　０．７５～１．５ｋＷ
  7
STRING_H
 11
-78.59006319201528
 21
-231.7017527596956
 31
0.0
100
AcDbText
 73
     2
  0
TEXT
  5
487
330
1F
100
AcDbEntity
  8
LAYER-033
  6
Continuous
 62
     7
100
AcDbText
 10
-78.59006319201528
 20
-241.7872028606628
 30
0.0
 40
4.0
  1
質　　量　　　７㎏
  7
STRING_H
 11
-78.59006319201528
 21
-239.7872028606628
 31
0.0
100
AcDbText
 73
     2
  0
TEXT
  5
488
330
1F
100
AcDbEntity
  8
LAYER-033
  6
Continuous
 62
     7
100
AcDbText
 10
-78.59006319201528
 20
-225.6163026583913
 30
0.0
 40
4.0
  1
ＫＲ－１Ｕ(低　圧)
  7
STRING_H
 11
-78.59006319201528
 21
-223.6163026583913
 31
0.0
100
AcDbText
 73
     2
  0
TEXT
  5
489
330
1F
100
AcDbEntity
  8
LAYER-007
  6
Continuous
 62
     4
100
AcDbText
 10
-144.6577717736808
 20
-9.757342657342663
 30
0.0
 40
10.0
  1
ＲＲＳ
  7
STRING_H
 72
     1
 11
-122.9077717736808
 21
-4.757342657342662
 31
0.0
100
AcDbText
 73
     2
  0
DIMENSION
  5
499
330
1F
100
AcDbEntity
  8
LAYER-035
  6
Continuous
 62
     5
100
AcDbDimension
  2
*D02
 10
6.332484473552682
 20
95.24265734265734
 30
0.0
 11
6.332484473552682
 21
170.2426573426573
 31
0.0
 70
   128
  1
<>
 71
     0
 42
0.0
  3
DIO_DIMSTYLE
100
AcDbAlignedDimension
 13
-22.90777177368082
 23
245.2426573426573
 33
0.0
 14
-28.69537815417655
 24
95.24265734265734
 34
0.0
 50
90.0
100
AcDbRotatedDimension
1001
ACAD
1000
DSTYLE
1002
{
1070
    41
1040
4.0
1070
    44
1040
1.0
1070
    42
1040
1.0
1070
     6
1000
_OPEN
1070
     7
1000
_OPEN
1070
   173
1070
     1
1070
   140
1040
4.0
1070
   178
1070
     5
1070
   147
1040
0.5
1002
}
  0
DIMENSION
  5
4A3
330
1F
100
AcDbEntity
  8
LAYER-035
  6
Continuous
 62
     5
100
AcDbDimension
  2
*D13
 10
6.332484473552682
 20
-104.7573426573427
 30
0.0
 11
6.332484473552682
 21
-4.757342657342662
 31
0.0
 70
   129
  1
<>
 71
     0
 42
0.0
  3
DIO_DIMSTYLE
100
AcDbAlignedDimension
 13
-28.69537815417655
 23
95.24265734265734
 33
0.0
 14
-28.69537815417655
 24
-104.7573426573427
 34
0.0
1001
ACAD
1000
DSTYLE
1002
{
1070
    41
1040
4.0
1070
    44
1040
1.0
1070
    42
1040
1.0
1070
     6
1000
_OPEN
1070
     7
1000
_OPEN
1070
   173
1070
     1
1070
   140
1040
4.0
1070
   178
1070
     5
1070
   147
1040
0.5
1002
}
  0
DIMENSION
  5
4AD
330
1F
100
AcDbEntity
  8
LAYER-035
  6
Continuous
 62
     5
100
AcDbDimension
  2
*D24
 10
6.332484473552682
 20
-134.7573426573427
 30
0.0
 11
6.332484473552682
 21
-119.7573426573427
 31
0.0
 70
   128
  1
<>
 71
     0
 42
0.0
  3
DIO_DIMSTYLE
100
AcDbAlignedDimension
 13
-28.69537815417655
 23
-104.7573426573427
 33
0.0
 14
-22.90777177368082
 24
-134.7573426573427
 34
0.0
 50
90.0
100
AcDbRotatedDimension
1001
ACAD
1000
DSTYLE
1002
{
1070
    41
1040
4.0
1070
    44
1040
1.0
1070
    42
1040
1.0
1070
     6
1000
_OPEN
1070
     7
1000
_OPEN
1070
   173
1070
     1
1070
   140
1040
4.0
1070
   178
1070
     5
1070
   147
1040
0.5
1002
}
  0
DIMENSION
  5
4B7
330
1F
100
AcDbEntity
  8
LAYER-035
  6
Continuous
 62
     5
100
AcDbDimension
  2
*D35
 10
-37.90777177368082
 20
-153.8502666230861
 30
0.0
 11
-122.9077717736808
 21
-153.8502666230861
 31
0.0
 70
   129
  1
<>
 71
     0
 42
0.0
  3
DIO_DIMSTYLE
100
AcDbAlignedDimension
 13
-207.9077717736808
 23
-113.9697362768469
 33
0.0
 14
-37.90777177368082
 24
-113.9697362768469
 34
0.0
1001
ACAD
1000
DSTYLE
1002
{
1070
    41
1040
4.0
1070
    44
1040
1.0
1070
    42
1040
1.0
1070
     6
1000
_OPEN
1070
     7
1000
_OPEN
1070
   173
1070
     1
1070
   140
1040
4.0
1070
   178
1070
     5
1070
   147
1040
0.5
1002
}
  0
DIMENSION
  5
4C1
330
1F
100
AcDbEntity
  8
LAYER-035
  6
Continuous
 62
     5
100
AcDbDimension
  2
*D46
 10
-22.90777177368082
 20
-167.7997298688704
 30
0.0
 11
-122.9077717736808
 21
-167.7997298688704
 31
0.0
 70
   129
  1
<>
 71
     0
 42
0.0
  3
DIO_DIMSTYLE
100
AcDbAlignedDimension
 13
-222.9077717736808
 23
-134.7573426573427
 33
0.0
 14
-22.90777177368082
 24
-134.7573426573427
 34
0.0
1001
ACAD
1000
DSTYLE
1002
{
1070
    41
1040
4.0
1070
    44
1040
1.0
1070
    42
1040
1.0
1070
     6
1000
_OPEN
1070
     7
1000
_OPEN
1070
   173
1070
     1
1070
   140
1040
4.0
1070
   178
1070
     5
1070
   147
1040
0.5
1002
}
  0
DIMENSION
  5
4CB
330
1F
100
AcDbEntity
  8
LAYER-035
  6
Continuous
 62
     5
100
AcDbDimension
  2
*D57
 10
29.35212968849334
 20
-134.7573426573427
 30
0.0
 11
29.35212968849334
 21
55.24265734265731
 31
0.0
 70
   128
  1
<>
 71
     0
 42
0.0
  3
DIO_DIMSTYLE
100
AcDbAlignedDimension
 13
-22.90777177368082
 23
245.2426573426573
 33
0.0
 14
-22.90777177368082
 24
-134.7573426573427
 34
0.0
 50
90.0
100
AcDbRotatedDimension
1001
ACAD
1000
DSTYLE
1002
{
1070
    41
1040
4.0
1070
    44
1040
1.0
1070
    42
1040
1.0
1070
     6
1000
_OPEN
1070
     7
1000
_OPEN
1070
   173
1070
     1
1070
   140
1040
4.0
1070
   178
1070
     5
1070
   147
1040
0.5
1002
}
  0
DIMENSION
  5
4D7
330
1F
100
AcDbEntity
  8
LAYER-035
  6
Continuous
 62
     5
100
AcDbDimension
  2
*D68
 10
188.8301836275613
 20
-153.8502666230861
 30
0.0
 11
182.8697808655613
 21
-153.8502666230861
 31
0.0
 70
   129
  1
<>
 71
     0
 42
0.0
  3
DIO_DIMSTYLE
100
AcDbAlignedDimension
 13
198.8301836275613
 23
-134.7573426573427
 33
0.0
 14
188.8301836275613
 24
-134.7573426573427
 34
0.0
1001
ACAD
1000
DSTYLE
1002
{
1070
    41
1040
4.0
1070
    44
1040
1.0
1070
    42
1040
1.0
1070
     6
1000
_OPEN
1070
     7
1000
_OPEN
1070
   173
1070
     1
1070
   140
1040
4.0
1070
   178
1070
     5
1070
   147
1040
0.5
1002
}
  0
DIMENSION
  5
4E1
330
1F
100
AcDbEntity
  8
LAYER-035
  6
Continuous
 62
     5
100
AcDbDimension
  2
*D79
 10
198.8301836275613
 20
-167.7997298688704
 30
0.0
 11
131.3301836275613
 21
-167.7997298688704
 31
0.0
 70
   128
  1
<>
 71
     0
 42
0.0
  3
DIO_DIMSTYLE
100
AcDbAlignedDimension
 13
63.83018362756133
 23
-56.51660095809716
 33
0.0
 14
198.8301836275613
 24
-134.7573426573427
 34
0.0
 50
180.0
100
AcDbRotatedDimension
1001
ACAD
1000
DSTYLE
1002
{
1070
    41
1040
4.0
1070
    44
1040
1.0
1070
    42
1040
1.0
1070
     6
1000
_OPEN
1070
     7
1000
_OPEN
1070
   173
1070
     1
1070
   140
1040
4.0
1070
   178
1070
     5
1070
   147
1040
0.5
1002
}
  0
LEADER
  5
4E2
330
1F
100
AcDbEntity
  8
LAYER-035
  6
Continuous
 62
     5
100
AcDbLeader
  3
DIO_DIMSTYLE
 76
     3
 10
-211.2383820193087
 20
92.19391444676315
 30
0.0
 10
-232.851002175069
 20
73.48448207311989
 30
0.0
 10
-258.351002175069
 20
73.48448207311989
 30
0.0
1001
ACAD
1000
DSTYLE
1002
{
1070
    41
1040
2.0
1070
     6
1000
_OPEN
1070
   341
1005
48A
1002
}
  0
TEXT
  5
4E3
330
1F
100
AcDbEntity
  8
LAYER-036
  6
Continuous
 62
     5
100
AcDbText
 10
-267.151002175069
 20
77.98448207311989
 30
0.0
 40
4.0
  1
４－φ９．５
  7
STRING_H
 72
     2
 11
-232.351002175069
 21
77.98448207311989
 31
0.0
100
AcDbText
 73
     1
  0
TEXT
  5
4E4
330
1F
100
AcDbEntity
  8
LAYER-036
  6
Continuous
 62
     5
100
AcDbText
 10
-251.751002175069
 20
73.98448207311989
 30
0.0
 40
4.0
  1
取付穴
  7
STRING_H
 72
     2
 11
-234.351002175069
 21
73.98448207311989
 31
0.0
100
AcDbText
 73
     1
  0
XLINE
  5
4E5
330
1F
100
AcDbEntity
  8
SUPLINE
  6
Continuous
 62
     5
100
AcDbXline
 10
-47.90777177368082
 20
-4.757342657342662
 30
0.0
 11
1.0
 21
0.0
 31
0.0
  0
XLINE
  5
4E6
330
1F
100
AcDbEntity
  8
SUPLINE
  6
Continuous
 62
     5
100
AcDbXline
 10
-122.9077717736808
 20
56.15006602955711
 30
0.0
 11
6.123031769111886E-17
 21
1.0
 31
0.0
  0
ENDSEC
  0
SECTION
  2
OBJECTS
  0
DICTIONARY
  5
C
330
0
100
AcDbDictionary
281
     1
  3
ACAD_GROUP
350
D
  3
ACAD_LAYOUT
350
1A
  3
ACAD_MLINESTYLE
350
17
  3
ACAD_PLOTSETTINGS
350
19
  3
ACAD_PLOTSTYLENAME
350
E
  0
DICTIONARY
  5
D
102
{ACAD_REACTORS
330
C
102
}
330
C
100
AcDbDictionary
281
     1
  0
DICTIONARY
  5
1A
102
{ACAD_REACTORS
330
C
102
}
330
C
100
AcDbDictionary
281
     1
  3
Model
350
22
  3
ﾚｲｱｳﾄ1
350
1E
  3
ﾚｲｱｳﾄ2
350
26
  0
DICTIONARY
  5
17
102
{ACAD_REACTORS
330
C
102
}
330
C
100
AcDbDictionary
281
     1
  3
Standard
350
18
  0
DICTIONARY
  5
19
102
{ACAD_REACTORS
330
C
102
}
330
C
100
AcDbDictionary
281
     1
  0
ACDBDICTIONARYWDFLT
  5
E
102
{ACAD_REACTORS
330
C
102
}
330
C
100
AcDbDictionary
281
     1
  3
Normal
350
F
100
AcDbDictionaryWithDefault
340
F
  0
LAYOUT
  5
22
102
{ACAD_REACTORS
330
1A
102
}
330
1A
100
AcDbPlotSettings
  1

  2
DWF ePlot.pc3
  4
ANSI_A_(8.50_x_11.00_Inches)
  6

 40
5.793749809265137
 41
17.79375076293945
 42
5.793746948242188
 43
17.79376220703125
 44
215.8999938964844
 45
279.3999938964844
 46
0.0
 47
0.0
 48
0.0
 49
0.0
140
0.0
141
0.0
142
1.0
143
39.26051453979704
 70
 11952
 72
     0
 73
     1
 74
     0
  7
acad.ctb
 75
     0
147
0.0254708837039396
148
-1793.922354682663
149
1.490346453088415
100
AcDbLayout
  1
Model
 70
     1
 71
     0
 10
-594.5
 20
-420.5
 11
594.5
 21
420.5
 12
0.0
 22
0.0
 32
0.0
 14
-594.5
 24
-420.5
 34
0.0
 15
594.5
 25
420.5
 35
0.0
146
0.0
 13
0.0
 23
0.0
 33
0.0
 16
1.0
 26
0.0
 36
0.0
 17
0.0
 27
1.0
 37
0.0
 76
     0
330
1F
  0
LAYOUT
  5
1E
102
{ACAD_REACTORS
330
1A
102
}
330
1A
100
AcDbPlotSettings
  1

  2
RICOH IPSiO NX700
  4

  6

 40
0.0
 41
0.0
 42
0.0
 43
0.0
 44
0.0
 45
0.0
 46
0.0
 47
0.0
 48
0.0
 49
0.0
140
0.0
141
0.0
142
1.0
143
1.0
 70
   688
 72
     0
 73
     0
 74
     5
  7
acad.ctb
 75
    16
147
1.0
148
0.0
149
0.0
100
AcDbLayout
  1
ﾚｲｱｳﾄ1
 70
     1
 71
     1
 10
-594.5
 20
-420.5
 11
594.5
 21
420.5
 12
0.0
 22
0.0
 32
0.0
 14
-594.5
 24
-420.5
 34
0.0
 15
594.5
 25
420.5
 35
0.0
146
0.0
 13
0.0
 23
0.0
 33
0.0
 16
1.0
 26
0.0
 36
0.0
 17
0.0
 27
1.0
 37
0.0
 76
     0
330
1B
  0
LAYOUT
  5
26
102
{ACAD_REACTORS
330
1A
102
}
330
1A
100
AcDbPlotSettings
  1

  2
RICOH IPSiO NX700
  4

  6

 40
0.0
 41
0.0
 42
0.0
 43
0.0
 44
0.0
 45
0.0
 46
0.0
 47
0.0
 48
0.0
 49
0.0
140
0.0
141
0.0
142
1.0
143
1.0
 70
   688
 72
     0
 73
     0
 74
     5
  7
acad.ctb
 75
    16
147
1.0
148
0.0
149
0.0
100
AcDbLayout
  1
ﾚｲｱｳﾄ2
 70
     1
 71
     2
 10
0.0
 20
0.0
 11
12.0
 21
9.0
 12
0.0
 22
0.0
 32
0.0
 14
0.0
 24
0.0
 34
0.0
 15
0.0
 25
0.0
 35
0.0
146
0.0
 13
0.0
 23
0.0
 33
0.0
 16
1.0
 26
0.0
 36
0.0
 17
0.0
 27
1.0
 37
0.0
 76
     0
330
23
  0
MLINESTYLE
  5
18
102
{ACAD_REACTORS
330
17
102
}
330
17
100
AcDbMlineStyle
  2
STANDARD
 70
     0
  3

 62
   256
 51
90.0
 52
90.0
 71
     2
 49
0.5
 62
   256
  6
BYLAYER
 49
-0.5
 62
   256
  6
BYLAYER
  0
ACDBPLACEHOLDER
  5
F
102
{ACAD_REACTORS
330
E
102
}
330
E
  0
ENDSEC
  0
EOF
