  0
SECTION
  2
HEADER
  9
$ACADVER
  1
AC1015
  9
$ACADMAINTVER
 70
     6
  9
$DWGCODEPAGE
  3
ANSI_932
  9
$INSBASE
 10
0.0
 20
0.0
 30
0.0
  9
$EXTMIN
 10
-1000.0
 20
-750.0
 30
0.0
  9
$EXTMAX
 10
1000.0
 20
750.0
 30
0.0
  9
$LIMMIN
 10
-1000.0
 20
-750.0
  9
$LIMMAX
 10
1000.0
 20
750.0
  9
$ORTHOMODE
 70
     0
  9
$REGENMODE
 70
     1
  9
$FILLMODE
 70
     1
  9
$QTEXTMODE
 70
     0
  9
$MIRRTEXT
 70
     1
  9
$LTSCALE
 40
4.0
  9
$ATTMODE
 70
     1
  9
$TEXTSIZE
 40
2.5
  9
$TRACEWID
 40
1.0
  9
$TEXTSTYLE
  7
Standard
  9
$CLAYER
  8
0
  9
$CELTYPE
  6
ByLayer
  9
$CECOLOR
 62
   256
  9
$CELTSCALE
 40
1.0
  9
$DISPSILH
 70
     0
  9
$DIMSCALE
 40
1.0
  9
$DIMASZ
 40
4.0
  9
$DIMEXO
 40
1.0
  9
$DIMDLI
 40
3.75
  9
$DIMRND
 40
0.1
  9
$DIMDLE
 40
0.0
  9
$DIMEXE
 40
1.0
  9
$DIMTP
 40
0.0
  9
$DIMTM
 40
0.0
  9
$DIMTXT
 40
2.5
  9
$DIMCEN
 40
2.5
  9
$DIMTSZ
 40
0.0
  9
$DIMTOL
 70
     0
  9
$DIMLIM
 70
     0
  9
$DIMTIH
 70
     0
  9
$DIMTOH
 70
     0
  9
$DIMSE1
 70
     0
  9
$DIMSE2
 70
     0
  9
$DIMTAD
 70
     1
  9
$DIMZIN
 70
     8
  9
$DIMBLK
  1

  9
$DIMASO
 70
     1
  9
$DIMSHO
 70
     1
  9
$DIMPOST
  1

  9
$DIMAPOST
  1

  9
$DIMALT
 70
     0
  9
$DIMALTD
 70
     3
  9
$DIMALTF
 40
0.03937007874016
  9
$DIMLFAC
 40
1.0
  9
$DIMTOFL
 70
     1
  9
$DIMTVP
 40
0.0
  9
$DIMTIX
 70
     0
  9
$DIMSOXD
 70
     0
  9
$DIMSAH
 70
     1
  9
$DIMBLK1
  1

  9
$DIMBLK2
  1

  9
$DIMSTYLE
  2
ISO-25
  9
$DIMCLRD
 70
     0
  9
$DIMCLRE
 70
     0
  9
$DIMCLRT
 70
     0
  9
$DIMTFAC
 40
1.0
  9
$DIMGAP
 40
0.5
  9
$DIMJUST
 70
     0
  9
$DIMSD1
 70
     0
  9
$DIMSD2
 70
     0
  9
$DIMTOLJ
 70
     0
  9
$DIMTZIN
 70
     8
  9
$DIMALTZ
 70
     0
  9
$DIMALTTZ
 70
     0
  9
$DIMUPT
 70
     1
  9
$DIMDEC
 70
     1
  9
$DIMTDEC
 70
     2
  9
$DIMALTU
 70
     2
  9
$DIMALTTD
 70
     3
  9
$DIMTXSTY
  7
Standard
  9
$DIMAUNIT
 70
     0
  9
$DIMADEC
 70
     1
  9
$DIMALTRND
 40
0.0
  9
$DIMAZIN
 70
     2
  9
$DIMDSEP
 70
    46
  9
$DIMATFIT
 70
     0
  9
$DIMFRAC
 70
     0
  9
$DIMLDRBLK
  1

  9
$DIMLUNIT
 70
     2
  9
$DIMLWD
 70
    -2
  9
$DIMLWE
 70
    -2
  9
$DIMTMOVE
 70
     0
  9
$LUNITS
 70
     2
  9
$LUPREC
 70
     4
  9
$SKETCHINC
 40
1.0
  9
$FILLETRAD
 40
10.0
  9
$AUNITS
 70
     0
  9
$AUPREC
 70
     0
  9
$MENU
  1
.
  9
$ELEVATION
 40
0.0
  9
$PELEVATION
 40
0.0
  9
$THICKNESS
 40
0.0
  9
$LIMCHECK
 70
     0
  9
$CHAMFERA
 40
10.0
  9
$CHAMFERB
 40
10.0
  9
$CHAMFERC
 40
20.0
  9
$CHAMFERD
 40
0.0
  9
$SKPOLY
 70
     0
  9
$TDCREATE
 40
2455091.0
  9
$TDUCREATE
 40
2451562.87528772
  9
$TDUPDATE
 40
2455505.0
  9
$TDUUPDATE
 40
2452026.917654526
  9
$TDINDWG
 40
0.0010008681
  9
$TDUSRTIMER
 40
0.0009680671
  9
$USRTIMER
 70
     1
  9
$ANGBASE
 50
0.0
  9
$ANGDIR
 70
     0
  9
$PDMODE
 70
     0
  9
$PDSIZE
 40
0.0
  9
$PLINEWID
 40
0.0
  9
$SPLFRAME
 70
     0
  9
$SPLINETYPE
 70
     6
  9
$SPLINESEGS
 70
     8
  9
$HANDSEED
  5
3F3
  9
$SURFTAB1
 70
     6
  9
$SURFTAB2
 70
     6
  9
$SURFTYPE
 70
     6
  9
$SURFU
 70
     6
  9
$SURFV
 70
     6
  9
$UCSBASE
  2

  9
$UCSNAME
  2

  9
$UCSORG
 10
0.0
 20
0.0
 30
0.0
  9
$UCSXDIR
 10
1.0
 20
0.0
 30
0.0
  9
$UCSYDIR
 10
0.0
 20
1.0
 30
0.0
  9
$UCSORTHOREF
  2

  9
$UCSORTHOVIEW
 70
     0
  9
$UCSORGTOP
 10
0.0
 20
0.0
 30
0.0
  9
$UCSORGBOTTOM
 10
0.0
 20
0.0
 30
0.0
  9
$UCSORGLEFT
 10
0.0
 20
0.0
 30
0.0
  9
$UCSORGRIGHT
 10
0.0
 20
0.0
 30
0.0
  9
$UCSORGFRONT
 10
0.0
 20
0.0
 30
0.0
  9
$UCSORGBACK
 10
0.0
 20
0.0
 30
0.0
  9
$PUCSBASE
  2

  9
$PUCSNAME
  2

  9
$PUCSORG
 10
0.0
 20
0.0
 30
0.0
  9
$PUCSXDIR
 10
1.0
 20
0.0
 30
0.0
  9
$PUCSYDIR
 10
0.0
 20
1.0
 30
0.0
  9
$PUCSORTHOREF
  2

  9
$PUCSORTHOVIEW
 70
     0
  9
$PUCSORGTOP
 10
0.0
 20
0.0
 30
0.0
  9
$PUCSORGBOTTOM
 10
0.0
 20
0.0
 30
0.0
  9
$PUCSORGLEFT
 10
0.0
 20
0.0
 30
0.0
  9
$PUCSORGRIGHT
 10
0.0
 20
0.0
 30
0.0
  9
$PUCSORGFRONT
 10
0.0
 20
0.0
 30
0.0
  9
$PUCSORGBACK
 10
0.0
 20
0.0
 30
0.0
  9
$USERI1
 70
     0
  9
$USERI2
 70
     0
  9
$USERI3
 70
     0
  9
$USERI4
 70
     0
  9
$USERI5
 70
     0
  9
$USERR1
 40
0.0
  9
$USERR2
 40
0.0
  9
$USERR3
 40
0.0
  9
$USERR4
 40
0.0
  9
$USERR5
 40
0.0
  9
$WORLDVIEW
 70
     1
  9
$SHADEDGE
 70
     3
  9
$SHADEDIF
 70
    70
  9
$TILEMODE
 70
     1
  9
$MAXACTVP
 70
    64
  9
$PINSBASE
 10
0.0
 20
0.0
 30
0.0
  9
$PLIMCHECK
 70
     0
  9
$PEXTMIN
 10
-1000.0
 20
-750.0
 30
0.0
  9
$PEXTMAX
 10
1000.0
 20
750.0
 30
0.0
  9
$PLIMMIN
 10
-1000.0
 20
-750.0
  9
$PLIMMAX
 10
1000.0
 20
750.0
  9
$UNITMODE
 70
     0
  9
$VISRETAIN
 70
     1
  9
$PLINEGEN
 70
     0
  9
$PSLTSCALE
 70
     1
  9
$TREEDEPTH
 70
  3020
  9
$CMLSTYLE
  2
Standard
  9
$CMLJUST
 70
     0
  9
$CMLSCALE
 40
20.0
  9
$PROXYGRAPHICS
 70
     1
  9
$MEASUREMENT
 70
     1
  9
$CELWEIGHT
370
    -1
  9
$ENDCAPS
280
     0
  9
$JOINSTYLE
280
     0
  9
$LWDISPLAY
290
     0
  9
$INSUNITS
 70
     4
  9
$HYPERLINKBASE
  1

  9
$STYLESHEET
  1

  9
$XEDIT
290
     1
  9
$CEPSNTYPE
380
     0
  9
$PSTYLEMODE
290
     1
  9
$FINGERPRINTGUID
  2
{B6423330-CE35-11D3-AA43-00E0292263AD}
  9
$VERSIONGUID
  2
{EAA0F794-BAE8-4B09-85E0-65C527BE2B8E}
  9
$EXTNAMES
290
     1
  9
$PSVPSCALE
 40
0.0
  9
$OLESTARTUP
290
     0
  0
ENDSEC
  0
SECTION
  2
CLASSES
  0
CLASS
  1
ACDBDICTIONARYWDFLT
  2
AcDbDictionaryWithDefault
  3
ObjectDBX Classes
 90
        0
280
     0
281
     0
  0
CLASS
  1
ACDBPLACEHOLDER
  2
AcDbPlaceHolder
  3
ObjectDBX Classes
 90
        0
280
     0
281
     0
  0
CLASS
  1
LAYOUT
  2
AcDbLayout
  3
ObjectDBX Classes
 90
        0
280
     0
281
     0
  0
ENDSEC
  0
SECTION
  2
TABLES
  0
TABLE
  2
VPORT
  5
8
330
0
100
AcDbSymbolTable
 70
     3
  0
VPORT
  5
30
330
8
100
AcDbSymbolTableRecord
100
AcDbViewportTableRecord
  2
*Active
 70
     0
 10
0.0
 20
0.0
 11
1.0
 21
1.0
 12
259.0560661764706
 22
148.5
 13
0.0
 23
0.0
 14
10.0
 24
10.0
 15
10.0
 25
10.0
 16
0.0
 26
0.0
 36
1.0
 17
0.0
 27
0.0
 37
0.0
 40
297.1173501144164
 41
1.268382352941176
 42
50.0
 43
0.0
 44
0.0
 50
0.0
 51
0.0
 71
     0
 72
   100
 73
     1
 74
     3
 75
     0
 76
     0
 77
     0
 78
     0
281
     0
 65
     1
110
0.0
120
0.0
130
0.0
111
1.0
121
0.0
131
0.0
112
0.0
122
1.0
132
0.0
 79
     0
146
0.0
  0
ENDTAB
  0
TABLE
  2
LTYPE
  5
5
330
0
100
AcDbSymbolTable
 70
    26
  0
LTYPE
  5
14
330
5
100
AcDbSymbolTableRecord
100
AcDbLinetypeTableRecord
  2
ByBlock
 70
     0
  3

 72
    65
 73
     0
 40
0.0
  0
LTYPE
  5
15
330
5
100
AcDbSymbolTableRecord
100
AcDbLinetypeTableRecord
  2
ByLayer
 70
     0
  3

 72
    65
 73
     0
 40
0.0
  0
LTYPE
  5
16
330
5
100
AcDbSymbolTableRecord
100
AcDbLinetypeTableRecord
  2
Continuous
 70
     0
  3
Solid line
 72
    65
 73
     0
 40
0.0
  0
LTYPE
  5
37
330
5
100
AcDbSymbolTableRecord
100
AcDbLinetypeTableRecord
  2
BORDER
 70
     0
  3
 __ __ . __ __ . __ __ . __ __ . __ __ . __ __
 72
    65
 73
     6
 40
1.75
 49
0.5
 74
     0
 49
-0.25
 74
     0
 49
0.5
 74
     0
 49
-0.25
 74
     0
 49
0.0
 74
     0
 49
-0.25
 74
     0
  0
LTYPE
  5
38
330
5
100
AcDbSymbolTableRecord
100
AcDbLinetypeTableRecord
  2
BORDER2
 70
     0
  3
__.__.__.__.__.__.__.__.__.__.__.__.__.__.__
 72
    65
 73
     6
 40
0.875
 49
0.25
 74
     0
 49
-0.125
 74
     0
 49
0.25
 74
     0
 49
-0.125
 74
     0
 49
0.0
 74
     0
 49
-0.125
 74
     0
  0
LTYPE
  5
39
330
5
100
AcDbSymbolTableRecord
100
AcDbLinetypeTableRecord
  2
BORDERX2
 70
     0
  3
____  ____  .  ____  ____  .  ____  ____  .
 72
    65
 73
     6
 40
3.5
 49
1.0
 74
     0
 49
-0.5
 74
     0
 49
1.0
 74
     0
 49
-0.5
 74
     0
 49
0.0
 74
     0
 49
-0.5
 74
     0
  0
LTYPE
  5
3A
330
5
100
AcDbSymbolTableRecord
100
AcDbLinetypeTableRecord
  2
CENTER
 70
     0
  3
____ _ ____ _ ____ _ ____ _ ____ _ ____ _ ____
 72
    65
 73
     4
 40
2.0
 49
1.25
 74
     0
 49
-0.25
 74
     0
 49
0.25
 74
     0
 49
-0.25
 74
     0
  0
LTYPE
  5
3B
330
5
100
AcDbSymbolTableRecord
100
AcDbLinetypeTableRecord
  2
CENTER2
 70
     0
  3
___ _ ___ _ ___ _ ___ _ ___ _ ___ _ ___ _ ___ 
 72
    65
 73
     4
 40
1.125
 49
0.75
 74
     0
 49
-0.125
 74
     0
 49
0.125
 74
     0
 49
-0.125
 74
     0
  0
LTYPE
  5
3C
330
5
100
AcDbSymbolTableRecord
100
AcDbLinetypeTableRecord
  2
CENTERX2
 70
     0
  3
________  __  ________  __  ________  __
 72
    65
 73
     4
 40
4.0
 49
2.5
 74
     0
 49
-0.5
 74
     0
 49
0.5
 74
     0
 49
-0.5
 74
     0
  0
LTYPE
  5
3D
330
5
100
AcDbSymbolTableRecord
100
AcDbLinetypeTableRecord
  2
DASHDOT
 70
     0
  3
__ . __ . __ . __ . __ . __ . __ . __ . __ .
 72
    65
 73
     4
 40
1.0
 49
0.5
 74
     0
 49
-0.25
 74
     0
 49
0.0
 74
     0
 49
-0.25
 74
     0
  0
LTYPE
  5
3E
330
5
100
AcDbSymbolTableRecord
100
AcDbLinetypeTableRecord
  2
DASHDOT2
 70
     0
  3
_._._._._._._._._._._._._._._._._._._._._._._.
 72
    65
 73
     4
 40
0.5
 49
0.25
 74
     0
 49
-0.125
 74
     0
 49
0.0
 74
     0
 49
-0.125
 74
     0
  0
LTYPE
  5
3F
330
5
100
AcDbSymbolTableRecord
100
AcDbLinetypeTableRecord
  2
DASHDOTX2
 70
     0
  3
____  .  ____  .  ____  .  ____  .  ____  .
 72
    65
 73
     4
 40
2.0
 49
1.0
 74
     0
 49
-0.5
 74
     0
 49
0.0
 74
     0
 49
-0.5
 74
     0
  0
LTYPE
  5
40
330
5
100
AcDbSymbolTableRecord
100
AcDbLinetypeTableRecord
  2
DASHED
 70
     0
  3
__ __ __ __ __ __ __ __ __ __ __ __ __ __ __
 72
    65
 73
     2
 40
0.75
 49
0.5
 74
     0
 49
-0.25
 74
     0
  0
LTYPE
  5
41
330
5
100
AcDbSymbolTableRecord
100
AcDbLinetypeTableRecord
  2
DASHED2
 70
     0
  3
_ _ _ _ _ _ _ _ _ _ _ _ _ _ _ _ _ _ _ _ _ _ _
 72
    65
 73
     2
 40
0.375
 49
0.25
 74
     0
 49
-0.125
 74
     0
  0
LTYPE
  5
42
330
5
100
AcDbSymbolTableRecord
100
AcDbLinetypeTableRecord
  2
DASHEDX2
 70
     0
  3
____  ____  ____  ____  ____  ____  ____  ____
 72
    65
 73
     2
 40
1.5
 49
1.0
 74
     0
 49
-0.5
 74
     0
  0
LTYPE
  5
43
330
5
100
AcDbSymbolTableRecord
100
AcDbLinetypeTableRecord
  2
DIVIDE
 70
     0
  3
____ . . ____ . . ____ . . ____ . . ____ . .
 72
    65
 73
     6
 40
1.25
 49
0.5
 74
     0
 49
-0.25
 74
     0
 49
0.0
 74
     0
 49
-0.25
 74
     0
 49
0.0
 74
     0
 49
-0.25
 74
     0
  0
LTYPE
  5
44
330
5
100
AcDbSymbolTableRecord
100
AcDbLinetypeTableRecord
  2
DIVIDE2
 70
     0
  3
__..__..__..__..__..__..__..__..__..__..__..__
 72
    65
 73
     6
 40
0.625
 49
0.25
 74
     0
 49
-0.125
 74
     0
 49
0.0
 74
     0
 49
-0.125
 74
     0
 49
0.0
 74
     0
 49
-0.125
 74
     0
  0
LTYPE
  5
45
330
5
100
AcDbSymbolTableRecord
100
AcDbLinetypeTableRecord
  2
DIVIDEX2
 70
     0
  3
________  .  .  ________  .  .  ________  .  .
 72
    65
 73
     6
 40
2.5
 49
1.0
 74
     0
 49
-0.5
 74
     0
 49
0.0
 74
     0
 49
-0.5
 74
     0
 49
0.0
 74
     0
 49
-0.5
 74
     0
  0
LTYPE
  5
46
330
5
100
AcDbSymbolTableRecord
100
AcDbLinetypeTableRecord
  2
DOT
 70
     0
  3
. . . . . . . . . . . . . . . . . . . . . . .
 72
    65
 73
     2
 40
0.25
 49
0.0
 74
     0
 49
-0.25
 74
     0
  0
LTYPE
  5
47
330
5
100
AcDbSymbolTableRecord
100
AcDbLinetypeTableRecord
  2
DOT2
 70
     0
  3
..............................................
 72
    65
 73
     2
 40
0.125
 49
0.0
 74
     0
 49
-0.125
 74
     0
  0
LTYPE
  5
48
330
5
100
AcDbSymbolTableRecord
100
AcDbLinetypeTableRecord
  2
DOTX2
 70
     0
  3
.  .  .  .  .  .  .  .  .  .  .  .  .  .  .  .
 72
    65
 73
     2
 40
0.5
 49
0.0
 74
     0
 49
-0.5
 74
     0
  0
LTYPE
  5
49
330
5
100
AcDbSymbolTableRecord
100
AcDbLinetypeTableRecord
  2
HIDDEN
 70
     0
  3
__ __ __ __ __ __ __ __ __ __ __ __ __ __ __
 72
    65
 73
     2
 40
0.375
 49
0.25
 74
     0
 49
-0.125
 74
     0
  0
LTYPE
  5
4A
330
5
100
AcDbSymbolTableRecord
100
AcDbLinetypeTableRecord
  2
HIDDEN2
 70
     0
  3
_ _ _ _ _ _ _ _ _ _ _ _ _ _ _ _ _ _ _ _ _ _ _
 72
    65
 73
     2
 40
0.1875
 49
0.125
 74
     0
 49
-0.0625
 74
     0
  0
LTYPE
  5
4B
330
5
100
AcDbSymbolTableRecord
100
AcDbLinetypeTableRecord
  2
HIDDENX2
 70
     0
  3
____ ____ ____ ____ ____ ____ ____ ____ ____
 72
    65
 73
     2
 40
0.75
 49
0.5
 74
     0
 49
-0.25
 74
     0
  0
LTYPE
  5
4C
330
5
100
AcDbSymbolTableRecord
100
AcDbLinetypeTableRecord
  2
PHANTOM
 70
     0
  3
______  __  __  ______  __  __  ______  __
 72
    65
 73
     6
 40
2.5
 49
1.25
 74
     0
 49
-0.25
 74
     0
 49
0.25
 74
     0
 49
-0.25
 74
     0
 49
0.25
 74
     0
 49
-0.25
 74
     0
  0
LTYPE
  5
4D
330
5
100
AcDbSymbolTableRecord
100
AcDbLinetypeTableRecord
  2
PHANTOM2
 70
     0
  3
___ _ _ ___ _ _ ___ _ _ ___ _ _ ___ _ _ ___ _
 72
    65
 73
     6
 40
1.25
 49
0.625
 74
     0
 49
-0.125
 74
     0
 49
0.125
 74
     0
 49
-0.125
 74
     0
 49
0.125
 74
     0
 49
-0.125
 74
     0
  0
LTYPE
  5
4E
330
5
100
AcDbSymbolTableRecord
100
AcDbLinetypeTableRecord
  2
PHANTOMX2
 70
     0
  3
____________    ____    ____    ____________
 72
    65
 73
     6
 40
5.0
 49
2.5
 74
     0
 49
-0.5
 74
     0
 49
0.5
 74
     0
 49
-0.5
 74
     0
 49
0.5
 74
     0
 49
-0.5
 74
     0
  0
LTYPE
  5
4F
330
5
100
AcDbSymbolTableRecord
100
AcDbLinetypeTableRecord
  2
CONTINUOUS2
 70
     0
  3
Solid line
 72
    65
 73
     0
 40
0.0
  0
ENDTAB
  0
TABLE
  2
LAYER
  5
2
330
0
100
AcDbSymbolTable
 70
   258
  0
LAYER
  5
10
330
2
100
AcDbSymbolTableRecord
100
AcDbLayerTableRecord
  2
0
 70
     0
 62
     7
  6
Continuous
370
    -3
390
F
  0
LAYER
  5
50
330
2
100
AcDbSymbolTableRecord
100
AcDbLayerTableRecord
  2
LAYER-001
 70
     0
 62
     7
  6
Continuous
370
    -3
390
F
  0
LAYER
  5
51
330
2
100
AcDbSymbolTableRecord
100
AcDbLayerTableRecord
  2
LAYER-002
 70
     0
 62
     7
  6
Continuous
370
    -3
390
F
  0
LAYER
  5
52
330
2
100
AcDbSymbolTableRecord
100
AcDbLayerTableRecord
  2
LAYER-003
 70
     0
 62
     7
  6
Continuous
370
    -3
390
F
  0
LAYER
  5
53
330
2
100
AcDbSymbolTableRecord
100
AcDbLayerTableRecord
  2
LAYER-004
 70
     0
 62
     7
  6
Continuous
370
    -3
390
F
  0
LAYER
  5
54
330
2
100
AcDbSymbolTableRecord
100
AcDbLayerTableRecord
  2
LAYER-005
 70
     0
 62
     7
  6
Continuous
370
    -3
390
F
  0
LAYER
  5
55
330
2
100
AcDbSymbolTableRecord
100
AcDbLayerTableRecord
  2
LAYER-006
 70
     0
 62
     7
  6
Continuous
370
    -3
390
F
  0
LAYER
  5
56
330
2
100
AcDbSymbolTableRecord
100
AcDbLayerTableRecord
  2
LAYER-007
 70
     0
 62
     7
  6
Continuous
370
    -3
390
F
  0
LAYER
  5
57
330
2
100
AcDbSymbolTableRecord
100
AcDbLayerTableRecord
  2
LAYER-008
 70
     0
 62
     7
  6
Continuous
370
    -3
390
F
  0
LAYER
  5
58
330
2
100
AcDbSymbolTableRecord
100
AcDbLayerTableRecord
  2
LAYER-009
 70
     0
 62
     7
  6
Continuous
370
    -3
390
F
  0
LAYER
  5
59
330
2
100
AcDbSymbolTableRecord
100
AcDbLayerTableRecord
  2
LAYER-010
 70
     0
 62
     7
  6
Continuous
370
    -3
390
F
  0
LAYER
  5
5A
330
2
100
AcDbSymbolTableRecord
100
AcDbLayerTableRecord
  2
LAYER-011
 70
     0
 62
     7
  6
Continuous
370
    -3
390
F
  0
LAYER
  5
5B
330
2
100
AcDbSymbolTableRecord
100
AcDbLayerTableRecord
  2
LAYER-012
 70
     0
 62
     7
  6
Continuous
370
    -3
390
F
  0
LAYER
  5
5C
330
2
100
AcDbSymbolTableRecord
100
AcDbLayerTableRecord
  2
LAYER-013
 70
     0
 62
     7
  6
Continuous
370
    -3
390
F
  0
LAYER
  5
5D
330
2
100
AcDbSymbolTableRecord
100
AcDbLayerTableRecord
  2
LAYER-014
 70
     0
 62
     7
  6
Continuous
370
    -3
390
F
  0
LAYER
  5
5E
330
2
100
AcDbSymbolTableRecord
100
AcDbLayerTableRecord
  2
LAYER-015
 70
     0
 62
    -7
  6
Continuous
370
    -3
390
F
  0
LAYER
  5
5F
330
2
100
AcDbSymbolTableRecord
100
AcDbLayerTableRecord
  2
LAYER-016
 70
     0
 62
     4
  6
Continuous
370
    -3
390
F
  0
LAYER
  5
60
330
2
100
AcDbSymbolTableRecord
100
AcDbLayerTableRecord
  2
LAYER-017
 70
     0
 62
     7
  6
Continuous
370
    -3
390
F
  0
LAYER
  5
61
330
2
100
AcDbSymbolTableRecord
100
AcDbLayerTableRecord
  2
LAYER-018
 70
     0
 62
     2
  6
Continuous
370
    -3
390
F
  0
LAYER
  5
62
330
2
100
AcDbSymbolTableRecord
100
AcDbLayerTableRecord
  2
LAYER-019
 70
     0
 62
     3
  6
Continuous
370
    -3
390
F
  0
LAYER
  5
63
330
2
100
AcDbSymbolTableRecord
100
AcDbLayerTableRecord
  2
LAYER-020
 70
     0
 62
     2
  6
Continuous
370
    -3
390
F
  0
LAYER
  5
64
330
2
100
AcDbSymbolTableRecord
100
AcDbLayerTableRecord
  2
LAYER-021
 70
     0
 62
     7
  6
Continuous
370
    -3
390
F
  0
LAYER
  5
65
330
2
100
AcDbSymbolTableRecord
100
AcDbLayerTableRecord
  2
LAYER-022
 70
     0
 62
     4
  6
Continuous
370
    -3
390
F
  0
LAYER
  5
66
330
2
100
AcDbSymbolTableRecord
100
AcDbLayerTableRecord
  2
LAYER-023
 70
     0
 62
     4
  6
Continuous
370
    -3
390
F
  0
LAYER
  5
67
330
2
100
AcDbSymbolTableRecord
100
AcDbLayerTableRecord
  2
LAYER-024
 70
     0
 62
     7
  6
Continuous
370
    -3
390
F
  0
LAYER
  5
68
330
2
100
AcDbSymbolTableRecord
100
AcDbLayerTableRecord
  2
LAYER-025
 70
     0
 62
     7
  6
Continuous
370
    -3
390
F
  0
LAYER
  5
69
330
2
100
AcDbSymbolTableRecord
100
AcDbLayerTableRecord
  2
LAYER-026
 70
     0
 62
    -7
  6
Continuous
370
    -3
390
F
  0
LAYER
  5
6A
330
2
100
AcDbSymbolTableRecord
100
AcDbLayerTableRecord
  2
LAYER-027
 70
     0
 62
     7
  6
Continuous
370
    -3
390
F
  0
LAYER
  5
6B
330
2
100
AcDbSymbolTableRecord
100
AcDbLayerTableRecord
  2
LAYER-028
 70
     0
 62
     7
  6
Continuous
370
    -3
390
F
  0
LAYER
  5
6C
330
2
100
AcDbSymbolTableRecord
100
AcDbLayerTableRecord
  2
LAYER-029
 70
     0
 62
     7
  6
Continuous
370
    -3
390
F
  0
LAYER
  5
6D
330
2
100
AcDbSymbolTableRecord
100
AcDbLayerTableRecord
  2
LAYER-030
 70
     0
 62
     2
  6
Continuous
370
    -3
390
F
  0
LAYER
  5
6E
330
2
100
AcDbSymbolTableRecord
100
AcDbLayerTableRecord
  2
LAYER-031
 70
     0
 62
     7
  6
Continuous
370
    -3
390
F
  0
LAYER
  5
6F
330
2
100
AcDbSymbolTableRecord
100
AcDbLayerTableRecord
  2
LAYER-032
 70
     0
 62
     2
  6
Continuous
370
    -3
390
F
  0
LAYER
  5
70
330
2
100
AcDbSymbolTableRecord
100
AcDbLayerTableRecord
  2
LAYER-033
 70
     0
 62
     7
  6
Continuous
370
    -3
390
F
  0
LAYER
  5
71
330
2
100
AcDbSymbolTableRecord
100
AcDbLayerTableRecord
  2
LAYER-034
 70
     0
 62
     7
  6
Continuous
370
    -3
390
F
  0
LAYER
  5
72
330
2
100
AcDbSymbolTableRecord
100
AcDbLayerTableRecord
  2
LAYER-035
 70
     0
 62
     3
  6
Continuous
370
    -3
390
F
  0
LAYER
  5
73
330
2
100
AcDbSymbolTableRecord
100
AcDbLayerTableRecord
  2
LAYER-036
 70
     0
 62
     2
  6
Continuous
370
    -3
390
F
  0
LAYER
  5
74
330
2
100
AcDbSymbolTableRecord
100
AcDbLayerTableRecord
  2
LAYER-037
 70
     0
 62
     7
  6
Continuous
370
    -3
390
F
  0
LAYER
  5
75
330
2
100
AcDbSymbolTableRecord
100
AcDbLayerTableRecord
  2
LAYER-038
 70
     0
 62
     7
  6
Continuous
370
    -3
390
F
  0
LAYER
  5
76
330
2
100
AcDbSymbolTableRecord
100
AcDbLayerTableRecord
  2
LAYER-039
 70
     0
 62
     7
  6
Continuous
370
    -3
390
F
  0
LAYER
  5
77
330
2
100
AcDbSymbolTableRecord
100
AcDbLayerTableRecord
  2
LAYER-040
 70
     0
 62
     7
  6
Continuous
370
    -3
390
F
  0
LAYER
  5
78
330
2
100
AcDbSymbolTableRecord
100
AcDbLayerTableRecord
  2
LAYER-041
 70
     0
 62
     7
  6
Continuous
370
    -3
390
F
  0
LAYER
  5
79
330
2
100
AcDbSymbolTableRecord
100
AcDbLayerTableRecord
  2
LAYER-042
 70
     0
 62
     7
  6
Continuous
370
    -3
390
F
  0
LAYER
  5
7A
330
2
100
AcDbSymbolTableRecord
100
AcDbLayerTableRecord
  2
LAYER-043
 70
     0
 62
     7
  6
Continuous
370
    -3
390
F
  0
LAYER
  5
7B
330
2
100
AcDbSymbolTableRecord
100
AcDbLayerTableRecord
  2
LAYER-044
 70
     0
 62
     7
  6
Continuous
370
    -3
390
F
  0
LAYER
  5
7C
330
2
100
AcDbSymbolTableRecord
100
AcDbLayerTableRecord
  2
LAYER-045
 70
     0
 62
     7
  6
Continuous
370
    -3
390
F
  0
LAYER
  5
7D
330
2
100
AcDbSymbolTableRecord
100
AcDbLayerTableRecord
  2
LAYER-046
 70
     0
 62
     7
  6
Continuous
370
    -3
390
F
  0
LAYER
  5
7E
330
2
100
AcDbSymbolTableRecord
100
AcDbLayerTableRecord
  2
LAYER-047
 70
     0
 62
     7
  6
Continuous
370
    -3
390
F
  0
LAYER
  5
7F
330
2
100
AcDbSymbolTableRecord
100
AcDbLayerTableRecord
  2
LAYER-048
 70
     0
 62
     2
  6
Continuous
370
    -3
390
F
  0
LAYER
  5
80
330
2
100
AcDbSymbolTableRecord
100
AcDbLayerTableRecord
  2
LAYER-049
 70
     0
 62
     3
  6
Continuous
370
    -3
390
F
  0
LAYER
  5
81
330
2
100
AcDbSymbolTableRecord
100
AcDbLayerTableRecord
  2
LAYER-050
 70
     0
 62
     7
  6
Continuous
370
    -3
390
F
  0
LAYER
  5
82
330
2
100
AcDbSymbolTableRecord
100
AcDbLayerTableRecord
  2
LAYER-051
 70
     0
 62
     2
  6
Continuous
370
    -3
390
F
  0
LAYER
  5
83
330
2
100
AcDbSymbolTableRecord
100
AcDbLayerTableRecord
  2
LAYER-052
 70
     0
 62
     7
  6
Continuous
370
    -3
390
F
  0
LAYER
  5
84
330
2
100
AcDbSymbolTableRecord
100
AcDbLayerTableRecord
  2
LAYER-053
 70
     0
 62
     7
  6
Continuous
370
    -3
390
F
  0
LAYER
  5
85
330
2
100
AcDbSymbolTableRecord
100
AcDbLayerTableRecord
  2
LAYER-054
 70
     0
 62
     7
  6
Continuous
370
    -3
390
F
  0
LAYER
  5
86
330
2
100
AcDbSymbolTableRecord
100
AcDbLayerTableRecord
  2
LAYER-055
 70
     0
 62
     7
  6
Continuous
370
    -3
390
F
  0
LAYER
  5
87
330
2
100
AcDbSymbolTableRecord
100
AcDbLayerTableRecord
  2
LAYER-056
 70
     0
 62
     7
  6
Continuous
370
    -3
390
F
  0
LAYER
  5
88
330
2
100
AcDbSymbolTableRecord
100
AcDbLayerTableRecord
  2
LAYER-057
 70
     0
 62
     7
  6
Continuous
370
    -3
390
F
  0
LAYER
  5
89
330
2
100
AcDbSymbolTableRecord
100
AcDbLayerTableRecord
  2
LAYER-058
 70
     0
 62
     7
  6
Continuous
370
    -3
390
F
  0
LAYER
  5
8A
330
2
100
AcDbSymbolTableRecord
100
AcDbLayerTableRecord
  2
LAYER-059
 70
     0
 62
     7
  6
Continuous
370
    -3
390
F
  0
LAYER
  5
8B
330
2
100
AcDbSymbolTableRecord
100
AcDbLayerTableRecord
  2
LAYER-060
 70
     0
 62
     7
  6
Continuous
370
    -3
390
F
  0
LAYER
  5
8C
330
2
100
AcDbSymbolTableRecord
100
AcDbLayerTableRecord
  2
LAYER-061
 70
     0
 62
     7
  6
Continuous
370
    -3
390
F
  0
LAYER
  5
8D
330
2
100
AcDbSymbolTableRecord
100
AcDbLayerTableRecord
  2
LAYER-062
 70
     0
 62
     7
  6
Continuous
370
    -3
390
F
  0
LAYER
  5
8E
330
2
100
AcDbSymbolTableRecord
100
AcDbLayerTableRecord
  2
LAYER-063
 70
     0
 62
     7
  6
Continuous
370
    -3
390
F
  0
LAYER
  5
8F
330
2
100
AcDbSymbolTableRecord
100
AcDbLayerTableRecord
  2
LAYER-064
 70
     0
 62
     2
  6
Continuous
370
    -3
390
F
  0
LAYER
  5
90
330
2
100
AcDbSymbolTableRecord
100
AcDbLayerTableRecord
  2
LAYER-065
 70
     0
 62
     7
  6
Continuous
370
    -3
390
F
  0
LAYER
  5
91
330
2
100
AcDbSymbolTableRecord
100
AcDbLayerTableRecord
  2
LAYER-066
 70
     0
 62
     2
  6
Continuous
370
    -3
390
F
  0
LAYER
  5
92
330
2
100
AcDbSymbolTableRecord
100
AcDbLayerTableRecord
  2
LAYER-067
 70
     0
 62
     2
  6
Continuous
370
    -3
390
F
  0
LAYER
  5
93
330
2
100
AcDbSymbolTableRecord
100
AcDbLayerTableRecord
  2
LAYER-068
 70
     0
 62
     7
  6
Continuous
370
    -3
390
F
  0
LAYER
  5
94
330
2
100
AcDbSymbolTableRecord
100
AcDbLayerTableRecord
  2
LAYER-069
 70
     0
 62
     7
  6
Continuous
370
    -3
390
F
  0
LAYER
  5
95
330
2
100
AcDbSymbolTableRecord
100
AcDbLayerTableRecord
  2
LAYER-070
 70
     0
 62
     7
  6
Continuous
370
    -3
390
F
  0
LAYER
  5
96
330
2
100
AcDbSymbolTableRecord
100
AcDbLayerTableRecord
  2
LAYER-071
 70
     0
 62
     7
  6
Continuous
370
    -3
390
F
  0
LAYER
  5
97
330
2
100
AcDbSymbolTableRecord
100
AcDbLayerTableRecord
  2
LAYER-072
 70
     0
 62
     7
  6
Continuous
370
    -3
390
F
  0
LAYER
  5
98
330
2
100
AcDbSymbolTableRecord
100
AcDbLayerTableRecord
  2
LAYER-073
 70
     0
 62
     7
  6
Continuous
370
    -3
390
F
  0
LAYER
  5
99
330
2
100
AcDbSymbolTableRecord
100
AcDbLayerTableRecord
  2
LAYER-074
 70
     0
 62
     7
  6
Continuous
370
    -3
390
F
  0
LAYER
  5
9A
330
2
100
AcDbSymbolTableRecord
100
AcDbLayerTableRecord
  2
LAYER-075
 70
     0
 62
     7
  6
Continuous
370
    -3
390
F
  0
LAYER
  5
9B
330
2
100
AcDbSymbolTableRecord
100
AcDbLayerTableRecord
  2
LAYER-076
 70
     0
 62
     7
  6
Continuous
370
    -3
390
F
  0
LAYER
  5
9C
330
2
100
AcDbSymbolTableRecord
100
AcDbLayerTableRecord
  2
LAYER-077
 70
     0
 62
     7
  6
Continuous
370
    -3
390
F
  0
LAYER
  5
9D
330
2
100
AcDbSymbolTableRecord
100
AcDbLayerTableRecord
  2
LAYER-078
 70
     0
 62
     7
  6
Continuous
370
    -3
390
F
  0
LAYER
  5
9E
330
2
100
AcDbSymbolTableRecord
100
AcDbLayerTableRecord
  2
LAYER-079
 70
     0
 62
     7
  6
Continuous
370
    -3
390
F
  0
LAYER
  5
9F
330
2
100
AcDbSymbolTableRecord
100
AcDbLayerTableRecord
  2
LAYER-080
 70
     0
 62
     2
  6
Continuous
370
    -3
390
F
  0
LAYER
  5
A0
330
2
100
AcDbSymbolTableRecord
100
AcDbLayerTableRecord
  2
LAYER-081
 70
     0
 62
     7
  6
Continuous
370
    -3
390
F
  0
LAYER
  5
A1
330
2
100
AcDbSymbolTableRecord
100
AcDbLayerTableRecord
  2
LAYER-082
 70
     0
 62
     7
  6
Continuous
370
    -3
390
F
  0
LAYER
  5
A2
330
2
100
AcDbSymbolTableRecord
100
AcDbLayerTableRecord
  2
LAYER-083
 70
     0
 62
     7
  6
Continuous
370
    -3
390
F
  0
LAYER
  5
A3
330
2
100
AcDbSymbolTableRecord
100
AcDbLayerTableRecord
  2
LAYER-084
 70
     0
 62
     7
  6
Continuous
370
    -3
390
F
  0
LAYER
  5
A4
330
2
100
AcDbSymbolTableRecord
100
AcDbLayerTableRecord
  2
LAYER-085
 70
     0
 62
     7
  6
Continuous
370
    -3
390
F
  0
LAYER
  5
A5
330
2
100
AcDbSymbolTableRecord
100
AcDbLayerTableRecord
  2
LAYER-086
 70
     0
 62
     7
  6
Continuous
370
    -3
390
F
  0
LAYER
  5
A6
330
2
100
AcDbSymbolTableRecord
100
AcDbLayerTableRecord
  2
LAYER-087
 70
     0
 62
     7
  6
Continuous
370
    -3
390
F
  0
LAYER
  5
A7
330
2
100
AcDbSymbolTableRecord
100
AcDbLayerTableRecord
  2
LAYER-088
 70
     0
 62
     7
  6
Continuous
370
    -3
390
F
  0
LAYER
  5
A8
330
2
100
AcDbSymbolTableRecord
100
AcDbLayerTableRecord
  2
LAYER-089
 70
     0
 62
     7
  6
Continuous
370
    -3
390
F
  0
LAYER
  5
A9
330
2
100
AcDbSymbolTableRecord
100
AcDbLayerTableRecord
  2
LAYER-090
 70
     0
 62
     7
  6
Continuous
370
    -3
390
F
  0
LAYER
  5
AA
330
2
100
AcDbSymbolTableRecord
100
AcDbLayerTableRecord
  2
LAYER-091
 70
     0
 62
     7
  6
Continuous
370
    -3
390
F
  0
LAYER
  5
AB
330
2
100
AcDbSymbolTableRecord
100
AcDbLayerTableRecord
  2
LAYER-092
 70
     0
 62
     7
  6
Continuous
370
    -3
390
F
  0
LAYER
  5
AC
330
2
100
AcDbSymbolTableRecord
100
AcDbLayerTableRecord
  2
LAYER-093
 70
     0
 62
     7
  6
Continuous
370
    -3
390
F
  0
LAYER
  5
AD
330
2
100
AcDbSymbolTableRecord
100
AcDbLayerTableRecord
  2
LAYER-094
 70
     0
 62
     7
  6
Continuous
370
    -3
390
F
  0
LAYER
  5
AE
330
2
100
AcDbSymbolTableRecord
100
AcDbLayerTableRecord
  2
LAYER-095
 70
     0
 62
     7
  6
Continuous
370
    -3
390
F
  0
LAYER
  5
AF
330
2
100
AcDbSymbolTableRecord
100
AcDbLayerTableRecord
  2
LAYER-096
 70
     0
 62
     7
  6
Continuous
370
    -3
390
F
  0
LAYER
  5
B0
330
2
100
AcDbSymbolTableRecord
100
AcDbLayerTableRecord
  2
LAYER-097
 70
     0
 62
     7
  6
Continuous
370
    -3
390
F
  0
LAYER
  5
B1
330
2
100
AcDbSymbolTableRecord
100
AcDbLayerTableRecord
  2
LAYER-098
 70
     0
 62
     7
  6
Continuous
370
    -3
390
F
  0
LAYER
  5
B2
330
2
100
AcDbSymbolTableRecord
100
AcDbLayerTableRecord
  2
LAYER-099
 70
     0
 62
     7
  6
Continuous
370
    -3
390
F
  0
LAYER
  5
B3
330
2
100
AcDbSymbolTableRecord
100
AcDbLayerTableRecord
  2
LAYER-100
 70
     0
 62
     7
  6
Continuous
370
    -3
390
F
  0
LAYER
  5
B4
330
2
100
AcDbSymbolTableRecord
100
AcDbLayerTableRecord
  2
LAYER-101
 70
     0
 62
     7
  6
Continuous
370
    -3
390
F
  0
LAYER
  5
B5
330
2
100
AcDbSymbolTableRecord
100
AcDbLayerTableRecord
  2
LAYER-102
 70
     0
 62
     7
  6
Continuous
370
    -3
390
F
  0
LAYER
  5
B6
330
2
100
AcDbSymbolTableRecord
100
AcDbLayerTableRecord
  2
LAYER-103
 70
     0
 62
     7
  6
Continuous
370
    -3
390
F
  0
LAYER
  5
B7
330
2
100
AcDbSymbolTableRecord
100
AcDbLayerTableRecord
  2
LAYER-104
 70
     0
 62
     7
  6
Continuous
370
    -3
390
F
  0
LAYER
  5
B8
330
2
100
AcDbSymbolTableRecord
100
AcDbLayerTableRecord
  2
LAYER-105
 70
     0
 62
     7
  6
Continuous
370
    -3
390
F
  0
LAYER
  5
B9
330
2
100
AcDbSymbolTableRecord
100
AcDbLayerTableRecord
  2
LAYER-106
 70
     0
 62
     7
  6
Continuous
370
    -3
390
F
  0
LAYER
  5
BA
330
2
100
AcDbSymbolTableRecord
100
AcDbLayerTableRecord
  2
LAYER-107
 70
     0
 62
     7
  6
Continuous
370
    -3
390
F
  0
LAYER
  5
BB
330
2
100
AcDbSymbolTableRecord
100
AcDbLayerTableRecord
  2
LAYER-108
 70
     0
 62
     7
  6
Continuous
370
    -3
390
F
  0
LAYER
  5
BC
330
2
100
AcDbSymbolTableRecord
100
AcDbLayerTableRecord
  2
LAYER-109
 70
     0
 62
     7
  6
Continuous
370
    -3
390
F
  0
LAYER
  5
BD
330
2
100
AcDbSymbolTableRecord
100
AcDbLayerTableRecord
  2
LAYER-110
 70
     0
 62
     7
  6
Continuous
370
    -3
390
F
  0
LAYER
  5
BE
330
2
100
AcDbSymbolTableRecord
100
AcDbLayerTableRecord
  2
LAYER-111
 70
     0
 62
     7
  6
Continuous
370
    -3
390
F
  0
LAYER
  5
BF
330
2
100
AcDbSymbolTableRecord
100
AcDbLayerTableRecord
  2
LAYER-112
 70
     0
 62
     7
  6
Continuous
370
    -3
390
F
  0
LAYER
  5
C0
330
2
100
AcDbSymbolTableRecord
100
AcDbLayerTableRecord
  2
LAYER-113
 70
     0
 62
     7
  6
Continuous
370
    -3
390
F
  0
LAYER
  5
C1
330
2
100
AcDbSymbolTableRecord
100
AcDbLayerTableRecord
  2
LAYER-114
 70
     0
 62
     7
  6
Continuous
370
    -3
390
F
  0
LAYER
  5
C2
330
2
100
AcDbSymbolTableRecord
100
AcDbLayerTableRecord
  2
LAYER-115
 70
     0
 62
     7
  6
Continuous
370
    -3
390
F
  0
LAYER
  5
C3
330
2
100
AcDbSymbolTableRecord
100
AcDbLayerTableRecord
  2
LAYER-116
 70
     0
 62
     7
  6
Continuous
370
    -3
390
F
  0
LAYER
  5
C4
330
2
100
AcDbSymbolTableRecord
100
AcDbLayerTableRecord
  2
LAYER-117
 70
     0
 62
     7
  6
Continuous
370
    -3
390
F
  0
LAYER
  5
C5
330
2
100
AcDbSymbolTableRecord
100
AcDbLayerTableRecord
  2
LAYER-118
 70
     0
 62
     7
  6
Continuous
370
    -3
390
F
  0
LAYER
  5
C6
330
2
100
AcDbSymbolTableRecord
100
AcDbLayerTableRecord
  2
LAYER-119
 70
     0
 62
     7
  6
Continuous
370
    -3
390
F
  0
LAYER
  5
C7
330
2
100
AcDbSymbolTableRecord
100
AcDbLayerTableRecord
  2
LAYER-120
 70
     0
 62
     7
  6
Continuous
370
    -3
390
F
  0
LAYER
  5
C8
330
2
100
AcDbSymbolTableRecord
100
AcDbLayerTableRecord
  2
LAYER-121
 70
     0
 62
     7
  6
Continuous
370
    -3
390
F
  0
LAYER
  5
C9
330
2
100
AcDbSymbolTableRecord
100
AcDbLayerTableRecord
  2
LAYER-122
 70
     0
 62
     7
  6
Continuous
370
    -3
390
F
  0
LAYER
  5
CA
330
2
100
AcDbSymbolTableRecord
100
AcDbLayerTableRecord
  2
LAYER-123
 70
     0
 62
     7
  6
Continuous
370
    -3
390
F
  0
LAYER
  5
CB
330
2
100
AcDbSymbolTableRecord
100
AcDbLayerTableRecord
  2
LAYER-124
 70
     0
 62
     7
  6
Continuous
370
    -3
390
F
  0
LAYER
  5
CC
330
2
100
AcDbSymbolTableRecord
100
AcDbLayerTableRecord
  2
LAYER-125
 70
     0
 62
     7
  6
Continuous
370
    -3
390
F
  0
LAYER
  5
CD
330
2
100
AcDbSymbolTableRecord
100
AcDbLayerTableRecord
  2
LAYER-126
 70
     0
 62
     7
  6
Continuous
370
    -3
390
F
  0
LAYER
  5
CE
330
2
100
AcDbSymbolTableRecord
100
AcDbLayerTableRecord
  2
LAYER-127
 70
     0
 62
     7
  6
Continuous
370
    -3
390
F
  0
LAYER
  5
CF
330
2
100
AcDbSymbolTableRecord
100
AcDbLayerTableRecord
  2
LAYER-128
 70
     0
 62
     7
  6
Continuous
370
    -3
390
F
  0
LAYER
  5
D0
330
2
100
AcDbSymbolTableRecord
100
AcDbLayerTableRecord
  2
LAYER-129
 70
     0
 62
     7
  6
Continuous
370
    -3
390
F
  0
LAYER
  5
D1
330
2
100
AcDbSymbolTableRecord
100
AcDbLayerTableRecord
  2
LAYER-130
 70
     0
 62
     7
  6
Continuous
370
    -3
390
F
  0
LAYER
  5
D2
330
2
100
AcDbSymbolTableRecord
100
AcDbLayerTableRecord
  2
LAYER-131
 70
     0
 62
     7
  6
Continuous
370
    -3
390
F
  0
LAYER
  5
D3
330
2
100
AcDbSymbolTableRecord
100
AcDbLayerTableRecord
  2
LAYER-132
 70
     0
 62
     7
  6
Continuous
370
    -3
390
F
  0
LAYER
  5
D4
330
2
100
AcDbSymbolTableRecord
100
AcDbLayerTableRecord
  2
LAYER-133
 70
     0
 62
     7
  6
Continuous
370
    -3
390
F
  0
LAYER
  5
D5
330
2
100
AcDbSymbolTableRecord
100
AcDbLayerTableRecord
  2
LAYER-134
 70
     0
 62
     7
  6
Continuous
370
    -3
390
F
  0
LAYER
  5
D6
330
2
100
AcDbSymbolTableRecord
100
AcDbLayerTableRecord
  2
LAYER-135
 70
     0
 62
    -4
  6
Continuous
370
    -3
390
F
  0
LAYER
  5
D7
330
2
100
AcDbSymbolTableRecord
100
AcDbLayerTableRecord
  2
LAYER-136
 70
     0
 62
    -3
  6
Continuous
370
    -3
390
F
  0
LAYER
  5
D8
330
2
100
AcDbSymbolTableRecord
100
AcDbLayerTableRecord
  2
LAYER-137
 70
     0
 62
    -1
  6
Continuous
370
    -3
390
F
  0
LAYER
  5
D9
330
2
100
AcDbSymbolTableRecord
100
AcDbLayerTableRecord
  2
LAYER-138
 70
     0
 62
     7
  6
Continuous
370
    -3
390
F
  0
LAYER
  5
DA
330
2
100
AcDbSymbolTableRecord
100
AcDbLayerTableRecord
  2
LAYER-139
 70
     0
 62
     7
  6
Continuous
370
    -3
390
F
  0
LAYER
  5
DB
330
2
100
AcDbSymbolTableRecord
100
AcDbLayerTableRecord
  2
LAYER-140
 70
     0
 62
     7
  6
Continuous
370
    -3
390
F
  0
LAYER
  5
DC
330
2
100
AcDbSymbolTableRecord
100
AcDbLayerTableRecord
  2
LAYER-141
 70
     0
 62
     7
  6
Continuous
370
    -3
390
F
  0
LAYER
  5
DD
330
2
100
AcDbSymbolTableRecord
100
AcDbLayerTableRecord
  2
LAYER-142
 70
     0
 62
     3
  6
Continuous
370
    -3
390
F
  0
LAYER
  5
DE
330
2
100
AcDbSymbolTableRecord
100
AcDbLayerTableRecord
  2
LAYER-143
 70
     0
 62
     7
  6
Continuous
370
    -3
390
F
  0
LAYER
  5
DF
330
2
100
AcDbSymbolTableRecord
100
AcDbLayerTableRecord
  2
LAYER-144
 70
     0
 62
     7
  6
Continuous
370
    -3
390
F
  0
LAYER
  5
E0
330
2
100
AcDbSymbolTableRecord
100
AcDbLayerTableRecord
  2
LAYER-145
 70
     0
 62
     3
  6
Continuous
370
    -3
390
F
  0
LAYER
  5
E1
330
2
100
AcDbSymbolTableRecord
100
AcDbLayerTableRecord
  2
LAYER-146
 70
     0
 62
     7
  6
Continuous
370
    -3
390
F
  0
LAYER
  5
E2
330
2
100
AcDbSymbolTableRecord
100
AcDbLayerTableRecord
  2
LAYER-147
 70
     0
 62
     7
  6
Continuous
370
    -3
390
F
  0
LAYER
  5
E3
330
2
100
AcDbSymbolTableRecord
100
AcDbLayerTableRecord
  2
LAYER-148
 70
     0
 62
     7
  6
Continuous
370
    -3
390
F
  0
LAYER
  5
E4
330
2
100
AcDbSymbolTableRecord
100
AcDbLayerTableRecord
  2
LAYER-149
 70
     0
 62
     7
  6
Continuous
370
    -3
390
F
  0
LAYER
  5
E5
330
2
100
AcDbSymbolTableRecord
100
AcDbLayerTableRecord
  2
LAYER-150
 70
     0
 62
     7
  6
Continuous
370
    -3
390
F
  0
LAYER
  5
E6
330
2
100
AcDbSymbolTableRecord
100
AcDbLayerTableRecord
  2
LAYER-151
 70
     0
 62
     7
  6
Continuous
370
    -3
390
F
  0
LAYER
  5
E7
330
2
100
AcDbSymbolTableRecord
100
AcDbLayerTableRecord
  2
LAYER-152
 70
     0
 62
     7
  6
Continuous
370
    -3
390
F
  0
LAYER
  5
E8
330
2
100
AcDbSymbolTableRecord
100
AcDbLayerTableRecord
  2
LAYER-153
 70
     0
 62
     7
  6
Continuous
370
    -3
390
F
  0
LAYER
  5
E9
330
2
100
AcDbSymbolTableRecord
100
AcDbLayerTableRecord
  2
LAYER-154
 70
     0
 62
     7
  6
Continuous
370
    -3
390
F
  0
LAYER
  5
EA
330
2
100
AcDbSymbolTableRecord
100
AcDbLayerTableRecord
  2
LAYER-155
 70
     0
 62
     7
  6
Continuous
370
    -3
390
F
  0
LAYER
  5
EB
330
2
100
AcDbSymbolTableRecord
100
AcDbLayerTableRecord
  2
LAYER-156
 70
     0
 62
     7
  6
Continuous
370
    -3
390
F
  0
LAYER
  5
EC
330
2
100
AcDbSymbolTableRecord
100
AcDbLayerTableRecord
  2
LAYER-157
 70
     0
 62
     7
  6
Continuous
370
    -3
390
F
  0
LAYER
  5
ED
330
2
100
AcDbSymbolTableRecord
100
AcDbLayerTableRecord
  2
LAYER-158
 70
     0
 62
     7
  6
Continuous
370
    -3
390
F
  0
LAYER
  5
EE
330
2
100
AcDbSymbolTableRecord
100
AcDbLayerTableRecord
  2
LAYER-159
 70
     0
 62
     7
  6
Continuous
370
    -3
390
F
  0
LAYER
  5
EF
330
2
100
AcDbSymbolTableRecord
100
AcDbLayerTableRecord
  2
LAYER-160
 70
     0
 62
     7
  6
Continuous
370
    -3
390
F
  0
LAYER
  5
F0
330
2
100
AcDbSymbolTableRecord
100
AcDbLayerTableRecord
  2
LAYER-161
 70
     0
 62
     7
  6
Continuous
370
    -3
390
F
  0
LAYER
  5
F1
330
2
100
AcDbSymbolTableRecord
100
AcDbLayerTableRecord
  2
LAYER-162
 70
     0
 62
     7
  6
Continuous
370
    -3
390
F
  0
LAYER
  5
F2
330
2
100
AcDbSymbolTableRecord
100
AcDbLayerTableRecord
  2
LAYER-163
 70
     0
 62
     7
  6
Continuous
370
    -3
390
F
  0
LAYER
  5
F3
330
2
100
AcDbSymbolTableRecord
100
AcDbLayerTableRecord
  2
LAYER-164
 70
     0
 62
     7
  6
Continuous
370
    -3
390
F
  0
LAYER
  5
F4
330
2
100
AcDbSymbolTableRecord
100
AcDbLayerTableRecord
  2
LAYER-165
 70
     0
 62
     7
  6
Continuous
370
    -3
390
F
  0
LAYER
  5
F5
330
2
100
AcDbSymbolTableRecord
100
AcDbLayerTableRecord
  2
LAYER-166
 70
     0
 62
     7
  6
Continuous
370
    -3
390
F
  0
LAYER
  5
F6
330
2
100
AcDbSymbolTableRecord
100
AcDbLayerTableRecord
  2
LAYER-167
 70
     0
 62
     7
  6
Continuous
370
    -3
390
F
  0
LAYER
  5
F7
330
2
100
AcDbSymbolTableRecord
100
AcDbLayerTableRecord
  2
LAYER-168
 70
     0
 62
     7
  6
Continuous
370
    -3
390
F
  0
LAYER
  5
F8
330
2
100
AcDbSymbolTableRecord
100
AcDbLayerTableRecord
  2
LAYER-169
 70
     0
 62
     7
  6
Continuous
370
    -3
390
F
  0
LAYER
  5
F9
330
2
100
AcDbSymbolTableRecord
100
AcDbLayerTableRecord
  2
LAYER-170
 70
     0
 62
     7
  6
Continuous
370
    -3
390
F
  0
LAYER
  5
FA
330
2
100
AcDbSymbolTableRecord
100
AcDbLayerTableRecord
  2
LAYER-171
 70
     0
 62
     7
  6
Continuous
370
    -3
390
F
  0
LAYER
  5
FB
330
2
100
AcDbSymbolTableRecord
100
AcDbLayerTableRecord
  2
LAYER-172
 70
     0
 62
     7
  6
Continuous
370
    -3
390
F
  0
LAYER
  5
FC
330
2
100
AcDbSymbolTableRecord
100
AcDbLayerTableRecord
  2
LAYER-173
 70
     0
 62
     7
  6
Continuous
370
    -3
390
F
  0
LAYER
  5
FD
330
2
100
AcDbSymbolTableRecord
100
AcDbLayerTableRecord
  2
LAYER-174
 70
     0
 62
     7
  6
Continuous
370
    -3
390
F
  0
LAYER
  5
FE
330
2
100
AcDbSymbolTableRecord
100
AcDbLayerTableRecord
  2
LAYER-175
 70
     0
 62
     7
  6
Continuous
370
    -3
390
F
  0
LAYER
  5
FF
330
2
100
AcDbSymbolTableRecord
100
AcDbLayerTableRecord
  2
LAYER-176
 70
     0
 62
     7
  6
Continuous
370
    -3
390
F
  0
LAYER
  5
100
330
2
100
AcDbSymbolTableRecord
100
AcDbLayerTableRecord
  2
LAYER-177
 70
     0
 62
     7
  6
Continuous
370
    -3
390
F
  0
LAYER
  5
101
330
2
100
AcDbSymbolTableRecord
100
AcDbLayerTableRecord
  2
LAYER-178
 70
     0
 62
     7
  6
Continuous
370
    -3
390
F
  0
LAYER
  5
102
330
2
100
AcDbSymbolTableRecord
100
AcDbLayerTableRecord
  2
LAYER-179
 70
     0
 62
     7
  6
Continuous
370
    -3
390
F
  0
LAYER
  5
103
330
2
100
AcDbSymbolTableRecord
100
AcDbLayerTableRecord
  2
LAYER-180
 70
     0
 62
     7
  6
Continuous
370
    -3
390
F
  0
LAYER
  5
104
330
2
100
AcDbSymbolTableRecord
100
AcDbLayerTableRecord
  2
LAYER-181
 70
     0
 62
     7
  6
Continuous
370
    -3
390
F
  0
LAYER
  5
105
330
2
100
AcDbSymbolTableRecord
100
AcDbLayerTableRecord
  2
LAYER-182
 70
     0
 62
     7
  6
Continuous
370
    -3
390
F
  0
LAYER
  5
106
330
2
100
AcDbSymbolTableRecord
100
AcDbLayerTableRecord
  2
LAYER-183
 70
     0
 62
     7
  6
Continuous
370
    -3
390
F
  0
LAYER
  5
107
330
2
100
AcDbSymbolTableRecord
100
AcDbLayerTableRecord
  2
LAYER-184
 70
     0
 62
     7
  6
Continuous
370
    -3
390
F
  0
LAYER
  5
108
330
2
100
AcDbSymbolTableRecord
100
AcDbLayerTableRecord
  2
LAYER-185
 70
     0
 62
     7
  6
Continuous
370
    -3
390
F
  0
LAYER
  5
109
330
2
100
AcDbSymbolTableRecord
100
AcDbLayerTableRecord
  2
LAYER-186
 70
     0
 62
     7
  6
Continuous
370
    -3
390
F
  0
LAYER
  5
10A
330
2
100
AcDbSymbolTableRecord
100
AcDbLayerTableRecord
  2
LAYER-187
 70
     0
 62
     7
  6
Continuous
370
    -3
390
F
  0
LAYER
  5
10B
330
2
100
AcDbSymbolTableRecord
100
AcDbLayerTableRecord
  2
LAYER-188
 70
     0
 62
     7
  6
Continuous
370
    -3
390
F
  0
LAYER
  5
10C
330
2
100
AcDbSymbolTableRecord
100
AcDbLayerTableRecord
  2
LAYER-189
 70
     0
 62
     7
  6
Continuous
370
    -3
390
F
  0
LAYER
  5
10D
330
2
100
AcDbSymbolTableRecord
100
AcDbLayerTableRecord
  2
LAYER-190
 70
     0
 62
     7
  6
Continuous
370
    -3
390
F
  0
LAYER
  5
10E
330
2
100
AcDbSymbolTableRecord
100
AcDbLayerTableRecord
  2
LAYER-191
 70
     0
 62
     7
  6
Continuous
370
    -3
390
F
  0
LAYER
  5
10F
330
2
100
AcDbSymbolTableRecord
100
AcDbLayerTableRecord
  2
LAYER-192
 70
     0
 62
     7
  6
Continuous
370
    -3
390
F
  0
LAYER
  5
110
330
2
100
AcDbSymbolTableRecord
100
AcDbLayerTableRecord
  2
LAYER-193
 70
     0
 62
     7
  6
Continuous
370
    -3
390
F
  0
LAYER
  5
111
330
2
100
AcDbSymbolTableRecord
100
AcDbLayerTableRecord
  2
LAYER-194
 70
     0
 62
     2
  6
Continuous
370
    -3
390
F
  0
LAYER
  5
112
330
2
100
AcDbSymbolTableRecord
100
AcDbLayerTableRecord
  2
LAYER-195
 70
     0
 62
     2
  6
Continuous
370
    -3
390
F
  0
LAYER
  5
113
330
2
100
AcDbSymbolTableRecord
100
AcDbLayerTableRecord
  2
LAYER-196
 70
     0
 62
     2
  6
Continuous
370
    -3
390
F
  0
LAYER
  5
114
330
2
100
AcDbSymbolTableRecord
100
AcDbLayerTableRecord
  2
LAYER-197
 70
     0
 62
     7
  6
Continuous
370
    -3
390
F
  0
LAYER
  5
115
330
2
100
AcDbSymbolTableRecord
100
AcDbLayerTableRecord
  2
LAYER-198
 70
     0
 62
     7
  6
Continuous
370
    -3
390
F
  0
LAYER
  5
116
330
2
100
AcDbSymbolTableRecord
100
AcDbLayerTableRecord
  2
LAYER-199
 70
     0
 62
     4
  6
Continuous
370
    -3
390
F
  0
LAYER
  5
117
330
2
100
AcDbSymbolTableRecord
100
AcDbLayerTableRecord
  2
LAYER-200
 70
     0
 62
     1
  6
Continuous
370
    -3
390
F
  0
LAYER
  5
118
330
2
100
AcDbSymbolTableRecord
100
AcDbLayerTableRecord
  2
LAYER-201
 70
     0
 62
     1
  6
Continuous
370
    -3
390
F
  0
LAYER
  5
119
330
2
100
AcDbSymbolTableRecord
100
AcDbLayerTableRecord
  2
LAYER-202
 70
     0
 62
     2
  6
Continuous
370
    -3
390
F
  0
LAYER
  5
11A
330
2
100
AcDbSymbolTableRecord
100
AcDbLayerTableRecord
  2
LAYER-203
 70
     0
 62
     2
  6
Continuous
370
    -3
390
F
  0
LAYER
  5
11B
330
2
100
AcDbSymbolTableRecord
100
AcDbLayerTableRecord
  2
LAYER-204
 70
     0
 62
     7
  6
Continuous
370
    -3
390
F
  0
LAYER
  5
11C
330
2
100
AcDbSymbolTableRecord
100
AcDbLayerTableRecord
  2
LAYER-205
 70
     0
 62
     7
  6
Continuous
370
    -3
390
F
  0
LAYER
  5
11D
330
2
100
AcDbSymbolTableRecord
100
AcDbLayerTableRecord
  2
LAYER-206
 70
     0
 62
     7
  6
Continuous
370
    -3
390
F
  0
LAYER
  5
11E
330
2
100
AcDbSymbolTableRecord
100
AcDbLayerTableRecord
  2
LAYER-207
 70
     0
 62
    -7
  6
Continuous
370
    -3
390
F
  0
LAYER
  5
11F
330
2
100
AcDbSymbolTableRecord
100
AcDbLayerTableRecord
  2
LAYER-208
 70
     0
 62
     2
  6
Continuous
370
    -3
390
F
  0
LAYER
  5
120
330
2
100
AcDbSymbolTableRecord
100
AcDbLayerTableRecord
  2
LAYER-209
 70
     0
 62
     7
  6
Continuous
370
    -3
390
F
  0
LAYER
  5
121
330
2
100
AcDbSymbolTableRecord
100
AcDbLayerTableRecord
  2
LAYER-210
 70
     0
 62
     2
  6
Continuous
290
     0
370
    -3
390
F
  0
LAYER
  5
122
330
2
100
AcDbSymbolTableRecord
100
AcDbLayerTableRecord
  2
LAYER-211
 70
     0
 62
     7
  6
Continuous
370
    -3
390
F
  0
LAYER
  5
123
330
2
100
AcDbSymbolTableRecord
100
AcDbLayerTableRecord
  2
LAYER-212
 70
     0
 62
     7
  6
Continuous
370
    -3
390
F
  0
LAYER
  5
124
330
2
100
AcDbSymbolTableRecord
100
AcDbLayerTableRecord
  2
LAYER-213
 70
     0
 62
     2
  6
Continuous
370
    -3
390
F
  0
LAYER
  5
125
330
2
100
AcDbSymbolTableRecord
100
AcDbLayerTableRecord
  2
LAYER-214
 70
     0
 62
     7
  6
Continuous
370
    -3
390
F
  0
LAYER
  5
126
330
2
100
AcDbSymbolTableRecord
100
AcDbLayerTableRecord
  2
LAYER-215
 70
     0
 62
     7
  6
Continuous
370
    -3
390
F
  0
LAYER
  5
127
330
2
100
AcDbSymbolTableRecord
100
AcDbLayerTableRecord
  2
LAYER-216
 70
     0
 62
     4
  6
Continuous
370
    -3
390
F
  0
LAYER
  5
128
330
2
100
AcDbSymbolTableRecord
100
AcDbLayerTableRecord
  2
LAYER-217
 70
     0
 62
     7
  6
Continuous
370
    -3
390
F
  0
LAYER
  5
129
330
2
100
AcDbSymbolTableRecord
100
AcDbLayerTableRecord
  2
LAYER-218
 70
     0
 62
     7
  6
Continuous
370
    -3
390
F
  0
LAYER
  5
12A
330
2
100
AcDbSymbolTableRecord
100
AcDbLayerTableRecord
  2
LAYER-219
 70
     0
 62
     7
  6
Continuous
370
    -3
390
F
  0
LAYER
  5
12B
330
2
100
AcDbSymbolTableRecord
100
AcDbLayerTableRecord
  2
LAYER-220
 70
     0
 62
     4
  6
Continuous
370
    -3
390
F
  0
LAYER
  5
12C
330
2
100
AcDbSymbolTableRecord
100
AcDbLayerTableRecord
  2
LAYER-221
 70
     0
 62
    -7
  6
Continuous
290
     0
370
    -3
390
F
  0
LAYER
  5
12D
330
2
100
AcDbSymbolTableRecord
100
AcDbLayerTableRecord
  2
LAYER-222
 70
     0
 62
    -4
  6
Continuous
290
     0
370
    -3
390
F
  0
LAYER
  5
12E
330
2
100
AcDbSymbolTableRecord
100
AcDbLayerTableRecord
  2
LAYER-223
 70
     0
 62
    -1
  6
Continuous
290
     0
370
    -3
390
F
  0
LAYER
  5
12F
330
2
100
AcDbSymbolTableRecord
100
AcDbLayerTableRecord
  2
LAYER-224
 70
     0
 62
    -1
  6
Continuous
290
     0
370
    -3
390
F
  0
LAYER
  5
130
330
2
100
AcDbSymbolTableRecord
100
AcDbLayerTableRecord
  2
LAYER-225
 70
     0
 62
     7
  6
Continuous
370
    -3
390
F
  0
LAYER
  5
131
330
2
100
AcDbSymbolTableRecord
100
AcDbLayerTableRecord
  2
LAYER-226
 70
     0
 62
     2
  6
Continuous
370
    -3
390
F
  0
LAYER
  5
132
330
2
100
AcDbSymbolTableRecord
100
AcDbLayerTableRecord
  2
LAYER-227
 70
     0
 62
     7
  6
Continuous
370
    -3
390
F
  0
LAYER
  5
133
330
2
100
AcDbSymbolTableRecord
100
AcDbLayerTableRecord
  2
LAYER-228
 70
     0
 62
     7
  6
Continuous
370
    -3
390
F
  0
LAYER
  5
134
330
2
100
AcDbSymbolTableRecord
100
AcDbLayerTableRecord
  2
LAYER-229
 70
     0
 62
     7
  6
Continuous
370
    -3
390
F
  0
LAYER
  5
135
330
2
100
AcDbSymbolTableRecord
100
AcDbLayerTableRecord
  2
LAYER-230
 70
     0
 62
     7
  6
Continuous
370
    -3
390
F
  0
LAYER
  5
136
330
2
100
AcDbSymbolTableRecord
100
AcDbLayerTableRecord
  2
LAYER-231
 70
     0
 62
     7
  6
Continuous
370
    -3
390
F
  0
LAYER
  5
137
330
2
100
AcDbSymbolTableRecord
100
AcDbLayerTableRecord
  2
LAYER-232
 70
     0
 62
     7
  6
Continuous
370
    -3
390
F
  0
LAYER
  5
138
330
2
100
AcDbSymbolTableRecord
100
AcDbLayerTableRecord
  2
LAYER-233
 70
     0
 62
     7
  6
Continuous
370
    -3
390
F
  0
LAYER
  5
139
330
2
100
AcDbSymbolTableRecord
100
AcDbLayerTableRecord
  2
LAYER-234
 70
     0
 62
     7
  6
Continuous
370
    -3
390
F
  0
LAYER
  5
13A
330
2
100
AcDbSymbolTableRecord
100
AcDbLayerTableRecord
  2
LAYER-235
 70
     0
 62
     7
  6
Continuous
370
    -3
390
F
  0
LAYER
  5
13B
330
2
100
AcDbSymbolTableRecord
100
AcDbLayerTableRecord
  2
LAYER-236
 70
     0
 62
     7
  6
Continuous
370
    -3
390
F
  0
LAYER
  5
13C
330
2
100
AcDbSymbolTableRecord
100
AcDbLayerTableRecord
  2
LAYER-237
 70
     0
 62
     7
  6
Continuous
370
    -3
390
F
  0
LAYER
  5
13D
330
2
100
AcDbSymbolTableRecord
100
AcDbLayerTableRecord
  2
LAYER-238
 70
     0
 62
     7
  6
Continuous
370
    -3
390
F
  0
LAYER
  5
13E
330
2
100
AcDbSymbolTableRecord
100
AcDbLayerTableRecord
  2
LAYER-239
 70
     0
 62
     7
  6
Continuous
370
    -3
390
F
  0
LAYER
  5
13F
330
2
100
AcDbSymbolTableRecord
100
AcDbLayerTableRecord
  2
LAYER-240
 70
     0
 62
     7
  6
Continuous
370
    -3
390
F
  0
LAYER
  5
140
330
2
100
AcDbSymbolTableRecord
100
AcDbLayerTableRecord
  2
LAYER-241
 70
     0
 62
     7
  6
Continuous
370
    -3
390
F
  0
LAYER
  5
141
330
2
100
AcDbSymbolTableRecord
100
AcDbLayerTableRecord
  2
LAYER-242
 70
     0
 62
     7
  6
Continuous
370
    -3
390
F
  0
LAYER
  5
142
330
2
100
AcDbSymbolTableRecord
100
AcDbLayerTableRecord
  2
LAYER-243
 70
     0
 62
     7
  6
Continuous
370
    -3
390
F
  0
LAYER
  5
143
330
2
100
AcDbSymbolTableRecord
100
AcDbLayerTableRecord
  2
LAYER-244
 70
     0
 62
     7
  6
Continuous
370
    -3
390
F
  0
LAYER
  5
144
330
2
100
AcDbSymbolTableRecord
100
AcDbLayerTableRecord
  2
LAYER-245
 70
     0
 62
     7
  6
Continuous
370
    -3
390
F
  0
LAYER
  5
145
330
2
100
AcDbSymbolTableRecord
100
AcDbLayerTableRecord
  2
LAYER-246
 70
     0
 62
     7
  6
Continuous
370
    -3
390
F
  0
LAYER
  5
146
330
2
100
AcDbSymbolTableRecord
100
AcDbLayerTableRecord
  2
LAYER-247
 70
     0
 62
     7
  6
Continuous
370
    -3
390
F
  0
LAYER
  5
147
330
2
100
AcDbSymbolTableRecord
100
AcDbLayerTableRecord
  2
LAYER-248
 70
     0
 62
     7
  6
Continuous
370
    -3
390
F
  0
LAYER
  5
148
330
2
100
AcDbSymbolTableRecord
100
AcDbLayerTableRecord
  2
LAYER-249
 70
     0
 62
     7
  6
Continuous
370
    -3
390
F
  0
LAYER
  5
149
330
2
100
AcDbSymbolTableRecord
100
AcDbLayerTableRecord
  2
LAYER-250
 70
     0
 62
     7
  6
Continuous
370
    -3
390
F
  0
LAYER
  5
14A
330
2
100
AcDbSymbolTableRecord
100
AcDbLayerTableRecord
  2
LAYER-251
 70
     0
 62
     7
  6
Continuous
370
    -3
390
F
  0
LAYER
  5
14B
330
2
100
AcDbSymbolTableRecord
100
AcDbLayerTableRecord
  2
LAYER-252
 70
     0
 62
     7
  6
Continuous
370
    -3
390
F
  0
LAYER
  5
14C
330
2
100
AcDbSymbolTableRecord
100
AcDbLayerTableRecord
  2
LAYER-253
 70
     0
 62
     7
  6
Continuous
370
    -3
390
F
  0
LAYER
  5
14D
330
2
100
AcDbSymbolTableRecord
100
AcDbLayerTableRecord
  2
LAYER-254
 70
     0
 62
     7
  6
Continuous
370
    -3
390
F
  0
LAYER
  5
14E
330
2
100
AcDbSymbolTableRecord
100
AcDbLayerTableRecord
  2
LAYER-255
 70
     0
 62
     7
  6
Continuous
370
    -3
390
F
  0
LAYER
  5
14F
330
2
100
AcDbSymbolTableRecord
100
AcDbLayerTableRecord
  2
LAYER-256
 70
     0
 62
     7
  6
Continuous
370
    -3
390
F
  0
LAYER
  5
150
330
2
100
AcDbSymbolTableRecord
100
AcDbLayerTableRecord
  2
SUPLINE
 70
     0
 62
    -7
  6
Continuous
290
     0
370
    -3
390
F
  0
ENDTAB
  0
TABLE
  2
STYLE
  5
3
330
0
100
AcDbSymbolTable
 70
     7
  0
STYLE
  5
11
330
3
100
AcDbSymbolTableRecord
100
AcDbTextStyleTableRecord
  2
Standard
 70
     0
 40
0.0
 41
1.0
 50
0.0
 71
     0
 42
2.5
  3
txt
  4

  0
STYLE
  5
31
330
3
100
AcDbSymbolTableRecord
100
AcDbTextStyleTableRecord
  2
STANDARD2
 70
     0
 40
0.0
 41
1.0
 50
0.0
 71
     0
 42
4.0
  3
txt.shx
  4
bigfont.shx
  0
STYLE
  5
32
330
3
100
AcDbSymbolTableRecord
100
AcDbTextStyleTableRecord
  2
STRING_H
 70
     0
 40
0.0
 41
1.0
 50
0.0
 71
     0
 42
4.0
  3
txt.shx
  4
bigfont.shx
  0
STYLE
  5
33
330
3
100
AcDbSymbolTableRecord
100
AcDbTextStyleTableRecord
  2
STRING_H_ITALIC
 70
     0
 40
0.0
 41
1.0
 50
15.0
 71
     0
 42
4.0
  3
txt.shx
  4
bigfont.shx
  0
STYLE
  5
34
330
3
100
AcDbSymbolTableRecord
100
AcDbTextStyleTableRecord
  2
STRING_V
 70
     4
 40
0.0
 41
1.0
 50
0.0
 71
     0
 42
4.0
  3
txt.shx
  4
bigfont.shx
  0
STYLE
  5
35
330
3
100
AcDbSymbolTableRecord
100
AcDbTextStyleTableRecord
  2
STRING_V_ITALIC
 70
     4
 40
0.0
 41
1.0
 50
15.0
 71
     0
 42
4.0
  3
txt.shx
  4
bigfont.shx
  0
STYLE
  5
36
330
3
100
AcDbSymbolTableRecord
100
AcDbTextStyleTableRecord
  2

 70
     1
 40
0.0
 41
1.0
 50
0.0
 71
     0
 42
0.2
  3
ltypeshp.shx
  4

  0
ENDTAB
  0
TABLE
  2
VIEW
  5
6
330
0
100
AcDbSymbolTable
 70
     0
  0
ENDTAB
  0
TABLE
  2
UCS
  5
7
330
0
100
AcDbSymbolTable
 70
     0
  0
ENDTAB
  0
TABLE
  2
APPID
  5
9
330
0
100
AcDbSymbolTable
 70
     1
  0
APPID
  5
12
330
9
100
AcDbSymbolTableRecord
100
AcDbRegAppTableRecord
  2
ACAD
 70
     0
  0
ENDTAB
  0
TABLE
  2
DIMSTYLE
  5
A
330
0
100
AcDbSymbolTable
 70
     2
100
AcDbDimStyleTable
  0
DIMSTYLE
105
27
330
A
100
AcDbSymbolTableRecord
100
AcDbDimStyleTableRecord
  2
ISO-25
 70
     0
 41
2.5
 42
0.625
 43
3.75
 44
1.25
 73
     0
 74
     0
 77
     1
 78
     8
140
2.5
141
2.5
143
0.03937007874016
147
0.625
171
     3
172
     1
271
     2
272
     2
274
     3
283
     0
284
     8
340
11
  0
DIMSTYLE
105
151
102
{ACAD_REACTORS
330
3A0
330
3AA
330
3B4
330
3C0
330
3CA
330
3D4
330
3DE
330
3E8
330
3F2
102
}
330
A
100
AcDbSymbolTableRecord
100
AcDbDimStyleTableRecord
  2
DIO_DIMSTYLE
 70
     0
 41
4.0
 42
1.0
 43
3.75
 44
1.0
 45
0.1
 73
     0
 74
     0
 77
     1
 78
     8
 79
     2
140
3.0
141
2.5
143
0.03937007874016
147
0.5
171
     3
172
     1
173
     1
179
     1
271
     1
272
     1
274
     3
283
     0
284
     8
288
     1
289
     0
340
31
  0
ENDTAB
  0
TABLE
  2
BLOCK_RECORD
  5
1
330
0
100
AcDbSymbolTable
 70
    11
  0
BLOCK_RECORD
  5
1F
330
1
100
AcDbSymbolTableRecord
100
AcDbBlockTableRecord
  2
*Model_Space
340
22
  0
BLOCK_RECORD
  5
1B
330
1
100
AcDbSymbolTableRecord
100
AcDbBlockTableRecord
  2
*Paper_Space
340
1E
  0
BLOCK_RECORD
  5
23
330
1
100
AcDbSymbolTableRecord
100
AcDbBlockTableRecord
  2
*Paper_Space0
340
26
  0
BLOCK_RECORD
  5
391
330
1
100
AcDbSymbolTableRecord
100
AcDbBlockTableRecord
  2
_OPEN
340
0
102
{BLKREFS
331
39A
331
39B
331
3A4
331
3A5
331
3AE
331
3AF
331
3B8
331
3B9
331
3C4
331
3C5
331
3CE
331
3CF
331
3D8
331
3D9
331
3E2
331
3E3
331
3EC
331
3ED
102
}
  0
BLOCK_RECORD
  5
397
330
1
100
AcDbSymbolTableRecord
100
AcDbBlockTableRecord
  2
*D02
340
0
  0
BLOCK_RECORD
  5
3A1
330
1
100
AcDbSymbolTableRecord
100
AcDbBlockTableRecord
  2
*D13
340
0
  0
BLOCK_RECORD
  5
3AB
330
1
100
AcDbSymbolTableRecord
100
AcDbBlockTableRecord
  2
*D24
340
0
  0
BLOCK_RECORD
  5
3B5
330
1
100
AcDbSymbolTableRecord
100
AcDbBlockTableRecord
  2
*D35
340
0
  0
BLOCK_RECORD
  5
3C1
330
1
100
AcDbSymbolTableRecord
100
AcDbBlockTableRecord
  2
*D46
340
0
  0
BLOCK_RECORD
  5
3CB
330
1
100
AcDbSymbolTableRecord
100
AcDbBlockTableRecord
  2
*D57
340
0
  0
BLOCK_RECORD
  5
3D5
330
1
100
AcDbSymbolTableRecord
100
AcDbBlockTableRecord
  2
*D68
340
0
  0
BLOCK_RECORD
  5
3DF
330
1
100
AcDbSymbolTableRecord
100
AcDbBlockTableRecord
  2
*D79
340
0
  0
BLOCK_RECORD
  5
3E9
330
1
100
AcDbSymbolTableRecord
100
AcDbBlockTableRecord
  2
*D810
340
0
  0
ENDTAB
  0
ENDSEC
  0
SECTION
  2
BLOCKS
  0
BLOCK
  5
20
330
1F
100
AcDbEntity
  8
0
100
AcDbBlockBegin
  2
*Model_Space
 70
     0
 71
     0
 10
0.0
 20
0.0
 30
0.0
  3
*Model_Space
  1

  0
ENDBLK
  5
21
330
1F
100
AcDbEntity
  8
0
100
AcDbBlockEnd
  0
BLOCK
  5
1C
330
1B
100
AcDbEntity
 67
     1
  8
0
100
AcDbBlockBegin
  2
*Paper_Space
 70
     0
 71
     0
 10
0.0
 20
0.0
 30
0.0
  3
*Paper_Space
  1

  0
ENDBLK
  5
1D
330
1B
100
AcDbEntity
 67
     1
  8
0
100
AcDbBlockEnd
  0
BLOCK
  5
24
330
23
100
AcDbEntity
  8
0
100
AcDbBlockBegin
  2
*Paper_Space0
 70
     0
 71
     0
 10
0.0
 20
0.0
 30
0.0
  3
*Paper_Space0
  1

  0
ENDBLK
  5
25
330
23
100
AcDbEntity
  8
0
100
AcDbBlockEnd
  0
BLOCK
  5
392
330
391
100
AcDbEntity
  8
0
100
AcDbBlockBegin
  2
_OPEN
 70
     0
 71
     0
 10
0.0
 20
0.0
 30
0.0
  3
_OPEN
  1

  0
LINE
  5
394
330
391
100
AcDbEntity
  8
LAYER-035
  6
Continuous
 62
     0
100
AcDbLine
 10
0.0
 20
0.0
 30
0.0
 11
-1.0
 21
0.0
 31
0.0
  0
LINE
  5
395
330
391
100
AcDbEntity
  8
LAYER-035
  6
Continuous
 62
     0
100
AcDbLine
 10
0.0
 20
0.0
 30
0.0
 11
-1.0
 21
0.1666250109338451
 31
0.0
  0
LINE
  5
396
330
391
100
AcDbEntity
  8
LAYER-035
  6
Continuous
 62
     0
100
AcDbLine
 10
0.0
 20
0.0
 30
0.0
 11
-1.0
 21
-0.1666250109338451
 31
0.0
  0
ENDBLK
  5
393
330
391
100
AcDbEntity
  8
0
100
AcDbBlockEnd
  0
BLOCK
  5
398
330
397
100
AcDbEntity
  8
0
100
AcDbBlockBegin
  2
*D02
 70
     1
 71
     0
 10
0.0
 20
0.0
 30
0.0
  3
*D02
  1

  0
INSERT
  5
39A
330
397
100
AcDbEntity
  8
LAYER-035
  6
Continuous
 62
     5
100
AcDbBlockReference
  2
_OPEN
 10
-390.909626600208
 20
-494.6642602700668
 30
0.0
 41
4.0
 42
4.0
 43
4.0
 50
180.0
  0
INSERT
  5
39B
330
397
100
AcDbEntity
  8
LAYER-035
  6
Continuous
 62
     5
100
AcDbBlockReference
  2
_OPEN
 10
9.090373399791986
 20
-494.6642602700668
 30
0.0
 41
4.0
 42
4.0
 43
4.0
  0
LINE
  5
39C
330
397
100
AcDbEntity
  8
LAYER-035
  6
Continuous
 62
     5
100
AcDbLine
 10
-390.909626600208
 20
-432.3157974773602
 30
0.0
 11
-390.909626600208
 21
-495.6642602700668
 31
0.0
  0
LINE
  5
39D
330
397
100
AcDbEntity
  8
LAYER-035
  6
Continuous
 62
     5
100
AcDbLine
 10
9.090373399791986
 20
-432.3157974773602
 30
0.0
 11
9.090373399791986
 21
-495.6642602700668
 31
0.0
  0
LINE
  5
39E
330
397
100
AcDbEntity
  8
LAYER-035
  6
Continuous
 62
     5
100
AcDbLine
 10
-390.909626600208
 20
-494.6642602700668
 30
0.0
 11
9.090373399791986
 21
-494.6642602700668
 31
0.0
  0
MTEXT
  5
39F
330
397
100
AcDbEntity
  8
LAYER-036
  6
Continuous
 62
     5
100
AcDbMText
 10
-190.909626600208
 20
-494.1642602700668
 30
0.0
 40
10.0
 41
0.0
 71
     8
 72
     1
  1
400
  7
STRING_H
 73
     1
 44
1.0
  0
ENDBLK
  5
399
330
397
100
AcDbEntity
  8
0
100
AcDbBlockEnd
  0
BLOCK
  5
3A2
330
3A1
100
AcDbEntity
  8
0
100
AcDbBlockBegin
  2
*D13
 70
     1
 71
     0
 10
0.0
 20
0.0
 30
0.0
  3
*D13
  1

  0
INSERT
  5
3A4
330
3A1
100
AcDbEntity
  8
LAYER-035
  6
Continuous
 62
     5
100
AcDbBlockReference
  2
_OPEN
 10
-350.909626600208
 20
-469.0017956444202
 30
0.0
 41
4.0
 42
4.0
 43
4.0
 50
180.0
  0
INSERT
  5
3A5
330
3A1
100
AcDbEntity
  8
LAYER-035
  6
Continuous
 62
     5
100
AcDbBlockReference
  2
_OPEN
 10
-30.90962660020807
 20
-469.0017956444202
 30
0.0
 41
4.0
 42
4.0
 43
4.0
  0
LINE
  5
3A6
330
3A1
100
AcDbEntity
  8
LAYER-035
  6
Continuous
 62
     5
100
AcDbLine
 10
-350.909626600208
 20
-439.8608596539461
 30
0.0
 11
-350.909626600208
 21
-470.0017956444202
 31
0.0
  0
LINE
  5
3A7
330
3A1
100
AcDbEntity
  8
LAYER-035
  6
Continuous
 62
     5
100
AcDbLine
 10
-30.90962660020801
 20
-439.8608596539461
 30
0.0
 11
-30.90962660020807
 21
-470.0017956444202
 31
0.0
  0
LINE
  5
3A8
330
3A1
100
AcDbEntity
  8
LAYER-035
  6
Continuous
 62
     5
100
AcDbLine
 10
-350.909626600208
 20
-469.0017956444202
 30
0.0
 11
-30.90962660020807
 21
-469.0017956444202
 31
0.0
  0
MTEXT
  5
3A9
330
3A1
100
AcDbEntity
  8
LAYER-036
  6
Continuous
 62
     5
100
AcDbMText
 10
-190.909626600208
 20
-468.5017956444202
 30
0.0
 40
10.0
 41
0.0
 71
     8
 72
     1
  1
320
  7
STRING_H
 73
     1
 44
1.0
  0
ENDBLK
  5
3A3
330
3A1
100
AcDbEntity
  8
0
100
AcDbBlockEnd
  0
BLOCK
  5
3AC
330
3AB
100
AcDbEntity
  8
0
100
AcDbBlockBegin
  2
*D24
 70
     1
 71
     0
 10
0.0
 20
0.0
 30
0.0
  3
*D24
  1

  0
INSERT
  5
3AE
330
3AB
100
AcDbEntity
  8
LAYER-035
  6
Continuous
 62
     5
100
AcDbBlockReference
  2
_OPEN
 10
67.2778386633172
 20
-96.31579747736021
 30
0.0
 41
4.0
 42
4.0
 43
4.0
 50
90.0
  0
INSERT
  5
3AF
330
3AB
100
AcDbEntity
  8
LAYER-035
  6
Continuous
 62
     5
100
AcDbBlockReference
  2
_OPEN
 10
67.2778386633172
 20
-431.3157974773602
 30
0.0
 41
4.0
 42
4.0
 43
4.0
 50
-90.0
  0
LINE
  5
3B0
330
3AB
100
AcDbEntity
  8
LAYER-035
  6
Continuous
 62
     5
100
AcDbLine
 10
-55.65722363713189
 20
-96.31579747736021
 30
0.0
 11
68.2778386633172
 21
-96.31579747736021
 31
0.0
  0
LINE
  5
3B1
330
3AB
100
AcDbEntity
  8
LAYER-035
  6
Continuous
 62
     5
100
AcDbLine
 10
10.09037339979199
 20
-431.3157974773602
 30
0.0
 11
68.2778386633172
 21
-431.3157974773602
 31
0.0
  0
LINE
  5
3B2
330
3AB
100
AcDbEntity
  8
LAYER-035
  6
Continuous
 62
     5
100
AcDbLine
 10
67.2778386633172
 20
-96.31579747736021
 30
0.0
 11
67.2778386633172
 21
-431.3157974773602
 31
0.0
  0
MTEXT
  5
3B3
330
3AB
100
AcDbEntity
  8
LAYER-036
  6
Continuous
 62
     5
100
AcDbMText
 10
66.7778386633172
 20
-263.8157974773602
 30
0.0
 40
10.0
 41
0.0
 71
     8
 72
     1
  1
335
  7
STRING_H
 11
6.123031769111886E-17
 21
1.0
 31
0.0
 73
     1
 44
1.0
  0
ENDBLK
  5
3AD
330
3AB
100
AcDbEntity
  8
0
100
AcDbBlockEnd
  0
BLOCK
  5
3B6
330
3B5
100
AcDbEntity
  8
0
100
AcDbBlockBegin
  2
*D35
 70
     1
 71
     0
 10
0.0
 20
0.0
 30
0.0
  3
*D35
  1

  0
INSERT
  5
3B8
330
3B5
100
AcDbEntity
  8
LAYER-035
  6
Continuous
 62
     5
100
AcDbBlockReference
  2
_OPEN
 10
67.2778386633172
 20
-71.31579747736021
 30
0.0
 41
4.0
 42
4.0
 43
4.0
 50
90.0
  0
INSERT
  5
3B9
330
3B5
100
AcDbEntity
  8
LAYER-035
  6
Continuous
 62
     5
100
AcDbBlockReference
  2
_OPEN
 10
67.2778386633172
 20
-96.31579747736021
 30
0.0
 41
4.0
 42
4.0
 43
4.0
 50
-90.0
  0
LINE
  5
3BA
330
3B5
100
AcDbEntity
  8
LAYER-035
  6
Continuous
 62
     5
100
AcDbLine
 10
3.49738675531961
 20
-71.31579747736021
 30
0.0
 11
68.2778386633172
 21
-71.31579747736021
 31
0.0
  0
LINE
  5
3BB
330
3B5
100
AcDbEntity
  8
LAYER-035
  6
Continuous
 62
     5
100
AcDbLine
 10
-55.65722363713189
 20
-96.31579747736021
 30
0.0
 11
68.2778386633172
 21
-96.31579747736021
 31
0.0
  0
LINE
  5
3BC
330
3B5
100
AcDbEntity
  8
LAYER-035
  6
Continuous
 62
     5
100
AcDbLine
 10
67.2778386633172
 20
-71.31579747736021
 30
0.0
 11
67.2778386633172
 21
-96.31579747736021
 31
0.0
  0
LINE
  5
3BD
330
3B5
100
AcDbEntity
  8
LAYER-035
  6
Continuous
 62
     5
100
AcDbLine
 10
67.2778386633172
 20
-71.31579747736021
 30
0.0
 11
67.2778386633172
 21
-26.31579747736021
 31
0.0
  0
LINE
  5
3BE
330
3B5
100
AcDbEntity
  8
LAYER-035
  6
Continuous
 62
     5
100
AcDbLine
 10
67.2778386633172
 20
-96.31579747736021
 30
0.0
 11
67.2778386633172
 21
-104.3157974773602
 31
0.0
  0
MTEXT
  5
3BF
330
3B5
100
AcDbEntity
  8
LAYER-036
  6
Continuous
 62
     5
100
AcDbMText
 10
66.7778386633172
 20
-71.31579747736021
 30
0.0
 40
10.0
 41
0.0
 71
     7
 72
     1
  1
25±5
  7
STRING_H
 11
6.123031769111886E-17
 21
1.0
 31
0.0
 73
     1
 44
1.0
  0
ENDBLK
  5
3B7
330
3B5
100
AcDbEntity
  8
0
100
AcDbBlockEnd
  0
BLOCK
  5
3C2
330
3C1
100
AcDbEntity
  8
0
100
AcDbBlockBegin
  2
*D46
 70
     1
 71
     0
 10
0.0
 20
0.0
 30
0.0
  3
*D46
  1

  0
INSERT
  5
3C4
330
3C1
100
AcDbEntity
  8
LAYER-035
  6
Continuous
 62
     5
100
AcDbBlockReference
  2
_OPEN
 10
189.0331993721536
 20
-494.6642602700668
 30
0.0
 41
4.0
 42
4.0
 43
4.0
 50
180.0
  0
INSERT
  5
3C5
330
3C1
100
AcDbEntity
  8
LAYER-035
  6
Continuous
 62
     5
100
AcDbBlockReference
  2
_OPEN
 10
439.0331993721535
 20
-494.6642602700668
 30
0.0
 41
4.0
 42
4.0
 43
4.0
  0
LINE
  5
3C6
330
3C1
100
AcDbEntity
  8
LAYER-035
  6
Continuous
 62
     5
100
AcDbLine
 10
189.0331993721535
 20
-432.3157974773602
 30
0.0
 11
189.0331993721536
 21
-495.6642602700668
 31
0.0
  0
LINE
  5
3C7
330
3C1
100
AcDbEntity
  8
LAYER-035
  6
Continuous
 62
     5
100
AcDbLine
 10
439.0331993721535
 20
-432.3157974773602
 30
0.0
 11
439.0331993721535
 21
-495.6642602700668
 31
0.0
  0
LINE
  5
3C8
330
3C1
100
AcDbEntity
  8
LAYER-035
  6
Continuous
 62
     5
100
AcDbLine
 10
189.0331993721536
 20
-494.6642602700668
 30
0.0
 11
439.0331993721535
 21
-494.6642602700668
 31
0.0
  0
MTEXT
  5
3C9
330
3C1
100
AcDbEntity
  8
LAYER-036
  6
Continuous
 62
     5
100
AcDbMText
 10
314.0331993721536
 20
-494.1642602700668
 30
0.0
 40
10.0
 41
0.0
 71
     8
 72
     1
  1
250
  7
STRING_H
 73
     1
 44
1.0
  0
ENDBLK
  5
3C3
330
3C1
100
AcDbEntity
  8
0
100
AcDbBlockEnd
  0
BLOCK
  5
3CC
330
3CB
100
AcDbEntity
  8
0
100
AcDbBlockBegin
  2
*D57
 70
     1
 71
     0
 10
0.0
 20
0.0
 30
0.0
  3
*D57
  1

  0
INSERT
  5
3CE
330
3CB
100
AcDbEntity
  8
LAYER-035
  6
Continuous
 62
     5
100
AcDbBlockReference
  2
_OPEN
 10
209.0331993721535
 20
-469.0017956444202
 30
0.0
 41
4.0
 42
4.0
 43
4.0
 50
180.0
  0
INSERT
  5
3CF
330
3CB
100
AcDbEntity
  8
LAYER-035
  6
Continuous
 62
     5
100
AcDbBlockReference
  2
_OPEN
 10
419.0331993721535
 20
-469.0017956444202
 30
0.0
 41
4.0
 42
4.0
 43
4.0
  0
LINE
  5
3D0
330
3CB
100
AcDbEntity
  8
LAYER-035
  6
Continuous
 62
     5
100
AcDbLine
 10
209.0331993721535
 20
-439.0741112886718
 30
0.0
 11
209.0331993721535
 21
-470.0017956444202
 31
0.0
  0
LINE
  5
3D1
330
3CB
100
AcDbEntity
  8
LAYER-035
  6
Continuous
 62
     5
100
AcDbLine
 10
419.0331993721535
 20
-439.0741112886718
 30
0.0
 11
419.0331993721535
 21
-470.0017956444202
 31
0.0
  0
LINE
  5
3D2
330
3CB
100
AcDbEntity
  8
LAYER-035
  6
Continuous
 62
     5
100
AcDbLine
 10
209.0331993721535
 20
-469.0017956444202
 30
0.0
 11
419.0331993721535
 21
-469.0017956444202
 31
0.0
  0
MTEXT
  5
3D3
330
3CB
100
AcDbEntity
  8
LAYER-036
  6
Continuous
 62
     5
100
AcDbMText
 10
314.0331993721535
 20
-468.5017956444202
 30
0.0
 40
10.0
 41
0.0
 71
     8
 72
     1
  1
210
  7
STRING_H
 73
     1
 44
1.0
  0
ENDBLK
  5
3CD
330
3CB
100
AcDbEntity
  8
0
100
AcDbBlockEnd
  0
BLOCK
  5
3D6
330
3D5
100
AcDbEntity
  8
0
100
AcDbBlockBegin
  2
*D68
 70
     1
 71
     0
 10
0.0
 20
0.0
 30
0.0
  3
*D68
  1

  0
INSERT
  5
3D8
330
3D5
100
AcDbEntity
  8
LAYER-035
  6
Continuous
 62
     5
100
AcDbBlockReference
  2
_OPEN
 10
414.0331993721535
 20
-349.1916716032343
 30
0.0
 41
4.0
 42
4.0
 43
4.0
  0
INSERT
  5
3D9
330
3D5
100
AcDbEntity
  8
LAYER-035
  6
Continuous
 62
     5
100
AcDbBlockReference
  2
_OPEN
 10
214.0331993721535
 20
-349.1916716032343
 30
0.0
 41
4.0
 42
4.0
 43
4.0
 50
180.0
  0
LINE
  5
3DA
330
3D5
100
AcDbEntity
  8
LAYER-035
  6
Continuous
 62
     5
100
AcDbLine
 10
414.0331993721535
 20
-239.0371136107181
 30
0.0
 11
414.0331993721535
 21
-350.1916716032343
 31
0.0
  0
LINE
  5
3DB
330
3D5
100
AcDbEntity
  8
LAYER-035
  6
Continuous
 62
     5
100
AcDbLine
 10
214.0331993721535
 20
-239.0371136107181
 30
0.0
 11
214.0331993721535
 21
-350.1916716032343
 31
0.0
  0
LINE
  5
3DC
330
3D5
100
AcDbEntity
  8
LAYER-035
  6
Continuous
 62
     5
100
AcDbLine
 10
414.0331993721535
 20
-349.1916716032343
 30
0.0
 11
214.0331993721535
 21
-349.1916716032343
 31
0.0
  0
MTEXT
  5
3DD
330
3D5
100
AcDbEntity
  8
LAYER-036
  6
Continuous
 62
     5
100
AcDbMText
 10
278.9976360028088
 20
-348.6916716032343
 30
0.0
 40
10.0
 41
0.0
 71
     8
 72
     1
  1
200
  7
STRING_H
 73
     1
 44
1.0
  0
ENDBLK
  5
3D7
330
3D5
100
AcDbEntity
  8
0
100
AcDbBlockEnd
  0
BLOCK
  5
3E0
330
3DF
100
AcDbEntity
  8
0
100
AcDbBlockBegin
  2
*D79
 70
     1
 71
     0
 10
0.0
 20
0.0
 30
0.0
  3
*D79
  1

  0
INSERT
  5
3E2
330
3DF
100
AcDbEntity
  8
LAYER-035
  6
Continuous
 62
     5
100
AcDbBlockReference
  2
_OPEN
 10
464.0331993721535
 20
-349.1916716032343
 30
0.0
 41
4.0
 42
4.0
 43
4.0
  0
INSERT
  5
3E3
330
3DF
100
AcDbEntity
  8
LAYER-035
  6
Continuous
 62
     5
100
AcDbBlockReference
  2
_OPEN
 10
414.0331993721535
 20
-349.1916716032343
 30
0.0
 41
4.0
 42
4.0
 43
4.0
 50
180.0
  0
LINE
  5
3E4
330
3DF
100
AcDbEntity
  8
LAYER-035
  6
Continuous
 62
     5
100
AcDbLine
 10
464.0331993721535
 20
-149.8418406734662
 30
0.0
 11
464.0331993721535
 21
-350.1916716032343
 31
0.0
  0
LINE
  5
3E5
330
3DF
100
AcDbEntity
  8
LAYER-035
  6
Continuous
 62
     5
100
AcDbLine
 10
414.0331993721535
 20
-239.0371136107181
 30
0.0
 11
414.0331993721535
 21
-350.1916716032343
 31
0.0
  0
LINE
  5
3E6
330
3DF
100
AcDbEntity
  8
LAYER-035
  6
Continuous
 62
     5
100
AcDbLine
 10
464.0331993721535
 20
-349.1916716032343
 30
0.0
 11
414.0331993721535
 21
-349.1916716032343
 31
0.0
  0
MTEXT
  5
3E7
330
3DF
100
AcDbEntity
  8
LAYER-036
  6
Continuous
 62
     5
100
AcDbMText
 10
439.0331993721535
 20
-348.6916716032343
 30
0.0
 40
10.0
 41
0.0
 71
     8
 72
     1
  1
(50)
  7
STRING_H
 73
     1
 44
1.0
  0
ENDBLK
  5
3E1
330
3DF
100
AcDbEntity
  8
0
100
AcDbBlockEnd
  0
BLOCK
  5
3EA
330
3E9
100
AcDbEntity
  8
0
100
AcDbBlockBegin
  2
*D810
 70
     1
 71
     0
 10
0.0
 20
0.0
 30
0.0
  3
*D810
  1

  0
INSERT
  5
3EC
330
3E9
100
AcDbEntity
  8
LAYER-035
  6
Continuous
 62
     5
100
AcDbBlockReference
  2
_OPEN
 10
164.0331993721535
 20
-349.1916716032343
 30
0.0
 41
4.0
 42
4.0
 43
4.0
 50
180.0
  0
INSERT
  5
3ED
330
3E9
100
AcDbEntity
  8
LAYER-035
  6
Continuous
 62
     5
100
AcDbBlockReference
  2
_OPEN
 10
214.0331993721535
 20
-349.1916716032343
 30
0.0
 41
4.0
 42
4.0
 43
4.0
  0
LINE
  5
3EE
330
3E9
100
AcDbEntity
  8
LAYER-035
  6
Continuous
 62
     5
100
AcDbLine
 10
164.0331993721535
 20
-149.8418406734662
 30
0.0
 11
164.0331993721535
 21
-350.1916716032343
 31
0.0
  0
LINE
  5
3EF
330
3E9
100
AcDbEntity
  8
LAYER-035
  6
Continuous
 62
     5
100
AcDbLine
 10
214.0331993721535
 20
-239.0371136107181
 30
0.0
 11
214.0331993721535
 21
-350.1916716032343
 31
0.0
  0
LINE
  5
3F0
330
3E9
100
AcDbEntity
  8
LAYER-035
  6
Continuous
 62
     5
100
AcDbLine
 10
164.0331993721535
 20
-349.1916716032343
 30
0.0
 11
214.0331993721535
 21
-349.1916716032343
 31
0.0
  0
MTEXT
  5
3F1
330
3E9
100
AcDbEntity
  8
LAYER-036
  6
Continuous
 62
     5
100
AcDbMText
 10
189.0331993721535
 20
-348.6916716032343
 30
0.0
 40
10.0
 41
0.0
 71
     8
 72
     1
  1
(50)
  7
STRING_H
 73
     1
 44
1.0
  0
ENDBLK
  5
3EB
330
3E9
100
AcDbEntity
  8
0
100
AcDbBlockEnd
  0
ENDSEC
  0
SECTION
  2
ENTITIES
  0
LINE
  5
152
330
1F
100
AcDbEntity
  8
LAYER-033
  6
Continuous
 62
     1
100
AcDbLine
 10
-189.9718281110802
 20
-588.6095046642289
 30
0.0
 11
-21.22182811108016
 21
-588.6095046642289
 31
0.0
  0
LINE
  5
153
330
1F
100
AcDbEntity
  8
LAYER-033
  6
Continuous
 62
     1
100
AcDbLine
 10
-189.9718281110802
 20
-608.6095046642289
 30
0.0
 11
260.0281718889198
 21
-608.6095046642289
 31
0.0
  0
LINE
  5
154
330
1F
100
AcDbEntity
  8
LAYER-033
  6
Continuous
 62
     1
100
AcDbLine
 10
-189.9718281110802
 20
-628.6095046642289
 30
0.0
 11
-4.971828111080157
 21
-628.6095046642289
 31
0.0
  0
LINE
  5
155
330
1F
100
AcDbEntity
  8
LAYER-006
  6
Continuous
 62
     1
100
AcDbLine
 10
-385.6447706789883
 20
-71.31579747736021
 30
0.0
 11
-385.6447706789883
 21
-77.10665389588905
 31
0.0
  0
LINE
  5
156
330
1F
100
AcDbEntity
  8
LAYER-006
  6
Continuous
 62
     1
100
AcDbLine
 10
-375.7552962064337
 20
-71.31579747736021
 30
0.0
 11
-385.6447706789883
 21
-71.31579747736021
 31
0.0
  0
LINE
  5
157
330
1F
100
AcDbEntity
  8
LAYER-006
  6
Continuous
 62
     1
100
AcDbLine
 10
-375.7552962064337
 20
-71.31579747736021
 30
0.0
 11
-375.7552962064337
 21
-77.10665389588905
 31
0.0
  0
LINE
  5
158
330
1F
100
AcDbEntity
  8
LAYER-006
  6
Continuous
 62
     1
100
AcDbLine
 10
-7.392087717234801
 20
-71.31579747736021
 30
0.0
 11
-7.392087717234801
 21
-77.10665389588905
 31
0.0
  0
LINE
  5
159
330
1F
100
AcDbEntity
  8
LAYER-006
  6
Continuous
 62
     1
100
AcDbLine
 10
-7.392087717234801
 20
-71.31579747736021
 30
0.0
 11
2.49738675531961
 21
-71.31579747736021
 31
0.0
  0
LINE
  5
15A
330
1F
100
AcDbEntity
  8
LAYER-006
  6
Continuous
 62
     1
100
AcDbLine
 10
2.49738675531961
 20
-71.31579747736021
 30
0.0
 11
2.49738675531961
 21
-77.10665389588905
 31
0.0
  0
LINE
  5
15B
330
1F
100
AcDbEntity
  8
LAYER-006
  6
Continuous
 62
     1
100
AcDbLine
 10
260.6293706293707
 20
-71.31579747736021
 30
0.0
 11
260.6293706293707
 21
-77.10665389588905
 31
0.0
  0
LINE
  5
15C
330
1F
100
AcDbEntity
  8
LAYER-006
  6
Continuous
 62
     1
100
AcDbLine
 10
267.9311088322802
 20
-71.31579747736021
 30
0.0
 11
260.6293706293707
 21
-71.31579747736021
 31
0.0
  0
LINE
  5
15D
330
1F
100
AcDbEntity
  8
LAYER-006
  6
Continuous
 62
     1
100
AcDbLine
 10
270.518845101925
 20
-71.31579747736021
 30
0.0
 11
270.518845101925
 21
-77.10665389588905
 31
0.0
  0
LINE
  5
15E
330
1F
100
AcDbEntity
  8
LAYER-006
  6
Continuous
 62
     1
100
AcDbLine
 10
270.518845101925
 20
-71.31579747736021
 30
0.0
 11
260.6293706293707
 21
-71.31579747736021
 31
0.0
  0
LINE
  5
15F
330
1F
100
AcDbEntity
  8
LAYER-006
  6
Continuous
 62
     1
100
AcDbLine
 10
357.547553642382
 20
-71.31579747736021
 30
0.0
 11
357.547553642382
 21
-77.10665389588905
 31
0.0
  0
LINE
  5
160
330
1F
100
AcDbEntity
  8
LAYER-006
  6
Continuous
 62
     1
100
AcDbLine
 10
357.547553642382
 20
-71.31579747736021
 30
0.0
 11
367.4370281149369
 21
-71.31579747736021
 31
0.0
  0
LINE
  5
161
330
1F
100
AcDbEntity
  8
LAYER-006
  6
Continuous
 62
     1
100
AcDbLine
 10
360.1352899120268
 20
-71.31579747736021
 30
0.0
 11
367.4370281149369
 21
-71.31579747736021
 31
0.0
  0
LINE
  5
162
330
1F
100
AcDbEntity
  8
LAYER-006
  6
Continuous
 62
     1
100
AcDbLine
 10
367.4370281149369
 20
-71.31579747736021
 30
0.0
 11
367.4370281149369
 21
-77.10665389588905
 31
0.0
  0
LINE
  5
163
330
1F
100
AcDbEntity
  8
LAYER-006
  6
Continuous
 62
     1
100
AcDbLine
 10
-391.6883417697546
 20
-77.10665389588905
 30
0.0
 11
8.540957844729121
 21
-77.10665389588905
 31
0.0
  0
LINE
  5
164
330
1F
100
AcDbEntity
  8
LAYER-006
  6
Continuous
 62
     1
100
AcDbLine
 10
-391.6883417697546
 20
-77.10665389588905
 30
0.0
 11
-391.6883417697546
 21
-79.85373166441963
 31
0.0
  0
LINE
  5
165
330
1F
100
AcDbEntity
  8
LAYER-006
  6
Continuous
 62
     1
100
AcDbLine
 10
8.540957844729121
 20
-77.10665389588905
 30
0.0
 11
8.540957844729121
 21
-79.85373166441963
 31
0.0
  0
LINE
  5
166
330
1F
100
AcDbEntity
  8
LAYER-006
  6
Continuous
 62
     1
100
AcDbLine
 10
225.6411856663498
 20
-77.10665389588905
 30
0.0
 11
402.4252130779572
 21
-77.10665389588905
 31
0.0
  0
LINE
  5
167
330
1F
100
AcDbEntity
  8
LAYER-006
  6
Continuous
 62
     1
100
AcDbLine
 10
225.6411856663498
 20
-77.10665389588905
 30
0.0
 11
225.6411856663498
 21
-79.85373166432345
 31
0.0
  0
LINE
  5
168
330
1F
100
AcDbEntity
  8
LAYER-006
  6
Continuous
 62
     1
100
AcDbLine
 10
402.4252130779572
 20
-77.10665389588905
 30
0.0
 11
402.4252130779572
 21
-79.85373166432345
 31
0.0
  0
LINE
  5
169
330
1F
100
AcDbEntity
  8
LAYER-006
  6
Continuous
 62
     1
100
AcDbLine
 10
8.540957844729121
 20
-79.85373166441963
 30
0.0
 11
-391.6883417697546
 21
-79.85373166441963
 31
0.0
  0
LINE
  5
16A
330
1F
100
AcDbEntity
  8
LAYER-006
  6
Continuous
 62
     1
100
AcDbLine
 10
402.4252130779572
 20
-79.85373166432345
 30
0.0
 11
225.6411856663498
 21
-79.85373166432345
 31
0.0
  0
LINE
  5
16B
330
1F
100
AcDbEntity
  8
LAYER-007
  6
CENTER
 62
     4
100
AcDbLine
 10
-320.76669963948
 20
-89.58163082009526
 30
0.0
 11
-320.76669963948
 21
-162.8085824557768
 31
0.0
  0
LINE
  5
16C
330
1F
100
AcDbEntity
  8
LAYER-007
  6
CENTER
 62
     4
100
AcDbLine
 10
-59.95371695936871
 20
-89.58163082009526
 30
0.0
 11
-59.95371695936871
 21
-162.8085824557768
 31
0.0
  0
LINE
  5
16D
330
1F
100
AcDbEntity
  8
LAYER-006
  6
Continuous
 62
     1
100
AcDbLine
 10
-324.6126030212672
 20
-96.31579747736021
 30
0.0
 11
-324.6126030212672
 21
-116.0947519166246
 31
0.0
  0
LINE
  5
16E
330
1F
100
AcDbEntity
  8
LAYER-006
  6
Continuous
 62
     1
100
AcDbLine
 10
-324.6126030212672
 20
-96.31579747736021
 30
0.0
 11
-317.4702063172432
 21
-96.31579747736021
 31
0.0
  0
LINE
  5
16F
330
1F
100
AcDbEntity
  8
LAYER-006
  6
Continuous
 62
     1
100
AcDbLine
 10
-317.4702063172432
 20
-96.31579747736021
 30
0.0
 11
-317.4702063172432
 21
-116.0947519166246
 31
0.0
  0
LINE
  5
170
330
1F
100
AcDbEntity
  8
LAYER-006
  6
Continuous
 62
     1
100
AcDbLine
 10
-194.2061144282891
 20
-96.31579747736021
 30
0.0
 11
-194.2061144282891
 21
-116.0947519166246
 31
0.0
  0
LINE
  5
171
330
1F
100
AcDbEntity
  8
LAYER-006
  6
Continuous
 62
     1
100
AcDbLine
 10
-194.2061144282891
 20
-96.31579747736021
 30
0.0
 11
-187.0637177242651
 21
-96.31579747736021
 31
0.0
  0
LINE
  5
172
330
1F
100
AcDbEntity
  8
LAYER-006
  6
Continuous
 62
     1
100
AcDbLine
 10
-187.0637177242651
 20
-96.31579747736021
 30
0.0
 11
-187.0637177242651
 21
-116.0947519166246
 31
0.0
  0
LINE
  5
173
330
1F
100
AcDbEntity
  8
LAYER-006
  6
Continuous
 62
     1
100
AcDbLine
 10
-63.7996203411559
 20
-96.31579747736021
 30
0.0
 11
-63.7996203411559
 21
-116.0947519166246
 31
0.0
  0
LINE
  5
174
330
1F
100
AcDbEntity
  8
LAYER-006
  6
Continuous
 62
     1
100
AcDbLine
 10
-63.7996203411559
 20
-96.31579747736021
 30
0.0
 11
-56.65722363713189
 21
-96.31579747736021
 31
0.0
  0
LINE
  5
175
330
1F
100
AcDbEntity
  8
LAYER-006
  6
Continuous
 62
     1
100
AcDbLine
 10
-56.65722363713189
 20
-96.31579747736021
 30
0.0
 11
-56.65722363713189
 21
-116.0947519166246
 31
0.0
  0
LINE
  5
176
330
1F
100
AcDbEntity
  8
LAYER-001
  6
Continuous
 62
     1
100
AcDbLine
 10
-364.3545817948864
 20
-97.06699139261286
 30
0.0
 11
-375.7552962064337
 21
-97.06699139261286
 31
0.0
  0
LINE
  5
177
330
1F
100
AcDbEntity
  8
LAYER-001
  6
Continuous
 62
     1
100
AcDbLine
 10
-364.3545817948864
 20
-97.06699139261286
 30
0.0
 11
-359.7761371631611
 21
-101.6454360316561
 31
0.0
  0
LINE
  5
178
330
1F
100
AcDbEntity
  8
LAYER-033
  6
Continuous
 62
     1
100
AcDbLine
 10
-375.7552962064337
 20
-119.9592145609481
 30
0.0
 11
-358.235429628024
 21
-119.9592145609481
 31
0.0
  0
LINE
  5
179
330
1F
100
AcDbEntity
  8
LAYER-001
  6
Continuous
 62
     1
100
AcDbLine
 10
-359.7761371631611
 20
-101.6454360316561
 30
0.0
 11
-359.7761371631611
 21
-130.9289773608454
 31
0.0
  0
LINE
  5
17A
330
1F
100
AcDbEntity
  8
LAYER-001
  6
Continuous
 62
     1
100
AcDbLine
 10
-385.6447706789883
 20
-98.21202389012979
 30
0.0
 11
-389.0781828148878
 21
-101.6454360316561
 31
0.0
  0
LINE
  5
17B
330
1F
100
AcDbEntity
  8
LAYER-001
  6
Continuous
 62
     1
100
AcDbLine
 10
-389.0781828148878
 20
-101.6454360316561
 30
0.0
 11
-389.0781828148878
 21
-130.9289773608454
 31
0.0
  0
LINE
  5
17C
330
1F
100
AcDbEntity
  8
LAYER-001
  6
Continuous
 62
     1
100
AcDbLine
 10
-389.0781828148878
 20
-144.6643662034982
 30
0.0
 11
-389.0781828148878
 21
-176.3157974773602
 31
0.0
  0
LINE
  5
17D
330
1F
100
AcDbEntity
  8
LAYER-001
  6
Continuous
 62
     1
100
AcDbLine
 10
-359.7761371631611
 20
-144.6643662034982
 30
0.0
 11
-359.7761371631611
 21
-176.3157974773602
 31
0.0
  0
ARC
  5
17E
330
1F
100
AcDbEntity
  8
LAYER-033
  6
Continuous
 62
     1
100
AcDbCircle
 10
-374.4271599890245
 20
-119.9592145609481
 30
0.0
 40
8.699044804028386
100
AcDbArc
 50
266.3790214822288
 51
273.6209785072467
  0
ARC
  5
17F
330
1F
100
AcDbEntity
  8
LAYER-033
  6
Continuous
 62
     1
100
AcDbCircle
 10
-374.4271599890245
 20
-119.9592145609481
 30
0.0
 40
8.699044804028386
100
AcDbArc
 50
261.2179576541959
 51
98.7820423458044
  0
ARC
  5
180
330
1F
100
AcDbEntity
  8
LAYER-033
  6
Continuous
 62
     1
100
AcDbCircle
 10
-374.4271599890245
 20
-119.9592145609481
 30
0.0
 40
8.699044804028386
100
AcDbArc
 50
90.0
 51
90.00003618695909
  0
LINE
  5
181
330
1F
100
AcDbEntity
  8
LAYER-001
  6
Continuous
 62
     1
100
AcDbLine
 10
-17.46467140552943
 20
-97.06699139261286
 30
0.0
 11
-22.04311603725466
 21
-101.6454360316561
 31
0.0
  0
LINE
  5
182
330
1F
100
AcDbEntity
  8
LAYER-033
  6
Continuous
 62
     1
100
AcDbLine
 10
-7.392087717234801
 20
-119.9592145609481
 30
0.0
 11
-23.58382357239179
 21
-119.9592145609481
 31
0.0
  0
LINE
  5
183
330
1F
100
AcDbEntity
  8
LAYER-001
  6
Continuous
 62
     1
100
AcDbLine
 10
2.680484982746862
 20
-97.06699139261286
 30
0.0
 11
7.258929614472095
 21
-101.6454360316561
 31
0.0
  0
LINE
  5
184
330
1F
100
AcDbEntity
  8
LAYER-001
  6
Continuous
 62
     1
100
AcDbLine
 10
-22.04311603725466
 20
-101.6454360316561
 30
0.0
 11
-22.04311603725466
 21
-130.9289773608454
 31
0.0
  0
LINE
  5
185
330
1F
100
AcDbEntity
  8
LAYER-001
  6
Continuous
 62
     1
100
AcDbLine
 10
7.258929614472095
 20
-101.6454360316561
 30
0.0
 11
7.258929614472095
 21
-130.9289773608454
 31
0.0
  0
LINE
  5
186
330
1F
100
AcDbEntity
  8
LAYER-001
  6
Continuous
 62
     1
100
AcDbLine
 10
7.258929614472095
 20
-144.6643662034982
 30
0.0
 11
7.258929614472095
 21
-176.3157974773602
 31
0.0
  0
LINE
  5
187
330
1F
100
AcDbEntity
  8
LAYER-001
  6
Continuous
 62
     1
100
AcDbLine
 10
-22.04311603725466
 20
-144.6643662034982
 30
0.0
 11
-22.04311603725466
 21
-176.3157974773602
 31
0.0
  0
ARC
  5
188
330
1F
100
AcDbEntity
  8
LAYER-033
  6
Continuous
 62
     1
100
AcDbCircle
 10
-7.392093211391398
 20
-119.9592145609481
 30
0.0
 40
8.699044804028386
100
AcDbArc
 50
90.0
 51
273.6209785072477
  0
ARC
  5
189
330
1F
100
AcDbEntity
  8
LAYER-033
  6
Continuous
 62
     1
100
AcDbCircle
 10
-7.392093211391398
 20
-119.9592145609481
 30
0.0
 40
8.699044804028386
100
AcDbArc
 50
266.3790214822299
 51
273.6209785072477
  0
LINE
  5
18A
330
1F
100
AcDbEntity
  8
LAYER-033
  6
Continuous
 62
     1
100
AcDbLine
 10
-7.392093211391398
 20
-130.9289773608454
 30
0.0
 11
-7.392093211391398
 21
-106.9851123847845
 31
0.0
  0
ARC
  5
18B
330
1F
100
AcDbEntity
  8
LAYER-033
  6
Continuous
 62
     1
100
AcDbCircle
 10
-7.392093211391398
 20
-119.9592145609481
 30
0.0
 40
8.699044804028386
100
AcDbArc
 50
89.99996381304017
 51
90.0
  0
LINE
  5
18C
330
1F
100
AcDbEntity
  8
LAYER-001
  6
Continuous
 62
     1
100
AcDbLine
 10
-17.46467140552943
 20
-97.06699139261286
 30
0.0
 11
-7.392087717234801
 21
-97.06699139261286
 31
0.0
  0
LINE
  5
18D
330
1F
100
AcDbEntity
  8
LAYER-001
  6
Continuous
 62
     1
100
AcDbLine
 10
2.49738675531961
 20
-97.06699139261286
 30
0.0
 11
2.680484982746862
 21
-97.06699139261286
 31
0.0
  0
LINE
  5
18E
330
1F
100
AcDbEntity
  8
LAYER-001
  6
Continuous
 62
     1
100
AcDbLine
 10
313.6834200558811
 20
-97.06699139261286
 30
0.0
 11
309.5628198853838
 21
-97.06699139261286
 31
0.0
  0
LINE
  5
18F
330
1F
100
AcDbEntity
  8
LAYER-033
  6
HIDDEN
 62
     1
100
AcDbLine
 10
313.6834200558811
 20
-111.2601697569197
 30
0.0
 11
309.5628198853838
 21
-111.2601697569197
 31
0.0
  0
LINE
  5
190
330
1F
100
AcDbEntity
  8
LAYER-033
  6
HIDDEN
 62
     1
100
AcDbLine
 10
313.6834200558811
 20
-128.6408932109266
 30
0.0
 11
309.5628198853838
 21
-128.6408932109266
 31
0.0
  0
LINE
  5
191
330
1F
100
AcDbEntity
  8
LAYER-001
  6
Continuous
 62
     1
100
AcDbLine
 10
309.5628198853838
 20
-178.1951973076858
 30
0.0
 11
309.5628198853838
 21
-97.06699139261286
 31
0.0
  0
ARC
  5
192
330
1F
100
AcDbEntity
  8
LAYER-001
  6
Continuous
 62
     1
100
AcDbCircle
 10
305.4422197167622
 20
-178.1951973076858
 30
0.0
 40
4.120600170329235
100
AcDbArc
 50
270.0
 51
0.0
  0
LINE
  5
193
330
1F
100
AcDbEntity
  8
LAYER-001
  6
Continuous
 62
     1
100
AcDbLine
 10
313.6834200558811
 20
-178.1951973076858
 30
0.0
 11
313.6834200558811
 21
-97.06699139261286
 31
0.0
  0
LINE
  5
194
330
1F
100
AcDbEntity
  8
LAYER-001
  6
Continuous
 62
     1
100
AcDbLine
 10
305.4422197167622
 20
-182.3157974773602
 30
0.0
 11
259.107996777922
 21
-182.3157974773602
 31
0.0
  0
LINE
  5
195
330
1F
100
AcDbEntity
  8
LAYER-001
  6
Continuous
 62
     1
100
AcDbLine
 10
259.107996777922
 20
-186.4363976476895
 30
0.0
 11
259.107996777922
 21
-182.3157974773602
 31
0.0
  0
LINE
  5
196
330
1F
100
AcDbEntity
  8
LAYER-001
  6
Continuous
 62
     1
100
AcDbLine
 10
305.4422197167622
 20
-186.4363976476895
 30
0.0
 11
259.107996777922
 21
-186.4363976476895
 31
0.0
  0
ARC
  5
197
330
1F
100
AcDbEntity
  8
LAYER-001
  6
Continuous
 62
     1
100
AcDbCircle
 10
305.4422197167622
 20
-178.1951973076858
 30
0.0
 40
8.24120034065847
100
AcDbArc
 50
270.0
 51
0.0
  0
LINE
  5
198
330
1F
100
AcDbEntity
  8
LAYER-006
  6
Continuous
 62
     1
100
AcDbLine
 10
-328.4585173913656
 20
-106.2052774440703
 30
0.0
 11
-313.6242919471448
 21
-106.2052774440703
 31
0.0
  0
LINE
  5
199
330
1F
100
AcDbEntity
  8
LAYER-006
  6
Continuous
 62
     1
100
AcDbLine
 10
-328.4585173913656
 20
-106.2052774440703
 30
0.0
 11
-328.4585173913656
 21
-116.0947519166246
 31
0.0
  0
LINE
  5
19A
330
1F
100
AcDbEntity
  8
LAYER-006
  6
Continuous
 62
     1
100
AcDbLine
 10
-313.6242919471448
 20
-106.2052774440703
 30
0.0
 11
-313.6242919471448
 21
-116.0947519166246
 31
0.0
  0
LINE
  5
19B
330
1F
100
AcDbEntity
  8
LAYER-006
  6
Continuous
 62
     1
100
AcDbLine
 10
-198.0520287983875
 20
-106.2052774440703
 30
0.0
 11
-183.2178033541667
 21
-106.2052774440703
 31
0.0
  0
LINE
  5
19C
330
1F
100
AcDbEntity
  8
LAYER-006
  6
Continuous
 62
     1
100
AcDbLine
 10
-198.0520287983875
 20
-106.2052774440703
 30
0.0
 11
-198.0520287983875
 21
-116.0947519166246
 31
0.0
  0
LINE
  5
19D
330
1F
100
AcDbEntity
  8
LAYER-006
  6
Continuous
 62
     1
100
AcDbLine
 10
-183.2178033541667
 20
-106.2052774440703
 30
0.0
 11
-183.2178033541667
 21
-116.0947519166246
 31
0.0
  0
LINE
  5
19E
330
1F
100
AcDbEntity
  8
LAYER-006
  6
Continuous
 62
     1
100
AcDbLine
 10
-67.6455347112543
 20
-106.2052774440703
 30
0.0
 11
-52.81130926703349
 21
-106.2052774440703
 31
0.0
  0
LINE
  5
19F
330
1F
100
AcDbEntity
  8
LAYER-006
  6
Continuous
 62
     1
100
AcDbLine
 10
-67.6455347112543
 20
-106.2052774440703
 30
0.0
 11
-67.6455347112543
 21
-116.0947519166246
 31
0.0
  0
LINE
  5
1A0
330
1F
100
AcDbEntity
  8
LAYER-006
  6
Continuous
 62
     1
100
AcDbLine
 10
-52.81130926703349
 20
-106.2052774440703
 30
0.0
 11
-52.81130926703349
 21
-116.0947519166246
 31
0.0
  0
LINE
  5
1A1
330
1F
100
AcDbEntity
  8
LAYER-006
  6
Continuous
 62
     1
100
AcDbLine
 10
257.8822928608407
 20
-106.2052774440703
 30
0.0
 11
257.8822928608407
 21
-116.0947519166246
 31
0.0
  0
LINE
  5
1A2
330
1F
100
AcDbEntity
  8
LAYER-006
  6
Continuous
 62
     1
100
AcDbLine
 10
257.8822928608407
 20
-106.2052774440703
 30
0.0
 11
260.6293706293707
 21
-106.2052774440703
 31
0.0
  0
LINE
  5
1A3
330
1F
100
AcDbEntity
  8
LAYER-006
  6
Continuous
 62
     1
100
AcDbLine
 10
270.518845101925
 20
-106.2052774440703
 30
0.0
 11
272.716518305061
 21
-106.2052774440703
 31
0.0
  0
LINE
  5
1A4
330
1F
100
AcDbEntity
  8
LAYER-006
  6
Continuous
 62
     1
100
AcDbLine
 10
272.716518305061
 20
-106.2052774440703
 30
0.0
 11
272.716518305061
 21
-116.0947519166246
 31
0.0
  0
LINE
  5
1A5
330
1F
100
AcDbEntity
  8
LAYER-006
  6
Continuous
 62
     1
100
AcDbLine
 10
355.3498804392467
 20
-106.2052774440703
 30
0.0
 11
355.3498804392467
 21
-116.0947519166246
 31
0.0
  0
LINE
  5
1A6
330
1F
100
AcDbEntity
  8
LAYER-006
  6
Continuous
 62
     1
100
AcDbLine
 10
357.547553642382
 20
-106.2052774440703
 30
0.0
 11
355.3498804392467
 21
-106.2052774440703
 31
0.0
  0
LINE
  5
1A7
330
1F
100
AcDbEntity
  8
LAYER-006
  6
Continuous
 62
     1
100
AcDbLine
 10
370.1841058834668
 20
-106.2052774440703
 30
0.0
 11
370.1841058834668
 21
-116.0947519166246
 31
0.0
  0
LINE
  5
1A8
330
1F
100
AcDbEntity
  8
LAYER-006
  6
Continuous
 62
     1
100
AcDbLine
 10
370.1841058834668
 20
-106.2052774440703
 30
0.0
 11
367.4370281149369
 21
-106.2052774440703
 31
0.0
  0
LINE
  5
1A9
330
1F
100
AcDbEntity
  8
LAYER-006
  6
HIDDEN
 62
     4
100
AcDbLine
 10
237.0044963280863
 20
-110.6005963795637
 30
0.0
 11
249.0916440015423
 21
-110.6005963795637
 31
0.0
  0
LINE
  5
1AA
330
1F
100
AcDbEntity
  8
LAYER-006
  6
HIDDEN
 62
     4
100
AcDbLine
 10
237.0044963280863
 20
-110.6005963795637
 30
0.0
 11
237.0044963280863
 21
-118.8418406734662
 31
0.0
  0
LINE
  5
1AB
330
1F
100
AcDbEntity
  8
LAYER-006
  6
HIDDEN
 62
     4
100
AcDbLine
 10
249.0916440015423
 20
-110.6005963795637
 30
0.0
 11
254.585799538604
 21
-116.0947519166246
 31
0.0
  0
LINE
  5
1AC
330
1F
100
AcDbEntity
  8
LAYER-006
  6
HIDDEN
 62
     4
100
AcDbLine
 10
378.9747547428681
 20
-110.6005963795637
 30
0.0
 11
373.4805992057037
 21
-116.0947519166246
 31
0.0
  0
LINE
  5
1AD
330
1F
100
AcDbEntity
  8
LAYER-006
  6
HIDDEN
 62
     4
100
AcDbLine
 10
391.0619024162214
 20
-110.6005963795637
 30
0.0
 11
378.9747547428681
 21
-110.6005963795637
 31
0.0
  0
LINE
  5
1AE
330
1F
100
AcDbEntity
  8
LAYER-006
  6
HIDDEN
 62
     4
100
AcDbLine
 10
391.0619024162214
 20
-110.6005963795637
 30
0.0
 11
391.0619024162214
 21
-118.8418406734662
 31
0.0
  0
LINE
  5
1AF
330
1F
100
AcDbEntity
  8
LAYER-006
  6
Continuous
 62
     1
100
AcDbLine
 10
-330.6561741120344
 20
-116.0947519166246
 30
0.0
 11
-311.4266297323208
 21
-116.0947519166246
 31
0.0
  0
LINE
  5
1B0
330
1F
100
AcDbEntity
  8
LAYER-006
  6
Continuous
 62
     1
100
AcDbLine
 10
-330.6561741120344
 20
-116.0947519166246
 30
0.0
 11
-330.6561741120344
 21
-121.0394918999798
 31
0.0
  0
LINE
  5
1B1
330
1F
100
AcDbEntity
  8
LAYER-006
  6
Continuous
 62
     1
100
AcDbLine
 10
-311.4266297323208
 20
-116.0947519166246
 30
0.0
 11
-311.4266297323208
 21
-121.0394918999798
 31
0.0
  0
LINE
  5
1B2
330
1F
100
AcDbEntity
  8
LAYER-006
  6
Continuous
 62
     1
100
AcDbLine
 10
-200.2496855190335
 20
-116.0947519166246
 30
0.0
 11
-181.0201411393427
 21
-116.0947519166246
 31
0.0
  0
LINE
  5
1B3
330
1F
100
AcDbEntity
  8
LAYER-006
  6
Continuous
 62
     1
100
AcDbLine
 10
-200.2496855190335
 20
-116.0947519166246
 30
0.0
 11
-200.2496855190335
 21
-121.0394918999798
 31
0.0
  0
LINE
  5
1B4
330
1F
100
AcDbEntity
  8
LAYER-006
  6
Continuous
 62
     1
100
AcDbLine
 10
-181.0201411393427
 20
-116.0947519166246
 30
0.0
 11
-181.0201411393427
 21
-121.0394918999798
 31
0.0
  0
LINE
  5
1B5
330
1F
100
AcDbEntity
  8
LAYER-006
  6
Continuous
 62
     1
100
AcDbLine
 10
-69.84319143192312
 20
-116.0947519166246
 30
0.0
 11
-50.61364705220944
 21
-116.0947519166246
 31
0.0
  0
LINE
  5
1B6
330
1F
100
AcDbEntity
  8
LAYER-006
  6
Continuous
 62
     1
100
AcDbLine
 10
-69.84319143192312
 20
-116.0947519166246
 30
0.0
 11
-69.84319143192312
 21
-121.0394918999798
 31
0.0
  0
LINE
  5
1B7
330
1F
100
AcDbEntity
  8
LAYER-006
  6
Continuous
 62
     1
100
AcDbLine
 10
-50.61364705220944
 20
-116.0947519166246
 30
0.0
 11
-50.61364705220944
 21
-121.0394918999798
 31
0.0
  0
LINE
  5
1B8
330
1F
100
AcDbEntity
  8
LAYER-006
  6
HIDDEN
 62
     4
100
AcDbLine
 10
254.585799538604
 20
-116.0947519166246
 30
0.0
 11
260.6293706293707
 21
-116.0947519166246
 31
0.0
  0
LINE
  5
1B9
330
1F
100
AcDbEntity
  8
LAYER-006
  6
HIDDEN
 62
     4
100
AcDbLine
 10
270.518845101925
 20
-116.0947519166246
 30
0.0
 11
276.0130061331422
 21
-116.0947519166246
 31
0.0
  0
LINE
  5
1BA
330
1F
100
AcDbEntity
  8
LAYER-006
  6
HIDDEN
 62
     4
100
AcDbLine
 10
276.0130061331422
 20
-116.0947519166246
 30
0.0
 11
276.0130061331422
 21
-118.8418406734662
 31
0.0
  0
LINE
  5
1BB
330
1F
100
AcDbEntity
  8
LAYER-006
  6
HIDDEN
 62
     4
100
AcDbLine
 10
352.0533926111648
 20
-116.0947519166246
 30
0.0
 11
352.0533926111648
 21
-118.8418406734662
 31
0.0
  0
LINE
  5
1BC
330
1F
100
AcDbEntity
  8
LAYER-006
  6
HIDDEN
 62
     4
100
AcDbLine
 10
357.547553642382
 20
-116.0947519166246
 30
0.0
 11
352.0533926111648
 21
-116.0947519166246
 31
0.0
  0
LINE
  5
1BD
330
1F
100
AcDbEntity
  8
LAYER-006
  6
HIDDEN
 62
     4
100
AcDbLine
 10
373.4805992057037
 20
-116.0947519166246
 30
0.0
 11
367.4370281149369
 21
-116.0947519166246
 31
0.0
  0
LINE
  5
1BE
330
1F
100
AcDbEntity
  8
LAYER-006
  6
Continuous
 62
     1
100
AcDbLine
 10
-330.6561741120344
 20
-118.8418406734662
 30
0.0
 11
-311.4266297323208
 21
-118.8418406734662
 31
0.0
  0
LINE
  5
1BF
330
1F
100
AcDbEntity
  8
LAYER-006
  6
Continuous
 62
     1
100
AcDbLine
 10
-200.2496855190335
 20
-118.8418406734662
 30
0.0
 11
-181.0201411393427
 21
-118.8418406734662
 31
0.0
  0
LINE
  5
1C0
330
1F
100
AcDbEntity
  8
LAYER-006
  6
Continuous
 62
     1
100
AcDbLine
 10
-69.84319143192312
 20
-118.8418406734662
 30
0.0
 11
-50.61364705220944
 21
-118.8418406734662
 31
0.0
  0
LINE
  5
1C1
330
1F
100
AcDbEntity
  8
LAYER-006
  6
Continuous
 62
     1
100
AcDbLine
 10
237.0044963280863
 20
-118.8418406734662
 30
0.0
 11
237.0044963280863
 21
-126.5336474370406
 31
0.0
  0
LINE
  5
1C2
330
1F
100
AcDbEntity
  8
LAYER-006
  6
Continuous
 62
     1
100
AcDbLine
 10
237.0044963280863
 20
-118.8418406734662
 30
0.0
 11
260.6293706293707
 21
-118.8418406734662
 31
0.0
  0
LINE
  5
1C3
330
1F
100
AcDbEntity
  8
LAYER-006
  6
Continuous
 62
     1
100
AcDbLine
 10
270.518845101925
 20
-118.8418406734662
 30
0.0
 11
276.0130061331422
 21
-118.8418406734662
 31
0.0
  0
LINE
  5
1C4
330
1F
100
AcDbEntity
  8
LAYER-006
  6
Continuous
 62
     1
100
AcDbLine
 10
276.0130061331422
 20
-118.8418406734662
 30
0.0
 11
276.0130061331422
 21
-121.0394918999798
 31
0.0
  0
LINE
  5
1C5
330
1F
100
AcDbEntity
  8
LAYER-006
  6
Continuous
 62
     1
100
AcDbLine
 10
352.0533926111648
 20
-118.8418406734662
 30
0.0
 11
352.0533926111648
 21
-121.0394918999798
 31
0.0
  0
LINE
  5
1C6
330
1F
100
AcDbEntity
  8
LAYER-006
  6
Continuous
 62
     1
100
AcDbLine
 10
357.547553642382
 20
-118.8418406734662
 30
0.0
 11
352.0533926111648
 21
-118.8418406734662
 31
0.0
  0
LINE
  5
1C7
330
1F
100
AcDbEntity
  8
LAYER-006
  6
Continuous
 62
     1
100
AcDbLine
 10
391.0619024162214
 20
-118.8418406734662
 30
0.0
 11
391.0619024162214
 21
-126.5336474370406
 31
0.0
  0
LINE
  5
1C8
330
1F
100
AcDbEntity
  8
LAYER-006
  6
Continuous
 62
     1
100
AcDbLine
 10
391.0619024162214
 20
-118.8418406734662
 30
0.0
 11
367.4370281149369
 21
-118.8418406734662
 31
0.0
  0
LINE
  5
1C9
330
1F
100
AcDbEntity
  8
LAYER-006
  6
Continuous
 62
     1
100
AcDbLine
 10
-330.6561741120344
 20
-121.0394918999798
 30
0.0
 11
-311.4266297323208
 21
-121.0394918999798
 31
0.0
  0
LINE
  5
1CA
330
1F
100
AcDbEntity
  8
LAYER-006
  6
Continuous
 62
     1
100
AcDbLine
 10
-328.4585173913656
 20
-121.0394918999798
 30
0.0
 11
-328.4585173913656
 21
-130.9289773608454
 31
0.0
  0
LINE
  5
1CB
330
1F
100
AcDbEntity
  8
LAYER-006
  6
Continuous
 62
     1
100
AcDbLine
 10
-324.6126030212672
 20
-121.0394918999798
 30
0.0
 11
-324.6126030212672
 21
-130.9289773608454
 31
0.0
  0
LINE
  5
1CC
330
1F
100
AcDbEntity
  8
LAYER-006
  6
Continuous
 62
     1
100
AcDbLine
 10
-317.4702063172432
 20
-121.0394918999798
 30
0.0
 11
-317.4702063172432
 21
-130.9289773608454
 31
0.0
  0
LINE
  5
1CD
330
1F
100
AcDbEntity
  8
LAYER-006
  6
Continuous
 62
     1
100
AcDbLine
 10
-313.6242919471448
 20
-121.0394918999798
 30
0.0
 11
-313.6242919471448
 21
-130.9289773608454
 31
0.0
  0
LINE
  5
1CE
330
1F
100
AcDbEntity
  8
LAYER-006
  6
Continuous
 62
     1
100
AcDbLine
 10
-200.2496855190335
 20
-121.0394918999798
 30
0.0
 11
-181.0201411393427
 21
-121.0394918999798
 31
0.0
  0
LINE
  5
1CF
330
1F
100
AcDbEntity
  8
LAYER-006
  6
Continuous
 62
     1
100
AcDbLine
 10
-198.0520287983875
 20
-121.0394918999798
 30
0.0
 11
-198.0520287983875
 21
-130.9289773608454
 31
0.0
  0
LINE
  5
1D0
330
1F
100
AcDbEntity
  8
LAYER-006
  6
Continuous
 62
     1
100
AcDbLine
 10
-194.2061144282891
 20
-121.0394918999798
 30
0.0
 11
-194.2061144282891
 21
-130.9289773608454
 31
0.0
  0
LINE
  5
1D1
330
1F
100
AcDbEntity
  8
LAYER-006
  6
Continuous
 62
     1
100
AcDbLine
 10
-187.0637177242651
 20
-121.0394918999798
 30
0.0
 11
-187.0637177242651
 21
-130.9289773608454
 31
0.0
  0
LINE
  5
1D2
330
1F
100
AcDbEntity
  8
LAYER-006
  6
Continuous
 62
     1
100
AcDbLine
 10
-183.2178033541667
 20
-121.0394918999798
 30
0.0
 11
-183.2178033541667
 21
-130.9289773608454
 31
0.0
  0
LINE
  5
1D3
330
1F
100
AcDbEntity
  8
LAYER-006
  6
Continuous
 62
     1
100
AcDbLine
 10
-69.84319143192312
 20
-121.0394918999798
 30
0.0
 11
-50.61364705220944
 21
-121.0394918999798
 31
0.0
  0
LINE
  5
1D4
330
1F
100
AcDbEntity
  8
LAYER-006
  6
Continuous
 62
     1
100
AcDbLine
 10
-67.6455347112543
 20
-121.0394918999798
 30
0.0
 11
-67.6455347112543
 21
-130.9289773608454
 31
0.0
  0
LINE
  5
1D5
330
1F
100
AcDbEntity
  8
LAYER-006
  6
Continuous
 62
     1
100
AcDbLine
 10
-63.7996203411559
 20
-121.0394918999798
 30
0.0
 11
-63.7996203411559
 21
-130.9289773608454
 31
0.0
  0
LINE
  5
1D6
330
1F
100
AcDbEntity
  8
LAYER-006
  6
Continuous
 62
     1
100
AcDbLine
 10
-56.65722363713189
 20
-121.0394918999798
 30
0.0
 11
-56.65722363713189
 21
-130.9289773608454
 31
0.0
  0
LINE
  5
1D7
330
1F
100
AcDbEntity
  8
LAYER-006
  6
Continuous
 62
     1
100
AcDbLine
 10
-52.81130926703349
 20
-121.0394918999798
 30
0.0
 11
-52.81130926703349
 21
-130.9289773608454
 31
0.0
  0
LINE
  5
1D8
330
1F
100
AcDbEntity
  8
LAYER-006
  6
Continuous
 62
     1
100
AcDbLine
 10
254.585799538604
 20
-121.0394918999798
 30
0.0
 11
249.0916440015423
 21
-126.5336474370406
 31
0.0
  0
LINE
  5
1D9
330
1F
100
AcDbEntity
  8
LAYER-006
  6
Continuous
 62
     1
100
AcDbLine
 10
254.585799538604
 20
-121.0394918999798
 30
0.0
 11
260.6293706293707
 21
-121.0394918999798
 31
0.0
  0
LINE
  5
1DA
330
1F
100
AcDbEntity
  8
LAYER-006
  6
Continuous
 62
     1
100
AcDbLine
 10
257.8822928608407
 20
-121.0394918999798
 30
0.0
 11
257.8822928608407
 21
-130.9289773608454
 31
0.0
  0
LINE
  5
1DB
330
1F
100
AcDbEntity
  8
LAYER-006
  6
Continuous
 62
     1
100
AcDbLine
 10
270.518845101925
 20
-121.0394918999798
 30
0.0
 11
276.0130061331422
 21
-121.0394918999798
 31
0.0
  0
LINE
  5
1DC
330
1F
100
AcDbEntity
  8
LAYER-006
  6
Continuous
 62
     1
100
AcDbLine
 10
272.716518305061
 20
-121.0394918999798
 30
0.0
 11
272.716518305061
 21
-130.9289773608454
 31
0.0
  0
LINE
  5
1DD
330
1F
100
AcDbEntity
  8
LAYER-006
  6
Continuous
 62
     1
100
AcDbLine
 10
355.3498804392467
 20
-121.0394918999798
 30
0.0
 11
355.3498804392467
 21
-130.9289773608454
 31
0.0
  0
LINE
  5
1DE
330
1F
100
AcDbEntity
  8
LAYER-006
  6
Continuous
 62
     1
100
AcDbLine
 10
357.547553642382
 20
-121.0394918999798
 30
0.0
 11
352.0533926111648
 21
-121.0394918999798
 31
0.0
  0
LINE
  5
1DF
330
1F
100
AcDbEntity
  8
LAYER-006
  6
Continuous
 62
     1
100
AcDbLine
 10
370.1841058834668
 20
-121.0394918999798
 30
0.0
 11
370.1841058834668
 21
-130.9289773608454
 31
0.0
  0
LINE
  5
1E0
330
1F
100
AcDbEntity
  8
LAYER-006
  6
Continuous
 62
     1
100
AcDbLine
 10
373.4805992057037
 20
-121.0394918999798
 30
0.0
 11
378.9747547428681
 21
-126.5336474370406
 31
0.0
  0
LINE
  5
1E1
330
1F
100
AcDbEntity
  8
LAYER-006
  6
Continuous
 62
     1
100
AcDbLine
 10
373.4805992057037
 20
-121.0394918999798
 30
0.0
 11
367.4370281149369
 21
-121.0394918999798
 31
0.0
  0
LINE
  5
1E2
330
1F
100
AcDbEntity
  8
LAYER-006
  6
Continuous
 62
     1
100
AcDbLine
 10
237.0044963280863
 20
-126.5336474370406
 30
0.0
 11
249.0916440015423
 21
-126.5336474370406
 31
0.0
  0
LINE
  5
1E3
330
1F
100
AcDbEntity
  8
LAYER-006
  6
Continuous
 62
     1
100
AcDbLine
 10
391.0619024162214
 20
-126.5336474370406
 30
0.0
 11
378.9747547428681
 21
-126.5336474370406
 31
0.0
  0
LINE
  5
1E4
330
1F
100
AcDbEntity
  8
LAYER-006
  6
Continuous
 62
     1
100
AcDbLine
 10
-390.909626600208
 20
-130.9289773608454
 30
0.0
 11
9.090373399791986
 21
-130.9289773608454
 31
0.0
  0
LINE
  5
1E5
330
1F
100
AcDbEntity
  8
LAYER-006
  6
Continuous
 62
     1
100
AcDbLine
 10
9.090373399791986
 20
-130.9289773608454
 30
0.0
 11
9.090373399791986
 21
-144.6643662034982
 31
0.0
  0
LINE
  5
1E6
330
1F
100
AcDbEntity
  8
LAYER-006
  6
Continuous
 62
     1
100
AcDbLine
 10
249.0916440015423
 20
-130.9289773608454
 30
0.0
 11
282.0565772239096
 21
-130.9289773608454
 31
0.0
  0
LINE
  5
1E7
330
1F
100
AcDbEntity
  8
LAYER-006
  6
Continuous
 62
     1
100
AcDbLine
 10
282.0565772239096
 20
-130.9289773608454
 30
0.0
 11
282.0565772239096
 21
-144.6643662034982
 31
0.0
  0
LINE
  5
1E8
330
1F
100
AcDbEntity
  8
LAYER-006
  6
Continuous
 62
     1
100
AcDbLine
 10
346.009821520398
 20
-130.9289773608454
 30
0.0
 11
346.009821520398
 21
-144.6643662034982
 31
0.0
  0
LINE
  5
1E9
330
1F
100
AcDbEntity
  8
LAYER-006
  6
Continuous
 62
     1
100
AcDbLine
 10
378.9747547428681
 20
-130.9289773608454
 30
0.0
 11
346.009821520398
 21
-130.9289773608454
 31
0.0
  0
LINE
  5
1EA
330
1F
100
AcDbEntity
  8
LAYER-006
  6
Continuous
 62
     1
100
AcDbLine
 10
-390.909626600208
 20
-144.6643662034982
 30
0.0
 11
-390.909626600208
 21
-130.9289773608454
 31
0.0
  0
LINE
  5
1EB
330
1F
100
AcDbEntity
  8
LAYER-006
  6
Continuous
 62
     1
100
AcDbLine
 10
-330.6561741120344
 20
-144.6643662034982
 30
0.0
 11
-330.6561741120344
 21
-147.4114439720288
 31
0.0
  0
LINE
  5
1EC
330
1F
100
AcDbEntity
  8
LAYER-006
  6
Continuous
 62
     1
100
AcDbLine
 10
-311.4266297323209
 20
-144.6643662034982
 30
0.0
 11
-311.4266297323209
 21
-147.4114439720288
 31
0.0
  0
LINE
  5
1ED
330
1F
100
AcDbEntity
  8
LAYER-006
  6
Continuous
 62
     1
100
AcDbLine
 10
-200.2496855190335
 20
-144.6643662034982
 30
0.0
 11
-200.2496855190335
 21
-147.4114439720288
 31
0.0
  0
LINE
  5
1EE
330
1F
100
AcDbEntity
  8
LAYER-006
  6
Continuous
 62
     1
100
AcDbLine
 10
-181.0201411393428
 20
-144.6643662034982
 30
0.0
 11
-181.0201411393428
 21
-147.4114439720288
 31
0.0
  0
LINE
  5
1EF
330
1F
100
AcDbEntity
  8
LAYER-006
  6
Continuous
 62
     1
100
AcDbLine
 10
-69.84319143192312
 20
-144.6643662034982
 30
0.0
 11
-69.84319143192312
 21
-147.4114439720288
 31
0.0
  0
LINE
  5
1F0
330
1F
100
AcDbEntity
  8
LAYER-006
  6
Continuous
 62
     1
100
AcDbLine
 10
-50.61364705220956
 20
-144.6643662034982
 30
0.0
 11
-50.61364705220956
 21
-147.4114439720288
 31
0.0
  0
LINE
  5
1F1
330
1F
100
AcDbEntity
  8
LAYER-006
  6
Continuous
 62
     1
100
AcDbLine
 10
9.090373399791986
 20
-144.6643662034982
 30
0.0
 11
-390.909626600208
 21
-144.6643662034982
 31
0.0
  0
LINE
  5
1F2
330
1F
100
AcDbEntity
  8
LAYER-006
  6
Continuous
 62
     1
100
AcDbLine
 10
249.0916440015423
 20
-144.6643662034982
 30
0.0
 11
249.0916440015423
 21
-130.9289773608454
 31
0.0
  0
LINE
  5
1F3
330
1F
100
AcDbEntity
  8
LAYER-006
  6
Continuous
 62
     1
100
AcDbLine
 10
255.5716107378959
 20
-144.6643662034982
 30
0.0
 11
255.5716107378959
 21
-147.2278489723439
 31
0.0
  0
LINE
  5
1F4
330
1F
100
AcDbEntity
  8
LAYER-006
  6
Continuous
 62
     1
100
AcDbLine
 10
274.8011551170246
 20
-144.6643662034982
 30
0.0
 11
274.8011551170246
 21
-147.2278489723439
 31
0.0
  0
LINE
  5
1F5
330
1F
100
AcDbEntity
  8
LAYER-006
  6
Continuous
 62
     1
100
AcDbLine
 10
282.0565772239096
 20
-144.6643662034982
 30
0.0
 11
249.0916440015423
 21
-144.6643662034982
 31
0.0
  0
LINE
  5
1F6
330
1F
100
AcDbEntity
  8
LAYER-006
  6
Continuous
 62
     1
100
AcDbLine
 10
346.009821520398
 20
-144.6643662034982
 30
0.0
 11
378.9747547428681
 21
-144.6643662034982
 31
0.0
  0
LINE
  5
1F7
330
1F
100
AcDbEntity
  8
LAYER-006
  6
Continuous
 62
     1
100
AcDbLine
 10
353.2652436272824
 20
-144.6643662034982
 30
0.0
 11
353.2652436272824
 21
-147.2278489723439
 31
0.0
  0
LINE
  5
1F8
330
1F
100
AcDbEntity
  8
LAYER-006
  6
Continuous
 62
     1
100
AcDbLine
 10
372.4947880064117
 20
-144.6643662034982
 30
0.0
 11
372.4947880064117
 21
-147.2278489723439
 31
0.0
  0
LINE
  5
1F9
330
1F
100
AcDbEntity
  8
LAYER-006
  6
Continuous
 62
     1
100
AcDbLine
 10
378.9747547428681
 20
-144.6643662034982
 30
0.0
 11
378.9747547428681
 21
-130.9289773608454
 31
0.0
  0
LINE
  5
1FA
330
1F
100
AcDbEntity
  8
LAYER-006
  6
Continuous
 62
     1
100
AcDbLine
 10
-330.6561741120344
 20
-147.4114439720288
 30
0.0
 11
-311.4266297323209
 21
-147.4114439720288
 31
0.0
  0
LINE
  5
1FB
330
1F
100
AcDbEntity
  8
LAYER-006
  6
Continuous
 62
     1
100
AcDbLine
 10
-200.2496855190335
 20
-147.4114439720288
 30
0.0
 11
-181.0201411393428
 21
-147.4114439720288
 31
0.0
  0
LINE
  5
1FC
330
1F
100
AcDbEntity
  8
LAYER-006
  6
Continuous
 62
     1
100
AcDbLine
 10
-69.84319143192312
 20
-147.4114439720288
 30
0.0
 11
-50.61364705220956
 21
-147.4114439720288
 31
0.0
  0
LINE
  5
1FD
330
1F
100
AcDbEntity
  8
LAYER-006
  6
Continuous
 62
     1
100
AcDbLine
 10
260.0799550756651
 20
-147.2278489723439
 30
0.0
 11
255.5716107378959
 21
-147.2278489723439
 31
0.0
  0
LINE
  5
1FE
330
1F
100
AcDbEntity
  8
LAYER-006
  6
Continuous
 62
     1
100
AcDbLine
 10
274.8011551170246
 20
-147.2278489723439
 30
0.0
 11
271.0682661497873
 21
-147.2278489723439
 31
0.0
  0
LINE
  5
1FF
330
1F
100
AcDbEntity
  8
LAYER-006
  6
Continuous
 62
     1
100
AcDbLine
 10
353.2652436272824
 20
-147.2278489723439
 30
0.0
 11
356.9981325945203
 21
-147.2278489723439
 31
0.0
  0
LINE
  5
200
330
1F
100
AcDbEntity
  8
LAYER-006
  6
Continuous
 62
     1
100
AcDbLine
 10
367.9864436686426
 20
-147.2278489723439
 30
0.0
 11
372.4947880064117
 21
-147.2278489723439
 31
0.0
  0
LINE
  5
201
330
1F
100
AcDbEntity
  8
LAYER-006
  6
Continuous
 62
     1
100
AcDbLine
 10
-328.4585173913656
 20
-155.9526255350008
 30
0.0
 11
-328.4585173913656
 21
-147.4114439720288
 31
0.0
  0
LINE
  5
202
330
1F
100
AcDbEntity
  8
LAYER-006
  6
Continuous
 62
     1
100
AcDbLine
 10
-328.4585173913656
 20
-155.9526255350008
 30
0.0
 11
-313.6242919471448
 21
-155.9526255350008
 31
0.0
  0
LINE
  5
203
330
1F
100
AcDbEntity
  8
LAYER-006
  6
Continuous
 62
     1
100
AcDbLine
 10
-324.6126030212672
 20
-155.9526255350008
 30
0.0
 11
-324.6126030212672
 21
-147.4114439720288
 31
0.0
  0
LINE
  5
204
330
1F
100
AcDbEntity
  8
LAYER-006
  6
Continuous
 62
     1
100
AcDbLine
 10
-317.4702063172432
 20
-155.9526255350008
 30
0.0
 11
-317.4702063172432
 21
-147.4114439720288
 31
0.0
  0
LINE
  5
205
330
1F
100
AcDbEntity
  8
LAYER-006
  6
Continuous
 62
     1
100
AcDbLine
 10
-313.6242919471448
 20
-155.9526255350008
 30
0.0
 11
-313.6242919471448
 21
-147.4114439720288
 31
0.0
  0
LINE
  5
206
330
1F
100
AcDbEntity
  8
LAYER-006
  6
Continuous
 62
     1
100
AcDbLine
 10
-198.0520287983875
 20
-155.9526255350008
 30
0.0
 11
-198.0520287983875
 21
-147.4114439720288
 31
0.0
  0
LINE
  5
207
330
1F
100
AcDbEntity
  8
LAYER-006
  6
Continuous
 62
     1
100
AcDbLine
 10
-198.0520287983875
 20
-155.9526255350008
 30
0.0
 11
-183.2178033541667
 21
-155.9526255350008
 31
0.0
  0
LINE
  5
208
330
1F
100
AcDbEntity
  8
LAYER-006
  6
Continuous
 62
     1
100
AcDbLine
 10
-194.2061144282891
 20
-155.9526255350008
 30
0.0
 11
-194.2061144282891
 21
-147.4114439720288
 31
0.0
  0
LINE
  5
209
330
1F
100
AcDbEntity
  8
LAYER-006
  6
Continuous
 62
     1
100
AcDbLine
 10
-187.0637177242651
 20
-155.9526255350008
 30
0.0
 11
-187.0637177242651
 21
-147.4114439720288
 31
0.0
  0
LINE
  5
20A
330
1F
100
AcDbEntity
  8
LAYER-006
  6
Continuous
 62
     1
100
AcDbLine
 10
-183.2178033541667
 20
-155.9526255350008
 30
0.0
 11
-183.2178033541667
 21
-147.4114439720288
 31
0.0
  0
LINE
  5
20B
330
1F
100
AcDbEntity
  8
LAYER-006
  6
Continuous
 62
     1
100
AcDbLine
 10
-67.6455347112543
 20
-155.9526255350008
 30
0.0
 11
-67.6455347112543
 21
-147.4114439720288
 31
0.0
  0
LINE
  5
20C
330
1F
100
AcDbEntity
  8
LAYER-006
  6
Continuous
 62
     1
100
AcDbLine
 10
-67.6455347112543
 20
-155.9526255350008
 30
0.0
 11
-52.81130926703349
 21
-155.9526255350008
 31
0.0
  0
LINE
  5
20D
330
1F
100
AcDbEntity
  8
LAYER-006
  6
Continuous
 62
     1
100
AcDbLine
 10
-63.7996203411559
 20
-155.9526255350008
 30
0.0
 11
-63.7996203411559
 21
-147.4114439720288
 31
0.0
  0
LINE
  5
20E
330
1F
100
AcDbEntity
  8
LAYER-006
  6
Continuous
 62
     1
100
AcDbLine
 10
-56.65722363713189
 20
-155.9526255350008
 30
0.0
 11
-56.65722363713189
 21
-147.4114439720288
 31
0.0
  0
LINE
  5
20F
330
1F
100
AcDbEntity
  8
LAYER-006
  6
Continuous
 62
     1
100
AcDbLine
 10
-52.81130926703349
 20
-155.9526255350008
 30
0.0
 11
-52.81130926703349
 21
-147.4114439720288
 31
0.0
  0
LINE
  5
210
330
1F
100
AcDbEntity
  8
LAYER-006
  6
Continuous
 62
     1
100
AcDbLine
 10
257.7692729499701
 20
-155.7690305353159
 30
0.0
 11
257.7692729499701
 21
-147.2278489723439
 31
0.0
  0
LINE
  5
211
330
1F
100
AcDbEntity
  8
LAYER-006
  6
Continuous
 62
     1
100
AcDbLine
 10
260.0799550756651
 20
-155.7690305353159
 30
0.0
 11
257.7692729499701
 21
-155.7690305353159
 31
0.0
  0
LINE
  5
212
330
1F
100
AcDbEntity
  8
LAYER-006
  6
Continuous
 62
     1
100
AcDbLine
 10
272.6034983964976
 20
-155.7690305353159
 30
0.0
 11
272.6034983964976
 21
-147.2278489723439
 31
0.0
  0
LINE
  5
213
330
1F
100
AcDbEntity
  8
LAYER-006
  6
Continuous
 62
     1
100
AcDbLine
 10
272.6034983964976
 20
-155.7690305353159
 30
0.0
 11
271.0682661497873
 21
-155.7690305353159
 31
0.0
  0
LINE
  5
214
330
1F
100
AcDbEntity
  8
LAYER-006
  6
Continuous
 62
     1
100
AcDbLine
 10
355.4629003478101
 20
-155.7690305353159
 30
0.0
 11
355.4629003478101
 21
-147.2278489723439
 31
0.0
  0
LINE
  5
215
330
1F
100
AcDbEntity
  8
LAYER-006
  6
Continuous
 62
     1
100
AcDbLine
 10
355.4629003478101
 20
-155.7690305353159
 30
0.0
 11
356.9981325945203
 21
-155.7690305353159
 31
0.0
  0
LINE
  5
216
330
1F
100
AcDbEntity
  8
LAYER-006
  6
Continuous
 62
     1
100
AcDbLine
 10
367.9864436686426
 20
-155.7690305353159
 30
0.0
 11
370.2971257943376
 21
-155.7690305353159
 31
0.0
  0
LINE
  5
217
330
1F
100
AcDbEntity
  8
LAYER-006
  6
Continuous
 62
     1
100
AcDbLine
 10
370.2971257943376
 20
-155.7690305353159
 30
0.0
 11
370.2971257943376
 21
-147.2278489723439
 31
0.0
  0
LINE
  5
218
330
1F
100
AcDbEntity
  8
LAYER-006
  6
Continuous
 62
     1
100
AcDbLine
 10
-390.909626600208
 20
-176.3157974773602
 30
0.0
 11
9.090373399791986
 21
-176.3157974773602
 31
0.0
  0
LINE
  5
219
330
1F
100
AcDbEntity
  8
LAYER-006
  6
Continuous
 62
     1
100
AcDbLine
 10
9.090373399791986
 20
-176.3157974773602
 30
0.0
 11
9.090373399791986
 21
-431.3157974773602
 31
0.0
  0
LINE
  5
21A
330
1F
100
AcDbEntity
  8
LAYER-007
  6
HIDDEN
 62
     1
100
AcDbLine
 10
-390.909626600208
 20
-182.3157974773602
 30
0.0
 11
9.090373399791986
 21
-182.3157974773602
 31
0.0
  0
LINE
  5
21B
330
1F
100
AcDbEntity
  8
LAYER-007
  6
Continuous
 62
     4
100
AcDbLine
 10
-30.90962660020801
 20
-191.4263120164947
 30
0.0
 11
-30.90962660020801
 21
-210.655856396209
 31
0.0
  0
LINE
  5
21C
330
1F
100
AcDbEntity
  8
LAYER-007
  6
CENTER
 62
     4
100
AcDbLine
 10
-382.909626600208
 20
-192.5251431226689
 30
0.0
 11
-382.909626600208
 21
-210.655856396209
 31
0.0
  0
LINE
  5
21D
330
1F
100
AcDbEntity
  8
LAYER-007
  6
CENTER
 62
     4
100
AcDbLine
 10
1.090373399791986
 20
-192.5251431226689
 30
0.0
 11
1.090373399791986
 21
-210.655856396209
 31
0.0
  0
LINE
  5
21E
330
1F
100
AcDbEntity
  8
LAYER-007
  6
Continuous
 62
     4
100
AcDbLine
 10
-350.909626600208
 20
-193.0745641717685
 30
0.0
 11
-350.909626600208
 21
-210.1064408425024
 31
0.0
  0
LINE
  5
21F
330
1F
100
AcDbEntity
  8
LAYER-006
  6
Continuous
 62
     1
100
AcDbLine
 10
230.7919715616011
 20
-193.6239852196302
 30
0.0
 11
230.7919715616011
 21
-210.1064518308133
 31
0.0
  0
LINE
  5
220
330
1F
100
AcDbEntity
  8
LAYER-006
  6
Continuous
 62
     1
100
AcDbLine
 10
239.0331993721535
 20
-193.6239852196302
 30
0.0
 11
230.7919715616011
 21
-193.6239852196302
 31
0.0
  0
LINE
  5
221
330
1F
100
AcDbEntity
  8
LAYER-006
  6
Continuous
 62
     1
100
AcDbLine
 10
389.0331993721535
 20
-193.6239852196302
 30
0.0
 11
397.2744326777453
 21
-193.6239852196302
 31
0.0
  0
LINE
  5
222
330
1F
100
AcDbEntity
  8
LAYER-006
  6
Continuous
 62
     1
100
AcDbLine
 10
397.2744326777453
 20
-193.6239852196302
 30
0.0
 11
397.2744326777453
 21
-210.1064518308133
 31
0.0
  0
LINE
  5
223
330
1F
100
AcDbEntity
  8
LAYER-006
  6
Continuous
 62
     1
100
AcDbLine
 10
225.2978160245401
 20
-197.4698886013602
 30
0.0
 11
225.2978160245401
 21
-205.7111219070091
 31
0.0
  0
LINE
  5
224
330
1F
100
AcDbEntity
  8
LAYER-006
  6
Continuous
 62
     1
100
AcDbLine
 10
239.0331993721535
 20
-197.4698886013602
 30
0.0
 11
225.2978160245401
 21
-197.4698886013602
 31
0.0
  0
LINE
  5
225
330
1F
100
AcDbEntity
  8
LAYER-006
  6
Continuous
 62
     1
100
AcDbLine
 10
247.7802771398008
 20
-197.4698886013602
 30
0.0
 11
380.2861216036237
 21
-197.4698886013602
 31
0.0
  0
LINE
  5
226
330
1F
100
AcDbEntity
  8
LAYER-006
  6
Continuous
 62
     1
100
AcDbLine
 10
389.0331993721535
 20
-197.4698886013602
 30
0.0
 11
402.7685882148063
 21
-197.4698886013602
 31
0.0
  0
LINE
  5
227
330
1F
100
AcDbEntity
  8
LAYER-006
  6
Continuous
 62
     1
100
AcDbLine
 10
402.7685882148063
 20
-197.4698886013602
 30
0.0
 11
402.7685882148063
 21
-205.7111219070091
 31
0.0
  0
LINE
  5
228
330
1F
100
AcDbEntity
  8
LAYER-007
  6
CENTER
 62
     4
100
AcDbLine
 10
227.8606153624386
 20
-201.3157974773602
 30
0.0
 11
402.4594421341629
 21
-201.3157974773602
 31
0.0
  0
LINE
  5
229
330
1F
100
AcDbEntity
  8
LAYER-007
  6
CENTER
 62
     4
100
AcDbLine
 10
-388.403782137597
 20
-201.3157974773602
 30
0.0
 11
-377.4154710634753
 21
-201.3157974773602
 31
0.0
  0
LINE
  5
22A
330
1F
100
AcDbEntity
  8
LAYER-007
  6
CENTER
 62
     4
100
AcDbLine
 10
-358.052034292543
 20
-201.3157974773602
 30
0.0
 11
-343.2178088483221
 21
-201.3157974773602
 31
0.0
  0
CIRCLE
  5
22B
330
1F
100
AcDbEntity
  8
LAYER-006
  6
Continuous
 62
     5
100
AcDbCircle
 10
-350.909626600208
 20
-201.3157974773602
 30
0.0
 40
3.845903381787253
  0
LINE
  5
22C
330
1F
100
AcDbEntity
  8
LAYER-007
  6
CENTER
 62
     4
100
AcDbLine
 10
-38.05202879838726
 20
-201.3157974773602
 30
0.0
 11
-23.21780335416719
 21
-201.3157974773602
 31
0.0
  0
CIRCLE
  5
22D
330
1F
100
AcDbEntity
  8
LAYER-006
  6
Continuous
 62
     5
100
AcDbCircle
 10
-30.90962660020801
 20
-201.3157974773602
 30
0.0
 40
3.845903381787253
  0
LINE
  5
22E
330
1F
100
AcDbEntity
  8
LAYER-007
  6
CENTER
 62
     4
100
AcDbLine
 10
-4.403782137268877
 20
-201.3157974773602
 30
0.0
 11
6.584528936853531
 21
-201.3157974773602
 31
0.0
  0
LINE
  5
22F
330
1F
100
AcDbEntity
  8
LAYER-006
  6
Continuous
 62
     1
100
AcDbLine
 10
239.0331993721535
 20
-205.7111219070091
 30
0.0
 11
225.2978160245401
 21
-205.7111219070091
 31
0.0
  0
LINE
  5
230
330
1F
100
AcDbEntity
  8
LAYER-006
  6
Continuous
 62
     1
100
AcDbLine
 10
247.7802771398008
 20
-205.7111219070091
 30
0.0
 11
380.2861216036237
 21
-205.7111219070091
 31
0.0
  0
LINE
  5
231
330
1F
100
AcDbEntity
  8
LAYER-006
  6
Continuous
 62
     1
100
AcDbLine
 10
389.0331993721535
 20
-205.7111219070091
 30
0.0
 11
402.7685882148063
 21
-205.7111219070091
 31
0.0
  0
LINE
  5
232
330
1F
100
AcDbEntity
  8
LAYER-006
  6
Continuous
 62
     1
100
AcDbLine
 10
239.0331993721535
 20
-210.1064518308133
 30
0.0
 11
230.7919715616011
 21
-210.1064518308133
 31
0.0
  0
LINE
  5
233
330
1F
100
AcDbEntity
  8
LAYER-006
  6
Continuous
 62
     1
100
AcDbLine
 10
389.0331993721535
 20
-210.1064518308133
 30
0.0
 11
397.2744326777453
 21
-210.1064518308133
 31
0.0
  0
LINE
  5
234
330
1F
100
AcDbEntity
  8
LAYER-006
  6
Continuous
 62
     1
100
AcDbLine
 10
-390.909626600208
 20
-226.3157974773602
 30
0.0
 11
9.090373399791986
 21
-226.3157974773602
 31
0.0
  0
LINE
  5
235
330
1F
100
AcDbEntity
  8
LAYER-006
  6
Continuous
 62
     1
100
AcDbLine
 10
-320.909626600208
 20
-226.3157974773602
 30
0.0
 11
-320.909626600208
 21
-238.0371136107181
 31
0.0
  0
LINE
  5
236
330
1F
100
AcDbEntity
  8
LAYER-006
  6
Continuous
 62
     1
100
AcDbLine
 10
-60.90962660020801
 20
-226.3157974773602
 30
0.0
 11
-60.90962660020801
 21
-238.0371136107181
 31
0.0
  0
LINE
  5
237
330
1F
100
AcDbEntity
  8
LAYER-033
  6
Continuous
 62
     5
100
AcDbLine
 10
-6.909626600208014
 20
-342.8567087179324
 30
0.0
 11
9.090373399791986
 21
-342.8567087179324
 31
0.0
  0
LINE
  5
238
330
1F
100
AcDbEntity
  8
LAYER-033
  6
CENTER
 62
     5
100
AcDbLine
 10
1.090373399791986
 20
-344.9642652834464
 30
0.0
 11
1.090373399791986
 21
-354.4845409950711
 31
0.0
  0
LINE
  5
239
330
1F
100
AcDbEntity
  8
LAYER-033
  6
HIDDEN
 62
     5
100
AcDbLine
 10
245.0331993721535
 20
-342.8567087179324
 30
0.0
 11
247.7802771398008
 21
-342.8567087179324
 31
0.0
  0
LINE
  5
23A
330
1F
100
AcDbEntity
  8
LAYER-033
  6
CENTER
 62
     5
100
AcDbLine
 10
-3.669764456020346
 20
-349.7244031392588
 30
0.0
 11
5.850511255604317
 21
-349.7244031392588
 31
0.0
  0
CIRCLE
  5
23B
330
1F
100
AcDbEntity
  8
LAYER-033
  6
Continuous
 62
     5
100
AcDbCircle
 10
1.090373399791986
 20
-349.7244031392588
 30
0.0
 40
2.670456138506594
  0
LINE
  5
23C
330
1F
100
AcDbEntity
  8
LAYER-033
  6
HIDDEN
 62
     5
100
AcDbLine
 10
245.0331993721535
 20
-356.5920975605852
 30
0.0
 11
247.7802771398008
 21
-356.5920975605852
 31
0.0
  0
LINE
  5
23D
330
1F
100
AcDbEntity
  8
LAYER-033
  6
Continuous
 62
     5
100
AcDbLine
 10
-6.909626600208014
 20
-356.5920975605852
 30
0.0
 11
9.090373399791986
 21
-356.5920975605852
 31
0.0
  0
LINE
  5
23E
330
1F
100
AcDbEntity
  8
LAYER-006
  6
Continuous
 62
     1
100
AcDbLine
 10
-320.909626600208
 20
-370.3274918973798
 30
0.0
 11
-320.909626600208
 21
-381.3157974773602
 31
0.0
  0
LINE
  5
23F
330
1F
100
AcDbEntity
  8
LAYER-006
  6
Continuous
 62
     1
100
AcDbLine
 10
-60.90962660020801
 20
-370.3274918973798
 30
0.0
 11
-60.90962660020801
 21
-381.3157974773602
 31
0.0
  0
LINE
  5
240
330
1F
100
AcDbEntity
  8
LAYER-006
  6
Continuous
 62
     1
100
AcDbLine
 10
-390.909626600208
 20
-381.3157974773602
 30
0.0
 11
9.090373399791986
 21
-381.3157974773602
 31
0.0
  0
LINE
  5
241
330
1F
100
AcDbEntity
  8
LAYER-006
  6
Continuous
 62
     1
100
AcDbLine
 10
-361.8979376743302
 20
-381.3157974773602
 30
0.0
 11
-361.8979376743302
 21
-431.3157974773602
 31
0.0
  0
LINE
  5
242
330
1F
100
AcDbEntity
  8
LAYER-006
  6
Continuous
 62
     1
100
AcDbLine
 10
-339.9213155260857
 20
-381.3157974773602
 30
0.0
 11
-339.9213155260857
 21
-431.3157974773602
 31
0.0
  0
LINE
  5
243
330
1F
100
AcDbEntity
  8
LAYER-006
  6
Continuous
 62
     1
100
AcDbLine
 10
-41.89793767433048
 20
-381.3157974773602
 30
0.0
 11
-41.89793767433048
 21
-431.3157974773602
 31
0.0
  0
LINE
  5
244
330
1F
100
AcDbEntity
  8
LAYER-006
  6
Continuous
 62
     1
100
AcDbLine
 10
-19.92131552608578
 20
-381.3157974773602
 30
0.0
 11
-19.92131552608578
 21
-431.3157974773602
 31
0.0
  0
LINE
  5
245
330
1F
100
AcDbEntity
  8
LAYER-007
  6
CENTER
 62
     4
100
AcDbLine
 10
-382.909626600208
 20
-397.5251541122178
 30
0.0
 11
-382.909626600208
 21
-415.6558673845552
 31
0.0
  0
LINE
  5
246
330
1F
100
AcDbEntity
  8
LAYER-007
  6
CENTER
 62
     4
100
AcDbLine
 10
1.090373399791986
 20
-397.5251541122178
 30
0.0
 11
1.090373399791986
 21
-415.6558673845552
 31
0.0
  0
LINE
  5
247
330
1F
100
AcDbEntity
  8
LAYER-007
  6
CENTER
 62
     4
100
AcDbLine
 10
-30.90962660020801
 20
-398.6239797253602
 30
0.0
 11
-30.90962660020801
 21
-415.1064518308133
 31
0.0
  0
LINE
  5
248
330
1F
100
AcDbEntity
  8
LAYER-006
  6
Continuous
 62
     1
100
AcDbLine
 10
224.7919715607173
 20
-398.6239797254744
 30
0.0
 11
224.7919715607173
 21
-415.1064518308133
 31
0.0
  0
LINE
  5
249
330
1F
100
AcDbEntity
  8
LAYER-006
  6
Continuous
 62
     1
100
AcDbLine
 10
233.0331993721535
 20
-398.6239797254744
 30
0.0
 11
224.7919715607173
 21
-398.6239797254744
 31
0.0
  0
LINE
  5
24A
330
1F
100
AcDbEntity
  8
LAYER-006
  6
Continuous
 62
     1
100
AcDbLine
 10
395.0331993721535
 20
-398.6239797254744
 30
0.0
 11
403.2744326777445
 21
-398.6239797254744
 31
0.0
  0
LINE
  5
24B
330
1F
100
AcDbEntity
  8
LAYER-006
  6
Continuous
 62
     1
100
AcDbLine
 10
403.2744326777445
 20
-398.6239797254744
 30
0.0
 11
403.2744326777445
 21
-415.1064518308133
 31
0.0
  0
LINE
  5
24C
330
1F
100
AcDbEntity
  8
LAYER-007
  6
CENTER
 62
     4
100
AcDbLine
 10
-350.909626600208
 20
-399.7228163270421
 30
0.0
 11
-350.909626600208
 21
-414.0076152293602
 31
0.0
  0
LINE
  5
24D
330
1F
100
AcDbEntity
  8
LAYER-006
  6
Continuous
 62
     1
100
AcDbLine
 10
219.2978160236562
 20
-402.4698940955723
 30
0.0
 11
219.2978160236562
 21
-410.7111274011647
 31
0.0
  0
LINE
  5
24E
330
1F
100
AcDbEntity
  8
LAYER-006
  6
Continuous
 62
     1
100
AcDbLine
 10
233.0331993721535
 20
-402.4698940955723
 30
0.0
 11
219.2978160236562
 21
-402.4698940955723
 31
0.0
  0
LINE
  5
24F
330
1F
100
AcDbEntity
  8
LAYER-006
  6
Continuous
 62
     1
100
AcDbLine
 10
247.7802771398008
 20
-402.4698940955723
 30
0.0
 11
380.2861216036237
 21
-402.4698940955723
 31
0.0
  0
LINE
  5
250
330
1F
100
AcDbEntity
  8
LAYER-006
  6
Continuous
 62
     1
100
AcDbLine
 10
395.0331993721535
 20
-402.4698940955723
 30
0.0
 11
408.7685882148063
 21
-402.4698940955723
 31
0.0
  0
LINE
  5
251
330
1F
100
AcDbEntity
  8
LAYER-006
  6
Continuous
 62
     1
100
AcDbLine
 10
408.7685882148063
 20
-402.4698940955723
 30
0.0
 11
408.7685882148063
 21
-410.7111274011647
 31
0.0
  0
LINE
  5
252
330
1F
100
AcDbEntity
  8
LAYER-007
  6
CENTER
 62
     4
100
AcDbLine
 10
-388.403782137597
 20
-406.3157974773602
 30
0.0
 11
-377.4154710634754
 21
-406.3157974773602
 31
0.0
  0
LINE
  5
253
330
1F
100
AcDbEntity
  8
LAYER-007
  6
CENTER
 62
     4
100
AcDbLine
 10
-358.052034292543
 20
-406.3157974773602
 30
0.0
 11
-343.2178088483221
 21
-406.3157974773602
 31
0.0
  0
CIRCLE
  5
254
330
1F
100
AcDbEntity
  8
LAYER-006
  6
Continuous
 62
     5
100
AcDbCircle
 10
-350.909626600208
 20
-406.3157974773602
 30
0.0
 40
3.845903381787253
  0
LINE
  5
255
330
1F
100
AcDbEntity
  8
LAYER-007
  6
CENTER
 62
     4
100
AcDbLine
 10
-38.05202879838726
 20
-406.3157974773602
 30
0.0
 11
-23.21780335416719
 21
-406.3157974773602
 31
0.0
  0
CIRCLE
  5
256
330
1F
100
AcDbEntity
  8
LAYER-006
  6
Continuous
 62
     5
100
AcDbCircle
 10
-30.90962660020801
 20
-406.3157974773602
 30
0.0
 40
3.845903381787253
  0
LINE
  5
257
330
1F
100
AcDbEntity
  8
LAYER-007
  6
CENTER
 62
     4
100
AcDbLine
 10
-4.403782137268877
 20
-406.3157974773602
 30
0.0
 11
6.584528936853531
 21
-406.3157974773602
 31
0.0
  0
LINE
  5
258
330
1F
100
AcDbEntity
  8
LAYER-007
  6
CENTER
 62
     4
100
AcDbLine
 10
212.8302174569386
 20
-406.3157974773602
 30
0.0
 11
414.6867712278176
 21
-406.3157974773602
 31
0.0
  0
LINE
  5
259
330
1F
100
AcDbEntity
  8
LAYER-006
  6
Continuous
 62
     1
100
AcDbLine
 10
233.0331993721535
 20
-410.7111274011647
 30
0.0
 11
219.2978160236562
 21
-410.7111274011647
 31
0.0
  0
LINE
  5
25A
330
1F
100
AcDbEntity
  8
LAYER-006
  6
Continuous
 62
     1
100
AcDbLine
 10
247.7802771398008
 20
-410.7111274011647
 30
0.0
 11
380.2861216036237
 21
-410.7111274011647
 31
0.0
  0
LINE
  5
25B
330
1F
100
AcDbEntity
  8
LAYER-006
  6
Continuous
 62
     1
100
AcDbLine
 10
395.0331993721535
 20
-410.7111274011647
 30
0.0
 11
408.7685882148063
 21
-410.7111274011647
 31
0.0
  0
LINE
  5
25C
330
1F
100
AcDbEntity
  8
LAYER-006
  6
Continuous
 62
     1
100
AcDbLine
 10
233.0331993721535
 20
-415.1064518308133
 30
0.0
 11
224.7919715607173
 21
-415.1064518308133
 31
0.0
  0
LINE
  5
25D
330
1F
100
AcDbEntity
  8
LAYER-006
  6
Continuous
 62
     1
100
AcDbLine
 10
395.0331993721535
 20
-415.1064518308133
 30
0.0
 11
403.2744326777445
 21
-415.1064518308133
 31
0.0
  0
LINE
  5
25E
330
1F
100
AcDbEntity
  8
LAYER-007
  6
HIDDEN
 62
     1
100
AcDbLine
 10
-390.909626600208
 20
-425.3157974773602
 30
0.0
 11
9.090373399791986
 21
-425.3157974773602
 31
0.0
  0
LINE
  5
25F
330
1F
100
AcDbEntity
  8
LAYER-007
  6
HIDDEN
 62
     1
100
AcDbLine
 10
-356.9055409703062
 20
-425.3157974773602
 30
0.0
 11
-356.9055409703062
 21
-431.3157974773602
 31
0.0
  0
LINE
  5
260
330
1F
100
AcDbEntity
  8
LAYER-007
  6
HIDDEN
 62
     1
100
AcDbLine
 10
-344.9137232184214
 20
-425.3157974773602
 30
0.0
 11
-344.9137232184214
 21
-431.3157974773602
 31
0.0
  0
LINE
  5
261
330
1F
100
AcDbEntity
  8
LAYER-007
  6
HIDDEN
 62
     1
100
AcDbLine
 10
-36.90552998199519
 20
-425.3157974773602
 30
0.0
 11
-36.90552998199519
 21
-431.3157974773602
 31
0.0
  0
LINE
  5
262
330
1F
100
AcDbEntity
  8
LAYER-007
  6
HIDDEN
 62
     1
100
AcDbLine
 10
-24.91371772426487
 20
-425.3157974773602
 30
0.0
 11
-24.91371772426487
 21
-431.3157974773602
 31
0.0
  0
LINE
  5
263
330
1F
100
AcDbEntity
  8
LAYER-006
  6
Continuous
 62
     1
100
AcDbLine
 10
-390.909626600208
 20
-431.3157974773602
 30
0.0
 11
-390.909626600208
 21
-176.3157974773602
 31
0.0
  0
LINE
  5
264
330
1F
100
AcDbEntity
  8
LAYER-006
  6
Continuous
 62
     1
100
AcDbLine
 10
9.090373399791986
 20
-431.3157974773602
 30
0.0
 11
-390.909626600208
 21
-431.3157974773602
 31
0.0
  0
LINE
  5
265
330
1F
100
AcDbEntity
  8
LAYER-007
  6
CENTER
 62
     4
100
AcDbLine
 10
-190.909626600208
 20
-88.36556868840421
 30
0.0
 11
-190.909626600208
 21
-430.16360373349
 31
0.0
  0
LINE
  5
266
330
1F
100
AcDbEntity
  8
LAYER-006
  6
Continuous
 62
     1
100
AcDbLine
 10
2.49738675531961
 20
-79.85373166441963
 30
0.0
 11
2.49738675531961
 21
-130.9289773608454
 31
0.0
  0
LINE
  5
267
330
1F
100
AcDbEntity
  8
LAYER-006
  6
Continuous
 62
     1
100
AcDbLine
 10
-7.392087717234801
 20
-79.85373166441963
 30
0.0
 11
-7.392087717234801
 21
-130.9289773608454
 31
0.0
  0
LINE
  5
268
330
1F
100
AcDbEntity
  8
LAYER-006
  6
Continuous
 62
     1
100
AcDbLine
 10
-375.7552962064337
 20
-79.85373166441963
 30
0.0
 11
-375.7552962064337
 21
-130.9289773608454
 31
0.0
  0
LINE
  5
269
330
1F
100
AcDbEntity
  8
LAYER-006
  6
Continuous
 62
     1
100
AcDbLine
 10
-385.6447706789883
 20
-79.85373166441963
 30
0.0
 11
-385.6447706789883
 21
-130.9289773608454
 31
0.0
  0
LINE
  5
26A
330
1F
100
AcDbEntity
  8
LAYER-006
  6
Continuous
 62
     1
100
AcDbLine
 10
-374.4271599890246
 20
-144.6643662034982
 30
0.0
 11
-374.4271599890246
 21
-176.3157974773602
 31
0.0
  0
LINE
  5
26B
330
1F
100
AcDbEntity
  8
LAYER-006
  6
Continuous
 62
     1
100
AcDbLine
 10
-385.4154710631468
 20
-144.6643662034982
 30
0.0
 11
-385.4154710631468
 21
-176.3157974773602
 31
0.0
  0
LINE
  5
26C
330
1F
100
AcDbEntity
  8
LAYER-006
  6
Continuous
 62
     1
100
AcDbLine
 10
3.596217862730839
 20
-144.6643662034982
 30
0.0
 11
3.596217862730839
 21
-176.3157974773602
 31
0.0
  0
LINE
  5
26D
330
1F
100
AcDbEntity
  8
LAYER-006
  6
Continuous
 62
     1
100
AcDbLine
 10
-7.392093211391398
 20
-144.6643662034982
 30
0.0
 11
-7.392093211391398
 21
-176.3157974773602
 31
0.0
  0
LINE
  5
26E
330
1F
100
AcDbEntity
  8
LAYER-006
  6
Continuous
 62
     1
100
AcDbLine
 10
-6.909626600208014
 20
-226.3157974773602
 30
0.0
 11
-6.909626600208014
 21
-381.3157974773602
 31
0.0
  0
LINE
  5
26F
330
1F
100
AcDbEntity
  8
LAYER-006
  6
Continuous
 62
     1
100
AcDbLine
 10
-45.90962660020801
 20
-238.0371136107181
 30
0.0
 11
-45.90962660020801
 21
-370.3274918973938
 31
0.0
  0
LINE
  5
270
330
1F
100
AcDbEntity
  8
LAYER-006
  6
Continuous
 62
     1
100
AcDbLine
 10
-139.239626600208
 20
-238.0371136107181
 30
0.0
 11
-139.239626600208
 21
-370.3274918973938
 31
0.0
  0
LINE
  5
271
330
1F
100
AcDbEntity
  8
LAYER-006
  6
Continuous
 62
     1
100
AcDbLine
 10
-144.239626600208
 20
-238.0371136107181
 30
0.0
 11
-144.239626600208
 21
-370.3274918973938
 31
0.0
  0
LINE
  5
272
330
1F
100
AcDbEntity
  8
LAYER-006
  6
Continuous
 62
     1
100
AcDbLine
 10
-237.579626600208
 20
-238.0371136107181
 30
0.0
 11
-237.579626600208
 21
-370.3274918973938
 31
0.0
  0
LINE
  5
273
330
1F
100
AcDbEntity
  8
LAYER-006
  6
Continuous
 62
     1
100
AcDbLine
 10
-242.579626600208
 20
-238.0371136107181
 30
0.0
 11
-242.579626600208
 21
-370.3274918973938
 31
0.0
  0
LINE
  5
274
330
1F
100
AcDbEntity
  8
LAYER-006
  6
Continuous
 62
     1
100
AcDbLine
 10
-335.909626600208
 20
-370.3274918973938
 30
0.0
 11
-335.909626600208
 21
-238.0371136107181
 31
0.0
  0
LINE
  5
275
330
1F
100
AcDbEntity
  8
LAYER-006
  6
Continuous
 62
     1
100
AcDbLine
 10
-374.909626600208
 20
-226.3157974773602
 30
0.0
 11
-374.909626600208
 21
-381.3157974773602
 31
0.0
  0
LINE
  5
276
330
1F
100
AcDbEntity
  8
LAYER-033
  6
CENTER
 62
     4
100
AcDbLine
 10
-30.90962660020801
 20
-419.9845982770416
 30
0.0
 11
-30.90962660020801
 21
-438.8608596539461
 31
0.0
  0
LINE
  5
277
330
1F
100
AcDbEntity
  8
LAYER-033
  6
CENTER
 62
     4
100
AcDbLine
 10
-350.909626600208
 20
-419.9845982770416
 30
0.0
 11
-350.909626600208
 21
-438.8608596539461
 31
0.0
  0
LINE
  5
278
330
1F
100
AcDbEntity
  8
LAYER-007
  6
CENTER
 62
     4
100
AcDbLine
 10
314.0331993721535
 20
-158.0873026227436
 30
0.0
 11
314.0331993721535
 21
-431.3157974773602
 31
0.0
  0
LINE
  5
279
330
1F
100
AcDbEntity
  8
LAYER-033
  6
Continuous
 62
     1
100
AcDbLine
 10
239.0331993721535
 20
-381.3157974773602
 30
0.0
 11
239.0331993721535
 21
-431.3157974773602
 31
0.0
  0
LINE
  5
27A
330
1F
100
AcDbEntity
  8
LAYER-033
  6
Continuous
 62
     1
100
AcDbLine
 10
239.0331993721535
 20
-431.3157974773602
 30
0.0
 11
189.0331993721535
 21
-431.3157974773602
 31
0.0
  0
LINE
  5
27B
330
1F
100
AcDbEntity
  8
LAYER-033
  6
Continuous
 62
     1
100
AcDbLine
 10
239.0331993721535
 20
-381.3157974773602
 30
0.0
 11
233.0331993721535
 21
-381.3157974773602
 31
0.0
  0
LINE
  5
27C
330
1F
100
AcDbEntity
  8
LAYER-033
  6
Continuous
 62
     1
100
AcDbLine
 10
189.0331993721535
 20
-425.3157974773602
 30
0.0
 11
189.0331993721535
 21
-431.3157974773602
 31
0.0
  0
LINE
  5
27D
330
1F
100
AcDbEntity
  8
LAYER-033
  6
Continuous
 62
     1
100
AcDbLine
 10
233.0331993721535
 20
-425.3157974773602
 30
0.0
 11
189.0331993721535
 21
-425.3157974773602
 31
0.0
  0
LINE
  5
27E
330
1F
100
AcDbEntity
  8
LAYER-033
  6
Continuous
 62
     1
100
AcDbLine
 10
233.0331993721535
 20
-381.3157974773602
 30
0.0
 11
233.0331993721535
 21
-425.3157974773602
 31
0.0
  0
LINE
  5
27F
330
1F
100
AcDbEntity
  8
LAYER-033
  6
HIDDEN
 62
     4
100
AcDbLine
 10
199.0331993721535
 20
-425.3157974773602
 30
0.0
 11
199.0331993721535
 21
-431.3157974773602
 31
0.0
  0
LINE
  5
280
330
1F
100
AcDbEntity
  8
LAYER-033
  6
HIDDEN
 62
     4
100
AcDbLine
 10
219.0331993721535
 20
-425.3157974773602
 30
0.0
 11
219.0331993721535
 21
-431.3157974773602
 31
0.0
  0
LINE
  5
281
330
1F
100
AcDbEntity
  8
LAYER-033
  6
CENTER
 62
     4
100
AcDbLine
 10
209.0331993721535
 20
-420.6032877977814
 30
0.0
 11
209.0331993721535
 21
-438.0741112886718
 31
0.0
  0
LINE
  5
282
330
1F
100
AcDbEntity
  8
LAYER-033
  6
Continuous
 62
     1
100
AcDbLine
 10
239.0331993721535
 20
-381.3157974773602
 30
0.0
 11
239.0331993721535
 21
-431.3157974773602
 31
0.0
  0
LINE
  5
283
330
1F
100
AcDbEntity
  8
LAYER-033
  6
Continuous
 62
     1
100
AcDbLine
 10
239.0331993721535
 20
-431.3157974773602
 30
0.0
 11
289.0331993721535
 21
-431.3157974773602
 31
0.0
  0
LINE
  5
284
330
1F
100
AcDbEntity
  8
LAYER-033
  6
Continuous
 62
     1
100
AcDbLine
 10
289.0331993721535
 20
-425.3157974773602
 30
0.0
 11
289.0331993721535
 21
-431.3157974773602
 31
0.0
  0
LINE
  5
285
330
1F
100
AcDbEntity
  8
LAYER-033
  6
Continuous
 62
     1
100
AcDbLine
 10
239.0331993721535
 20
-381.3157974773602
 30
0.0
 11
245.0331993721535
 21
-381.3157974773602
 31
0.0
  0
LINE
  5
286
330
1F
100
AcDbEntity
  8
LAYER-033
  6
Continuous
 62
     1
100
AcDbLine
 10
245.0331993721535
 20
-381.3157974773602
 30
0.0
 11
245.0331993721535
 21
-425.3157974773602
 31
0.0
  0
LINE
  5
287
330
1F
100
AcDbEntity
  8
LAYER-033
  6
Continuous
 62
     1
100
AcDbLine
 10
245.0331993721535
 20
-425.3157974773602
 30
0.0
 11
289.0331993721535
 21
-425.3157974773602
 31
0.0
  0
LINE
  5
288
330
1F
100
AcDbEntity
  8
LAYER-033
  6
Continuous
 62
     1
100
AcDbLine
 10
383.0331993721535
 20
-425.3157974773602
 30
0.0
 11
339.0331993721535
 21
-425.3157974773602
 31
0.0
  0
LINE
  5
289
330
1F
100
AcDbEntity
  8
LAYER-033
  6
Continuous
 62
     1
100
AcDbLine
 10
389.0331993721535
 20
-431.3157974773602
 30
0.0
 11
339.0331993721535
 21
-431.3157974773602
 31
0.0
  0
LINE
  5
28A
330
1F
100
AcDbEntity
  8
LAYER-033
  6
Continuous
 62
     1
100
AcDbLine
 10
339.0331993721535
 20
-425.3157974773602
 30
0.0
 11
339.0331993721535
 21
-431.3157974773602
 31
0.0
  0
LINE
  5
28B
330
1F
100
AcDbEntity
  8
LAYER-033
  6
Continuous
 62
     1
100
AcDbLine
 10
383.0331993721535
 20
-381.3157974773602
 30
0.0
 11
383.0331993721535
 21
-425.3157974773602
 31
0.0
  0
LINE
  5
28C
330
1F
100
AcDbEntity
  8
LAYER-033
  6
Continuous
 62
     1
100
AcDbLine
 10
389.0331993721535
 20
-381.3157974773602
 30
0.0
 11
389.0331993721535
 21
-431.3157974773602
 31
0.0
  0
LINE
  5
28D
330
1F
100
AcDbEntity
  8
LAYER-033
  6
Continuous
 62
     1
100
AcDbLine
 10
389.0331993721535
 20
-381.3157974773602
 30
0.0
 11
383.0331993721535
 21
-381.3157974773602
 31
0.0
  0
LINE
  5
28E
330
1F
100
AcDbEntity
  8
LAYER-033
  6
Continuous
 62
     1
100
AcDbLine
 10
389.0331993721535
 20
-431.3157974773602
 30
0.0
 11
439.0331993721535
 21
-431.3157974773602
 31
0.0
  0
LINE
  5
28F
330
1F
100
AcDbEntity
  8
LAYER-033
  6
HIDDEN
 62
     4
100
AcDbLine
 10
409.0331993721535
 20
-425.3157974773602
 30
0.0
 11
409.0331993721535
 21
-431.3157974773602
 31
0.0
  0
LINE
  5
290
330
1F
100
AcDbEntity
  8
LAYER-033
  6
CENTER
 62
     4
100
AcDbLine
 10
419.0331993721535
 20
-420.6032877977814
 30
0.0
 11
419.0331993721535
 21
-438.0741112886718
 31
0.0
  0
LINE
  5
291
330
1F
100
AcDbEntity
  8
LAYER-033
  6
HIDDEN
 62
     4
100
AcDbLine
 10
429.0331993721535
 20
-425.3157974773602
 30
0.0
 11
429.0331993721535
 21
-431.3157974773602
 31
0.0
  0
LINE
  5
292
330
1F
100
AcDbEntity
  8
LAYER-033
  6
Continuous
 62
     1
100
AcDbLine
 10
439.0331993721535
 20
-425.3157974773602
 30
0.0
 11
439.0331993721535
 21
-431.3157974773602
 31
0.0
  0
LINE
  5
293
330
1F
100
AcDbEntity
  8
LAYER-033
  6
Continuous
 62
     1
100
AcDbLine
 10
389.0331993721535
 20
-381.3157974773602
 30
0.0
 11
389.0331993721535
 21
-431.3157974773602
 31
0.0
  0
LINE
  5
294
330
1F
100
AcDbEntity
  8
LAYER-033
  6
Continuous
 62
     1
100
AcDbLine
 10
395.0331993721535
 20
-381.3157974773602
 30
0.0
 11
395.0331993721535
 21
-425.3157974773602
 31
0.0
  0
LINE
  5
295
330
1F
100
AcDbEntity
  8
LAYER-033
  6
Continuous
 62
     1
100
AcDbLine
 10
389.0331993721535
 20
-381.3157974773602
 30
0.0
 11
395.0331993721535
 21
-381.3157974773602
 31
0.0
  0
LINE
  5
296
330
1F
100
AcDbEntity
  8
LAYER-033
  6
Continuous
 62
     1
100
AcDbLine
 10
395.0331993721535
 20
-425.3157974773602
 30
0.0
 11
439.0331993721535
 21
-425.3157974773602
 31
0.0
  0
LINE
  5
297
330
1F
100
AcDbEntity
  8
LAYER-006
  6
Continuous
 62
     1
100
AcDbLine
 10
414.0331993721535
 20
-238.0371136107181
 30
0.0
 11
414.0331993721535
 21
-370.3274918973938
 31
0.0
  0
LINE
  5
298
330
1F
100
AcDbEntity
  8
LAYER-006
  6
Continuous
 62
     1
100
AcDbLine
 10
214.0331993721535
 20
-370.3274918973938
 30
0.0
 11
214.0331993721535
 21
-238.0371136107181
 31
0.0
  0
LINE
  5
299
330
1F
100
AcDbEntity
  8
LAYER-033
  6
Continuous
 62
     1
100
AcDbLine
 10
389.0331993721535
 20
-176.3157974773602
 30
0.0
 11
339.0331993721535
 21
-176.3157974773602
 31
0.0
  0
LINE
  5
29A
330
1F
100
AcDbEntity
  8
LAYER-033
  6
Continuous
 62
     1
100
AcDbLine
 10
339.0331993721535
 20
-182.3157974773602
 30
0.0
 11
339.0331993721535
 21
-176.3157974773602
 31
0.0
  0
LINE
  5
29B
330
1F
100
AcDbEntity
  8
LAYER-033
  6
Continuous
 62
     1
100
AcDbLine
 10
383.0331993721535
 20
-226.3157974773602
 30
0.0
 11
383.0331993721535
 21
-182.3157974773602
 31
0.0
  0
LINE
  5
29C
330
1F
100
AcDbEntity
  8
LAYER-033
  6
Continuous
 62
     1
100
AcDbLine
 10
389.0331993721535
 20
-226.3157974773602
 30
0.0
 11
389.0331993721535
 21
-176.3157974773602
 31
0.0
  0
LINE
  5
29D
330
1F
100
AcDbEntity
  8
LAYER-033
  6
Continuous
 62
     1
100
AcDbLine
 10
389.0331993721535
 20
-226.3157974773602
 30
0.0
 11
383.0331993721535
 21
-226.3157974773602
 31
0.0
  0
LINE
  5
29E
330
1F
100
AcDbEntity
  8
LAYER-033
  6
Continuous
 62
     1
100
AcDbLine
 10
383.0331993721535
 20
-182.3157974773602
 30
0.0
 11
339.0331993721535
 21
-182.3157974773602
 31
0.0
  0
LINE
  5
29F
330
1F
100
AcDbEntity
  8
LAYER-033
  6
Continuous
 62
     1
100
AcDbLine
 10
239.0331993721535
 20
-176.3157974773602
 30
0.0
 11
289.0331993721535
 21
-176.3157974773602
 31
0.0
  0
LINE
  5
2A0
330
1F
100
AcDbEntity
  8
LAYER-033
  6
Continuous
 62
     1
100
AcDbLine
 10
289.0331993721535
 20
-182.3157974773602
 30
0.0
 11
289.0331993721535
 21
-176.3157974773602
 31
0.0
  0
LINE
  5
2A1
330
1F
100
AcDbEntity
  8
LAYER-033
  6
Continuous
 62
     1
100
AcDbLine
 10
245.0331993721535
 20
-226.3157974773602
 30
0.0
 11
245.0331993721535
 21
-182.3157974773602
 31
0.0
  0
LINE
  5
2A2
330
1F
100
AcDbEntity
  8
LAYER-033
  6
Continuous
 62
     1
100
AcDbLine
 10
239.0331993721535
 20
-226.3157974773602
 30
0.0
 11
239.0331993721535
 21
-176.3157974773602
 31
0.0
  0
LINE
  5
2A3
330
1F
100
AcDbEntity
  8
LAYER-033
  6
Continuous
 62
     1
100
AcDbLine
 10
239.0331993721535
 20
-226.3157974773602
 30
0.0
 11
245.0331993721535
 21
-226.3157974773602
 31
0.0
  0
LINE
  5
2A4
330
1F
100
AcDbEntity
  8
LAYER-033
  6
Continuous
 62
     1
100
AcDbLine
 10
245.0331993721535
 20
-182.3157974773602
 30
0.0
 11
289.0331993721535
 21
-182.3157974773602
 31
0.0
  0
LINE
  5
2A5
330
1F
100
AcDbEntity
  8
LAYER-006
  6
Continuous
 62
     1
100
AcDbLine
 10
247.7802771398008
 20
-182.3157974773602
 30
0.0
 11
247.7802771398008
 21
-425.3157974773602
 31
0.0
  0
LINE
  5
2A6
330
1F
100
AcDbEntity
  8
LAYER-006
  6
Continuous
 62
     1
100
AcDbLine
 10
245.0331993721535
 20
-182.3157974773602
 30
0.0
 11
245.0331993721535
 21
-425.3157974773602
 31
0.0
  0
LINE
  5
2A7
330
1F
100
AcDbEntity
  8
LAYER-006
  6
Continuous
 62
     1
100
AcDbLine
 10
383.0331993721535
 20
-182.3157974773602
 30
0.0
 11
383.0331993721535
 21
-425.3157974773602
 31
0.0
  0
LINE
  5
2A8
330
1F
100
AcDbEntity
  8
LAYER-006
  6
Continuous
 62
     1
100
AcDbLine
 10
380.2861216036237
 20
-425.3157974773602
 30
0.0
 11
380.2861216036237
 21
-182.3157974773602
 31
0.0
  0
LINE
  5
2A9
330
1F
100
AcDbEntity
  8
LAYER-006
  6
Continuous
 62
     1
100
AcDbLine
 10
367.4370281149369
 20
-79.85373166432345
 30
0.0
 11
367.4370281149369
 21
-130.9289773608454
 31
0.0
  0
LINE
  5
2AA
330
1F
100
AcDbEntity
  8
LAYER-006
  6
Continuous
 62
     1
100
AcDbLine
 10
357.547553642382
 20
-79.85373166432345
 30
0.0
 11
357.547553642382
 21
-130.9289773608454
 31
0.0
  0
LINE
  5
2AB
330
1F
100
AcDbEntity
  8
LAYER-006
  6
Continuous
 62
     1
100
AcDbLine
 10
270.518845101925
 20
-79.85373166432345
 30
0.0
 11
270.518845101925
 21
-130.9289773608454
 31
0.0
  0
LINE
  5
2AC
330
1F
100
AcDbEntity
  8
LAYER-006
  6
Continuous
 62
     1
100
AcDbLine
 10
260.6293706293707
 20
-79.85373166432345
 30
0.0
 11
260.6293706293707
 21
-130.9289773608454
 31
0.0
  0
LINE
  5
2AD
330
1F
100
AcDbEntity
  8
LAYER-006
  6
Continuous
 62
     1
100
AcDbLine
 10
367.9864436686426
 20
-144.6643662034982
 30
0.0
 11
367.9864436686426
 21
-176.3157974773602
 31
0.0
  0
LINE
  5
2AE
330
1F
100
AcDbEntity
  8
LAYER-006
  6
Continuous
 62
     1
100
AcDbLine
 10
356.9981325945203
 20
-144.6643662034982
 30
0.0
 11
356.9981325945203
 21
-176.3157974773602
 31
0.0
  0
LINE
  5
2AF
330
1F
100
AcDbEntity
  8
LAYER-006
  6
Continuous
 62
     1
100
AcDbLine
 10
271.0682661497873
 20
-144.6643662034982
 30
0.0
 11
271.0682661497873
 21
-176.3157974773602
 31
0.0
  0
LINE
  5
2B0
330
1F
100
AcDbEntity
  8
LAYER-006
  6
Continuous
 62
     1
100
AcDbLine
 10
260.0799550756651
 20
-144.6643662034982
 30
0.0
 11
260.0799550756651
 21
-176.3157974773602
 31
0.0
  0
LINE
  5
2B1
330
1F
100
AcDbEntity
  8
LAYER-033
  6
Continuous
 62
     1
100
AcDbLine
 10
339.0331993721535
 20
-425.3157974773602
 30
0.0
 11
289.0331993721535
 21
-425.3157974773602
 31
0.0
  0
LINE
  5
2B2
330
1F
100
AcDbEntity
  8
LAYER-033
  6
CENTER
 62
     4
100
AcDbLine
 10
289.0331993721535
 20
-431.3157974773602
 30
0.0
 11
339.0331993721535
 21
-431.3157974773602
 31
0.0
  0
LINE
  5
2B3
330
1F
100
AcDbEntity
  8
LAYER-033
  6
Continuous
 62
     1
100
AcDbLine
 10
339.0331993721535
 20
-182.3157974773602
 30
0.0
 11
312.5793085698275
 21
-182.3157974773602
 31
0.0
  0
ARC
  5
2B4
330
1F
100
AcDbEntity
  8
LAYER-006
  6
Continuous
 62
     1
100
AcDbCircle
 10
434.0331993721535
 20
-148.8418406734662
 30
0.0
 40
30.0
100
AcDbArc
 50
332.0593372072309
 51
90.0
  0
ARC
  5
2B5
330
1F
100
AcDbEntity
  8
LAYER-033
  6
Continuous
 62
     1
100
AcDbCircle
 10
434.0331993721535
 20
-148.8418406734662
 30
0.0
 40
22.30819323642561
100
AcDbArc
 50
332.059337207231
 51
90.0
  0
LINE
  5
2B6
330
1F
100
AcDbEntity
  8
LAYER-033
  6
Continuous
 62
     1
100
AcDbLine
 10
454.141300961935
 20
-158.6867155675334
 30
0.0
 11
401.8792371276006
 21
-238.0371136107181
 31
0.0
  0
LINE
  5
2B7
330
1F
100
AcDbEntity
  8
LAYER-033
  6
Continuous
 62
     1
100
AcDbLine
 10
460.5361989104132
 20
-162.8985478083185
 30
0.0
 11
411.0481481983271
 21
-238.0371136107181
 31
0.0
  0
ARC
  5
2B8
330
1F
100
AcDbEntity
  8
LAYER-033
  6
Continuous
 62
     1
100
AcDbCircle
 10
194.0331993721535
 20
-148.8418406734662
 30
0.0
 40
22.30819323642561
100
AcDbArc
 50
90.0
 51
207.9406627927691
  0
ARC
  5
2B9
330
1F
100
AcDbEntity
  8
LAYER-006
  6
Continuous
 62
     1
100
AcDbCircle
 10
194.0331993721535
 20
-148.8418406734662
 30
0.0
 40
30.0
100
AcDbArc
 50
90.0
 51
207.9406627927691
  0
LINE
  5
2BA
330
1F
100
AcDbEntity
  8
LAYER-033
  6
Continuous
 62
     1
100
AcDbLine
 10
167.5301998338938
 20
-162.8985478083185
 30
0.0
 11
217.018250546
 21
-238.0371136107181
 31
0.0
  0
LINE
  5
2BB
330
1F
100
AcDbEntity
  8
LAYER-033
  6
Continuous
 62
     1
100
AcDbLine
 10
173.925097782372
 20
-158.6867155675334
 30
0.0
 11
226.1871616167064
 21
-238.0371136107181
 31
0.0
  0
LINE
  5
2BC
330
1F
100
AcDbEntity
  8
LAYER-006
  6
Continuous
 62
     1
100
AcDbLine
 10
-335.909626600208
 20
-238.0371136107181
 30
0.0
 11
-45.90962660020801
 21
-238.0371136107181
 31
0.0
  0
LINE
  5
2BD
330
1F
100
AcDbEntity
  8
LAYER-006
  6
Continuous
 62
     1
100
AcDbLine
 10
-45.90962660020807
 20
-370.3274918973938
 30
0.0
 11
-335.909626600208
 21
-370.3274918973938
 31
0.0
  0
LINE
  5
2BE
330
1F
100
AcDbEntity
  8
LAYER-033
  6
Continuous
 62
     1
100
AcDbLine
 10
320.296542178922
 20
-119.9592145609481
 30
0.0
 11
300.7114908546022
 21
-119.9592145609481
 31
0.0
  0
LINE
  5
2BF
330
1F
100
AcDbEntity
  8
LAYER-006
  6
Continuous
 62
     1
100
AcDbLine
 10
214.0331993721535
 20
-238.0371136107181
 30
0.0
 11
414.0331993721535
 21
-238.0371136107181
 31
0.0
  0
LINE
  5
2C0
330
1F
100
AcDbEntity
  8
LAYER-006
  6
Continuous
 62
     1
100
AcDbLine
 10
414.0331993721535
 20
-370.3274918973938
 30
0.0
 11
214.0331993721535
 21
-370.3274918973938
 31
0.0
  0
LINE
  5
2C1
330
1F
100
AcDbEntity
  8
LAYER-006
  6
Continuous
 62
     1
100
AcDbLine
 10
434.0331993721535
 20
-118.8418406734662
 30
0.0
 11
391.0619024162214
 21
-118.8418406734662
 31
0.0
  0
LINE
  5
2C2
330
1F
100
AcDbEntity
  8
LAYER-033
  6
Continuous
 62
     1
100
AcDbLine
 10
434.0331993721535
 20
-126.5336474370406
 30
0.0
 11
391.0619024162214
 21
-126.5336474370406
 31
0.0
  0
LINE
  5
2C3
330
1F
100
AcDbEntity
  8
LAYER-006
  6
Continuous
 62
     1
100
AcDbLine
 10
194.0331993721535
 20
-118.8418406734662
 30
0.0
 11
237.0044963280856
 21
-118.8418406734662
 31
0.0
  0
LINE
  5
2C4
330
1F
100
AcDbEntity
  8
LAYER-033
  6
Continuous
 62
     1
100
AcDbLine
 10
194.0331993721535
 20
-126.5336474370406
 30
0.0
 11
237.0044963280856
 21
-126.5336474370406
 31
0.0
  0
LINE
  5
2C5
330
1F
100
AcDbEntity
  8
LAYER-033
  6
Continuous
 62
     4
100
AcDbLine
 10
391.0619024162214
 20
-122.377374579399
 30
0.0
 11
394.5974363221542
 21
-118.8418406734662
 31
0.0
  0
LINE
  5
2C6
330
1F
100
AcDbEntity
  8
LAYER-033
  6
Continuous
 62
     4
100
AcDbLine
 10
391.0619024162214
 20
-125.9129084853317
 30
0.0
 11
398.132970228087
 21
-118.8418406734662
 31
0.0
  0
LINE
  5
2C7
330
1F
100
AcDbEntity
  8
LAYER-033
  6
Continuous
 62
     4
100
AcDbLine
 10
393.97669737
 20
-126.5336474370406
 30
0.0
 11
401.6685041340197
 21
-118.8418406734662
 31
0.0
  0
LINE
  5
2C8
330
1F
100
AcDbEntity
  8
LAYER-033
  6
Continuous
 62
     4
100
AcDbLine
 10
397.5122312761535
 20
-126.5336474370406
 30
0.0
 11
405.2040380399524
 21
-118.8418406734662
 31
0.0
  0
LINE
  5
2C9
330
1F
100
AcDbEntity
  8
LAYER-033
  6
Continuous
 62
     4
100
AcDbLine
 10
401.0477651823108
 20
-126.5336474370406
 30
0.0
 11
408.7395719458852
 21
-118.8418406734662
 31
0.0
  0
LINE
  5
2CA
330
1F
100
AcDbEntity
  8
LAYER-033
  6
Continuous
 62
     4
100
AcDbLine
 10
404.5832990882436
 20
-126.5336474370406
 30
0.0
 11
412.2751058671655
 21
-118.8418406734662
 31
0.0
  0
LINE
  5
2CB
330
1F
100
AcDbEntity
  8
LAYER-033
  6
Continuous
 62
     4
100
AcDbLine
 10
408.1188329941763
 20
-126.5336474370406
 30
0.0
 11
415.8106397577507
 21
-118.8418406734662
 31
0.0
  0
LINE
  5
2CC
330
1F
100
AcDbEntity
  8
LAYER-033
  6
Continuous
 62
     4
100
AcDbLine
 10
411.654366900109
 20
-126.5336474370406
 30
0.0
 11
419.3461736636834
 21
-118.8418406734662
 31
0.0
  0
LINE
  5
2CD
330
1F
100
AcDbEntity
  8
LAYER-033
  6
Continuous
 62
     4
100
AcDbLine
 10
415.1899008060418
 20
-126.5336474370406
 30
0.0
 11
422.8817075696161
 21
-118.8418406734662
 31
0.0
  0
LINE
  5
2CE
330
1F
100
AcDbEntity
  8
LAYER-033
  6
Continuous
 62
     4
100
AcDbLine
 10
418.7254347119745
 20
-126.5336474370406
 30
0.0
 11
426.4172414755489
 21
-118.8418406734662
 31
0.0
  0
LINE
  5
2CF
330
1F
100
AcDbEntity
  8
LAYER-033
  6
Continuous
 62
     4
100
AcDbLine
 10
422.2609686179072
 20
-126.5336474370406
 30
0.0
 11
429.9527753814816
 21
-118.8418406734662
 31
0.0
  0
LINE
  5
2D0
330
1F
100
AcDbEntity
  8
LAYER-033
  6
Continuous
 62
     4
100
AcDbLine
 10
425.79650252384
 20
-126.5336474370406
 30
0.0
 11
433.4883092874144
 21
-118.8418406734662
 31
0.0
  0
LINE
  5
2D1
330
1F
100
AcDbEntity
  8
LAYER-033
  6
Continuous
 62
     4
100
AcDbLine
 10
429.3320364297727
 20
-126.5336474370406
 30
0.0
 11
436.8877287727724
 21
-118.977955094041
 31
0.0
  0
LINE
  5
2D2
330
1F
100
AcDbEntity
  8
LAYER-033
  6
Continuous
 62
     4
100
AcDbLine
 10
432.8675703357055
 20
-126.5336474370406
 30
0.0
 11
439.9667414550142
 21
-119.4344763177318
 31
0.0
  0
LINE
  5
2D3
330
1F
100
AcDbEntity
  8
LAYER-033
  6
Continuous
 62
     4
100
AcDbLine
 10
436.2887804201976
 20
-126.6479712584812
 30
0.0
 11
442.7888025634589
 21
-120.1479491152198
 31
0.0
  0
LINE
  5
2D4
330
1F
100
AcDbEntity
  8
LAYER-033
  6
Continuous
 62
     4
100
AcDbLine
 10
439.306433611
 20
-127.1658519732454
 30
0.0
 11
445.3954979599349
 21
-121.0767876246766
 31
0.0
  0
LINE
  5
2D5
330
1F
100
AcDbEntity
  8
LAYER-033
  6
Continuous
 62
     4
100
AcDbLine
 10
442.0022416813309
 20
-128.0055778092133
 30
0.0
 11
447.81365990672
 21
-122.1941595838243
 31
0.0
  0
LINE
  5
2D6
330
1F
100
AcDbEntity
  8
LAYER-033
  6
Continuous
 62
     4
100
AcDbLine
 10
444.435788242336
 20
-129.1075651542461
 30
0.0
 11
450.0610726318751
 21
-123.482280764707
 31
0.0
  0
LINE
  5
2D7
330
1F
100
AcDbEntity
  8
LAYER-033
  6
Continuous
 62
     4
100
AcDbLine
 10
446.6408927679995
 20
-130.4379945344102
 30
0.0
 11
452.1494313009505
 21
-124.9294560014592
 31
0.0
  0
LINE
  5
2D8
330
1F
100
AcDbEntity
  8
LAYER-033
  6
Continuous
 62
     4
100
AcDbLine
 10
448.6366162557927
 20
-131.9778049525498
 30
0.0
 11
454.0859586787524
 21
-126.5284625295901
 31
0.0
  0
LINE
  5
2D9
330
1F
100
AcDbEntity
  8
LAYER-033
  6
Continuous
 62
     4
100
AcDbLine
 10
450.4320461418564
 20
-133.7179089724188
 30
0.0
 11
455.8742803678599
 21
-128.2756747464153
 31
0.0
  0
LINE
  5
2DA
330
1F
100
AcDbEntity
  8
LAYER-033
  6
Continuous
 62
     4
100
AcDbLine
 10
452.0282486789436
 20
-135.6572403412644
 30
0.0
 11
457.5148299849169
 21
-130.170659035291
 31
0.0
  0
LINE
  5
2DB
330
1F
100
AcDbEntity
  8
LAYER-033
  6
Continuous
 62
     4
100
AcDbLine
 10
453.4184846952038
 20
-137.8025382309369
 30
0.0
 11
459.0048961192236
 21
-132.216126806917
 31
0.0
  0
LINE
  5
2DC
330
1F
100
AcDbEntity
  8
LAYER-033
  6
Continuous
 62
     4
100
AcDbLine
 10
454.5867991198246
 20
-140.1697577122488
 30
0.0
 11
460.3383234494203
 21
-134.4182333826531
 31
0.0
  0
LINE
  5
2DD
330
1F
100
AcDbEntity
  8
LAYER-033
  6
Continuous
 62
     4
100
AcDbLine
 10
455.5042237546391
 20
-142.787866983367
 30
0.0
 11
461.5047871578321
 21
-136.787303580174
 31
0.0
  0
LINE
  5
2DE
330
1F
100
AcDbEntity
  8
LAYER-033
  6
Continuous
 62
     4
100
AcDbLine
 10
456.1201073183678
 20
-145.7075173255711
 30
0.0
 11
462.4884243141381
 21
-139.3392003298008
 31
0.0
  0
LINE
  5
2DF
330
1F
100
AcDbEntity
  8
LAYER-033
  6
Continuous
 62
     4
100
AcDbLine
 10
456.3406610969157
 20
-149.022497453
 30
0.0
 11
463.2653416665239
 21
-142.0978168833478
 31
0.0
  0
LINE
  5
2E0
330
1F
100
AcDbEntity
  8
LAYER-033
  6
Continuous
 62
     4
100
AcDbLine
 10
455.9624311161503
 20
-152.9362613396541
 30
0.0
 11
463.7989021080191
 21
-145.0997903477853
 31
0.0
  0
LINE
  5
2E1
330
1F
100
AcDbEntity
  8
LAYER-033
  6
Continuous
 62
     4
100
AcDbLine
 10
454.3256292612122
 20
-158.108597100525
 30
0.0
 11
464.0300073240654
 21
-148.4042190376717
 31
0.0
  0
LINE
  5
2E2
330
1F
100
AcDbEntity
  8
LAYER-033
  6
Continuous
 62
     4
100
AcDbLine
 10
448.0798720630196
 20
-167.8898882046503
 30
0.0
 11
463.8540244925895
 21
-152.1157357750804
 31
0.0
  0
LINE
  5
2E3
330
1F
100
AcDbEntity
  8
LAYER-033
  6
Continuous
 62
     4
100
AcDbLine
 10
441.2586959340001
 20
-178.2465982396024
 30
0.0
 11
463.0514157392387
 21
-156.4538784343639
 31
0.0
  0
LINE
  5
2E4
330
1F
100
AcDbEntity
  8
LAYER-033
  6
Continuous
 62
     4
100
AcDbLine
 10
434.4375198049807
 20
-188.6033082745546
 30
0.0
 11
460.9481771051997
 21
-162.0926509743357
 31
0.0
  0
LINE
  5
2E5
330
1F
100
AcDbEntity
  8
LAYER-033
  6
Continuous
 62
     4
100
AcDbLine
 10
427.6163436759612
 20
-198.9600183095068
 30
0.0
 11
454.4750178740594
 21
-172.1013441114087
 31
0.0
  0
LINE
  5
2E6
330
1F
100
AcDbEntity
  8
LAYER-033
  6
Continuous
 62
     4
100
AcDbLine
 10
420.7951675469418
 20
-209.316728344459
 30
0.0
 11
447.65384174504
 21
-182.4580541463608
 31
0.0
  0
LINE
  5
2E7
330
1F
100
AcDbEntity
  8
LAYER-033
  6
Continuous
 62
     4
100
AcDbLine
 10
413.9739914179224
 20
-219.6734383794112
 30
0.0
 11
440.8326656160205
 21
-192.814764181313
 31
0.0
  0
LINE
  5
2E8
330
1F
100
AcDbEntity
  8
LAYER-033
  6
Continuous
 62
     4
100
AcDbLine
 10
407.152815288903
 20
-230.0301484143633
 30
0.0
 11
434.011489487001
 21
-203.1714742162652
 31
0.0
  0
LINE
  5
2E9
330
1F
100
AcDbEntity
  8
LAYER-033
  6
Continuous
 62
     4
100
AcDbLine
 10
402.681383998481
 20
-238.0371136107181
 30
0.0
 11
427.190313357982
 21
-213.5281842512168
 31
0.0
  0
LINE
  5
2EA
330
1F
100
AcDbEntity
  8
LAYER-033
  6
Continuous
 62
     4
100
AcDbLine
 10
406.2169179044137
 20
-238.0371136107181
 30
0.0
 11
420.3691372289621
 21
-223.8848942861696
 31
0.0
  0
LINE
  5
2EB
330
1F
100
AcDbEntity
  8
LAYER-033
  6
Continuous
 62
     4
100
AcDbLine
 10
409.7524518103464
 20
-238.0371136107181
 30
0.0
 11
413.5479610999303
 21
-234.2416043211406
 31
0.0
  0
LINE
  5
2EC
330
1F
100
AcDbEntity
  8
LAYER-033
  6
Continuous
 62
     4
100
AcDbLine
 10
403.1994841242679
 20
-236.0325596950336
 30
0.0
 11
405.2040380399524
 21
-238.0371136107181
 31
0.0
  0
LINE
  5
2ED
330
1F
100
AcDbEntity
  8
LAYER-033
  6
Continuous
 62
     4
100
AcDbLine
 10
404.603411199595
 20
-233.900952864428
 30
0.0
 11
408.7395719458851
 21
-238.0371136107181
 31
0.0
  0
LINE
  5
2EE
330
1F
100
AcDbEntity
  8
LAYER-033
  6
Continuous
 62
     4
100
AcDbLine
 10
406.0073382749222
 20
-231.7693460337181
 30
0.0
 11
411.535361478088
 21
-237.2973692369882
 31
0.0
  0
LINE
  5
2EF
330
1F
100
AcDbEntity
  8
LAYER-033
  6
Continuous
 62
     4
100
AcDbLine
 10
407.4112653502493
 20
-229.6377392032168
 30
0.0
 11
412.9392885534152
 21
-235.1657624063826
 31
0.0
  0
LINE
  5
2F0
330
1F
100
AcDbEntity
  8
LAYER-033
  6
Continuous
 62
     4
100
AcDbLine
 10
408.8151924255765
 20
-227.5061323726112
 30
0.0
 11
414.3432156287423
 21
-233.0341555757771
 31
0.0
  0
LINE
  5
2F1
330
1F
100
AcDbEntity
  8
LAYER-033
  6
Continuous
 62
     4
100
AcDbLine
 10
410.2191195009036
 20
-225.3745255420056
 30
0.0
 11
415.747142704
 21
-230.9025487451714
 31
0.0
  0
LINE
  5
2F2
330
1F
100
AcDbEntity
  8
LAYER-033
  6
Continuous
 62
     4
100
AcDbLine
 10
411.6230465762308
 20
-223.2429187114
 30
0.0
 11
417.1510697793966
 21
-228.7709419145659
 31
0.0
  0
LINE
  5
2F3
330
1F
100
AcDbEntity
  8
LAYER-033
  6
Continuous
 62
     4
100
AcDbLine
 10
413.0269736515579
 20
-221.1113118807944
 30
0.0
 11
418.5549968547238
 21
-226.6393350839603
 31
0.0
  0
LINE
  5
2F4
330
1F
100
AcDbEntity
  8
LAYER-033
  6
Continuous
 62
     4
100
AcDbLine
 10
414.4309007269334
 20
-218.9797050501154
 30
0.0
 11
419.9589239300992
 21
-224.5077282532812
 31
0.0
  0
LINE
  5
2F5
330
1F
100
AcDbEntity
  8
LAYER-033
  6
Continuous
 62
     4
100
AcDbLine
 10
415.8348278022605
 20
-216.8480982195098
 30
0.0
 11
421.3628510054264
 21
-222.3761214226756
 31
0.0
  0
LINE
  5
2F6
330
1F
100
AcDbEntity
  8
LAYER-033
  6
Continuous
 62
     4
100
AcDbLine
 10
417.2387548775877
 20
-214.7164913889042
 30
0.0
 11
422.7667780807535
 21
-220.24451459207
 31
0.0
  0
LINE
  5
2F7
330
1F
100
AcDbEntity
  8
LAYER-033
  6
Continuous
 62
     4
100
AcDbLine
 10
418.6426819529148
 20
-212.5848845582986
 30
0.0
 11
424.1707051560807
 21
-218.1129077614644
 31
0.0
  0
LINE
  5
2F8
330
1F
100
AcDbEntity
  8
LAYER-033
  6
Continuous
 62
     4
100
AcDbLine
 10
420.046609028242
 20
-210.453277727693
 30
0.0
 11
425.5746322314078
 21
-215.9813009308589
 31
0.0
  0
LINE
  5
2F9
330
1F
100
AcDbEntity
  8
LAYER-033
  6
Continuous
 62
     4
100
AcDbLine
 10
421.4505361035691
 20
-208.3216708970874
 30
0.0
 11
426.978559306735
 21
-213.8496941002533
 31
0.0
  0
LINE
  5
2FA
330
1F
100
AcDbEntity
  8
LAYER-033
  6
Continuous
 62
     4
100
AcDbLine
 10
422.8544631788963
 20
-206.190064066718
 30
0.0
 11
428.3824863820621
 21
-211.7180872696477
 31
0.0
  0
LINE
  5
2FB
330
1F
100
AcDbEntity
  8
LAYER-033
  6
Continuous
 62
     4
100
AcDbLine
 10
424.2583902542234
 20
-204.0584572358762
 30
0.0
 11
429.7864134573219
 21
-209.5864804391443
 31
0.0
  0
LINE
  5
2FC
330
1F
100
AcDbEntity
  8
LAYER-033
  6
Continuous
 62
     4
100
AcDbLine
 10
425.6623173295506
 20
-201.9268504052706
 30
0.0
 11
431.1903405327164
 21
-207.4548736084365
 31
0.0
  0
LINE
  5
2FD
330
1F
100
AcDbEntity
  8
LAYER-033
  6
Continuous
 62
     4
100
AcDbLine
 10
427.0662444049115
 20
-199.7952435746137
 30
0.0
 11
432.5942676080435
 21
-205.3232667778309
 31
0.0
  0
LINE
  5
2FE
330
1F
100
AcDbEntity
  8
LAYER-033
  6
Continuous
 62
     4
100
AcDbLine
 10
428.4701714802048
 20
-197.6636367440594
 30
0.0
 11
433.9981946833707
 21
-203.1916599472253
 31
0.0
  0
LINE
  5
2FF
330
1F
100
AcDbEntity
  8
LAYER-033
  6
Continuous
 62
     4
100
AcDbLine
 10
429.8740985555319
 20
-195.5320299134538
 30
0.0
 11
435.4021217586978
 21
-201.0600531166197
 31
0.0
  0
LINE
  5
300
330
1F
100
AcDbEntity
  8
LAYER-033
  6
Continuous
 62
     4
100
AcDbLine
 10
431.2780256308591
 20
-193.4004230828483
 30
0.0
 11
436.8060488340249
 21
-198.9284462860141
 31
0.0
  0
LINE
  5
301
330
1F
100
AcDbEntity
  8
LAYER-033
  6
Continuous
 62
     4
100
AcDbLine
 10
432.6819527061862
 20
-191.2688162522427
 30
0.0
 11
438.2099759093521
 21
-196.7968394553185
 31
0.0
  0
LINE
  5
302
330
1F
100
AcDbEntity
  8
LAYER-033
  6
Continuous
 62
     4
100
AcDbLine
 10
434.0858797815134
 20
-189.1372094216371
 30
0.0
 11
439.6139029846792
 21
-194.6652326248029
 31
0.0
  0
LINE
  5
303
330
1F
100
AcDbEntity
  8
LAYER-033
  6
Continuous
 62
     4
100
AcDbLine
 10
435.4898068566006
 20
-187.0056025910315
 30
0.0
 11
441.0178300600064
 21
-192.5336257941973
 31
0.0
  0
LINE
  5
304
330
1F
100
AcDbEntity
  8
LAYER-033
  6
Continuous
 62
     4
100
AcDbLine
 10
436.8937339321677
 20
-184.87399576
 30
0.0
 11
442.4217571353335
 21
-190.4020189635917
 31
0.0
  0
LINE
  5
305
330
1F
100
AcDbEntity
  8
LAYER-033
  6
Continuous
 62
     4
100
AcDbLine
 10
438.2976610074948
 20
-182.7423889298203
 30
0.0
 11
443.8256842106607
 21
-188.2704121329861
 31
0.0
  0
LINE
  5
306
330
1F
100
AcDbEntity
  8
LAYER-033
  6
Continuous
 62
     4
100
AcDbLine
 10
439.701588082822
 20
-180.6107820992147
 30
0.0
 11
445.2296112859878
 21
-186.1388053023805
 31
0.0
  0
LINE
  5
307
330
1F
100
AcDbEntity
  8
LAYER-033
  6
Continuous
 62
     4
100
AcDbLine
 10
441.1055151581491
 20
-178.4791752686091
 30
0.0
 11
446.633538361315
 21
-184.0071984717749
 31
0.0
  0
LINE
  5
308
330
1F
100
AcDbEntity
  8
LAYER-033
  6
Continuous
 62
     4
100
AcDbLine
 10
391.0619024162214
 20
-124.9000286207487
 30
0.0
 11
392.695521233
 21
-126.5336474370406
 31
0.0
  0
LINE
  5
309
330
1F
100
AcDbEntity
  8
LAYER-033
  6
Continuous
 62
     4
100
AcDbLine
 10
442.5094422334763
 20
-176.3475684380035
 30
0.0
 11
448.0374654366421
 21
-181.8755916411693
 31
0.0
  0
LINE
  5
30A
330
1F
100
AcDbEntity
  8
LAYER-033
  6
Continuous
 62
     4
100
AcDbLine
 10
391.0619024162214
 20
-121.3644947148159
 30
0.0
 11
396.2310551384461
 21
-126.5336474370406
 31
0.0
  0
LINE
  5
30B
330
1F
100
AcDbEntity
  8
LAYER-033
  6
Continuous
 62
     4
100
AcDbLine
 10
443.9133693088033
 20
-174.2159616073979
 30
0.0
 11
449.4413925119692
 21
-179.7439848105638
 31
0.0
  0
LINE
  5
30C
330
1F
100
AcDbEntity
  8
LAYER-033
  6
Continuous
 62
     4
100
AcDbLine
 10
392.0747822808044
 20
-118.8418406734662
 30
0.0
 11
399.7665890443788
 21
-126.5336474370406
 31
0.0
  0
LINE
  5
30D
330
1F
100
AcDbEntity
  8
LAYER-033
  6
Continuous
 62
     4
100
AcDbLine
 10
445.3172963841305
 20
-172.0843547767923
 30
0.0
 11
450.8453195872964
 21
-177.6123779799581
 31
0.0
  0
LINE
  5
30E
330
1F
100
AcDbEntity
  8
LAYER-033
  6
Continuous
 62
     4
100
AcDbLine
 10
395.6103161867372
 20
-118.8418406734662
 30
0.0
 11
403.3021229503116
 21
-126.5336474370406
 31
0.0
  0
LINE
  5
30F
330
1F
100
AcDbEntity
  8
LAYER-033
  6
Continuous
 62
     4
100
AcDbLine
 10
446.7212234594576
 20
-169.9527479461867
 30
0.0
 11
452.2492466626235
 21
-175.4807711493525
 31
0.0
  0
LINE
  5
310
330
1F
100
AcDbEntity
  8
LAYER-033
  6
Continuous
 62
     4
100
AcDbLine
 10
399.1458500926699
 20
-118.8418406734662
 30
0.0
 11
406.8376568562443
 21
-126.5336474370406
 31
0.0
  0
LINE
  5
311
330
1F
100
AcDbEntity
  8
LAYER-033
  6
Continuous
 62
     4
100
AcDbLine
 10
448.1251505347848
 20
-167.8211411155811
 30
0.0
 11
453.6531737379507
 21
-173.3491643187469
 31
0.0
  0
LINE
  5
312
330
1F
100
AcDbEntity
  8
LAYER-033
  6
Continuous
 62
     4
100
AcDbLine
 10
402.6813839986027
 20
-118.8418406734662
 30
0.0
 11
410.3731907621771
 21
-126.5336474370406
 31
0.0
  0
LINE
  5
313
330
1F
100
AcDbEntity
  8
LAYER-033
  6
Continuous
 62
     4
100
AcDbLine
 10
449.5290776101119
 20
-165.6895342849755
 30
0.0
 11
455.0571008132777
 21
-171.2175574883185
 31
0.0
  0
LINE
  5
314
330
1F
100
AcDbEntity
  8
LAYER-033
  6
Continuous
 62
     4
100
AcDbLine
 10
406.2169179045354
 20
-118.8418406734662
 30
0.0
 11
413.9087246681098
 21
-126.5336474370406
 31
0.0
  0
LINE
  5
315
330
1F
100
AcDbEntity
  8
LAYER-033
  6
Continuous
 62
     4
100
AcDbLine
 10
450.9330046854391
 20
-163.5579274543699
 30
0.0
 11
456.4610278886049
 21
-169.0859506575358
 31
0.0
  0
LINE
  5
316
330
1F
100
AcDbEntity
  8
LAYER-033
  6
Continuous
 62
     4
100
AcDbLine
 10
409.7524518104779
 20
-118.8418406734662
 30
0.0
 11
417.4442585740425
 21
-126.5336474370406
 31
0.0
  0
LINE
  5
317
330
1F
100
AcDbEntity
  8
LAYER-033
  6
Continuous
 62
     4
100
AcDbLine
 10
452.3369317607662
 20
-161.4263206237643
 30
0.0
 11
457.8649549639321
 21
-166.9543438269302
 31
0.0
  0
LINE
  5
318
330
1F
100
AcDbEntity
  8
LAYER-033
  6
Continuous
 62
     4
100
AcDbLine
 10
413.2879857164008
 20
-118.8418406734662
 30
0.0
 11
420.9797924799752
 21
-126.5336474370406
 31
0.0
  0
LINE
  5
319
330
1F
100
AcDbEntity
  8
LAYER-033
  6
Continuous
 62
     4
100
AcDbLine
 10
453.7408588360934
 20
-159.294713793
 30
0.0
 11
459.2688820392592
 21
-164.8227369963246
 31
0.0
  0
LINE
  5
31A
330
1F
100
AcDbEntity
  8
LAYER-033
  6
Continuous
 62
     4
100
AcDbLine
 10
416.8235196223336
 20
-118.8418406734662
 30
0.0
 11
424.515326385908
 21
-126.5336474370406
 31
0.0
  0
LINE
  5
31B
330
1F
100
AcDbEntity
  8
LAYER-033
  6
Continuous
 62
     4
100
AcDbLine
 10
454.8481261288958
 20
-156.8664471800284
 30
0.0
 11
460.654627738678
 21
-162.6729487898106
 31
0.0
  0
LINE
  5
31C
330
1F
100
AcDbEntity
  8
LAYER-033
  6
Continuous
 62
     4
100
AcDbLine
 10
420.3590535282515
 20
-118.8418406734662
 30
0.0
 11
428.0508602918407
 21
-126.5336474370406
 31
0.0
  0
LINE
  5
31D
330
1F
100
AcDbEntity
  8
LAYER-033
  6
Continuous
 62
     4
100
AcDbLine
 10
455.6940657097853
 20
-154.1768528549852
 30
0.0
 11
461.7758767427528
 21
-160.2586638879527
 31
0.0
  0
LINE
  5
31E
330
1F
100
AcDbEntity
  8
LAYER-033
  6
Continuous
 62
     4
100
AcDbLine
 10
423.8945874341991
 20
-118.8418406734662
 30
0.0
 11
431.5863941977735
 21
-126.5336474370406
 31
0.0
  0
LINE
  5
31F
330
1F
100
AcDbEntity
  8
LAYER-033
  6
Continuous
 62
     4
100
AcDbLine
 10
456.2198739350019
 20
-151.1671271744454
 30
0.0
 11
462.7090612087029
 21
-157.6563144481463
 31
0.0
  0
LINE
  5
320
330
1F
100
AcDbEntity
  8
LAYER-033
  6
Continuous
 62
     4
100
AcDbLine
 10
427.43012134
 20
-118.8418406734662
 30
0.0
 11
435.1498952225302
 21
-126.5616145558646
 31
0.0
  0
LINE
  5
321
330
1F
100
AcDbEntity
  8
LAYER-033
  6
Continuous
 62
     4
100
AcDbLine
 10
456.3134254897551
 20
-147.7251448230895
 30
0.0
 11
463.4275923916723
 21
-154.8393117250067
 31
0.0
  0
LINE
  5
322
330
1F
100
AcDbEntity
  8
LAYER-033
  6
Continuous
 62
     4
100
AcDbLine
 10
430.9656552460646
 20
-118.8418406734662
 30
0.0
 11
439.2842920158341
 21
-127.1604774432358
 31
0.0
  0
LINE
  5
323
330
1F
100
AcDbEntity
  8
LAYER-033
  6
Continuous
 62
     4
100
AcDbLine
 10
455.7145626023839
 20
-143.5907480297855
 30
0.0
 11
463.8902999262078
 21
-151.7664853536095
 31
0.0
  0
LINE
  5
324
330
1F
100
AcDbEntity
  8
LAYER-033
  6
Continuous
 62
     4
100
AcDbLine
 10
434.5048977031442
 20
-118.8455492246131
 30
0.0
 11
445.1741339851328
 21
-129.5147855066017
 31
0.0
  0
LINE
  5
325
330
1F
100
AcDbEntity
  8
LAYER-033
  6
Continuous
 62
     4
100
AcDbLine
 10
453.360254539018
 20
-137.7009060604869
 30
0.0
 11
464.0294908210066
 21
-148.3701423424755
 31
0.0
  0
LINE
  5
326
330
1F
100
AcDbEntity
  8
LAYER-033
  6
Continuous
 62
     4
100
AcDbLine
 10
438.3487445119538
 20
-119.15386212749
 30
0.0
 11
463.7211779181297
 21
-144.5262955336659
 31
0.0
  0
LINE
  5
327
330
1F
100
AcDbEntity
  8
LAYER-033
  6
Continuous
 62
     4
100
AcDbLine
 10
442.918154895403
 20
-120.1877386050064
 30
0.0
 11
462.6873014406133
 21
-139.9568851502167
 31
0.0
  0
LINE
  5
328
330
1F
100
AcDbEntity
  8
LAYER-033
  6
Continuous
 62
     4
100
AcDbLine
 10
449.2582937575604
 20
-122.9923435612311
 30
0.0
 11
459.8826964843886
 21
-133.6167462880593
 31
0.0
  0
LINE
  5
329
330
1F
100
AcDbEntity
  8
LAYER-033
  6
Continuous
 62
     4
100
AcDbLine
 10
171.3870809761375
 20
-129.165628599146
 30
0.0
 11
174.3569872978333
 21
-126.1957222774501
 31
0.0
  0
LINE
  5
32A
330
1F
100
AcDbEntity
  8
LAYER-033
  6
Continuous
 62
     4
100
AcDbLine
 10
166.0435168305817
 20
-138.0447266506345
 30
0.0
 11
183.2360853493219
 21
-120.8521581318943
 31
0.0
  0
LINE
  5
32B
330
1F
100
AcDbEntity
  8
LAYER-033
  6
Continuous
 62
     4
100
AcDbLine
 10
164.6034534956141
 20
-143.0203238915349
 30
0.0
 11
188.2116825902223
 21
-119.4120947969267
 31
0.0
  0
LINE
  5
32C
330
1F
100
AcDbEntity
  8
LAYER-033
  6
Continuous
 62
     4
100
AcDbLine
 10
164.0853336678556
 20
-147.0739776252261
 30
0.0
 11
192.2653363239135
 21
-118.8939749691682
 31
0.0
  0
LINE
  5
32D
330
1F
100
AcDbEntity
  8
LAYER-033
  6
Continuous
 62
     4
100
AcDbLine
 10
164.0853229555038
 20
-150.6095222435106
 30
0.0
 11
172.8510713976834
 21
-141.843773801331
 31
0.0
  0
LINE
  5
32E
330
1F
100
AcDbEntity
  8
LAYER-033
  6
Continuous
 62
     4
100
AcDbLine
 10
187.0351325000185
 20
-127.659712698996
 30
0.0
 11
195.8530045255482
 21
-118.8418406734662
 31
0.0
  0
LINE
  5
32F
330
1F
100
AcDbEntity
  8
LAYER-033
  6
Continuous
 62
     4
100
AcDbLine
 10
164.4435537723647
 20
-153.7868253325824
 30
0.0
 11
171.8626246665907
 21
-146.3677544383565
 31
0.0
  0
LINE
  5
330
330
1F
100
AcDbEntity
  8
LAYER-033
  6
Continuous
 62
     4
100
AcDbLine
 10
191.559113137044
 20
-126.6712659679032
 30
0.0
 11
199.388538431481
 21
-118.8418406734662
 31
0.0
  0
LINE
  5
331
330
1F
100
AcDbEntity
  8
LAYER-033
  6
Continuous
 62
     4
100
AcDbLine
 10
165.0775166236662
 20
-156.6883963872137
 30
0.0
 11
171.7556272096168
 21
-150.0102858012631
 31
0.0
  0
LINE
  5
332
330
1F
100
AcDbEntity
  8
LAYER-033
  6
Continuous
 62
     4
100
AcDbLine
 10
195.2322655738393
 20
-126.5336474370406
 30
0.0
 11
202.9240723374137
 21
-118.8418406734662
 31
0.0
  0
LINE
  5
333
330
1F
100
AcDbEntity
  8
LAYER-033
  6
Continuous
 62
     4
100
AcDbLine
 10
165.9385752205826
 20
-159.3628716962301
 30
0.0
 11
172.1460230852902
 21
-153.1554238315225
 31
0.0
  0
LINE
  5
334
330
1F
100
AcDbEntity
  8
LAYER-033
  6
Continuous
 62
     4
100
AcDbLine
 10
198.767799479772
 20
-126.5336474370406
 30
0.0
 11
206.4596062433464
 21
-118.8418406734662
 31
0.0
  0
LINE
  5
335
330
1F
100
AcDbEntity
  8
LAYER-033
  6
Continuous
 62
     4
100
AcDbLine
 10
166.9958475704329
 20
-161.8411332523125
 30
0.0
 11
172.8875648589415
 21
-155.9494159638039
 31
0.0
  0
LINE
  5
336
330
1F
100
AcDbEntity
  8
LAYER-033
  6
Continuous
 62
     4
100
AcDbLine
 10
202.3033333857048
 20
-126.5336474370406
 30
0.0
 11
209.9951401492792
 21
-118.8418406734662
 31
0.0
  0
LINE
  5
337
330
1F
100
AcDbEntity
  8
LAYER-033
  6
Continuous
 62
     4
100
AcDbLine
 10
168.3020513599789
 20
-164.0704633686992
 30
0.0
 11
173.9073952676885
 21
-158.4651194609896
 31
0.0
  0
LINE
  5
338
330
1F
100
AcDbEntity
  8
LAYER-033
  6
Continuous
 62
     4
100
AcDbLine
 10
205.8388672916375
 20
-126.5336474370406
 30
0.0
 11
213.5306740552119
 21
-118.8418406734662
 31
0.0
  0
LINE
  5
339
330
1F
100
AcDbEntity
  8
LAYER-033
  6
Continuous
 62
     4
100
AcDbLine
 10
169.7059784353064
 20
-166.2020701993045
 30
0.0
 11
175.2340016384717
 21
-160.6740469961391
 31
0.0
  0
LINE
  5
33A
330
1F
100
AcDbEntity
  8
LAYER-033
  6
Continuous
 62
     4
100
AcDbLine
 10
209.3744011975703
 20
-126.5336474370406
 30
0.0
 11
217.0662079611446
 21
-118.8418406734662
 31
0.0
  0
LINE
  5
33B
330
1F
100
AcDbEntity
  8
LAYER-033
  6
Continuous
 62
     4
100
AcDbLine
 10
171.1099055106339
 20
-168.3336770299097
 30
0.0
 11
176.6379287137989
 21
-162.8056538267447
 31
0.0
  0
LINE
  5
33C
330
1F
100
AcDbEntity
  8
LAYER-033
  6
Continuous
 62
     4
100
AcDbLine
 10
212.909935103503
 20
-126.5336474370406
 30
0.0
 11
220.6017418670774
 21
-118.8418406734662
 31
0.0
  0
LINE
  5
33D
330
1F
100
AcDbEntity
  8
LAYER-033
  6
Continuous
 62
     4
100
AcDbLine
 10
172.5138325859614
 20
-170.465283860515
 30
0.0
 11
178.041855789126
 21
-164.9372606573503
 31
0.0
  0
LINE
  5
33E
330
1F
100
AcDbEntity
  8
LAYER-033
  6
Continuous
 62
     4
100
AcDbLine
 10
216.4454690094357
 20
-126.5336474370406
 30
0.0
 11
224.1372757730101
 21
-118.8418406734662
 31
0.0
  0
LINE
  5
33F
330
1F
100
AcDbEntity
  8
LAYER-033
  6
Continuous
 62
     4
100
AcDbLine
 10
173.9177596612888
 20
-172.5968906911202
 30
0.0
 11
179.4457828644558
 21
-167.06886748796
 31
0.0
  0
LINE
  5
340
330
1F
100
AcDbEntity
  8
LAYER-033
  6
Continuous
 62
     4
100
AcDbLine
 10
219.9810029153685
 20
-126.5336474370406
 30
0.0
 11
227.6728096789429
 21
-118.8418406734662
 31
0.0
  0
LINE
  5
341
330
1F
100
AcDbEntity
  8
LAYER-033
  6
Continuous
 62
     4
100
AcDbLine
 10
175.3216867366163
 20
-174.7284975217255
 30
0.0
 11
180.8497099397803
 21
-169.2004743185615
 31
0.0
  0
LINE
  5
342
330
1F
100
AcDbEntity
  8
LAYER-033
  6
Continuous
 62
     4
100
AcDbLine
 10
223.5165368213012
 20
-126.5336474370406
 30
0.0
 11
231.2083435848756
 21
-118.8418406734662
 31
0.0
  0
LINE
  5
343
330
1F
100
AcDbEntity
  8
LAYER-033
  6
Continuous
 62
     4
100
AcDbLine
 10
176.7256138119438
 20
-176.8601043523307
 30
0.0
 11
182.2536370151074
 21
-171.3320811491671
 31
0.0
  0
LINE
  5
344
330
1F
100
AcDbEntity
  8
LAYER-033
  6
Continuous
 62
     4
100
AcDbLine
 10
227.0520707272339
 20
-126.5336474370406
 30
0.0
 11
234.7438774908083
 21
-118.8418406734662
 31
0.0
  0
LINE
  5
345
330
1F
100
AcDbEntity
  8
LAYER-033
  6
Continuous
 62
     4
100
AcDbLine
 10
178.1295408872713
 20
-178.991711182936
 30
0.0
 11
183.6575640904346
 21
-173.4636879797727
 31
0.0
  0
LINE
  5
346
330
1F
100
AcDbEntity
  8
LAYER-033
  6
Continuous
 62
     4
100
AcDbLine
 10
230.5876046331667
 20
-126.5336474370406
 30
0.0
 11
237.0044963280856
 21
-120.1167557421217
 31
0.0
  0
LINE
  5
347
330
1F
100
AcDbEntity
  8
LAYER-033
  6
Continuous
 62
     4
100
AcDbLine
 10
179.5334679625988
 20
-181.1233180135412
 30
0.0
 11
185.0614911657617
 21
-175.5952948103783
 31
0.0
  0
LINE
  5
348
330
1F
100
AcDbEntity
  8
LAYER-033
  6
Continuous
 62
     4
100
AcDbLine
 10
234.1231385390994
 20
-126.5336474370406
 30
0.0
 11
237.0044963280856
 21
-123.6522896480545
 31
0.0
  0
LINE
  5
349
330
1F
100
AcDbEntity
  8
LAYER-033
  6
Continuous
 62
     4
100
AcDbLine
 10
180.9373950379263
 20
-183.2549248441465
 30
0.0
 11
186.4654182410889
 21
-177.7269016409839
 31
0.0
  0
LINE
  5
34A
330
1F
100
AcDbEntity
  8
LAYER-033
  6
Continuous
 62
     4
100
AcDbLine
 10
182.3413221132537
 20
-185.3865316747517
 30
0.0
 11
187.869345316416
 21
-179.8585084715895
 31
0.0
  0
LINE
  5
34B
330
1F
100
AcDbEntity
  8
LAYER-033
  6
Continuous
 62
     4
100
AcDbLine
 10
183.7452491885812
 20
-187.518138505357
 30
0.0
 11
189.2732723917432
 21
-181.9901153021951
 31
0.0
  0
LINE
  5
34C
330
1F
100
AcDbEntity
  8
LAYER-033
  6
Continuous
 62
     4
100
AcDbLine
 10
185.1491762639087
 20
-189.6497453359623
 30
0.0
 11
190.6771994670703
 21
-184.1217221328007
 31
0.0
  0
LINE
  5
34D
330
1F
100
AcDbEntity
  8
LAYER-033
  6
Continuous
 62
     4
100
AcDbLine
 10
186.5531033392362
 20
-191.7813521665675
 30
0.0
 11
192.0811265423974
 21
-186.2533289634063
 31
0.0
  0
LINE
  5
34E
330
1F
100
AcDbEntity
  8
LAYER-033
  6
Continuous
 62
     4
100
AcDbLine
 10
187.9570304145637
 20
-193.9129589971728
 30
0.0
 11
193.4850536177246
 21
-188.3849357940119
 31
0.0
  0
LINE
  5
34F
330
1F
100
AcDbEntity
  8
LAYER-033
  6
Continuous
 62
     4
100
AcDbLine
 10
189.3609574898912
 20
-196.044565827778
 30
0.0
 11
194.8889806930517
 21
-190.5165426246175
 31
0.0
  0
LINE
  5
350
330
1F
100
AcDbEntity
  8
LAYER-033
  6
Continuous
 62
     4
100
AcDbLine
 10
190.7648845652187
 20
-198.1761726583833
 30
0.0
 11
196.2929077683788
 21
-192.6481494552231
 31
0.0
  0
LINE
  5
351
330
1F
100
AcDbEntity
  8
LAYER-033
  6
Continuous
 62
     4
100
AcDbLine
 10
192.1688116405462
 20
-200.3077794889885
 30
0.0
 11
197.696834843706
 21
-194.7797562858287
 31
0.0
  0
LINE
  5
352
330
1F
100
AcDbEntity
  8
LAYER-033
  6
Continuous
 62
     4
100
AcDbLine
 10
193.5727387158736
 20
-202.4393863195938
 30
0.0
 11
199.1007619190331
 21
-196.9113631164343
 31
0.0
  0
LINE
  5
353
330
1F
100
AcDbEntity
  8
LAYER-033
  6
Continuous
 62
     4
100
AcDbLine
 10
194.9766657912011
 20
-204.570993150199
 30
0.0
 11
200.5046889943603
 21
-199.0429699470399
 31
0.0
  0
LINE
  5
354
330
1F
100
AcDbEntity
  8
LAYER-033
  6
Continuous
 62
     4
100
AcDbLine
 10
196.3805928665286
 20
-206.7025999808043
 30
0.0
 11
201.9086160696874
 21
-201.1745767776455
 31
0.0
  0
LINE
  5
355
330
1F
100
AcDbEntity
  8
LAYER-033
  6
Continuous
 62
     4
100
AcDbLine
 10
197.7845199418561
 20
-208.8342068114095
 30
0.0
 11
203.3125431450146
 21
-203.3061836082511
 31
0.0
  0
LINE
  5
356
330
1F
100
AcDbEntity
  8
LAYER-033
  6
Continuous
 62
     4
100
AcDbLine
 10
199.1884470171836
 20
-210.9658136420148
 30
0.0
 11
204.7164702203417
 21
-205.4377904388567
 31
0.0
  0
LINE
  5
357
330
1F
100
AcDbEntity
  8
LAYER-033
  6
Continuous
 62
     4
100
AcDbLine
 10
200.5923740925111
 20
-213.09742047262
 30
0.0
 11
206.1203972956688
 21
-207.5693972694623
 31
0.0
  0
LINE
  5
358
330
1F
100
AcDbEntity
  8
LAYER-033
  6
Continuous
 62
     4
100
AcDbLine
 10
201.9963011678385
 20
-215.2290273032253
 30
0.0
 11
207.524324370996
 21
-209.7010041000679
 31
0.0
  0
LINE
  5
359
330
1F
100
AcDbEntity
  8
LAYER-033
  6
Continuous
 62
     4
100
AcDbLine
 10
203.4002282431674
 20
-217.3606341338326
 30
0.0
 11
208.9282514463231
 21
-211.8326109306734
 31
0.0
  0
LINE
  5
35A
330
1F
100
AcDbEntity
  8
LAYER-033
  6
Continuous
 62
     4
100
AcDbLine
 10
204.8041553184935
 20
-219.4922409644358
 30
0.0
 11
210.3321785216503
 21
-213.964217761279
 31
0.0
  0
LINE
  5
35B
330
1F
100
AcDbEntity
  8
LAYER-033
  6
Continuous
 62
     4
100
AcDbLine
 10
206.208082393821
 20
-221.623847795041
 30
0.0
 11
211.7361055969774
 21
-216.0958245918847
 31
0.0
  0
LINE
  5
35C
330
1F
100
AcDbEntity
  8
LAYER-033
  6
Continuous
 62
     4
100
AcDbLine
 10
207.6120094691485
 20
-223.7554546256463
 30
0.0
 11
213.1400326723045
 21
-218.2274314224902
 31
0.0
  0
LINE
  5
35D
330
1F
100
AcDbEntity
  8
LAYER-033
  6
Continuous
 62
     4
100
AcDbLine
 10
209.015936544476
 20
-225.8870614562515
 30
0.0
 11
214.5439597476317
 21
-220.3590382530958
 31
0.0
  0
LINE
  5
35E
330
1F
100
AcDbEntity
  8
LAYER-033
  6
Continuous
 62
     4
100
AcDbLine
 10
210.4198636198035
 20
-228.0186682868568
 30
0.0
 11
215.9478868229588
 21
-222.4906450837014
 31
0.0
  0
LINE
  5
35F
330
1F
100
AcDbEntity
  8
LAYER-033
  6
Continuous
 62
     4
100
AcDbLine
 10
211.8237906951309
 20
-230.150275117462
 30
0.0
 11
217.351813898312
 21
-224.6222519143466
 31
0.0
  0
LINE
  5
360
330
1F
100
AcDbEntity
  8
LAYER-033
  6
Continuous
 62
     4
100
AcDbLine
 10
213.2277177704584
 20
-232.2818819480673
 30
0.0
 11
218.7557409736131
 21
-226.7538587449126
 31
0.0
  0
LINE
  5
361
330
1F
100
AcDbEntity
  8
LAYER-033
  6
Continuous
 62
     4
100
AcDbLine
 10
214.6316448457859
 20
-234.4134887786726
 30
0.0
 11
220.1596680489402
 21
-228.8854655755182
 31
0.0
  0
LINE
  5
362
330
1F
100
AcDbEntity
  8
LAYER-033
  6
Continuous
 62
     4
100
AcDbLine
 10
216.0355719211134
 20
-236.5450956092778
 30
0.0
 11
221.5635951242674
 21
-231.0170724061238
 31
0.0
  0
LINE
  5
363
330
1F
100
AcDbEntity
  8
LAYER-033
  6
Continuous
 62
     4
100
AcDbLine
 10
218.0790878256059
 20
-238.0371136107181
 30
0.0
 11
222.9675221995945
 21
-233.1486792367294
 31
0.0
  0
LINE
  5
364
330
1F
100
AcDbEntity
  8
LAYER-033
  6
Continuous
 62
     4
100
AcDbLine
 10
221.6146217315386
 20
-238.0371136107181
 30
0.0
 11
224.3714492749217
 21
-235.280286067335
 31
0.0
  0
LINE
  5
365
330
1F
100
AcDbEntity
  8
LAYER-033
  6
Continuous
 62
     4
100
AcDbLine
 10
225.1501556374714
 20
-238.0371136107181
 30
0.0
 11
225.7753763502488
 21
-237.4118928979406
 31
0.0
  0
LINE
  5
366
330
1F
100
AcDbEntity
  8
LAYER-033
  6
Continuous
 62
     4
100
AcDbLine
 10
216.9257253475636
 20
-237.8966309970153
 30
0.0
 11
217.0662079612663
 21
-238.0371136107181
 31
0.0
  0
LINE
  5
367
330
1F
100
AcDbEntity
  8
LAYER-033
  6
Continuous
 62
     4
100
AcDbLine
 10
210.1045492185361
 20
-227.539920962055
 30
0.0
 11
220.6017418671991
 21
-238.0371136107181
 31
0.0
  0
LINE
  5
368
330
1F
100
AcDbEntity
  8
LAYER-033
  6
Continuous
 62
     4
100
AcDbLine
 10
203.2833730895085
 20
-217.1832109270947
 30
0.0
 11
224.1372757731318
 21
-238.0371136107181
 31
0.0
  0
LINE
  5
369
330
1F
100
AcDbEntity
  8
LAYER-033
  6
Continuous
 62
     4
100
AcDbLine
 10
196.462196960481
 20
-206.8265008921345
 30
0.0
 11
223.3208711585447
 21
-233.6851750901982
 31
0.0
  0
LINE
  5
36A
330
1F
100
AcDbEntity
  8
LAYER-033
  6
Continuous
 62
     4
100
AcDbLine
 10
189.6410208314534
 20
-196.4697908571742
 30
0.0
 11
216.4996950295253
 21
-223.3284650552461
 31
0.0
  0
LINE
  5
36B
330
1F
100
AcDbEntity
  8
LAYER-033
  6
Continuous
 62
     4
100
AcDbLine
 10
182.8198447024259
 20
-186.1130808222139
 30
0.0
 11
209.6785189005059
 21
-212.9717550202939
 31
0.0
  0
LINE
  5
36C
330
1F
100
AcDbEntity
  8
LAYER-033
  6
Continuous
 62
     4
100
AcDbLine
 10
175.9986685733983
 20
-175.7563707872536
 30
0.0
 11
202.8573427714865
 21
-202.6150449853417
 31
0.0
  0
LINE
  5
36D
330
1F
100
AcDbEntity
  8
LAYER-033
  6
Continuous
 62
     4
100
AcDbLine
 10
169.1774924443708
 20
-165.3996607522934
 30
0.0
 11
196.036166642467
 21
-192.2583349503896
 31
0.0
  0
LINE
  5
36E
330
1F
100
AcDbEntity
  8
LAYER-033
  6
Continuous
 62
     4
100
AcDbLine
 10
165.5383454732426
 20
-158.2249798752324
 30
0.0
 11
189.2149905134476
 21
-181.9016249154374
 31
0.0
  0
LINE
  5
36F
330
1F
100
AcDbEntity
  8
LAYER-033
  6
Continuous
 62
     4
100
AcDbLine
 10
164.4060926834509
 20
-153.557193179508
 30
0.0
 11
182.3938143844282
 21
-171.5449148804852
 31
0.0
  0
LINE
  5
370
330
1F
100
AcDbEntity
  8
LAYER-033
  6
Continuous
 62
     4
100
AcDbLine
 10
164.0443557398408
 20
-149.6599223299652
 30
0.0
 11
175.5726382554088
 21
-161.1882048455331
 31
0.0
  0
LINE
  5
371
330
1F
100
AcDbEntity
  8
LAYER-033
  6
Continuous
 62
     4
100
AcDbLine
 10
164.147340512
 20
-146.2273731961722
 30
0.0
 11
172.4668324766285
 21
-154.5468651608201
 31
0.0
  0
LINE
  5
372
330
1F
100
AcDbEntity
  8
LAYER-033
  6
Continuous
 62
     4
100
AcDbLine
 10
164.5825442393523
 20
-143.1270430176718
 30
0.0
 11
171.7739275927325
 21
-150.3184263710521
 31
0.0
  0
LINE
  5
373
330
1F
100
AcDbEntity
  8
LAYER-033
  6
Continuous
 62
     4
100
AcDbLine
 10
165.2786351060904
 20
-140.2875999784165
 30
0.0
 11
171.8163352859611
 21
-146.8253001582872
 31
0.0
  0
LINE
  5
374
330
1F
100
AcDbEntity
  8
LAYER-033
  6
Continuous
 62
     4
100
AcDbLine
 10
166.1925704741049
 20
-137.6660014404983
 30
0.0
 11
172.3068156232557
 21
-143.780246589649
 31
0.0
  0
LINE
  5
375
330
1F
100
AcDbEntity
  8
LAYER-033
  6
Continuous
 62
     4
100
AcDbLine
 10
167.2966687364506
 20
-135.2345657969113
 30
0.0
 11
173.1251617327082
 21
-141.0630587931688
 31
0.0
  0
LINE
  5
376
330
1F
100
AcDbEntity
  8
LAYER-033
  6
Continuous
 62
     4
100
AcDbLine
 10
168.5725990634596
 20
-132.9749622179875
 30
0.0
 11
174.2091009087383
 21
-138.6114640632662
 31
0.0
  0
LINE
  5
377
330
1F
100
AcDbEntity
  8
LAYER-033
  6
Continuous
 62
     4
100
AcDbLine
 10
170.0082822496369
 20
-130.8751114982321
 30
0.0
 11
175.5233970027151
 21
-136.3902262513103
 31
0.0
  0
LINE
  5
378
330
1F
100
AcDbEntity
  8
LAYER-033
  6
Continuous
 62
     4
100
AcDbLine
 10
171.5962010717549
 20
-128.9274964144174
 30
0.0
 11
177.048106998238
 21
-134.3794023409005
 31
0.0
  0
LINE
  5
379
330
1F
100
AcDbEntity
  8
LAYER-033
  6
Continuous
 62
     4
100
AcDbLine
 10
173.3324820551817
 20
-127.1282434919114
 30
0.0
 11
178.7734964238343
 21
-132.5692578605639
 31
0.0
  0
LINE
  5
37A
330
1F
100
AcDbEntity
  8
LAYER-033
  6
Continuous
 62
     4
100
AcDbLine
 10
175.2164607346747
 20
-125.4766882654717
 30
0.0
 11
180.6979307447652
 21
-130.9581582755622
 31
0.0
  0
LINE
  5
37B
330
1F
100
AcDbEntity
  8
LAYER-033
  6
Continuous
 62
     4
100
AcDbLine
 10
177.2506096497383
 20
-123.9753032746025
 30
0.0
 11
182.8275442068912
 21
-129.5522378317554
 31
0.0
  0
LINE
  5
37C
330
1F
100
AcDbEntity
  8
LAYER-033
  6
Continuous
 62
     4
100
AcDbLine
 10
179.4408100799637
 20
-122.6299697988952
 30
0.0
 11
185.177516382354
 21
-128.366676101
 31
0.0
  0
LINE
  5
37D
330
1F
100
AcDbEntity
  8
LAYER-033
  6
Continuous
 62
     4
100
AcDbLine
 10
181.7970407118501
 20
-121.4506665248489
 30
0.0
 11
187.7756386624106
 21
-127.4292644754094
 31
0.0
  0
LINE
  5
37E
330
1F
100
AcDbEntity
  8
LAYER-033
  6
Continuous
 62
     4
100
AcDbLine
 10
184.3346866089184
 20
-120.4527785159844
 30
0.0
 11
190.6704614956224
 21
-126.7885534026857
 31
0.0
  0
LINE
  5
37F
330
1F
100
AcDbEntity
  8
LAYER-033
  6
Continuous
 62
     4
100
AcDbLine
 10
187.0769215750872
 20
-119.6594795762204
 30
0.0
 11
193.9512399940957
 21
-126.533797995229
 31
0.0
  0
LINE
  5
380
330
1F
100
AcDbEntity
  8
LAYER-033
  6
Continuous
 62
     4
100
AcDbLine
 10
190.0591935374535
 20
-119.106217632654
 30
0.0
 11
197.4866233418401
 21
-126.5336474370406
 31
0.0
  0
LINE
  5
381
330
1F
100
AcDbEntity
  8
LAYER-033
  6
Continuous
 62
     4
100
AcDbLine
 10
193.3383973932425
 20
-118.8498875825103
 30
0.0
 11
201.0221572477728
 21
-126.5336474370406
 31
0.0
  0
LINE
  5
382
330
1F
100
AcDbEntity
  8
LAYER-033
  6
Continuous
 62
     4
100
AcDbLine
 10
196.8658843901312
 20
-118.8418406734662
 30
0.0
 11
204.5576911537056
 21
-126.5336474370406
 31
0.0
  0
LINE
  5
383
330
1F
100
AcDbEntity
  8
LAYER-033
  6
Continuous
 62
     4
100
AcDbLine
 10
200.4014182960639
 20
-118.8418406734662
 30
0.0
 11
208.0932250596383
 21
-126.5336474370406
 31
0.0
  0
LINE
  5
384
330
1F
100
AcDbEntity
  8
LAYER-033
  6
Continuous
 62
     4
100
AcDbLine
 10
203.9369522019966
 20
-118.8418406734662
 30
0.0
 11
211.628758965571
 21
-126.5336474370406
 31
0.0
  0
LINE
  5
385
330
1F
100
AcDbEntity
  8
LAYER-033
  6
Continuous
 62
     4
100
AcDbLine
 10
207.4724861079294
 20
-118.8418406734662
 30
0.0
 11
215.1642928715038
 21
-126.5336474370406
 31
0.0
  0
LINE
  5
386
330
1F
100
AcDbEntity
  8
LAYER-033
  6
Continuous
 62
     4
100
AcDbLine
 10
211.0080200138621
 20
-118.8418406734662
 30
0.0
 11
218.6998267774365
 21
-126.5336474370406
 31
0.0
  0
LINE
  5
387
330
1F
100
AcDbEntity
  8
LAYER-033
  6
Continuous
 62
     4
100
AcDbLine
 10
214.5435539197949
 20
-118.8418406734662
 30
0.0
 11
222.2353606833692
 21
-126.5336474370406
 31
0.0
  0
LINE
  5
388
330
1F
100
AcDbEntity
  8
LAYER-033
  6
Continuous
 62
     4
100
AcDbLine
 10
218.0790878257276
 20
-118.8418406734662
 30
0.0
 11
225.770894589302
 21
-126.5336474370406
 31
0.0
  0
LINE
  5
389
330
1F
100
AcDbEntity
  8
LAYER-033
  6
Continuous
 62
     4
100
AcDbLine
 10
221.6146217316603
 20
-118.8418406734662
 30
0.0
 11
229.3064284952347
 21
-126.5336474370406
 31
0.0
  0
LINE
  5
38A
330
1F
100
AcDbEntity
  8
LAYER-033
  6
Continuous
 62
     4
100
AcDbLine
 10
225.1501556375931
 20
-118.8418406734662
 30
0.0
 11
232.8419624011675
 21
-126.5336474370406
 31
0.0
  0
LINE
  5
38B
330
1F
100
AcDbEntity
  8
LAYER-033
  6
Continuous
 62
     4
100
AcDbLine
 10
228.6856895249957
 20
-118.8418406734662
 30
0.0
 11
236.3774963071002
 21
-126.5336474370406
 31
0.0
  0
LINE
  5
38C
330
1F
100
AcDbEntity
  8
LAYER-033
  6
Continuous
 62
     4
100
AcDbLine
 10
232.2212234494585
 20
-118.8418406734662
 30
0.0
 11
237.0044963280856
 21
-123.6251135520932
 31
0.0
  0
LINE
  5
38D
330
1F
100
AcDbEntity
  8
LAYER-033
  6
Continuous
 62
     4
100
AcDbLine
 10
235.7567573553913
 20
-118.8418406734662
 30
0.0
 11
237.0044963280856
 21
-120.0895796461605
 31
0.0
  0
TEXT
  5
38E
330
1F
100
AcDbEntity
  8
LAYER-033
  6
Continuous
 62
     7
100
AcDbText
 10
-189.9718281110802
 20
-608.6095046642289
 30
0.0
 40
15.0
  1
２００／２２０Ｖ　５０／６０Ｈｚ　４５～５５ｋＷ
  7
STRING_H
 11
-189.9718281110802
 21
-601.1095046642289
 31
0.0
100
AcDbText
 73
     2
  0
TEXT
  5
38F
330
1F
100
AcDbEntity
  8
LAYER-033
  6
Continuous
 62
     7
100
AcDbText
 10
-189.9718281110802
 20
-628.6095046642289
 30
0.0
 40
15.0
  1
質　　量　　　７０㎏
  7
STRING_H
 11
-189.9718281110802
 21
-621.1095046642289
 31
0.0
100
AcDbText
 73
     2
  0
TEXT
  5
390
330
1F
100
AcDbEntity
  8
LAYER-033
  6
Continuous
 62
     7
100
AcDbText
 10
-189.9718281110802
 20
-588.6095046642289
 30
0.0
 40
15.0
  1
ＲＳ－１Ｐ(低　圧)
  7
STRING_H
 11
-189.9718281110802
 21
-581.1095046642289
 31
0.0
100
AcDbText
 73
     2
  0
DIMENSION
  5
3A0
330
1F
100
AcDbEntity
  8
LAYER-035
  6
Continuous
 62
     5
100
AcDbDimension
  2
*D02
 10
9.090373399791986
 20
-494.6642602700668
 30
0.0
 11
-190.909626600208
 21
-494.6642602700668
 31
0.0
 70
   129
  1
<>
 71
     0
 42
0.0
  3
DIO_DIMSTYLE
100
AcDbAlignedDimension
 13
-390.909626600208
 23
-431.3157974773602
 33
0.0
 14
9.090373399791986
 24
-431.3157974773602
 34
0.0
1001
ACAD
1000
DSTYLE
1002
{
1070
    41
1040
4.0
1070
    44
1040
1.0
1070
    42
1040
1.0
1070
     6
1000
_OPEN
1070
     7
1000
_OPEN
1070
   173
1070
     1
1070
   140
1040
10.0
1070
   178
1070
     5
1070
   147
1040
0.5
1002
}
  0
DIMENSION
  5
3AA
330
1F
100
AcDbEntity
  8
LAYER-035
  6
Continuous
 62
     5
100
AcDbDimension
  2
*D13
 10
-30.90962660020807
 20
-469.0017956444202
 30
0.0
 11
-190.909626600208
 21
-469.0017956444202
 31
0.0
 70
   128
  1
<>
 71
     0
 42
0.0
  3
DIO_DIMSTYLE
100
AcDbAlignedDimension
 13
-350.909626600208
 23
-438.8608596539461
 33
0.0
 14
-30.90962660020801
 24
-438.8608596539461
 34
0.0
 50
180.0
100
AcDbRotatedDimension
1001
ACAD
1000
DSTYLE
1002
{
1070
    41
1040
4.0
1070
    44
1040
1.0
1070
    42
1040
1.0
1070
     6
1000
_OPEN
1070
     7
1000
_OPEN
1070
   173
1070
     1
1070
   140
1040
10.0
1070
   178
1070
     5
1070
   147
1040
0.5
1002
}
  0
DIMENSION
  5
3B4
330
1F
100
AcDbEntity
  8
LAYER-035
  6
Continuous
 62
     5
100
AcDbDimension
  2
*D24
 10
67.2778386633172
 20
-431.3157974773602
 30
0.0
 11
67.2778386633172
 21
-263.8157974773602
 31
0.0
 70
   128
  1
<>
 71
     0
 42
0.0
  3
DIO_DIMSTYLE
100
AcDbAlignedDimension
 13
-56.65722363713189
 23
-96.31579747736021
 33
0.0
 14
9.090373399791986
 24
-431.3157974773602
 34
0.0
 50
90.0
100
AcDbRotatedDimension
1001
ACAD
1000
DSTYLE
1002
{
1070
    41
1040
4.0
1070
    44
1040
1.0
1070
    42
1040
1.0
1070
     6
1000
_OPEN
1070
     7
1000
_OPEN
1070
   173
1070
     1
1070
   140
1040
10.0
1070
   178
1070
     5
1070
   147
1040
0.5
1002
}
  0
DIMENSION
  5
3C0
330
1F
100
AcDbEntity
  8
LAYER-035
  6
Continuous
 62
     5
100
AcDbDimension
  2
*D35
 10
67.2778386633172
 20
-96.31579747736021
 30
0.0
 11
67.2778386633172
 21
-51.31579747736021
 31
0.0
 70
   128
  1
25±5
 71
     0
 42
0.0
  3
DIO_DIMSTYLE
100
AcDbAlignedDimension
 13
2.49738675531961
 23
-71.31579747736021
 33
0.0
 14
-56.65722363713189
 24
-96.31579747736021
 34
0.0
 50
90.0
100
AcDbRotatedDimension
1001
ACAD
1000
DSTYLE
1002
{
1070
    41
1040
4.0
1070
    44
1040
1.0
1070
    42
1040
1.0
1070
     6
1000
_OPEN
1070
     7
1000
_OPEN
1070
   173
1070
     1
1070
   140
1040
10.0
1070
   178
1070
     5
1070
   147
1040
0.5
1002
}
  0
DIMENSION
  5
3CA
330
1F
100
AcDbEntity
  8
LAYER-035
  6
Continuous
 62
     5
100
AcDbDimension
  2
*D46
 10
439.0331993721535
 20
-494.6642602700668
 30
0.0
 11
314.0331993721536
 21
-494.6642602700668
 31
0.0
 70
   128
  1
<>
 71
     0
 42
0.0
  3
DIO_DIMSTYLE
100
AcDbAlignedDimension
 13
189.0331993721535
 23
-431.3157974773602
 33
0.0
 14
439.0331993721535
 24
-431.3157974773602
 34
0.0
 50
180.0
100
AcDbRotatedDimension
1001
ACAD
1000
DSTYLE
1002
{
1070
    41
1040
4.0
1070
    44
1040
1.0
1070
    42
1040
1.0
1070
     6
1000
_OPEN
1070
     7
1000
_OPEN
1070
   173
1070
     1
1070
   140
1040
10.0
1070
   178
1070
     5
1070
   147
1040
0.5
1002
}
  0
DIMENSION
  5
3D4
330
1F
100
AcDbEntity
  8
LAYER-035
  6
Continuous
 62
     5
100
AcDbDimension
  2
*D57
 10
419.0331993721535
 20
-469.0017956444202
 30
0.0
 11
314.0331993721535
 21
-469.0017956444202
 31
0.0
 70
   129
  1
<>
 71
     0
 42
0.0
  3
DIO_DIMSTYLE
100
AcDbAlignedDimension
 13
209.0331993721535
 23
-438.0741112886718
 33
0.0
 14
419.0331993721535
 24
-438.0741112886718
 34
0.0
1001
ACAD
1000
DSTYLE
1002
{
1070
    41
1040
4.0
1070
    44
1040
1.0
1070
    42
1040
1.0
1070
     6
1000
_OPEN
1070
     7
1000
_OPEN
1070
   173
1070
     1
1070
   140
1040
10.0
1070
   178
1070
     5
1070
   147
1040
0.5
1002
}
  0
DIMENSION
  5
3DE
330
1F
100
AcDbEntity
  8
LAYER-035
  6
Continuous
 62
     5
100
AcDbDimension
  2
*D68
 10
214.0331993721535
 20
-349.1916716032343
 30
0.0
 11
278.9976360028088
 21
-349.1916716032343
 31
0.0
 70
   129
  1
<>
 71
     0
 42
0.0
  3
DIO_DIMSTYLE
100
AcDbAlignedDimension
 13
414.0331993721535
 23
-238.0371136107181
 33
0.0
 14
214.0331993721535
 24
-238.0371136107181
 34
0.0
1001
ACAD
1000
DSTYLE
1002
{
1070
    41
1040
4.0
1070
    44
1040
1.0
1070
    42
1040
1.0
1070
     6
1000
_OPEN
1070
     7
1000
_OPEN
1070
   173
1070
     1
1070
   140
1040
10.0
1070
   178
1070
     5
1070
   147
1040
0.5
1002
}
  0
DIMENSION
  5
3E8
330
1F
100
AcDbEntity
  8
LAYER-035
  6
Continuous
 62
     5
100
AcDbDimension
  2
*D79
 10
414.0331993721535
 20
-349.1916716032343
 30
0.0
 11
439.0331993721535
 21
-349.1916716032343
 31
0.0
 70
   128
  1
(<>)
 71
     0
 42
0.0
  3
DIO_DIMSTYLE
100
AcDbAlignedDimension
 13
464.0331993721535
 23
-148.8418406734662
 33
0.0
 14
414.0331993721535
 24
-238.0371136107181
 34
0.0
100
AcDbRotatedDimension
1001
ACAD
1000
DSTYLE
1002
{
1070
    41
1040
4.0
1070
    44
1040
1.0
1070
    42
1040
1.0
1070
     6
1000
_OPEN
1070
     7
1000
_OPEN
1070
   173
1070
     1
1070
   140
1040
10.0
1070
   178
1070
     5
1070
   147
1040
0.5
1002
}
  0
DIMENSION
  5
3F2
330
1F
100
AcDbEntity
  8
LAYER-035
  6
Continuous
 62
     5
100
AcDbDimension
  2
*D810
 10
214.0331993721535
 20
-349.1916716032343
 30
0.0
 11
189.0331993721535
 21
-349.1916716032343
 31
0.0
 70
   128
  1
(<>)
 71
     0
 42
0.0
  3
DIO_DIMSTYLE
100
AcDbAlignedDimension
 13
164.0331993721535
 23
-148.8418406734662
 33
0.0
 14
214.0331993721535
 24
-238.0371136107181
 34
0.0
 50
180.0
100
AcDbRotatedDimension
1001
ACAD
1000
DSTYLE
1002
{
1070
    41
1040
4.0
1070
    44
1040
1.0
1070
    42
1040
1.0
1070
     6
1000
_OPEN
1070
     7
1000
_OPEN
1070
   173
1070
     1
1070
   140
1040
10.0
1070
   178
1070
     5
1070
   147
1040
0.5
1002
}
  0
ENDSEC
  0
SECTION
  2
OBJECTS
  0
DICTIONARY
  5
C
330
0
100
AcDbDictionary
281
     1
  3
ACAD_GROUP
350
D
  3
ACAD_LAYOUT
350
1A
  3
ACAD_MLINESTYLE
350
17
  3
ACAD_PLOTSETTINGS
350
19
  3
ACAD_PLOTSTYLENAME
350
E
  0
DICTIONARY
  5
D
102
{ACAD_REACTORS
330
C
102
}
330
C
100
AcDbDictionary
281
     1
  0
DICTIONARY
  5
1A
102
{ACAD_REACTORS
330
C
102
}
330
C
100
AcDbDictionary
281
     1
  3
Model
350
22
  3
ﾚｲｱｳﾄ1
350
1E
  3
ﾚｲｱｳﾄ2
350
26
  0
DICTIONARY
  5
17
102
{ACAD_REACTORS
330
C
102
}
330
C
100
AcDbDictionary
281
     1
  3
Standard
350
18
  0
DICTIONARY
  5
19
102
{ACAD_REACTORS
330
C
102
}
330
C
100
AcDbDictionary
281
     1
  0
ACDBDICTIONARYWDFLT
  5
E
102
{ACAD_REACTORS
330
C
102
}
330
C
100
AcDbDictionary
281
     1
  3
Normal
350
F
100
AcDbDictionaryWithDefault
340
F
  0
LAYOUT
  5
22
102
{ACAD_REACTORS
330
1A
102
}
330
1A
100
AcDbPlotSettings
  1

  2
DWF ePlot.pc3
  4
ANSI_A_(8.50_x_11.00_Inches)
  6

 40
5.793749809265137
 41
17.79375076293945
 42
5.793746948242188
 43
17.79376220703125
 44
215.8999938964844
 45
279.3999938964844
 46
0.0
 47
0.0
 48
0.0
 49
0.0
140
0.0
141
0.0
142
1.0
143
39.26051453979704
 70
 11952
 72
     0
 73
     1
 74
     0
  7
acad.ctb
 75
     0
147
0.0254708837039396
148
-1793.922354682663
149
1.490346453088415
100
AcDbLayout
  1
Model
 70
     1
 71
     0
 10
-1000.0
 20
-750.0
 11
1000.0
 21
750.0
 12
0.0
 22
0.0
 32
0.0
 14
-1000.0
 24
-750.0
 34
0.0
 15
1000.0
 25
750.0
 35
0.0
146
0.0
 13
0.0
 23
0.0
 33
0.0
 16
1.0
 26
0.0
 36
0.0
 17
0.0
 27
1.0
 37
0.0
 76
     0
330
1F
  0
LAYOUT
  5
1E
102
{ACAD_REACTORS
330
1A
102
}
330
1A
100
AcDbPlotSettings
  1

  2
RICOH IPSiO NX700
  4

  6

 40
0.0
 41
0.0
 42
0.0
 43
0.0
 44
0.0
 45
0.0
 46
0.0
 47
0.0
 48
0.0
 49
0.0
140
0.0
141
0.0
142
1.0
143
1.0
 70
   688
 72
     0
 73
     0
 74
     5
  7
acad.ctb
 75
    16
147
1.0
148
0.0
149
0.0
100
AcDbLayout
  1
ﾚｲｱｳﾄ1
 70
     1
 71
     1
 10
-1000.0
 20
-750.0
 11
1000.0
 21
750.0
 12
0.0
 22
0.0
 32
0.0
 14
-1000.0
 24
-750.0
 34
0.0
 15
1000.0
 25
750.0
 35
0.0
146
0.0
 13
0.0
 23
0.0
 33
0.0
 16
1.0
 26
0.0
 36
0.0
 17
0.0
 27
1.0
 37
0.0
 76
     0
330
1B
  0
LAYOUT
  5
26
102
{ACAD_REACTORS
330
1A
102
}
330
1A
100
AcDbPlotSettings
  1

  2
RICOH IPSiO NX700
  4

  6

 40
0.0
 41
0.0
 42
0.0
 43
0.0
 44
0.0
 45
0.0
 46
0.0
 47
0.0
 48
0.0
 49
0.0
140
0.0
141
0.0
142
1.0
143
1.0
 70
   688
 72
     0
 73
     0
 74
     5
  7
acad.ctb
 75
    16
147
1.0
148
0.0
149
0.0
100
AcDbLayout
  1
ﾚｲｱｳﾄ2
 70
     1
 71
     2
 10
0.0
 20
0.0
 11
12.0
 21
9.0
 12
0.0
 22
0.0
 32
0.0
 14
0.0
 24
0.0
 34
0.0
 15
0.0
 25
0.0
 35
0.0
146
0.0
 13
0.0
 23
0.0
 33
0.0
 16
1.0
 26
0.0
 36
0.0
 17
0.0
 27
1.0
 37
0.0
 76
     0
330
23
  0
MLINESTYLE
  5
18
102
{ACAD_REACTORS
330
17
102
}
330
17
100
AcDbMlineStyle
  2
STANDARD
 70
     0
  3

 62
   256
 51
90.0
 52
90.0
 71
     2
 49
0.5
 62
   256
  6
BYLAYER
 49
-0.5
 62
   256
  6
BYLAYER
  0
ACDBPLACEHOLDER
  5
F
102
{ACAD_REACTORS
330
E
102
}
330
E
  0
ENDSEC
  0
EOF
