  0
SECTION
  2
HEADER
  9
$ACADVER
  1
AC1015
  9
$ACADMAINTVER
 70
     6
  9
$DWGCODEPAGE
  3
ANSI_932
  9
$INSBASE
 10
0.0
 20
0.0
 30
0.0
  9
$EXTMIN
 10
-1000.0
 20
-750.0
 30
0.0
  9
$EXTMAX
 10
1000.0
 20
750.0
 30
0.0
  9
$LIMMIN
 10
-1000.0
 20
-750.0
  9
$LIMMAX
 10
1000.0
 20
750.0
  9
$ORTHOMODE
 70
     0
  9
$REGENMODE
 70
     1
  9
$FILLMODE
 70
     1
  9
$QTEXTMODE
 70
     0
  9
$MIRRTEXT
 70
     1
  9
$LTSCALE
 40
4.0
  9
$ATTMODE
 70
     1
  9
$TEXTSIZE
 40
2.5
  9
$TRACEWID
 40
1.0
  9
$TEXTSTYLE
  7
Standard
  9
$CLAYER
  8
0
  9
$CELTYPE
  6
ByLayer
  9
$CECOLOR
 62
   256
  9
$CELTSCALE
 40
1.0
  9
$DISPSILH
 70
     0
  9
$DIMSCALE
 40
1.0
  9
$DIMASZ
 40
4.0
  9
$DIMEXO
 40
1.0
  9
$DIMDLI
 40
3.75
  9
$DIMRND
 40
0.1
  9
$DIMDLE
 40
0.0
  9
$DIMEXE
 40
1.0
  9
$DIMTP
 40
0.0
  9
$DIMTM
 40
0.0
  9
$DIMTXT
 40
2.5
  9
$DIMCEN
 40
2.5
  9
$DIMTSZ
 40
0.0
  9
$DIMTOL
 70
     0
  9
$DIMLIM
 70
     0
  9
$DIMTIH
 70
     0
  9
$DIMTOH
 70
     0
  9
$DIMSE1
 70
     0
  9
$DIMSE2
 70
     0
  9
$DIMTAD
 70
     1
  9
$DIMZIN
 70
     8
  9
$DIMBLK
  1

  9
$DIMASO
 70
     1
  9
$DIMSHO
 70
     1
  9
$DIMPOST
  1

  9
$DIMAPOST
  1

  9
$DIMALT
 70
     0
  9
$DIMALTD
 70
     3
  9
$DIMALTF
 40
0.03937007874016
  9
$DIMLFAC
 40
1.0
  9
$DIMTOFL
 70
     1
  9
$DIMTVP
 40
0.0
  9
$DIMTIX
 70
     0
  9
$DIMSOXD
 70
     0
  9
$DIMSAH
 70
     1
  9
$DIMBLK1
  1

  9
$DIMBLK2
  1

  9
$DIMSTYLE
  2
ISO-25
  9
$DIMCLRD
 70
     0
  9
$DIMCLRE
 70
     0
  9
$DIMCLRT
 70
     0
  9
$DIMTFAC
 40
1.0
  9
$DIMGAP
 40
0.5
  9
$DIMJUST
 70
     0
  9
$DIMSD1
 70
     0
  9
$DIMSD2
 70
     0
  9
$DIMTOLJ
 70
     0
  9
$DIMTZIN
 70
     8
  9
$DIMALTZ
 70
     0
  9
$DIMALTTZ
 70
     0
  9
$DIMUPT
 70
     1
  9
$DIMDEC
 70
     1
  9
$DIMTDEC
 70
     2
  9
$DIMALTU
 70
     2
  9
$DIMALTTD
 70
     3
  9
$DIMTXSTY
  7
Standard
  9
$DIMAUNIT
 70
     0
  9
$DIMADEC
 70
     1
  9
$DIMALTRND
 40
0.0
  9
$DIMAZIN
 70
     2
  9
$DIMDSEP
 70
    46
  9
$DIMATFIT
 70
     0
  9
$DIMFRAC
 70
     0
  9
$DIMLDRBLK
  1

  9
$DIMLUNIT
 70
     2
  9
$DIMLWD
 70
    -2
  9
$DIMLWE
 70
    -2
  9
$DIMTMOVE
 70
     0
  9
$LUNITS
 70
     2
  9
$LUPREC
 70
     4
  9
$SKETCHINC
 40
1.0
  9
$FILLETRAD
 40
10.0
  9
$AUNITS
 70
     0
  9
$AUPREC
 70
     0
  9
$MENU
  1
.
  9
$ELEVATION
 40
0.0
  9
$PELEVATION
 40
0.0
  9
$THICKNESS
 40
0.0
  9
$LIMCHECK
 70
     0
  9
$CHAMFERA
 40
10.0
  9
$CHAMFERB
 40
10.0
  9
$CHAMFERC
 40
20.0
  9
$CHAMFERD
 40
0.0
  9
$SKPOLY
 70
     0
  9
$TDCREATE
 40
2455091.0
  9
$TDUCREATE
 40
2451562.87528772
  9
$TDUPDATE
 40
2455505.0
  9
$TDUUPDATE
 40
2452026.917654526
  9
$TDINDWG
 40
0.0010008681
  9
$TDUSRTIMER
 40
0.0009680671
  9
$USRTIMER
 70
     1
  9
$ANGBASE
 50
0.0
  9
$ANGDIR
 70
     0
  9
$PDMODE
 70
     0
  9
$PDSIZE
 40
0.0
  9
$PLINEWID
 40
0.0
  9
$SPLFRAME
 70
     0
  9
$SPLINETYPE
 70
     6
  9
$SPLINESEGS
 70
     8
  9
$HANDSEED
  5
3FB
  9
$SURFTAB1
 70
     6
  9
$SURFTAB2
 70
     6
  9
$SURFTYPE
 70
     6
  9
$SURFU
 70
     6
  9
$SURFV
 70
     6
  9
$UCSBASE
  2

  9
$UCSNAME
  2

  9
$UCSORG
 10
0.0
 20
0.0
 30
0.0
  9
$UCSXDIR
 10
1.0
 20
0.0
 30
0.0
  9
$UCSYDIR
 10
0.0
 20
1.0
 30
0.0
  9
$UCSORTHOREF
  2

  9
$UCSORTHOVIEW
 70
     0
  9
$UCSORGTOP
 10
0.0
 20
0.0
 30
0.0
  9
$UCSORGBOTTOM
 10
0.0
 20
0.0
 30
0.0
  9
$UCSORGLEFT
 10
0.0
 20
0.0
 30
0.0
  9
$UCSORGRIGHT
 10
0.0
 20
0.0
 30
0.0
  9
$UCSORGFRONT
 10
0.0
 20
0.0
 30
0.0
  9
$UCSORGBACK
 10
0.0
 20
0.0
 30
0.0
  9
$PUCSBASE
  2

  9
$PUCSNAME
  2

  9
$PUCSORG
 10
0.0
 20
0.0
 30
0.0
  9
$PUCSXDIR
 10
1.0
 20
0.0
 30
0.0
  9
$PUCSYDIR
 10
0.0
 20
1.0
 30
0.0
  9
$PUCSORTHOREF
  2

  9
$PUCSORTHOVIEW
 70
     0
  9
$PUCSORGTOP
 10
0.0
 20
0.0
 30
0.0
  9
$PUCSORGBOTTOM
 10
0.0
 20
0.0
 30
0.0
  9
$PUCSORGLEFT
 10
0.0
 20
0.0
 30
0.0
  9
$PUCSORGRIGHT
 10
0.0
 20
0.0
 30
0.0
  9
$PUCSORGFRONT
 10
0.0
 20
0.0
 30
0.0
  9
$PUCSORGBACK
 10
0.0
 20
0.0
 30
0.0
  9
$USERI1
 70
     0
  9
$USERI2
 70
     0
  9
$USERI3
 70
     0
  9
$USERI4
 70
     0
  9
$USERI5
 70
     0
  9
$USERR1
 40
0.0
  9
$USERR2
 40
0.0
  9
$USERR3
 40
0.0
  9
$USERR4
 40
0.0
  9
$USERR5
 40
0.0
  9
$WORLDVIEW
 70
     1
  9
$SHADEDGE
 70
     3
  9
$SHADEDIF
 70
    70
  9
$TILEMODE
 70
     1
  9
$MAXACTVP
 70
    64
  9
$PINSBASE
 10
0.0
 20
0.0
 30
0.0
  9
$PLIMCHECK
 70
     0
  9
$PEXTMIN
 10
-1000.0
 20
-750.0
 30
0.0
  9
$PEXTMAX
 10
1000.0
 20
750.0
 30
0.0
  9
$PLIMMIN
 10
-1000.0
 20
-750.0
  9
$PLIMMAX
 10
1000.0
 20
750.0
  9
$UNITMODE
 70
     0
  9
$VISRETAIN
 70
     1
  9
$PLINEGEN
 70
     0
  9
$PSLTSCALE
 70
     1
  9
$TREEDEPTH
 70
  3020
  9
$CMLSTYLE
  2
Standard
  9
$CMLJUST
 70
     0
  9
$CMLSCALE
 40
20.0
  9
$PROXYGRAPHICS
 70
     1
  9
$MEASUREMENT
 70
     1
  9
$CELWEIGHT
370
    -1
  9
$ENDCAPS
280
     0
  9
$JOINSTYLE
280
     0
  9
$LWDISPLAY
290
     0
  9
$INSUNITS
 70
     4
  9
$HYPERLINKBASE
  1

  9
$STYLESHEET
  1

  9
$XEDIT
290
     1
  9
$CEPSNTYPE
380
     0
  9
$PSTYLEMODE
290
     1
  9
$FINGERPRINTGUID
  2
{B6423330-CE35-11D3-AA43-00E0292263AD}
  9
$VERSIONGUID
  2
{EAA0F794-BAE8-4B09-85E0-65C527BE2B8E}
  9
$EXTNAMES
290
     1
  9
$PSVPSCALE
 40
0.0
  9
$OLESTARTUP
290
     0
  0
ENDSEC
  0
SECTION
  2
CLASSES
  0
CLASS
  1
ACDBDICTIONARYWDFLT
  2
AcDbDictionaryWithDefault
  3
ObjectDBX Classes
 90
        0
280
     0
281
     0
  0
CLASS
  1
ACDBPLACEHOLDER
  2
AcDbPlaceHolder
  3
ObjectDBX Classes
 90
        0
280
     0
281
     0
  0
CLASS
  1
LAYOUT
  2
AcDbLayout
  3
ObjectDBX Classes
 90
        0
280
     0
281
     0
  0
ENDSEC
  0
SECTION
  2
TABLES
  0
TABLE
  2
VPORT
  5
8
330
0
100
AcDbSymbolTable
 70
     3
  0
VPORT
  5
30
330
8
100
AcDbSymbolTableRecord
100
AcDbViewportTableRecord
  2
*Active
 70
     0
 10
0.0
 20
0.0
 11
1.0
 21
1.0
 12
259.0560661764706
 22
148.5
 13
0.0
 23
0.0
 14
10.0
 24
10.0
 15
10.0
 25
10.0
 16
0.0
 26
0.0
 36
1.0
 17
0.0
 27
0.0
 37
0.0
 40
297.1173501144164
 41
1.268382352941176
 42
50.0
 43
0.0
 44
0.0
 50
0.0
 51
0.0
 71
     0
 72
   100
 73
     1
 74
     3
 75
     0
 76
     0
 77
     0
 78
     0
281
     0
 65
     1
110
0.0
120
0.0
130
0.0
111
1.0
121
0.0
131
0.0
112
0.0
122
1.0
132
0.0
 79
     0
146
0.0
  0
ENDTAB
  0
TABLE
  2
LTYPE
  5
5
330
0
100
AcDbSymbolTable
 70
    26
  0
LTYPE
  5
14
330
5
100
AcDbSymbolTableRecord
100
AcDbLinetypeTableRecord
  2
ByBlock
 70
     0
  3

 72
    65
 73
     0
 40
0.0
  0
LTYPE
  5
15
330
5
100
AcDbSymbolTableRecord
100
AcDbLinetypeTableRecord
  2
ByLayer
 70
     0
  3

 72
    65
 73
     0
 40
0.0
  0
LTYPE
  5
16
330
5
100
AcDbSymbolTableRecord
100
AcDbLinetypeTableRecord
  2
Continuous
 70
     0
  3
Solid line
 72
    65
 73
     0
 40
0.0
  0
LTYPE
  5
37
330
5
100
AcDbSymbolTableRecord
100
AcDbLinetypeTableRecord
  2
BORDER
 70
     0
  3
 __ __ . __ __ . __ __ . __ __ . __ __ . __ __
 72
    65
 73
     6
 40
1.75
 49
0.5
 74
     0
 49
-0.25
 74
     0
 49
0.5
 74
     0
 49
-0.25
 74
     0
 49
0.0
 74
     0
 49
-0.25
 74
     0
  0
LTYPE
  5
38
330
5
100
AcDbSymbolTableRecord
100
AcDbLinetypeTableRecord
  2
BORDER2
 70
     0
  3
__.__.__.__.__.__.__.__.__.__.__.__.__.__.__
 72
    65
 73
     6
 40
0.875
 49
0.25
 74
     0
 49
-0.125
 74
     0
 49
0.25
 74
     0
 49
-0.125
 74
     0
 49
0.0
 74
     0
 49
-0.125
 74
     0
  0
LTYPE
  5
39
330
5
100
AcDbSymbolTableRecord
100
AcDbLinetypeTableRecord
  2
BORDERX2
 70
     0
  3
____  ____  .  ____  ____  .  ____  ____  .
 72
    65
 73
     6
 40
3.5
 49
1.0
 74
     0
 49
-0.5
 74
     0
 49
1.0
 74
     0
 49
-0.5
 74
     0
 49
0.0
 74
     0
 49
-0.5
 74
     0
  0
LTYPE
  5
3A
330
5
100
AcDbSymbolTableRecord
100
AcDbLinetypeTableRecord
  2
CENTER
 70
     0
  3
____ _ ____ _ ____ _ ____ _ ____ _ ____ _ ____
 72
    65
 73
     4
 40
2.0
 49
1.25
 74
     0
 49
-0.25
 74
     0
 49
0.25
 74
     0
 49
-0.25
 74
     0
  0
LTYPE
  5
3B
330
5
100
AcDbSymbolTableRecord
100
AcDbLinetypeTableRecord
  2
CENTER2
 70
     0
  3
___ _ ___ _ ___ _ ___ _ ___ _ ___ _ ___ _ ___ 
 72
    65
 73
     4
 40
1.125
 49
0.75
 74
     0
 49
-0.125
 74
     0
 49
0.125
 74
     0
 49
-0.125
 74
     0
  0
LTYPE
  5
3C
330
5
100
AcDbSymbolTableRecord
100
AcDbLinetypeTableRecord
  2
CENTERX2
 70
     0
  3
________  __  ________  __  ________  __
 72
    65
 73
     4
 40
4.0
 49
2.5
 74
     0
 49
-0.5
 74
     0
 49
0.5
 74
     0
 49
-0.5
 74
     0
  0
LTYPE
  5
3D
330
5
100
AcDbSymbolTableRecord
100
AcDbLinetypeTableRecord
  2
DASHDOT
 70
     0
  3
__ . __ . __ . __ . __ . __ . __ . __ . __ .
 72
    65
 73
     4
 40
1.0
 49
0.5
 74
     0
 49
-0.25
 74
     0
 49
0.0
 74
     0
 49
-0.25
 74
     0
  0
LTYPE
  5
3E
330
5
100
AcDbSymbolTableRecord
100
AcDbLinetypeTableRecord
  2
DASHDOT2
 70
     0
  3
_._._._._._._._._._._._._._._._._._._._._._._.
 72
    65
 73
     4
 40
0.5
 49
0.25
 74
     0
 49
-0.125
 74
     0
 49
0.0
 74
     0
 49
-0.125
 74
     0
  0
LTYPE
  5
3F
330
5
100
AcDbSymbolTableRecord
100
AcDbLinetypeTableRecord
  2
DASHDOTX2
 70
     0
  3
____  .  ____  .  ____  .  ____  .  ____  .
 72
    65
 73
     4
 40
2.0
 49
1.0
 74
     0
 49
-0.5
 74
     0
 49
0.0
 74
     0
 49
-0.5
 74
     0
  0
LTYPE
  5
40
330
5
100
AcDbSymbolTableRecord
100
AcDbLinetypeTableRecord
  2
DASHED
 70
     0
  3
__ __ __ __ __ __ __ __ __ __ __ __ __ __ __
 72
    65
 73
     2
 40
0.75
 49
0.5
 74
     0
 49
-0.25
 74
     0
  0
LTYPE
  5
41
330
5
100
AcDbSymbolTableRecord
100
AcDbLinetypeTableRecord
  2
DASHED2
 70
     0
  3
_ _ _ _ _ _ _ _ _ _ _ _ _ _ _ _ _ _ _ _ _ _ _
 72
    65
 73
     2
 40
0.375
 49
0.25
 74
     0
 49
-0.125
 74
     0
  0
LTYPE
  5
42
330
5
100
AcDbSymbolTableRecord
100
AcDbLinetypeTableRecord
  2
DASHEDX2
 70
     0
  3
____  ____  ____  ____  ____  ____  ____  ____
 72
    65
 73
     2
 40
1.5
 49
1.0
 74
     0
 49
-0.5
 74
     0
  0
LTYPE
  5
43
330
5
100
AcDbSymbolTableRecord
100
AcDbLinetypeTableRecord
  2
DIVIDE
 70
     0
  3
____ . . ____ . . ____ . . ____ . . ____ . .
 72
    65
 73
     6
 40
1.25
 49
0.5
 74
     0
 49
-0.25
 74
     0
 49
0.0
 74
     0
 49
-0.25
 74
     0
 49
0.0
 74
     0
 49
-0.25
 74
     0
  0
LTYPE
  5
44
330
5
100
AcDbSymbolTableRecord
100
AcDbLinetypeTableRecord
  2
DIVIDE2
 70
     0
  3
__..__..__..__..__..__..__..__..__..__..__..__
 72
    65
 73
     6
 40
0.625
 49
0.25
 74
     0
 49
-0.125
 74
     0
 49
0.0
 74
     0
 49
-0.125
 74
     0
 49
0.0
 74
     0
 49
-0.125
 74
     0
  0
LTYPE
  5
45
330
5
100
AcDbSymbolTableRecord
100
AcDbLinetypeTableRecord
  2
DIVIDEX2
 70
     0
  3
________  .  .  ________  .  .  ________  .  .
 72
    65
 73
     6
 40
2.5
 49
1.0
 74
     0
 49
-0.5
 74
     0
 49
0.0
 74
     0
 49
-0.5
 74
     0
 49
0.0
 74
     0
 49
-0.5
 74
     0
  0
LTYPE
  5
46
330
5
100
AcDbSymbolTableRecord
100
AcDbLinetypeTableRecord
  2
DOT
 70
     0
  3
. . . . . . . . . . . . . . . . . . . . . . .
 72
    65
 73
     2
 40
0.25
 49
0.0
 74
     0
 49
-0.25
 74
     0
  0
LTYPE
  5
47
330
5
100
AcDbSymbolTableRecord
100
AcDbLinetypeTableRecord
  2
DOT2
 70
     0
  3
..............................................
 72
    65
 73
     2
 40
0.125
 49
0.0
 74
     0
 49
-0.125
 74
     0
  0
LTYPE
  5
48
330
5
100
AcDbSymbolTableRecord
100
AcDbLinetypeTableRecord
  2
DOTX2
 70
     0
  3
.  .  .  .  .  .  .  .  .  .  .  .  .  .  .  .
 72
    65
 73
     2
 40
0.5
 49
0.0
 74
     0
 49
-0.5
 74
     0
  0
LTYPE
  5
49
330
5
100
AcDbSymbolTableRecord
100
AcDbLinetypeTableRecord
  2
HIDDEN
 70
     0
  3
__ __ __ __ __ __ __ __ __ __ __ __ __ __ __
 72
    65
 73
     2
 40
0.375
 49
0.25
 74
     0
 49
-0.125
 74
     0
  0
LTYPE
  5
4A
330
5
100
AcDbSymbolTableRecord
100
AcDbLinetypeTableRecord
  2
HIDDEN2
 70
     0
  3
_ _ _ _ _ _ _ _ _ _ _ _ _ _ _ _ _ _ _ _ _ _ _
 72
    65
 73
     2
 40
0.1875
 49
0.125
 74
     0
 49
-0.0625
 74
     0
  0
LTYPE
  5
4B
330
5
100
AcDbSymbolTableRecord
100
AcDbLinetypeTableRecord
  2
HIDDENX2
 70
     0
  3
____ ____ ____ ____ ____ ____ ____ ____ ____
 72
    65
 73
     2
 40
0.75
 49
0.5
 74
     0
 49
-0.25
 74
     0
  0
LTYPE
  5
4C
330
5
100
AcDbSymbolTableRecord
100
AcDbLinetypeTableRecord
  2
PHANTOM
 70
     0
  3
______  __  __  ______  __  __  ______  __
 72
    65
 73
     6
 40
2.5
 49
1.25
 74
     0
 49
-0.25
 74
     0
 49
0.25
 74
     0
 49
-0.25
 74
     0
 49
0.25
 74
     0
 49
-0.25
 74
     0
  0
LTYPE
  5
4D
330
5
100
AcDbSymbolTableRecord
100
AcDbLinetypeTableRecord
  2
PHANTOM2
 70
     0
  3
___ _ _ ___ _ _ ___ _ _ ___ _ _ ___ _ _ ___ _
 72
    65
 73
     6
 40
1.25
 49
0.625
 74
     0
 49
-0.125
 74
     0
 49
0.125
 74
     0
 49
-0.125
 74
     0
 49
0.125
 74
     0
 49
-0.125
 74
     0
  0
LTYPE
  5
4E
330
5
100
AcDbSymbolTableRecord
100
AcDbLinetypeTableRecord
  2
PHANTOMX2
 70
     0
  3
____________    ____    ____    ____________
 72
    65
 73
     6
 40
5.0
 49
2.5
 74
     0
 49
-0.5
 74
     0
 49
0.5
 74
     0
 49
-0.5
 74
     0
 49
0.5
 74
     0
 49
-0.5
 74
     0
  0
LTYPE
  5
4F
330
5
100
AcDbSymbolTableRecord
100
AcDbLinetypeTableRecord
  2
CONTINUOUS2
 70
     0
  3
Solid line
 72
    65
 73
     0
 40
0.0
  0
ENDTAB
  0
TABLE
  2
LAYER
  5
2
330
0
100
AcDbSymbolTable
 70
   258
  0
LAYER
  5
10
330
2
100
AcDbSymbolTableRecord
100
AcDbLayerTableRecord
  2
0
 70
     0
 62
     7
  6
Continuous
370
    -3
390
F
  0
LAYER
  5
50
330
2
100
AcDbSymbolTableRecord
100
AcDbLayerTableRecord
  2
LAYER-001
 70
     0
 62
     7
  6
Continuous
370
    -3
390
F
  0
LAYER
  5
51
330
2
100
AcDbSymbolTableRecord
100
AcDbLayerTableRecord
  2
LAYER-002
 70
     0
 62
     7
  6
Continuous
370
    -3
390
F
  0
LAYER
  5
52
330
2
100
AcDbSymbolTableRecord
100
AcDbLayerTableRecord
  2
LAYER-003
 70
     0
 62
     7
  6
Continuous
370
    -3
390
F
  0
LAYER
  5
53
330
2
100
AcDbSymbolTableRecord
100
AcDbLayerTableRecord
  2
LAYER-004
 70
     0
 62
     7
  6
Continuous
370
    -3
390
F
  0
LAYER
  5
54
330
2
100
AcDbSymbolTableRecord
100
AcDbLayerTableRecord
  2
LAYER-005
 70
     0
 62
     7
  6
Continuous
370
    -3
390
F
  0
LAYER
  5
55
330
2
100
AcDbSymbolTableRecord
100
AcDbLayerTableRecord
  2
LAYER-006
 70
     0
 62
     7
  6
Continuous
370
    -3
390
F
  0
LAYER
  5
56
330
2
100
AcDbSymbolTableRecord
100
AcDbLayerTableRecord
  2
LAYER-007
 70
     0
 62
     7
  6
Continuous
370
    -3
390
F
  0
LAYER
  5
57
330
2
100
AcDbSymbolTableRecord
100
AcDbLayerTableRecord
  2
LAYER-008
 70
     0
 62
     7
  6
Continuous
370
    -3
390
F
  0
LAYER
  5
58
330
2
100
AcDbSymbolTableRecord
100
AcDbLayerTableRecord
  2
LAYER-009
 70
     0
 62
     7
  6
Continuous
370
    -3
390
F
  0
LAYER
  5
59
330
2
100
AcDbSymbolTableRecord
100
AcDbLayerTableRecord
  2
LAYER-010
 70
     0
 62
     7
  6
Continuous
370
    -3
390
F
  0
LAYER
  5
5A
330
2
100
AcDbSymbolTableRecord
100
AcDbLayerTableRecord
  2
LAYER-011
 70
     0
 62
     7
  6
Continuous
370
    -3
390
F
  0
LAYER
  5
5B
330
2
100
AcDbSymbolTableRecord
100
AcDbLayerTableRecord
  2
LAYER-012
 70
     0
 62
     7
  6
Continuous
370
    -3
390
F
  0
LAYER
  5
5C
330
2
100
AcDbSymbolTableRecord
100
AcDbLayerTableRecord
  2
LAYER-013
 70
     0
 62
     7
  6
Continuous
370
    -3
390
F
  0
LAYER
  5
5D
330
2
100
AcDbSymbolTableRecord
100
AcDbLayerTableRecord
  2
LAYER-014
 70
     0
 62
     7
  6
Continuous
370
    -3
390
F
  0
LAYER
  5
5E
330
2
100
AcDbSymbolTableRecord
100
AcDbLayerTableRecord
  2
LAYER-015
 70
     0
 62
    -7
  6
Continuous
370
    -3
390
F
  0
LAYER
  5
5F
330
2
100
AcDbSymbolTableRecord
100
AcDbLayerTableRecord
  2
LAYER-016
 70
     0
 62
     4
  6
Continuous
370
    -3
390
F
  0
LAYER
  5
60
330
2
100
AcDbSymbolTableRecord
100
AcDbLayerTableRecord
  2
LAYER-017
 70
     0
 62
     7
  6
Continuous
370
    -3
390
F
  0
LAYER
  5
61
330
2
100
AcDbSymbolTableRecord
100
AcDbLayerTableRecord
  2
LAYER-018
 70
     0
 62
     2
  6
Continuous
370
    -3
390
F
  0
LAYER
  5
62
330
2
100
AcDbSymbolTableRecord
100
AcDbLayerTableRecord
  2
LAYER-019
 70
     0
 62
     3
  6
Continuous
370
    -3
390
F
  0
LAYER
  5
63
330
2
100
AcDbSymbolTableRecord
100
AcDbLayerTableRecord
  2
LAYER-020
 70
     0
 62
     2
  6
Continuous
370
    -3
390
F
  0
LAYER
  5
64
330
2
100
AcDbSymbolTableRecord
100
AcDbLayerTableRecord
  2
LAYER-021
 70
     0
 62
     7
  6
Continuous
370
    -3
390
F
  0
LAYER
  5
65
330
2
100
AcDbSymbolTableRecord
100
AcDbLayerTableRecord
  2
LAYER-022
 70
     0
 62
     4
  6
Continuous
370
    -3
390
F
  0
LAYER
  5
66
330
2
100
AcDbSymbolTableRecord
100
AcDbLayerTableRecord
  2
LAYER-023
 70
     0
 62
     4
  6
Continuous
370
    -3
390
F
  0
LAYER
  5
67
330
2
100
AcDbSymbolTableRecord
100
AcDbLayerTableRecord
  2
LAYER-024
 70
     0
 62
     7
  6
Continuous
370
    -3
390
F
  0
LAYER
  5
68
330
2
100
AcDbSymbolTableRecord
100
AcDbLayerTableRecord
  2
LAYER-025
 70
     0
 62
     7
  6
Continuous
370
    -3
390
F
  0
LAYER
  5
69
330
2
100
AcDbSymbolTableRecord
100
AcDbLayerTableRecord
  2
LAYER-026
 70
     0
 62
    -7
  6
Continuous
370
    -3
390
F
  0
LAYER
  5
6A
330
2
100
AcDbSymbolTableRecord
100
AcDbLayerTableRecord
  2
LAYER-027
 70
     0
 62
     7
  6
Continuous
370
    -3
390
F
  0
LAYER
  5
6B
330
2
100
AcDbSymbolTableRecord
100
AcDbLayerTableRecord
  2
LAYER-028
 70
     0
 62
     7
  6
Continuous
370
    -3
390
F
  0
LAYER
  5
6C
330
2
100
AcDbSymbolTableRecord
100
AcDbLayerTableRecord
  2
LAYER-029
 70
     0
 62
     7
  6
Continuous
370
    -3
390
F
  0
LAYER
  5
6D
330
2
100
AcDbSymbolTableRecord
100
AcDbLayerTableRecord
  2
LAYER-030
 70
     0
 62
     2
  6
Continuous
370
    -3
390
F
  0
LAYER
  5
6E
330
2
100
AcDbSymbolTableRecord
100
AcDbLayerTableRecord
  2
LAYER-031
 70
     0
 62
     7
  6
Continuous
370
    -3
390
F
  0
LAYER
  5
6F
330
2
100
AcDbSymbolTableRecord
100
AcDbLayerTableRecord
  2
LAYER-032
 70
     0
 62
     2
  6
Continuous
370
    -3
390
F
  0
LAYER
  5
70
330
2
100
AcDbSymbolTableRecord
100
AcDbLayerTableRecord
  2
LAYER-033
 70
     0
 62
     7
  6
Continuous
370
    -3
390
F
  0
LAYER
  5
71
330
2
100
AcDbSymbolTableRecord
100
AcDbLayerTableRecord
  2
LAYER-034
 70
     0
 62
     7
  6
Continuous
370
    -3
390
F
  0
LAYER
  5
72
330
2
100
AcDbSymbolTableRecord
100
AcDbLayerTableRecord
  2
LAYER-035
 70
     0
 62
     3
  6
Continuous
370
    -3
390
F
  0
LAYER
  5
73
330
2
100
AcDbSymbolTableRecord
100
AcDbLayerTableRecord
  2
LAYER-036
 70
     0
 62
     2
  6
Continuous
370
    -3
390
F
  0
LAYER
  5
74
330
2
100
AcDbSymbolTableRecord
100
AcDbLayerTableRecord
  2
LAYER-037
 70
     0
 62
     7
  6
Continuous
370
    -3
390
F
  0
LAYER
  5
75
330
2
100
AcDbSymbolTableRecord
100
AcDbLayerTableRecord
  2
LAYER-038
 70
     0
 62
     7
  6
Continuous
370
    -3
390
F
  0
LAYER
  5
76
330
2
100
AcDbSymbolTableRecord
100
AcDbLayerTableRecord
  2
LAYER-039
 70
     0
 62
     7
  6
Continuous
370
    -3
390
F
  0
LAYER
  5
77
330
2
100
AcDbSymbolTableRecord
100
AcDbLayerTableRecord
  2
LAYER-040
 70
     0
 62
     7
  6
Continuous
370
    -3
390
F
  0
LAYER
  5
78
330
2
100
AcDbSymbolTableRecord
100
AcDbLayerTableRecord
  2
LAYER-041
 70
     0
 62
     7
  6
Continuous
370
    -3
390
F
  0
LAYER
  5
79
330
2
100
AcDbSymbolTableRecord
100
AcDbLayerTableRecord
  2
LAYER-042
 70
     0
 62
     7
  6
Continuous
370
    -3
390
F
  0
LAYER
  5
7A
330
2
100
AcDbSymbolTableRecord
100
AcDbLayerTableRecord
  2
LAYER-043
 70
     0
 62
     7
  6
Continuous
370
    -3
390
F
  0
LAYER
  5
7B
330
2
100
AcDbSymbolTableRecord
100
AcDbLayerTableRecord
  2
LAYER-044
 70
     0
 62
     7
  6
Continuous
370
    -3
390
F
  0
LAYER
  5
7C
330
2
100
AcDbSymbolTableRecord
100
AcDbLayerTableRecord
  2
LAYER-045
 70
     0
 62
     7
  6
Continuous
370
    -3
390
F
  0
LAYER
  5
7D
330
2
100
AcDbSymbolTableRecord
100
AcDbLayerTableRecord
  2
LAYER-046
 70
     0
 62
     7
  6
Continuous
370
    -3
390
F
  0
LAYER
  5
7E
330
2
100
AcDbSymbolTableRecord
100
AcDbLayerTableRecord
  2
LAYER-047
 70
     0
 62
     7
  6
Continuous
370
    -3
390
F
  0
LAYER
  5
7F
330
2
100
AcDbSymbolTableRecord
100
AcDbLayerTableRecord
  2
LAYER-048
 70
     0
 62
     2
  6
Continuous
370
    -3
390
F
  0
LAYER
  5
80
330
2
100
AcDbSymbolTableRecord
100
AcDbLayerTableRecord
  2
LAYER-049
 70
     0
 62
     3
  6
Continuous
370
    -3
390
F
  0
LAYER
  5
81
330
2
100
AcDbSymbolTableRecord
100
AcDbLayerTableRecord
  2
LAYER-050
 70
     0
 62
     7
  6
Continuous
370
    -3
390
F
  0
LAYER
  5
82
330
2
100
AcDbSymbolTableRecord
100
AcDbLayerTableRecord
  2
LAYER-051
 70
     0
 62
     2
  6
Continuous
370
    -3
390
F
  0
LAYER
  5
83
330
2
100
AcDbSymbolTableRecord
100
AcDbLayerTableRecord
  2
LAYER-052
 70
     0
 62
     7
  6
Continuous
370
    -3
390
F
  0
LAYER
  5
84
330
2
100
AcDbSymbolTableRecord
100
AcDbLayerTableRecord
  2
LAYER-053
 70
     0
 62
     7
  6
Continuous
370
    -3
390
F
  0
LAYER
  5
85
330
2
100
AcDbSymbolTableRecord
100
AcDbLayerTableRecord
  2
LAYER-054
 70
     0
 62
     7
  6
Continuous
370
    -3
390
F
  0
LAYER
  5
86
330
2
100
AcDbSymbolTableRecord
100
AcDbLayerTableRecord
  2
LAYER-055
 70
     0
 62
     7
  6
Continuous
370
    -3
390
F
  0
LAYER
  5
87
330
2
100
AcDbSymbolTableRecord
100
AcDbLayerTableRecord
  2
LAYER-056
 70
     0
 62
     7
  6
Continuous
370
    -3
390
F
  0
LAYER
  5
88
330
2
100
AcDbSymbolTableRecord
100
AcDbLayerTableRecord
  2
LAYER-057
 70
     0
 62
     7
  6
Continuous
370
    -3
390
F
  0
LAYER
  5
89
330
2
100
AcDbSymbolTableRecord
100
AcDbLayerTableRecord
  2
LAYER-058
 70
     0
 62
     7
  6
Continuous
370
    -3
390
F
  0
LAYER
  5
8A
330
2
100
AcDbSymbolTableRecord
100
AcDbLayerTableRecord
  2
LAYER-059
 70
     0
 62
     7
  6
Continuous
370
    -3
390
F
  0
LAYER
  5
8B
330
2
100
AcDbSymbolTableRecord
100
AcDbLayerTableRecord
  2
LAYER-060
 70
     0
 62
     7
  6
Continuous
370
    -3
390
F
  0
LAYER
  5
8C
330
2
100
AcDbSymbolTableRecord
100
AcDbLayerTableRecord
  2
LAYER-061
 70
     0
 62
     7
  6
Continuous
370
    -3
390
F
  0
LAYER
  5
8D
330
2
100
AcDbSymbolTableRecord
100
AcDbLayerTableRecord
  2
LAYER-062
 70
     0
 62
     7
  6
Continuous
370
    -3
390
F
  0
LAYER
  5
8E
330
2
100
AcDbSymbolTableRecord
100
AcDbLayerTableRecord
  2
LAYER-063
 70
     0
 62
     7
  6
Continuous
370
    -3
390
F
  0
LAYER
  5
8F
330
2
100
AcDbSymbolTableRecord
100
AcDbLayerTableRecord
  2
LAYER-064
 70
     0
 62
     2
  6
Continuous
370
    -3
390
F
  0
LAYER
  5
90
330
2
100
AcDbSymbolTableRecord
100
AcDbLayerTableRecord
  2
LAYER-065
 70
     0
 62
     7
  6
Continuous
370
    -3
390
F
  0
LAYER
  5
91
330
2
100
AcDbSymbolTableRecord
100
AcDbLayerTableRecord
  2
LAYER-066
 70
     0
 62
     2
  6
Continuous
370
    -3
390
F
  0
LAYER
  5
92
330
2
100
AcDbSymbolTableRecord
100
AcDbLayerTableRecord
  2
LAYER-067
 70
     0
 62
     2
  6
Continuous
370
    -3
390
F
  0
LAYER
  5
93
330
2
100
AcDbSymbolTableRecord
100
AcDbLayerTableRecord
  2
LAYER-068
 70
     0
 62
     7
  6
Continuous
370
    -3
390
F
  0
LAYER
  5
94
330
2
100
AcDbSymbolTableRecord
100
AcDbLayerTableRecord
  2
LAYER-069
 70
     0
 62
     7
  6
Continuous
370
    -3
390
F
  0
LAYER
  5
95
330
2
100
AcDbSymbolTableRecord
100
AcDbLayerTableRecord
  2
LAYER-070
 70
     0
 62
     7
  6
Continuous
370
    -3
390
F
  0
LAYER
  5
96
330
2
100
AcDbSymbolTableRecord
100
AcDbLayerTableRecord
  2
LAYER-071
 70
     0
 62
     7
  6
Continuous
370
    -3
390
F
  0
LAYER
  5
97
330
2
100
AcDbSymbolTableRecord
100
AcDbLayerTableRecord
  2
LAYER-072
 70
     0
 62
     7
  6
Continuous
370
    -3
390
F
  0
LAYER
  5
98
330
2
100
AcDbSymbolTableRecord
100
AcDbLayerTableRecord
  2
LAYER-073
 70
     0
 62
     7
  6
Continuous
370
    -3
390
F
  0
LAYER
  5
99
330
2
100
AcDbSymbolTableRecord
100
AcDbLayerTableRecord
  2
LAYER-074
 70
     0
 62
     7
  6
Continuous
370
    -3
390
F
  0
LAYER
  5
9A
330
2
100
AcDbSymbolTableRecord
100
AcDbLayerTableRecord
  2
LAYER-075
 70
     0
 62
     7
  6
Continuous
370
    -3
390
F
  0
LAYER
  5
9B
330
2
100
AcDbSymbolTableRecord
100
AcDbLayerTableRecord
  2
LAYER-076
 70
     0
 62
     7
  6
Continuous
370
    -3
390
F
  0
LAYER
  5
9C
330
2
100
AcDbSymbolTableRecord
100
AcDbLayerTableRecord
  2
LAYER-077
 70
     0
 62
     7
  6
Continuous
370
    -3
390
F
  0
LAYER
  5
9D
330
2
100
AcDbSymbolTableRecord
100
AcDbLayerTableRecord
  2
LAYER-078
 70
     0
 62
     7
  6
Continuous
370
    -3
390
F
  0
LAYER
  5
9E
330
2
100
AcDbSymbolTableRecord
100
AcDbLayerTableRecord
  2
LAYER-079
 70
     0
 62
     7
  6
Continuous
370
    -3
390
F
  0
LAYER
  5
9F
330
2
100
AcDbSymbolTableRecord
100
AcDbLayerTableRecord
  2
LAYER-080
 70
     0
 62
     2
  6
Continuous
370
    -3
390
F
  0
LAYER
  5
A0
330
2
100
AcDbSymbolTableRecord
100
AcDbLayerTableRecord
  2
LAYER-081
 70
     0
 62
     7
  6
Continuous
370
    -3
390
F
  0
LAYER
  5
A1
330
2
100
AcDbSymbolTableRecord
100
AcDbLayerTableRecord
  2
LAYER-082
 70
     0
 62
     7
  6
Continuous
370
    -3
390
F
  0
LAYER
  5
A2
330
2
100
AcDbSymbolTableRecord
100
AcDbLayerTableRecord
  2
LAYER-083
 70
     0
 62
     7
  6
Continuous
370
    -3
390
F
  0
LAYER
  5
A3
330
2
100
AcDbSymbolTableRecord
100
AcDbLayerTableRecord
  2
LAYER-084
 70
     0
 62
     7
  6
Continuous
370
    -3
390
F
  0
LAYER
  5
A4
330
2
100
AcDbSymbolTableRecord
100
AcDbLayerTableRecord
  2
LAYER-085
 70
     0
 62
     7
  6
Continuous
370
    -3
390
F
  0
LAYER
  5
A5
330
2
100
AcDbSymbolTableRecord
100
AcDbLayerTableRecord
  2
LAYER-086
 70
     0
 62
     7
  6
Continuous
370
    -3
390
F
  0
LAYER
  5
A6
330
2
100
AcDbSymbolTableRecord
100
AcDbLayerTableRecord
  2
LAYER-087
 70
     0
 62
     7
  6
Continuous
370
    -3
390
F
  0
LAYER
  5
A7
330
2
100
AcDbSymbolTableRecord
100
AcDbLayerTableRecord
  2
LAYER-088
 70
     0
 62
     7
  6
Continuous
370
    -3
390
F
  0
LAYER
  5
A8
330
2
100
AcDbSymbolTableRecord
100
AcDbLayerTableRecord
  2
LAYER-089
 70
     0
 62
     7
  6
Continuous
370
    -3
390
F
  0
LAYER
  5
A9
330
2
100
AcDbSymbolTableRecord
100
AcDbLayerTableRecord
  2
LAYER-090
 70
     0
 62
     7
  6
Continuous
370
    -3
390
F
  0
LAYER
  5
AA
330
2
100
AcDbSymbolTableRecord
100
AcDbLayerTableRecord
  2
LAYER-091
 70
     0
 62
     7
  6
Continuous
370
    -3
390
F
  0
LAYER
  5
AB
330
2
100
AcDbSymbolTableRecord
100
AcDbLayerTableRecord
  2
LAYER-092
 70
     0
 62
     7
  6
Continuous
370
    -3
390
F
  0
LAYER
  5
AC
330
2
100
AcDbSymbolTableRecord
100
AcDbLayerTableRecord
  2
LAYER-093
 70
     0
 62
     7
  6
Continuous
370
    -3
390
F
  0
LAYER
  5
AD
330
2
100
AcDbSymbolTableRecord
100
AcDbLayerTableRecord
  2
LAYER-094
 70
     0
 62
     7
  6
Continuous
370
    -3
390
F
  0
LAYER
  5
AE
330
2
100
AcDbSymbolTableRecord
100
AcDbLayerTableRecord
  2
LAYER-095
 70
     0
 62
     7
  6
Continuous
370
    -3
390
F
  0
LAYER
  5
AF
330
2
100
AcDbSymbolTableRecord
100
AcDbLayerTableRecord
  2
LAYER-096
 70
     0
 62
     7
  6
Continuous
370
    -3
390
F
  0
LAYER
  5
B0
330
2
100
AcDbSymbolTableRecord
100
AcDbLayerTableRecord
  2
LAYER-097
 70
     0
 62
     7
  6
Continuous
370
    -3
390
F
  0
LAYER
  5
B1
330
2
100
AcDbSymbolTableRecord
100
AcDbLayerTableRecord
  2
LAYER-098
 70
     0
 62
     7
  6
Continuous
370
    -3
390
F
  0
LAYER
  5
B2
330
2
100
AcDbSymbolTableRecord
100
AcDbLayerTableRecord
  2
LAYER-099
 70
     0
 62
     7
  6
Continuous
370
    -3
390
F
  0
LAYER
  5
B3
330
2
100
AcDbSymbolTableRecord
100
AcDbLayerTableRecord
  2
LAYER-100
 70
     0
 62
     7
  6
Continuous
370
    -3
390
F
  0
LAYER
  5
B4
330
2
100
AcDbSymbolTableRecord
100
AcDbLayerTableRecord
  2
LAYER-101
 70
     0
 62
     7
  6
Continuous
370
    -3
390
F
  0
LAYER
  5
B5
330
2
100
AcDbSymbolTableRecord
100
AcDbLayerTableRecord
  2
LAYER-102
 70
     0
 62
     7
  6
Continuous
370
    -3
390
F
  0
LAYER
  5
B6
330
2
100
AcDbSymbolTableRecord
100
AcDbLayerTableRecord
  2
LAYER-103
 70
     0
 62
     7
  6
Continuous
370
    -3
390
F
  0
LAYER
  5
B7
330
2
100
AcDbSymbolTableRecord
100
AcDbLayerTableRecord
  2
LAYER-104
 70
     0
 62
     7
  6
Continuous
370
    -3
390
F
  0
LAYER
  5
B8
330
2
100
AcDbSymbolTableRecord
100
AcDbLayerTableRecord
  2
LAYER-105
 70
     0
 62
     7
  6
Continuous
370
    -3
390
F
  0
LAYER
  5
B9
330
2
100
AcDbSymbolTableRecord
100
AcDbLayerTableRecord
  2
LAYER-106
 70
     0
 62
     7
  6
Continuous
370
    -3
390
F
  0
LAYER
  5
BA
330
2
100
AcDbSymbolTableRecord
100
AcDbLayerTableRecord
  2
LAYER-107
 70
     0
 62
     7
  6
Continuous
370
    -3
390
F
  0
LAYER
  5
BB
330
2
100
AcDbSymbolTableRecord
100
AcDbLayerTableRecord
  2
LAYER-108
 70
     0
 62
     7
  6
Continuous
370
    -3
390
F
  0
LAYER
  5
BC
330
2
100
AcDbSymbolTableRecord
100
AcDbLayerTableRecord
  2
LAYER-109
 70
     0
 62
     7
  6
Continuous
370
    -3
390
F
  0
LAYER
  5
BD
330
2
100
AcDbSymbolTableRecord
100
AcDbLayerTableRecord
  2
LAYER-110
 70
     0
 62
     7
  6
Continuous
370
    -3
390
F
  0
LAYER
  5
BE
330
2
100
AcDbSymbolTableRecord
100
AcDbLayerTableRecord
  2
LAYER-111
 70
     0
 62
     7
  6
Continuous
370
    -3
390
F
  0
LAYER
  5
BF
330
2
100
AcDbSymbolTableRecord
100
AcDbLayerTableRecord
  2
LAYER-112
 70
     0
 62
     7
  6
Continuous
370
    -3
390
F
  0
LAYER
  5
C0
330
2
100
AcDbSymbolTableRecord
100
AcDbLayerTableRecord
  2
LAYER-113
 70
     0
 62
     7
  6
Continuous
370
    -3
390
F
  0
LAYER
  5
C1
330
2
100
AcDbSymbolTableRecord
100
AcDbLayerTableRecord
  2
LAYER-114
 70
     0
 62
     7
  6
Continuous
370
    -3
390
F
  0
LAYER
  5
C2
330
2
100
AcDbSymbolTableRecord
100
AcDbLayerTableRecord
  2
LAYER-115
 70
     0
 62
     7
  6
Continuous
370
    -3
390
F
  0
LAYER
  5
C3
330
2
100
AcDbSymbolTableRecord
100
AcDbLayerTableRecord
  2
LAYER-116
 70
     0
 62
     7
  6
Continuous
370
    -3
390
F
  0
LAYER
  5
C4
330
2
100
AcDbSymbolTableRecord
100
AcDbLayerTableRecord
  2
LAYER-117
 70
     0
 62
     7
  6
Continuous
370
    -3
390
F
  0
LAYER
  5
C5
330
2
100
AcDbSymbolTableRecord
100
AcDbLayerTableRecord
  2
LAYER-118
 70
     0
 62
     7
  6
Continuous
370
    -3
390
F
  0
LAYER
  5
C6
330
2
100
AcDbSymbolTableRecord
100
AcDbLayerTableRecord
  2
LAYER-119
 70
     0
 62
     7
  6
Continuous
370
    -3
390
F
  0
LAYER
  5
C7
330
2
100
AcDbSymbolTableRecord
100
AcDbLayerTableRecord
  2
LAYER-120
 70
     0
 62
     7
  6
Continuous
370
    -3
390
F
  0
LAYER
  5
C8
330
2
100
AcDbSymbolTableRecord
100
AcDbLayerTableRecord
  2
LAYER-121
 70
     0
 62
     7
  6
Continuous
370
    -3
390
F
  0
LAYER
  5
C9
330
2
100
AcDbSymbolTableRecord
100
AcDbLayerTableRecord
  2
LAYER-122
 70
     0
 62
     7
  6
Continuous
370
    -3
390
F
  0
LAYER
  5
CA
330
2
100
AcDbSymbolTableRecord
100
AcDbLayerTableRecord
  2
LAYER-123
 70
     0
 62
     7
  6
Continuous
370
    -3
390
F
  0
LAYER
  5
CB
330
2
100
AcDbSymbolTableRecord
100
AcDbLayerTableRecord
  2
LAYER-124
 70
     0
 62
     7
  6
Continuous
370
    -3
390
F
  0
LAYER
  5
CC
330
2
100
AcDbSymbolTableRecord
100
AcDbLayerTableRecord
  2
LAYER-125
 70
     0
 62
     7
  6
Continuous
370
    -3
390
F
  0
LAYER
  5
CD
330
2
100
AcDbSymbolTableRecord
100
AcDbLayerTableRecord
  2
LAYER-126
 70
     0
 62
     7
  6
Continuous
370
    -3
390
F
  0
LAYER
  5
CE
330
2
100
AcDbSymbolTableRecord
100
AcDbLayerTableRecord
  2
LAYER-127
 70
     0
 62
     7
  6
Continuous
370
    -3
390
F
  0
LAYER
  5
CF
330
2
100
AcDbSymbolTableRecord
100
AcDbLayerTableRecord
  2
LAYER-128
 70
     0
 62
     7
  6
Continuous
370
    -3
390
F
  0
LAYER
  5
D0
330
2
100
AcDbSymbolTableRecord
100
AcDbLayerTableRecord
  2
LAYER-129
 70
     0
 62
     7
  6
Continuous
370
    -3
390
F
  0
LAYER
  5
D1
330
2
100
AcDbSymbolTableRecord
100
AcDbLayerTableRecord
  2
LAYER-130
 70
     0
 62
     7
  6
Continuous
370
    -3
390
F
  0
LAYER
  5
D2
330
2
100
AcDbSymbolTableRecord
100
AcDbLayerTableRecord
  2
LAYER-131
 70
     0
 62
     7
  6
Continuous
370
    -3
390
F
  0
LAYER
  5
D3
330
2
100
AcDbSymbolTableRecord
100
AcDbLayerTableRecord
  2
LAYER-132
 70
     0
 62
     7
  6
Continuous
370
    -3
390
F
  0
LAYER
  5
D4
330
2
100
AcDbSymbolTableRecord
100
AcDbLayerTableRecord
  2
LAYER-133
 70
     0
 62
     7
  6
Continuous
370
    -3
390
F
  0
LAYER
  5
D5
330
2
100
AcDbSymbolTableRecord
100
AcDbLayerTableRecord
  2
LAYER-134
 70
     0
 62
     7
  6
Continuous
370
    -3
390
F
  0
LAYER
  5
D6
330
2
100
AcDbSymbolTableRecord
100
AcDbLayerTableRecord
  2
LAYER-135
 70
     0
 62
    -4
  6
Continuous
370
    -3
390
F
  0
LAYER
  5
D7
330
2
100
AcDbSymbolTableRecord
100
AcDbLayerTableRecord
  2
LAYER-136
 70
     0
 62
    -3
  6
Continuous
370
    -3
390
F
  0
LAYER
  5
D8
330
2
100
AcDbSymbolTableRecord
100
AcDbLayerTableRecord
  2
LAYER-137
 70
     0
 62
    -1
  6
Continuous
370
    -3
390
F
  0
LAYER
  5
D9
330
2
100
AcDbSymbolTableRecord
100
AcDbLayerTableRecord
  2
LAYER-138
 70
     0
 62
     7
  6
Continuous
370
    -3
390
F
  0
LAYER
  5
DA
330
2
100
AcDbSymbolTableRecord
100
AcDbLayerTableRecord
  2
LAYER-139
 70
     0
 62
     7
  6
Continuous
370
    -3
390
F
  0
LAYER
  5
DB
330
2
100
AcDbSymbolTableRecord
100
AcDbLayerTableRecord
  2
LAYER-140
 70
     0
 62
     7
  6
Continuous
370
    -3
390
F
  0
LAYER
  5
DC
330
2
100
AcDbSymbolTableRecord
100
AcDbLayerTableRecord
  2
LAYER-141
 70
     0
 62
     7
  6
Continuous
370
    -3
390
F
  0
LAYER
  5
DD
330
2
100
AcDbSymbolTableRecord
100
AcDbLayerTableRecord
  2
LAYER-142
 70
     0
 62
     3
  6
Continuous
370
    -3
390
F
  0
LAYER
  5
DE
330
2
100
AcDbSymbolTableRecord
100
AcDbLayerTableRecord
  2
LAYER-143
 70
     0
 62
     7
  6
Continuous
370
    -3
390
F
  0
LAYER
  5
DF
330
2
100
AcDbSymbolTableRecord
100
AcDbLayerTableRecord
  2
LAYER-144
 70
     0
 62
     7
  6
Continuous
370
    -3
390
F
  0
LAYER
  5
E0
330
2
100
AcDbSymbolTableRecord
100
AcDbLayerTableRecord
  2
LAYER-145
 70
     0
 62
     3
  6
Continuous
370
    -3
390
F
  0
LAYER
  5
E1
330
2
100
AcDbSymbolTableRecord
100
AcDbLayerTableRecord
  2
LAYER-146
 70
     0
 62
     7
  6
Continuous
370
    -3
390
F
  0
LAYER
  5
E2
330
2
100
AcDbSymbolTableRecord
100
AcDbLayerTableRecord
  2
LAYER-147
 70
     0
 62
     7
  6
Continuous
370
    -3
390
F
  0
LAYER
  5
E3
330
2
100
AcDbSymbolTableRecord
100
AcDbLayerTableRecord
  2
LAYER-148
 70
     0
 62
     7
  6
Continuous
370
    -3
390
F
  0
LAYER
  5
E4
330
2
100
AcDbSymbolTableRecord
100
AcDbLayerTableRecord
  2
LAYER-149
 70
     0
 62
     7
  6
Continuous
370
    -3
390
F
  0
LAYER
  5
E5
330
2
100
AcDbSymbolTableRecord
100
AcDbLayerTableRecord
  2
LAYER-150
 70
     0
 62
     7
  6
Continuous
370
    -3
390
F
  0
LAYER
  5
E6
330
2
100
AcDbSymbolTableRecord
100
AcDbLayerTableRecord
  2
LAYER-151
 70
     0
 62
     7
  6
Continuous
370
    -3
390
F
  0
LAYER
  5
E7
330
2
100
AcDbSymbolTableRecord
100
AcDbLayerTableRecord
  2
LAYER-152
 70
     0
 62
     7
  6
Continuous
370
    -3
390
F
  0
LAYER
  5
E8
330
2
100
AcDbSymbolTableRecord
100
AcDbLayerTableRecord
  2
LAYER-153
 70
     0
 62
     7
  6
Continuous
370
    -3
390
F
  0
LAYER
  5
E9
330
2
100
AcDbSymbolTableRecord
100
AcDbLayerTableRecord
  2
LAYER-154
 70
     0
 62
     7
  6
Continuous
370
    -3
390
F
  0
LAYER
  5
EA
330
2
100
AcDbSymbolTableRecord
100
AcDbLayerTableRecord
  2
LAYER-155
 70
     0
 62
     7
  6
Continuous
370
    -3
390
F
  0
LAYER
  5
EB
330
2
100
AcDbSymbolTableRecord
100
AcDbLayerTableRecord
  2
LAYER-156
 70
     0
 62
     7
  6
Continuous
370
    -3
390
F
  0
LAYER
  5
EC
330
2
100
AcDbSymbolTableRecord
100
AcDbLayerTableRecord
  2
LAYER-157
 70
     0
 62
     7
  6
Continuous
370
    -3
390
F
  0
LAYER
  5
ED
330
2
100
AcDbSymbolTableRecord
100
AcDbLayerTableRecord
  2
LAYER-158
 70
     0
 62
     7
  6
Continuous
370
    -3
390
F
  0
LAYER
  5
EE
330
2
100
AcDbSymbolTableRecord
100
AcDbLayerTableRecord
  2
LAYER-159
 70
     0
 62
     7
  6
Continuous
370
    -3
390
F
  0
LAYER
  5
EF
330
2
100
AcDbSymbolTableRecord
100
AcDbLayerTableRecord
  2
LAYER-160
 70
     0
 62
     7
  6
Continuous
370
    -3
390
F
  0
LAYER
  5
F0
330
2
100
AcDbSymbolTableRecord
100
AcDbLayerTableRecord
  2
LAYER-161
 70
     0
 62
     7
  6
Continuous
370
    -3
390
F
  0
LAYER
  5
F1
330
2
100
AcDbSymbolTableRecord
100
AcDbLayerTableRecord
  2
LAYER-162
 70
     0
 62
     7
  6
Continuous
370
    -3
390
F
  0
LAYER
  5
F2
330
2
100
AcDbSymbolTableRecord
100
AcDbLayerTableRecord
  2
LAYER-163
 70
     0
 62
     7
  6
Continuous
370
    -3
390
F
  0
LAYER
  5
F3
330
2
100
AcDbSymbolTableRecord
100
AcDbLayerTableRecord
  2
LAYER-164
 70
     0
 62
     7
  6
Continuous
370
    -3
390
F
  0
LAYER
  5
F4
330
2
100
AcDbSymbolTableRecord
100
AcDbLayerTableRecord
  2
LAYER-165
 70
     0
 62
     7
  6
Continuous
370
    -3
390
F
  0
LAYER
  5
F5
330
2
100
AcDbSymbolTableRecord
100
AcDbLayerTableRecord
  2
LAYER-166
 70
     0
 62
     7
  6
Continuous
370
    -3
390
F
  0
LAYER
  5
F6
330
2
100
AcDbSymbolTableRecord
100
AcDbLayerTableRecord
  2
LAYER-167
 70
     0
 62
     7
  6
Continuous
370
    -3
390
F
  0
LAYER
  5
F7
330
2
100
AcDbSymbolTableRecord
100
AcDbLayerTableRecord
  2
LAYER-168
 70
     0
 62
     7
  6
Continuous
370
    -3
390
F
  0
LAYER
  5
F8
330
2
100
AcDbSymbolTableRecord
100
AcDbLayerTableRecord
  2
LAYER-169
 70
     0
 62
     7
  6
Continuous
370
    -3
390
F
  0
LAYER
  5
F9
330
2
100
AcDbSymbolTableRecord
100
AcDbLayerTableRecord
  2
LAYER-170
 70
     0
 62
     7
  6
Continuous
370
    -3
390
F
  0
LAYER
  5
FA
330
2
100
AcDbSymbolTableRecord
100
AcDbLayerTableRecord
  2
LAYER-171
 70
     0
 62
     7
  6
Continuous
370
    -3
390
F
  0
LAYER
  5
FB
330
2
100
AcDbSymbolTableRecord
100
AcDbLayerTableRecord
  2
LAYER-172
 70
     0
 62
     7
  6
Continuous
370
    -3
390
F
  0
LAYER
  5
FC
330
2
100
AcDbSymbolTableRecord
100
AcDbLayerTableRecord
  2
LAYER-173
 70
     0
 62
     7
  6
Continuous
370
    -3
390
F
  0
LAYER
  5
FD
330
2
100
AcDbSymbolTableRecord
100
AcDbLayerTableRecord
  2
LAYER-174
 70
     0
 62
     7
  6
Continuous
370
    -3
390
F
  0
LAYER
  5
FE
330
2
100
AcDbSymbolTableRecord
100
AcDbLayerTableRecord
  2
LAYER-175
 70
     0
 62
     7
  6
Continuous
370
    -3
390
F
  0
LAYER
  5
FF
330
2
100
AcDbSymbolTableRecord
100
AcDbLayerTableRecord
  2
LAYER-176
 70
     0
 62
     7
  6
Continuous
370
    -3
390
F
  0
LAYER
  5
100
330
2
100
AcDbSymbolTableRecord
100
AcDbLayerTableRecord
  2
LAYER-177
 70
     0
 62
     7
  6
Continuous
370
    -3
390
F
  0
LAYER
  5
101
330
2
100
AcDbSymbolTableRecord
100
AcDbLayerTableRecord
  2
LAYER-178
 70
     0
 62
     7
  6
Continuous
370
    -3
390
F
  0
LAYER
  5
102
330
2
100
AcDbSymbolTableRecord
100
AcDbLayerTableRecord
  2
LAYER-179
 70
     0
 62
     7
  6
Continuous
370
    -3
390
F
  0
LAYER
  5
103
330
2
100
AcDbSymbolTableRecord
100
AcDbLayerTableRecord
  2
LAYER-180
 70
     0
 62
     7
  6
Continuous
370
    -3
390
F
  0
LAYER
  5
104
330
2
100
AcDbSymbolTableRecord
100
AcDbLayerTableRecord
  2
LAYER-181
 70
     0
 62
     7
  6
Continuous
370
    -3
390
F
  0
LAYER
  5
105
330
2
100
AcDbSymbolTableRecord
100
AcDbLayerTableRecord
  2
LAYER-182
 70
     0
 62
     7
  6
Continuous
370
    -3
390
F
  0
LAYER
  5
106
330
2
100
AcDbSymbolTableRecord
100
AcDbLayerTableRecord
  2
LAYER-183
 70
     0
 62
     7
  6
Continuous
370
    -3
390
F
  0
LAYER
  5
107
330
2
100
AcDbSymbolTableRecord
100
AcDbLayerTableRecord
  2
LAYER-184
 70
     0
 62
     7
  6
Continuous
370
    -3
390
F
  0
LAYER
  5
108
330
2
100
AcDbSymbolTableRecord
100
AcDbLayerTableRecord
  2
LAYER-185
 70
     0
 62
     7
  6
Continuous
370
    -3
390
F
  0
LAYER
  5
109
330
2
100
AcDbSymbolTableRecord
100
AcDbLayerTableRecord
  2
LAYER-186
 70
     0
 62
     7
  6
Continuous
370
    -3
390
F
  0
LAYER
  5
10A
330
2
100
AcDbSymbolTableRecord
100
AcDbLayerTableRecord
  2
LAYER-187
 70
     0
 62
     7
  6
Continuous
370
    -3
390
F
  0
LAYER
  5
10B
330
2
100
AcDbSymbolTableRecord
100
AcDbLayerTableRecord
  2
LAYER-188
 70
     0
 62
     7
  6
Continuous
370
    -3
390
F
  0
LAYER
  5
10C
330
2
100
AcDbSymbolTableRecord
100
AcDbLayerTableRecord
  2
LAYER-189
 70
     0
 62
     7
  6
Continuous
370
    -3
390
F
  0
LAYER
  5
10D
330
2
100
AcDbSymbolTableRecord
100
AcDbLayerTableRecord
  2
LAYER-190
 70
     0
 62
     7
  6
Continuous
370
    -3
390
F
  0
LAYER
  5
10E
330
2
100
AcDbSymbolTableRecord
100
AcDbLayerTableRecord
  2
LAYER-191
 70
     0
 62
     7
  6
Continuous
370
    -3
390
F
  0
LAYER
  5
10F
330
2
100
AcDbSymbolTableRecord
100
AcDbLayerTableRecord
  2
LAYER-192
 70
     0
 62
     7
  6
Continuous
370
    -3
390
F
  0
LAYER
  5
110
330
2
100
AcDbSymbolTableRecord
100
AcDbLayerTableRecord
  2
LAYER-193
 70
     0
 62
     7
  6
Continuous
370
    -3
390
F
  0
LAYER
  5
111
330
2
100
AcDbSymbolTableRecord
100
AcDbLayerTableRecord
  2
LAYER-194
 70
     0
 62
     2
  6
Continuous
370
    -3
390
F
  0
LAYER
  5
112
330
2
100
AcDbSymbolTableRecord
100
AcDbLayerTableRecord
  2
LAYER-195
 70
     0
 62
     2
  6
Continuous
370
    -3
390
F
  0
LAYER
  5
113
330
2
100
AcDbSymbolTableRecord
100
AcDbLayerTableRecord
  2
LAYER-196
 70
     0
 62
     2
  6
Continuous
370
    -3
390
F
  0
LAYER
  5
114
330
2
100
AcDbSymbolTableRecord
100
AcDbLayerTableRecord
  2
LAYER-197
 70
     0
 62
     7
  6
Continuous
370
    -3
390
F
  0
LAYER
  5
115
330
2
100
AcDbSymbolTableRecord
100
AcDbLayerTableRecord
  2
LAYER-198
 70
     0
 62
     7
  6
Continuous
370
    -3
390
F
  0
LAYER
  5
116
330
2
100
AcDbSymbolTableRecord
100
AcDbLayerTableRecord
  2
LAYER-199
 70
     0
 62
     4
  6
Continuous
370
    -3
390
F
  0
LAYER
  5
117
330
2
100
AcDbSymbolTableRecord
100
AcDbLayerTableRecord
  2
LAYER-200
 70
     0
 62
     1
  6
Continuous
370
    -3
390
F
  0
LAYER
  5
118
330
2
100
AcDbSymbolTableRecord
100
AcDbLayerTableRecord
  2
LAYER-201
 70
     0
 62
     1
  6
Continuous
370
    -3
390
F
  0
LAYER
  5
119
330
2
100
AcDbSymbolTableRecord
100
AcDbLayerTableRecord
  2
LAYER-202
 70
     0
 62
     2
  6
Continuous
370
    -3
390
F
  0
LAYER
  5
11A
330
2
100
AcDbSymbolTableRecord
100
AcDbLayerTableRecord
  2
LAYER-203
 70
     0
 62
     2
  6
Continuous
370
    -3
390
F
  0
LAYER
  5
11B
330
2
100
AcDbSymbolTableRecord
100
AcDbLayerTableRecord
  2
LAYER-204
 70
     0
 62
     7
  6
Continuous
370
    -3
390
F
  0
LAYER
  5
11C
330
2
100
AcDbSymbolTableRecord
100
AcDbLayerTableRecord
  2
LAYER-205
 70
     0
 62
     7
  6
Continuous
370
    -3
390
F
  0
LAYER
  5
11D
330
2
100
AcDbSymbolTableRecord
100
AcDbLayerTableRecord
  2
LAYER-206
 70
     0
 62
     7
  6
Continuous
370
    -3
390
F
  0
LAYER
  5
11E
330
2
100
AcDbSymbolTableRecord
100
AcDbLayerTableRecord
  2
LAYER-207
 70
     0
 62
    -7
  6
Continuous
370
    -3
390
F
  0
LAYER
  5
11F
330
2
100
AcDbSymbolTableRecord
100
AcDbLayerTableRecord
  2
LAYER-208
 70
     0
 62
     2
  6
Continuous
370
    -3
390
F
  0
LAYER
  5
120
330
2
100
AcDbSymbolTableRecord
100
AcDbLayerTableRecord
  2
LAYER-209
 70
     0
 62
     7
  6
Continuous
370
    -3
390
F
  0
LAYER
  5
121
330
2
100
AcDbSymbolTableRecord
100
AcDbLayerTableRecord
  2
LAYER-210
 70
     0
 62
     2
  6
Continuous
290
     0
370
    -3
390
F
  0
LAYER
  5
122
330
2
100
AcDbSymbolTableRecord
100
AcDbLayerTableRecord
  2
LAYER-211
 70
     0
 62
     7
  6
Continuous
370
    -3
390
F
  0
LAYER
  5
123
330
2
100
AcDbSymbolTableRecord
100
AcDbLayerTableRecord
  2
LAYER-212
 70
     0
 62
     7
  6
Continuous
370
    -3
390
F
  0
LAYER
  5
124
330
2
100
AcDbSymbolTableRecord
100
AcDbLayerTableRecord
  2
LAYER-213
 70
     0
 62
     2
  6
Continuous
370
    -3
390
F
  0
LAYER
  5
125
330
2
100
AcDbSymbolTableRecord
100
AcDbLayerTableRecord
  2
LAYER-214
 70
     0
 62
     7
  6
Continuous
370
    -3
390
F
  0
LAYER
  5
126
330
2
100
AcDbSymbolTableRecord
100
AcDbLayerTableRecord
  2
LAYER-215
 70
     0
 62
     7
  6
Continuous
370
    -3
390
F
  0
LAYER
  5
127
330
2
100
AcDbSymbolTableRecord
100
AcDbLayerTableRecord
  2
LAYER-216
 70
     0
 62
     4
  6
Continuous
370
    -3
390
F
  0
LAYER
  5
128
330
2
100
AcDbSymbolTableRecord
100
AcDbLayerTableRecord
  2
LAYER-217
 70
     0
 62
     7
  6
Continuous
370
    -3
390
F
  0
LAYER
  5
129
330
2
100
AcDbSymbolTableRecord
100
AcDbLayerTableRecord
  2
LAYER-218
 70
     0
 62
     7
  6
Continuous
370
    -3
390
F
  0
LAYER
  5
12A
330
2
100
AcDbSymbolTableRecord
100
AcDbLayerTableRecord
  2
LAYER-219
 70
     0
 62
     7
  6
Continuous
370
    -3
390
F
  0
LAYER
  5
12B
330
2
100
AcDbSymbolTableRecord
100
AcDbLayerTableRecord
  2
LAYER-220
 70
     0
 62
     4
  6
Continuous
370
    -3
390
F
  0
LAYER
  5
12C
330
2
100
AcDbSymbolTableRecord
100
AcDbLayerTableRecord
  2
LAYER-221
 70
     0
 62
    -7
  6
Continuous
290
     0
370
    -3
390
F
  0
LAYER
  5
12D
330
2
100
AcDbSymbolTableRecord
100
AcDbLayerTableRecord
  2
LAYER-222
 70
     0
 62
    -4
  6
Continuous
290
     0
370
    -3
390
F
  0
LAYER
  5
12E
330
2
100
AcDbSymbolTableRecord
100
AcDbLayerTableRecord
  2
LAYER-223
 70
     0
 62
    -1
  6
Continuous
290
     0
370
    -3
390
F
  0
LAYER
  5
12F
330
2
100
AcDbSymbolTableRecord
100
AcDbLayerTableRecord
  2
LAYER-224
 70
     0
 62
    -1
  6
Continuous
290
     0
370
    -3
390
F
  0
LAYER
  5
130
330
2
100
AcDbSymbolTableRecord
100
AcDbLayerTableRecord
  2
LAYER-225
 70
     0
 62
     7
  6
Continuous
370
    -3
390
F
  0
LAYER
  5
131
330
2
100
AcDbSymbolTableRecord
100
AcDbLayerTableRecord
  2
LAYER-226
 70
     0
 62
     2
  6
Continuous
370
    -3
390
F
  0
LAYER
  5
132
330
2
100
AcDbSymbolTableRecord
100
AcDbLayerTableRecord
  2
LAYER-227
 70
     0
 62
     7
  6
Continuous
370
    -3
390
F
  0
LAYER
  5
133
330
2
100
AcDbSymbolTableRecord
100
AcDbLayerTableRecord
  2
LAYER-228
 70
     0
 62
     7
  6
Continuous
370
    -3
390
F
  0
LAYER
  5
134
330
2
100
AcDbSymbolTableRecord
100
AcDbLayerTableRecord
  2
LAYER-229
 70
     0
 62
     7
  6
Continuous
370
    -3
390
F
  0
LAYER
  5
135
330
2
100
AcDbSymbolTableRecord
100
AcDbLayerTableRecord
  2
LAYER-230
 70
     0
 62
     7
  6
Continuous
370
    -3
390
F
  0
LAYER
  5
136
330
2
100
AcDbSymbolTableRecord
100
AcDbLayerTableRecord
  2
LAYER-231
 70
     0
 62
     7
  6
Continuous
370
    -3
390
F
  0
LAYER
  5
137
330
2
100
AcDbSymbolTableRecord
100
AcDbLayerTableRecord
  2
LAYER-232
 70
     0
 62
     7
  6
Continuous
370
    -3
390
F
  0
LAYER
  5
138
330
2
100
AcDbSymbolTableRecord
100
AcDbLayerTableRecord
  2
LAYER-233
 70
     0
 62
     7
  6
Continuous
370
    -3
390
F
  0
LAYER
  5
139
330
2
100
AcDbSymbolTableRecord
100
AcDbLayerTableRecord
  2
LAYER-234
 70
     0
 62
     7
  6
Continuous
370
    -3
390
F
  0
LAYER
  5
13A
330
2
100
AcDbSymbolTableRecord
100
AcDbLayerTableRecord
  2
LAYER-235
 70
     0
 62
     7
  6
Continuous
370
    -3
390
F
  0
LAYER
  5
13B
330
2
100
AcDbSymbolTableRecord
100
AcDbLayerTableRecord
  2
LAYER-236
 70
     0
 62
     7
  6
Continuous
370
    -3
390
F
  0
LAYER
  5
13C
330
2
100
AcDbSymbolTableRecord
100
AcDbLayerTableRecord
  2
LAYER-237
 70
     0
 62
     7
  6
Continuous
370
    -3
390
F
  0
LAYER
  5
13D
330
2
100
AcDbSymbolTableRecord
100
AcDbLayerTableRecord
  2
LAYER-238
 70
     0
 62
     7
  6
Continuous
370
    -3
390
F
  0
LAYER
  5
13E
330
2
100
AcDbSymbolTableRecord
100
AcDbLayerTableRecord
  2
LAYER-239
 70
     0
 62
     7
  6
Continuous
370
    -3
390
F
  0
LAYER
  5
13F
330
2
100
AcDbSymbolTableRecord
100
AcDbLayerTableRecord
  2
LAYER-240
 70
     0
 62
     7
  6
Continuous
370
    -3
390
F
  0
LAYER
  5
140
330
2
100
AcDbSymbolTableRecord
100
AcDbLayerTableRecord
  2
LAYER-241
 70
     0
 62
     7
  6
Continuous
370
    -3
390
F
  0
LAYER
  5
141
330
2
100
AcDbSymbolTableRecord
100
AcDbLayerTableRecord
  2
LAYER-242
 70
     0
 62
     7
  6
Continuous
370
    -3
390
F
  0
LAYER
  5
142
330
2
100
AcDbSymbolTableRecord
100
AcDbLayerTableRecord
  2
LAYER-243
 70
     0
 62
     7
  6
Continuous
370
    -3
390
F
  0
LAYER
  5
143
330
2
100
AcDbSymbolTableRecord
100
AcDbLayerTableRecord
  2
LAYER-244
 70
     0
 62
     7
  6
Continuous
370
    -3
390
F
  0
LAYER
  5
144
330
2
100
AcDbSymbolTableRecord
100
AcDbLayerTableRecord
  2
LAYER-245
 70
     0
 62
     7
  6
Continuous
370
    -3
390
F
  0
LAYER
  5
145
330
2
100
AcDbSymbolTableRecord
100
AcDbLayerTableRecord
  2
LAYER-246
 70
     0
 62
     7
  6
Continuous
370
    -3
390
F
  0
LAYER
  5
146
330
2
100
AcDbSymbolTableRecord
100
AcDbLayerTableRecord
  2
LAYER-247
 70
     0
 62
     7
  6
Continuous
370
    -3
390
F
  0
LAYER
  5
147
330
2
100
AcDbSymbolTableRecord
100
AcDbLayerTableRecord
  2
LAYER-248
 70
     0
 62
     7
  6
Continuous
370
    -3
390
F
  0
LAYER
  5
148
330
2
100
AcDbSymbolTableRecord
100
AcDbLayerTableRecord
  2
LAYER-249
 70
     0
 62
     7
  6
Continuous
370
    -3
390
F
  0
LAYER
  5
149
330
2
100
AcDbSymbolTableRecord
100
AcDbLayerTableRecord
  2
LAYER-250
 70
     0
 62
     7
  6
Continuous
370
    -3
390
F
  0
LAYER
  5
14A
330
2
100
AcDbSymbolTableRecord
100
AcDbLayerTableRecord
  2
LAYER-251
 70
     0
 62
     7
  6
Continuous
370
    -3
390
F
  0
LAYER
  5
14B
330
2
100
AcDbSymbolTableRecord
100
AcDbLayerTableRecord
  2
LAYER-252
 70
     0
 62
     7
  6
Continuous
370
    -3
390
F
  0
LAYER
  5
14C
330
2
100
AcDbSymbolTableRecord
100
AcDbLayerTableRecord
  2
LAYER-253
 70
     0
 62
     7
  6
Continuous
370
    -3
390
F
  0
LAYER
  5
14D
330
2
100
AcDbSymbolTableRecord
100
AcDbLayerTableRecord
  2
LAYER-254
 70
     0
 62
     7
  6
Continuous
370
    -3
390
F
  0
LAYER
  5
14E
330
2
100
AcDbSymbolTableRecord
100
AcDbLayerTableRecord
  2
LAYER-255
 70
     0
 62
     7
  6
Continuous
370
    -3
390
F
  0
LAYER
  5
14F
330
2
100
AcDbSymbolTableRecord
100
AcDbLayerTableRecord
  2
LAYER-256
 70
     0
 62
     7
  6
Continuous
370
    -3
390
F
  0
LAYER
  5
150
330
2
100
AcDbSymbolTableRecord
100
AcDbLayerTableRecord
  2
SUPLINE
 70
     0
 62
    -7
  6
Continuous
290
     0
370
    -3
390
F
  0
ENDTAB
  0
TABLE
  2
STYLE
  5
3
330
0
100
AcDbSymbolTable
 70
     7
  0
STYLE
  5
11
330
3
100
AcDbSymbolTableRecord
100
AcDbTextStyleTableRecord
  2
Standard
 70
     0
 40
0.0
 41
1.0
 50
0.0
 71
     0
 42
2.5
  3
txt
  4

  0
STYLE
  5
31
330
3
100
AcDbSymbolTableRecord
100
AcDbTextStyleTableRecord
  2
STANDARD2
 70
     0
 40
0.0
 41
1.0
 50
0.0
 71
     0
 42
4.0
  3
txt.shx
  4
bigfont.shx
  0
STYLE
  5
32
330
3
100
AcDbSymbolTableRecord
100
AcDbTextStyleTableRecord
  2
STRING_H
 70
     0
 40
0.0
 41
1.0
 50
0.0
 71
     0
 42
4.0
  3
txt.shx
  4
bigfont.shx
  0
STYLE
  5
33
330
3
100
AcDbSymbolTableRecord
100
AcDbTextStyleTableRecord
  2
STRING_H_ITALIC
 70
     0
 40
0.0
 41
1.0
 50
15.0
 71
     0
 42
4.0
  3
txt.shx
  4
bigfont.shx
  0
STYLE
  5
34
330
3
100
AcDbSymbolTableRecord
100
AcDbTextStyleTableRecord
  2
STRING_V
 70
     4
 40
0.0
 41
1.0
 50
0.0
 71
     0
 42
4.0
  3
txt.shx
  4
bigfont.shx
  0
STYLE
  5
35
330
3
100
AcDbSymbolTableRecord
100
AcDbTextStyleTableRecord
  2
STRING_V_ITALIC
 70
     4
 40
0.0
 41
1.0
 50
15.0
 71
     0
 42
4.0
  3
txt.shx
  4
bigfont.shx
  0
STYLE
  5
36
330
3
100
AcDbSymbolTableRecord
100
AcDbTextStyleTableRecord
  2

 70
     1
 40
0.0
 41
1.0
 50
0.0
 71
     0
 42
0.2
  3
ltypeshp.shx
  4

  0
ENDTAB
  0
TABLE
  2
VIEW
  5
6
330
0
100
AcDbSymbolTable
 70
     0
  0
ENDTAB
  0
TABLE
  2
UCS
  5
7
330
0
100
AcDbSymbolTable
 70
     0
  0
ENDTAB
  0
TABLE
  2
APPID
  5
9
330
0
100
AcDbSymbolTable
 70
     1
  0
APPID
  5
12
330
9
100
AcDbSymbolTableRecord
100
AcDbRegAppTableRecord
  2
ACAD
 70
     0
  0
ENDTAB
  0
TABLE
  2
DIMSTYLE
  5
A
330
0
100
AcDbSymbolTable
 70
     2
100
AcDbDimStyleTable
  0
DIMSTYLE
105
27
330
A
100
AcDbSymbolTableRecord
100
AcDbDimStyleTableRecord
  2
ISO-25
 70
     0
 41
2.5
 42
0.625
 43
3.75
 44
1.25
 73
     0
 74
     0
 77
     1
 78
     8
140
2.5
141
2.5
143
0.03937007874016
147
0.625
171
     3
172
     1
271
     2
272
     2
274
     3
283
     0
284
     8
340
11
  0
DIMSTYLE
105
151
102
{ACAD_REACTORS
330
3A8
330
3B2
330
3BC
330
3C8
330
3D2
330
3DC
330
3E6
330
3F0
330
3FA
102
}
330
A
100
AcDbSymbolTableRecord
100
AcDbDimStyleTableRecord
  2
DIO_DIMSTYLE
 70
     0
 41
4.0
 42
1.0
 43
3.75
 44
1.0
 45
0.1
 73
     0
 74
     0
 77
     1
 78
     8
 79
     2
140
3.0
141
2.5
143
0.03937007874016
147
0.5
171
     3
172
     1
173
     1
179
     1
271
     1
272
     1
274
     3
283
     0
284
     8
288
     1
289
     0
340
31
  0
ENDTAB
  0
TABLE
  2
BLOCK_RECORD
  5
1
330
0
100
AcDbSymbolTable
 70
    11
  0
BLOCK_RECORD
  5
1F
330
1
100
AcDbSymbolTableRecord
100
AcDbBlockTableRecord
  2
*Model_Space
340
22
  0
BLOCK_RECORD
  5
1B
330
1
100
AcDbSymbolTableRecord
100
AcDbBlockTableRecord
  2
*Paper_Space
340
1E
  0
BLOCK_RECORD
  5
23
330
1
100
AcDbSymbolTableRecord
100
AcDbBlockTableRecord
  2
*Paper_Space0
340
26
  0
BLOCK_RECORD
  5
399
330
1
100
AcDbSymbolTableRecord
100
AcDbBlockTableRecord
  2
_OPEN
340
0
102
{BLKREFS
331
3A2
331
3A3
331
3AC
331
3AD
331
3B6
331
3B7
331
3C0
331
3C1
331
3CC
331
3CD
331
3D6
331
3D7
331
3E0
331
3E1
331
3EA
331
3EB
331
3F4
331
3F5
102
}
  0
BLOCK_RECORD
  5
39F
330
1
100
AcDbSymbolTableRecord
100
AcDbBlockTableRecord
  2
*D02
340
0
  0
BLOCK_RECORD
  5
3A9
330
1
100
AcDbSymbolTableRecord
100
AcDbBlockTableRecord
  2
*D13
340
0
  0
BLOCK_RECORD
  5
3B3
330
1
100
AcDbSymbolTableRecord
100
AcDbBlockTableRecord
  2
*D24
340
0
  0
BLOCK_RECORD
  5
3BD
330
1
100
AcDbSymbolTableRecord
100
AcDbBlockTableRecord
  2
*D35
340
0
  0
BLOCK_RECORD
  5
3C9
330
1
100
AcDbSymbolTableRecord
100
AcDbBlockTableRecord
  2
*D46
340
0
  0
BLOCK_RECORD
  5
3D3
330
1
100
AcDbSymbolTableRecord
100
AcDbBlockTableRecord
  2
*D57
340
0
  0
BLOCK_RECORD
  5
3DD
330
1
100
AcDbSymbolTableRecord
100
AcDbBlockTableRecord
  2
*D68
340
0
  0
BLOCK_RECORD
  5
3E7
330
1
100
AcDbSymbolTableRecord
100
AcDbBlockTableRecord
  2
*D79
340
0
  0
BLOCK_RECORD
  5
3F1
330
1
100
AcDbSymbolTableRecord
100
AcDbBlockTableRecord
  2
*D810
340
0
  0
ENDTAB
  0
ENDSEC
  0
SECTION
  2
BLOCKS
  0
BLOCK
  5
20
330
1F
100
AcDbEntity
  8
0
100
AcDbBlockBegin
  2
*Model_Space
 70
     0
 71
     0
 10
0.0
 20
0.0
 30
0.0
  3
*Model_Space
  1

  0
ENDBLK
  5
21
330
1F
100
AcDbEntity
  8
0
100
AcDbBlockEnd
  0
BLOCK
  5
1C
330
1B
100
AcDbEntity
 67
     1
  8
0
100
AcDbBlockBegin
  2
*Paper_Space
 70
     0
 71
     0
 10
0.0
 20
0.0
 30
0.0
  3
*Paper_Space
  1

  0
ENDBLK
  5
1D
330
1B
100
AcDbEntity
 67
     1
  8
0
100
AcDbBlockEnd
  0
BLOCK
  5
24
330
23
100
AcDbEntity
  8
0
100
AcDbBlockBegin
  2
*Paper_Space0
 70
     0
 71
     0
 10
0.0
 20
0.0
 30
0.0
  3
*Paper_Space0
  1

  0
ENDBLK
  5
25
330
23
100
AcDbEntity
  8
0
100
AcDbBlockEnd
  0
BLOCK
  5
39A
330
399
100
AcDbEntity
  8
0
100
AcDbBlockBegin
  2
_OPEN
 70
     0
 71
     0
 10
0.0
 20
0.0
 30
0.0
  3
_OPEN
  1

  0
LINE
  5
39C
330
399
100
AcDbEntity
  8
LAYER-035
  6
Continuous
 62
     0
100
AcDbLine
 10
0.0
 20
0.0
 30
0.0
 11
-1.0
 21
0.0
 31
0.0
  0
LINE
  5
39D
330
399
100
AcDbEntity
  8
LAYER-035
  6
Continuous
 62
     0
100
AcDbLine
 10
0.0
 20
0.0
 30
0.0
 11
-1.0
 21
0.1666250109338451
 31
0.0
  0
LINE
  5
39E
330
399
100
AcDbEntity
  8
LAYER-035
  6
Continuous
 62
     0
100
AcDbLine
 10
0.0
 20
0.0
 30
0.0
 11
-1.0
 21
-0.1666250109338451
 31
0.0
  0
ENDBLK
  5
39B
330
399
100
AcDbEntity
  8
0
100
AcDbBlockEnd
  0
BLOCK
  5
3A0
330
39F
100
AcDbEntity
  8
0
100
AcDbBlockBegin
  2
*D02
 70
     1
 71
     0
 10
0.0
 20
0.0
 30
0.0
  3
*D02
  1

  0
INSERT
  5
3A2
330
39F
100
AcDbEntity
  8
LAYER-035
  6
Continuous
 62
     5
100
AcDbBlockReference
  2
_OPEN
 10
-248.409626600208
 20
-494.6642602700668
 30
0.0
 41
4.0
 42
4.0
 43
4.0
 50
180.0
  0
INSERT
  5
3A3
330
39F
100
AcDbEntity
  8
LAYER-035
  6
Continuous
 62
     5
100
AcDbBlockReference
  2
_OPEN
 10
66.59037339979197
 20
-494.6642602700668
 30
0.0
 41
4.0
 42
4.0
 43
4.0
  0
LINE
  5
3A4
330
39F
100
AcDbEntity
  8
LAYER-035
  6
Continuous
 62
     5
100
AcDbLine
 10
-248.409626600208
 20
-432.3157974773602
 30
0.0
 11
-248.409626600208
 21
-495.6642602700668
 31
0.0
  0
LINE
  5
3A5
330
39F
100
AcDbEntity
  8
LAYER-035
  6
Continuous
 62
     5
100
AcDbLine
 10
66.59037339979197
 20
-432.3157974773602
 30
0.0
 11
66.59037339979197
 21
-495.6642602700668
 31
0.0
  0
LINE
  5
3A6
330
39F
100
AcDbEntity
  8
LAYER-035
  6
Continuous
 62
     5
100
AcDbLine
 10
-248.409626600208
 20
-494.6642602700668
 30
0.0
 11
66.59037339979199
 21
-494.6642602700668
 31
0.0
  0
MTEXT
  5
3A7
330
39F
100
AcDbEntity
  8
LAYER-036
  6
Continuous
 62
     5
100
AcDbMText
 10
-90.90962656981162
 20
-494.1642602700668
 30
0.0
 40
10.0
 41
0.0
 71
     8
 72
     1
  1
315
  7
STRING_H
 73
     1
 44
1.0
  0
ENDBLK
  5
3A1
330
39F
100
AcDbEntity
  8
0
100
AcDbBlockEnd
  0
BLOCK
  5
3AA
330
3A9
100
AcDbEntity
  8
0
100
AcDbBlockBegin
  2
*D13
 70
     1
 71
     0
 10
0.0
 20
0.0
 30
0.0
  3
*D13
  1

  0
INSERT
  5
3AC
330
3A9
100
AcDbEntity
  8
LAYER-035
  6
Continuous
 62
     5
100
AcDbBlockReference
  2
_OPEN
 10
-215.9096265394152
 20
-469.0017956444202
 30
0.0
 41
4.0
 42
4.0
 43
4.0
 50
180.0
  0
INSERT
  5
3AD
330
3A9
100
AcDbEntity
  8
LAYER-035
  6
Continuous
 62
     5
100
AcDbBlockReference
  2
_OPEN
 10
34.09037339979197
 20
-469.0017956444202
 30
0.0
 41
4.0
 42
4.0
 43
4.0
  0
LINE
  5
3AE
330
3A9
100
AcDbEntity
  8
LAYER-035
  6
Continuous
 62
     5
100
AcDbLine
 10
-215.9096265394152
 20
-439.8608596539461
 30
0.0
 11
-215.9096265394152
 21
-470.0017956444202
 31
0.0
  0
LINE
  5
3AF
330
3A9
100
AcDbEntity
  8
LAYER-035
  6
Continuous
 62
     5
100
AcDbLine
 10
34.09037339979197
 20
-439.8608596539461
 30
0.0
 11
34.09037339979197
 21
-470.0017956444202
 31
0.0
  0
LINE
  5
3B0
330
3A9
100
AcDbEntity
  8
LAYER-035
  6
Continuous
 62
     5
100
AcDbLine
 10
-215.9096265394152
 20
-469.0017956444202
 30
0.0
 11
34.09037339979199
 21
-469.0017956444202
 31
0.0
  0
MTEXT
  5
3B1
330
3A9
100
AcDbEntity
  8
LAYER-036
  6
Continuous
 62
     5
100
AcDbMText
 10
-90.90962656981162
 20
-468.5017956444202
 30
0.0
 40
10.0
 41
0.0
 71
     8
 72
     1
  1
250
  7
STRING_H
 73
     1
 44
1.0
  0
ENDBLK
  5
3AB
330
3A9
100
AcDbEntity
  8
0
100
AcDbBlockEnd
  0
BLOCK
  5
3B4
330
3B3
100
AcDbEntity
  8
0
100
AcDbBlockBegin
  2
*D24
 70
     1
 71
     0
 10
0.0
 20
0.0
 30
0.0
  3
*D24
  1

  0
INSERT
  5
3B6
330
3B3
100
AcDbEntity
  8
LAYER-035
  6
Continuous
 62
     5
100
AcDbBlockReference
  2
_OPEN
 10
124.7778386633172
 20
-166.3157974773602
 30
0.0
 41
4.0
 42
4.0
 43
4.0
 50
90.0
  0
INSERT
  5
3B7
330
3B3
100
AcDbEntity
  8
LAYER-035
  6
Continuous
 62
     5
100
AcDbBlockReference
  2
_OPEN
 10
124.7778386633172
 20
-431.3157974773602
 30
0.0
 41
4.0
 42
4.0
 43
4.0
 50
-90.0
  0
LINE
  5
3B8
330
3B3
100
AcDbEntity
  8
LAYER-035
  6
Continuous
 62
     5
100
AcDbLine
 10
1.842776362868122
 20
-166.3157974773602
 30
0.0
 11
125.7778386633172
 21
-166.3157974773602
 31
0.0
  0
LINE
  5
3B9
330
3B3
100
AcDbEntity
  8
LAYER-035
  6
Continuous
 62
     5
100
AcDbLine
 10
67.59037339979197
 20
-431.3157974773602
 30
0.0
 11
125.7778386633172
 21
-431.3157974773602
 31
0.0
  0
LINE
  5
3BA
330
3B3
100
AcDbEntity
  8
LAYER-035
  6
Continuous
 62
     5
100
AcDbLine
 10
124.7778386633172
 20
-166.3157974773602
 30
0.0
 11
124.7778386633172
 21
-431.3157974773602
 31
0.0
  0
MTEXT
  5
3BB
330
3B3
100
AcDbEntity
  8
LAYER-036
  6
Continuous
 62
     5
100
AcDbMText
 10
124.2778386633172
 20
-298.8157974773602
 30
0.0
 40
10.0
 41
0.0
 71
     8
 72
     1
  1
265
  7
STRING_H
 11
6.123031769111886E-17
 21
1.0
 31
0.0
 73
     1
 44
1.0
  0
ENDBLK
  5
3B5
330
3B3
100
AcDbEntity
  8
0
100
AcDbBlockEnd
  0
BLOCK
  5
3BE
330
3BD
100
AcDbEntity
  8
0
100
AcDbBlockBegin
  2
*D35
 70
     1
 71
     0
 10
0.0
 20
0.0
 30
0.0
  3
*D35
  1

  0
INSERT
  5
3C0
330
3BD
100
AcDbEntity
  8
LAYER-035
  6
Continuous
 62
     5
100
AcDbBlockReference
  2
_OPEN
 10
124.7778386633172
 20
-141.3157974773602
 30
0.0
 41
4.0
 42
4.0
 43
4.0
 50
90.0
  0
INSERT
  5
3C1
330
3BD
100
AcDbEntity
  8
LAYER-035
  6
Continuous
 62
     5
100
AcDbBlockReference
  2
_OPEN
 10
124.7778386633172
 20
-166.3157974773602
 30
0.0
 41
4.0
 42
4.0
 43
4.0
 50
-90.0
  0
LINE
  5
3C2
330
3BD
100
AcDbEntity
  8
LAYER-035
  6
Continuous
 62
     5
100
AcDbLine
 10
60.9973867553196
 20
-141.3157974773602
 30
0.0
 11
125.7778386633172
 21
-141.3157974773602
 31
0.0
  0
LINE
  5
3C3
330
3BD
100
AcDbEntity
  8
LAYER-035
  6
Continuous
 62
     5
100
AcDbLine
 10
1.842776362868122
 20
-166.3157974773602
 30
0.0
 11
125.7778386633172
 21
-166.3157974773602
 31
0.0
  0
LINE
  5
3C4
330
3BD
100
AcDbEntity
  8
LAYER-035
  6
Continuous
 62
     5
100
AcDbLine
 10
124.7778386633172
 20
-141.3157974773602
 30
0.0
 11
124.7778386633172
 21
-166.3157974773602
 31
0.0
  0
LINE
  5
3C5
330
3BD
100
AcDbEntity
  8
LAYER-035
  6
Continuous
 62
     5
100
AcDbLine
 10
124.7778386633172
 20
-141.3157974773602
 30
0.0
 11
124.7778386633172
 21
-96.31579747736021
 31
0.0
  0
LINE
  5
3C6
330
3BD
100
AcDbEntity
  8
LAYER-035
  6
Continuous
 62
     5
100
AcDbLine
 10
124.7778386633172
 20
-166.3157974773602
 30
0.0
 11
124.7778386633172
 21
-174.3157974773602
 31
0.0
  0
MTEXT
  5
3C7
330
3BD
100
AcDbEntity
  8
LAYER-036
  6
Continuous
 62
     5
100
AcDbMText
 10
124.2778386633172
 20
-141.3157974773602
 30
0.0
 40
10.0
 41
0.0
 71
     7
 72
     1
  1
25±5
  7
STRING_H
 11
6.123031769111886E-17
 21
1.0
 31
0.0
 73
     1
 44
1.0
  0
ENDBLK
  5
3BF
330
3BD
100
AcDbEntity
  8
0
100
AcDbBlockEnd
  0
BLOCK
  5
3CA
330
3C9
100
AcDbEntity
  8
0
100
AcDbBlockBegin
  2
*D46
 70
     1
 71
     0
 10
0.0
 20
0.0
 30
0.0
  3
*D46
  1

  0
INSERT
  5
3CC
330
3C9
100
AcDbEntity
  8
LAYER-035
  6
Continuous
 62
     5
100
AcDbBlockReference
  2
_OPEN
 10
461.5331993721535
 20
-349.1916716032343
 30
0.0
 41
4.0
 42
4.0
 43
4.0
  0
INSERT
  5
3CD
330
3C9
100
AcDbEntity
  8
LAYER-035
  6
Continuous
 62
     5
100
AcDbBlockReference
  2
_OPEN
 10
411.5331993721535
 20
-349.1916716032343
 30
0.0
 41
4.0
 42
4.0
 43
4.0
 50
180.0
  0
LINE
  5
3CE
330
3C9
100
AcDbEntity
  8
LAYER-035
  6
Continuous
 62
     5
100
AcDbLine
 10
461.5331993721535
 20
-219.8418406734662
 30
0.0
 11
461.5331993721535
 21
-350.1916716032343
 31
0.0
  0
LINE
  5
3CF
330
3C9
100
AcDbEntity
  8
LAYER-035
  6
Continuous
 62
     5
100
AcDbLine
 10
411.5331993721535
 20
-309.0371136107181
 30
0.0
 11
411.5331993721535
 21
-350.1916716032343
 31
0.0
  0
LINE
  5
3D0
330
3C9
100
AcDbEntity
  8
LAYER-035
  6
Continuous
 62
     5
100
AcDbLine
 10
461.5331993721535
 20
-349.1916716032343
 30
0.0
 11
411.5331993721535
 21
-349.1916716032343
 31
0.0
  0
MTEXT
  5
3D1
330
3C9
100
AcDbEntity
  8
LAYER-036
  6
Continuous
 62
     5
100
AcDbMText
 10
436.5331993721535
 20
-348.6916716032343
 30
0.0
 40
10.0
 41
0.0
 71
     8
 72
     1
  1
(50)
  7
STRING_H
 73
     1
 44
1.0
  0
ENDBLK
  5
3CB
330
3C9
100
AcDbEntity
  8
0
100
AcDbBlockEnd
  0
BLOCK
  5
3D4
330
3D3
100
AcDbEntity
  8
0
100
AcDbBlockBegin
  2
*D57
 70
     1
 71
     0
 10
0.0
 20
0.0
 30
0.0
  3
*D57
  1

  0
INSERT
  5
3D6
330
3D3
100
AcDbEntity
  8
LAYER-035
  6
Continuous
 62
     5
100
AcDbBlockReference
  2
_OPEN
 10
166.5331993721535
 20
-349.1916716032343
 30
0.0
 41
4.0
 42
4.0
 43
4.0
 50
180.0
  0
INSERT
  5
3D7
330
3D3
100
AcDbEntity
  8
LAYER-035
  6
Continuous
 62
     5
100
AcDbBlockReference
  2
_OPEN
 10
216.5331993721535
 20
-349.1916716032343
 30
0.0
 41
4.0
 42
4.0
 43
4.0
  0
LINE
  5
3D8
330
3D3
100
AcDbEntity
  8
LAYER-035
  6
Continuous
 62
     5
100
AcDbLine
 10
166.5331993721535
 20
-219.8418406734662
 30
0.0
 11
166.5331993721535
 21
-350.1916716032343
 31
0.0
  0
LINE
  5
3D9
330
3D3
100
AcDbEntity
  8
LAYER-035
  6
Continuous
 62
     5
100
AcDbLine
 10
216.5331993721535
 20
-309.0371136107181
 30
0.0
 11
216.5331993721535
 21
-350.1916716032343
 31
0.0
  0
LINE
  5
3DA
330
3D3
100
AcDbEntity
  8
LAYER-035
  6
Continuous
 62
     5
100
AcDbLine
 10
166.5331993721535
 20
-349.1916716032343
 30
0.0
 11
216.5331993721535
 21
-349.1916716032343
 31
0.0
  0
MTEXT
  5
3DB
330
3D3
100
AcDbEntity
  8
LAYER-036
  6
Continuous
 62
     5
100
AcDbMText
 10
191.5331993721535
 20
-348.6916716032343
 30
0.0
 40
10.0
 41
0.0
 71
     8
 72
     1
  1
(50)
  7
STRING_H
 73
     1
 44
1.0
  0
ENDBLK
  5
3D5
330
3D3
100
AcDbEntity
  8
0
100
AcDbBlockEnd
  0
BLOCK
  5
3DE
330
3DD
100
AcDbEntity
  8
0
100
AcDbBlockBegin
  2
*D68
 70
     1
 71
     0
 10
0.0
 20
0.0
 30
0.0
  3
*D68
  1

  0
INSERT
  5
3E0
330
3DD
100
AcDbEntity
  8
LAYER-035
  6
Continuous
 62
     5
100
AcDbBlockReference
  2
_OPEN
 10
411.5331993721535
 20
-349.1916716032343
 30
0.0
 41
4.0
 42
4.0
 43
4.0
  0
INSERT
  5
3E1
330
3DD
100
AcDbEntity
  8
LAYER-035
  6
Continuous
 62
     5
100
AcDbBlockReference
  2
_OPEN
 10
216.5331993721535
 20
-349.1916716032343
 30
0.0
 41
4.0
 42
4.0
 43
4.0
 50
180.0
  0
LINE
  5
3E2
330
3DD
100
AcDbEntity
  8
LAYER-035
  6
Continuous
 62
     5
100
AcDbLine
 10
411.5331993721535
 20
-309.0371136107181
 30
0.0
 11
411.5331993721535
 21
-350.1916716032343
 31
0.0
  0
LINE
  5
3E3
330
3DD
100
AcDbEntity
  8
LAYER-035
  6
Continuous
 62
     5
100
AcDbLine
 10
216.5331993721535
 20
-309.0371136107181
 30
0.0
 11
216.5331993721535
 21
-350.1916716032343
 31
0.0
  0
LINE
  5
3E4
330
3DD
100
AcDbEntity
  8
LAYER-035
  6
Continuous
 62
     5
100
AcDbLine
 10
411.5331993721535
 20
-349.1916716032343
 30
0.0
 11
216.5331993721535
 21
-349.1916716032343
 31
0.0
  0
MTEXT
  5
3E5
330
3DD
100
AcDbEntity
  8
LAYER-036
  6
Continuous
 62
     5
100
AcDbMText
 10
291.821459406884
 20
-348.6916716032343
 30
0.0
 40
10.0
 41
0.0
 71
     8
 72
     1
  1
195
  7
STRING_H
 73
     1
 44
1.0
  0
ENDBLK
  5
3DF
330
3DD
100
AcDbEntity
  8
0
100
AcDbBlockEnd
  0
BLOCK
  5
3E8
330
3E7
100
AcDbEntity
  8
0
100
AcDbBlockBegin
  2
*D79
 70
     1
 71
     0
 10
0.0
 20
0.0
 30
0.0
  3
*D79
  1

  0
INSERT
  5
3EA
330
3E7
100
AcDbEntity
  8
LAYER-035
  6
Continuous
 62
     5
100
AcDbBlockReference
  2
_OPEN
 10
199.0331993721535
 20
-494.6642602700668
 30
0.0
 41
4.0
 42
4.0
 43
4.0
 50
180.0
  0
INSERT
  5
3EB
330
3E7
100
AcDbEntity
  8
LAYER-035
  6
Continuous
 62
     5
100
AcDbBlockReference
  2
_OPEN
 10
429.0331993721536
 20
-494.6642602700668
 30
0.0
 41
4.0
 42
4.0
 43
4.0
  0
LINE
  5
3EC
330
3E7
100
AcDbEntity
  8
LAYER-035
  6
Continuous
 62
     5
100
AcDbLine
 10
199.0331993721535
 20
-432.3157974773602
 30
0.0
 11
199.0331993721535
 21
-495.6642602700668
 31
0.0
  0
LINE
  5
3ED
330
3E7
100
AcDbEntity
  8
LAYER-035
  6
Continuous
 62
     5
100
AcDbLine
 10
429.0331993721535
 20
-432.3157974773602
 30
0.0
 11
429.0331993721536
 21
-495.6642602700668
 31
0.0
  0
LINE
  5
3EE
330
3E7
100
AcDbEntity
  8
LAYER-035
  6
Continuous
 62
     5
100
AcDbLine
 10
199.0331993721535
 20
-494.6642602700668
 30
0.0
 11
429.0331993721536
 21
-494.6642602700668
 31
0.0
  0
MTEXT
  5
3EF
330
3E7
100
AcDbEntity
  8
LAYER-036
  6
Continuous
 62
     5
100
AcDbMText
 10
314.0331993721535
 20
-494.1642602700668
 30
0.0
 40
10.0
 41
0.0
 71
     8
 72
     1
  1
230
  7
STRING_H
 73
     1
 44
1.0
  0
ENDBLK
  5
3E9
330
3E7
100
AcDbEntity
  8
0
100
AcDbBlockEnd
  0
BLOCK
  5
3F2
330
3F1
100
AcDbEntity
  8
0
100
AcDbBlockBegin
  2
*D810
 70
     1
 71
     0
 10
0.0
 20
0.0
 30
0.0
  3
*D810
  1

  0
INSERT
  5
3F4
330
3F1
100
AcDbEntity
  8
LAYER-035
  6
Continuous
 62
     5
100
AcDbBlockReference
  2
_OPEN
 10
214.0331993721534
 20
-469.0017956444202
 30
0.0
 41
4.0
 42
4.0
 43
4.0
 50
180.0
  0
INSERT
  5
3F5
330
3F1
100
AcDbEntity
  8
LAYER-035
  6
Continuous
 62
     5
100
AcDbBlockReference
  2
_OPEN
 10
414.0331993721536
 20
-469.0017956444202
 30
0.0
 41
4.0
 42
4.0
 43
4.0
  0
LINE
  5
3F6
330
3F1
100
AcDbEntity
  8
LAYER-035
  6
Continuous
 62
     5
100
AcDbLine
 10
214.0331993721535
 20
-439.0741112886718
 30
0.0
 11
214.0331993721534
 21
-470.0017956444202
 31
0.0
  0
LINE
  5
3F7
330
3F1
100
AcDbEntity
  8
LAYER-035
  6
Continuous
 62
     5
100
AcDbLine
 10
414.0331993721535
 20
-439.0741112886718
 30
0.0
 11
414.0331993721536
 21
-470.0017956444202
 31
0.0
  0
LINE
  5
3F8
330
3F1
100
AcDbEntity
  8
LAYER-035
  6
Continuous
 62
     5
100
AcDbLine
 10
214.0331993721534
 20
-469.0017956444202
 30
0.0
 11
414.0331993721536
 21
-469.0017956444202
 31
0.0
  0
MTEXT
  5
3F9
330
3F1
100
AcDbEntity
  8
LAYER-036
  6
Continuous
 62
     5
100
AcDbMText
 10
314.0331993721535
 20
-468.5017956444202
 30
0.0
 40
10.0
 41
0.0
 71
     8
 72
     1
  1
200
  7
STRING_H
 73
     1
 44
1.0
  0
ENDBLK
  5
3F3
330
3F1
100
AcDbEntity
  8
0
100
AcDbBlockEnd
  0
ENDSEC
  0
SECTION
  2
ENTITIES
  0
LINE
  5
152
330
1F
100
AcDbEntity
  8
LAYER-033
  6
Continuous
 62
     1
100
AcDbLine
 10
-189.9718281110802
 20
-588.6095046642289
 30
0.0
 11
-21.22182811108016
 21
-588.6095046642289
 31
0.0
  0
LINE
  5
153
330
1F
100
AcDbEntity
  8
LAYER-033
  6
Continuous
 62
     1
100
AcDbLine
 10
-189.9718281110802
 20
-608.6095046642289
 30
0.0
 11
260.0281718889198
 21
-608.6095046642289
 31
0.0
  0
LINE
  5
154
330
1F
100
AcDbEntity
  8
LAYER-033
  6
Continuous
 62
     1
100
AcDbLine
 10
-189.9718281110802
 20
-628.6095046642289
 30
0.0
 11
-4.971828111080157
 21
-628.6095046642289
 31
0.0
  0
LINE
  5
155
330
1F
100
AcDbEntity
  8
LAYER-006
  6
Continuous
 62
     1
100
AcDbLine
 10
-243.1447706789883
 20
-141.3157974773602
 30
0.0
 11
-243.1447706789883
 21
-147.1066538958891
 31
0.0
  0
LINE
  5
156
330
1F
100
AcDbEntity
  8
LAYER-006
  6
Continuous
 62
     1
100
AcDbLine
 10
-233.2552962064337
 20
-141.3157974773602
 30
0.0
 11
-243.1447706789883
 21
-141.3157974773602
 31
0.0
  0
LINE
  5
157
330
1F
100
AcDbEntity
  8
LAYER-006
  6
Continuous
 62
     1
100
AcDbLine
 10
-233.2552962064337
 20
-141.3157974773602
 30
0.0
 11
-233.2552962064337
 21
-147.1066538958891
 31
0.0
  0
LINE
  5
158
330
1F
100
AcDbEntity
  8
LAYER-006
  6
Continuous
 62
     1
100
AcDbLine
 10
50.10791228276518
 20
-141.3157974773602
 30
0.0
 11
50.10791228276518
 21
-147.1066538958891
 31
0.0
  0
LINE
  5
159
330
1F
100
AcDbEntity
  8
LAYER-006
  6
Continuous
 62
     1
100
AcDbLine
 10
50.10791228276518
 20
-141.3157974773602
 30
0.0
 11
59.9973867553196
 21
-141.3157974773602
 31
0.0
  0
LINE
  5
15A
330
1F
100
AcDbEntity
  8
LAYER-006
  6
Continuous
 62
     1
100
AcDbLine
 10
59.9973867553196
 20
-141.3157974773602
 30
0.0
 11
59.9973867553196
 21
-147.1066538958891
 31
0.0
  0
LINE
  5
15B
330
1F
100
AcDbEntity
  8
LAYER-006
  6
Continuous
 62
     1
100
AcDbLine
 10
270.6293706293707
 20
-141.3157974773602
 30
0.0
 11
270.6293706293707
 21
-147.1066538958891
 31
0.0
  0
LINE
  5
15C
330
1F
100
AcDbEntity
  8
LAYER-006
  6
Continuous
 62
     1
100
AcDbLine
 10
277.9311088322802
 20
-141.3157974773602
 30
0.0
 11
270.6293706293707
 21
-141.3157974773602
 31
0.0
  0
LINE
  5
15D
330
1F
100
AcDbEntity
  8
LAYER-006
  6
Continuous
 62
     1
100
AcDbLine
 10
280.518845101925
 20
-141.3157974773602
 30
0.0
 11
280.518845101925
 21
-147.1066538958891
 31
0.0
  0
LINE
  5
15E
330
1F
100
AcDbEntity
  8
LAYER-006
  6
Continuous
 62
     1
100
AcDbLine
 10
280.518845101925
 20
-141.3157974773602
 30
0.0
 11
270.6293706293707
 21
-141.3157974773602
 31
0.0
  0
LINE
  5
15F
330
1F
100
AcDbEntity
  8
LAYER-006
  6
Continuous
 62
     1
100
AcDbLine
 10
347.547553642382
 20
-141.3157974773602
 30
0.0
 11
347.547553642382
 21
-147.1066538958891
 31
0.0
  0
LINE
  5
160
330
1F
100
AcDbEntity
  8
LAYER-006
  6
Continuous
 62
     1
100
AcDbLine
 10
347.547553642382
 20
-141.3157974773602
 30
0.0
 11
357.4370281149369
 21
-141.3157974773602
 31
0.0
  0
LINE
  5
161
330
1F
100
AcDbEntity
  8
LAYER-006
  6
Continuous
 62
     1
100
AcDbLine
 10
350.1352899120268
 20
-141.3157974773602
 30
0.0
 11
357.4370281149369
 21
-141.3157974773602
 31
0.0
  0
LINE
  5
162
330
1F
100
AcDbEntity
  8
LAYER-006
  6
Continuous
 62
     1
100
AcDbLine
 10
357.4370281149369
 20
-141.3157974773602
 30
0.0
 11
357.4370281149369
 21
-147.1066538958891
 31
0.0
  0
LINE
  5
163
330
1F
100
AcDbEntity
  8
LAYER-006
  6
Continuous
 62
     1
100
AcDbLine
 10
-249.1883417697546
 20
-147.1066538958891
 30
0.0
 11
66.04095784472912
 21
-147.1066538958891
 31
0.0
  0
LINE
  5
164
330
1F
100
AcDbEntity
  8
LAYER-006
  6
Continuous
 62
     1
100
AcDbLine
 10
-249.1883417697546
 20
-147.1066538958891
 30
0.0
 11
-249.1883417697546
 21
-149.8537316644196
 31
0.0
  0
LINE
  5
165
330
1F
100
AcDbEntity
  8
LAYER-006
  6
Continuous
 62
     1
100
AcDbLine
 10
66.04095784472914
 20
-147.1066538958891
 30
0.0
 11
66.04095784472914
 21
-149.8537316644196
 31
0.0
  0
LINE
  5
166
330
1F
100
AcDbEntity
  8
LAYER-006
  6
Continuous
 62
     1
100
AcDbLine
 10
235.6411856663498
 20
-147.1066538958891
 30
0.0
 11
392.4252130779572
 21
-147.1066538958891
 31
0.0
  0
LINE
  5
167
330
1F
100
AcDbEntity
  8
LAYER-006
  6
Continuous
 62
     1
100
AcDbLine
 10
235.6411856663498
 20
-147.1066538958891
 30
0.0
 11
235.6411856663498
 21
-149.8537316643235
 31
0.0
  0
LINE
  5
168
330
1F
100
AcDbEntity
  8
LAYER-006
  6
Continuous
 62
     1
100
AcDbLine
 10
392.4252130779572
 20
-147.1066538958891
 30
0.0
 11
392.4252130779572
 21
-149.8537316643235
 31
0.0
  0
LINE
  5
169
330
1F
100
AcDbEntity
  8
LAYER-006
  6
Continuous
 62
     1
100
AcDbLine
 10
66.04095784472914
 20
-149.8537316644196
 30
0.0
 11
-249.1883417697546
 21
-149.8537316644196
 31
0.0
  0
LINE
  5
16A
330
1F
100
AcDbEntity
  8
LAYER-006
  6
Continuous
 62
     1
100
AcDbLine
 10
392.4252130779572
 20
-149.8537316643235
 30
0.0
 11
235.6411856663498
 21
-149.8537316643235
 31
0.0
  0
LINE
  5
16B
330
1F
100
AcDbEntity
  8
LAYER-007
  6
CENTER
 62
     4
100
AcDbLine
 10
-178.26669963948
 20
-159.5816308200953
 30
0.0
 11
-178.26669963948
 21
-232.8085824557768
 31
0.0
  0
LINE
  5
16C
330
1F
100
AcDbEntity
  8
LAYER-007
  6
CENTER
 62
     4
100
AcDbLine
 10
-2.453716959368691
 20
-159.5816308200953
 30
0.0
 11
-2.453716959368691
 21
-232.8085824557768
 31
0.0
  0
LINE
  5
16D
330
1F
100
AcDbEntity
  8
LAYER-006
  6
Continuous
 62
     1
100
AcDbLine
 10
-182.1126030212672
 20
-166.3157974773602
 30
0.0
 11
-182.1126030212672
 21
-186.0947519166246
 31
0.0
  0
LINE
  5
16E
330
1F
100
AcDbEntity
  8
LAYER-006
  6
Continuous
 62
     1
100
AcDbLine
 10
-182.1126030212672
 20
-166.3157974773602
 30
0.0
 11
-174.9702063172432
 21
-166.3157974773602
 31
0.0
  0
LINE
  5
16F
330
1F
100
AcDbEntity
  8
LAYER-006
  6
Continuous
 62
     1
100
AcDbLine
 10
-174.9702063172432
 20
-166.3157974773602
 30
0.0
 11
-174.9702063172432
 21
-186.0947519166246
 31
0.0
  0
LINE
  5
170
330
1F
100
AcDbEntity
  8
LAYER-006
  6
Continuous
 62
     1
100
AcDbLine
 10
-94.20611442828916
 20
-166.3157974773602
 30
0.0
 11
-94.20611442828916
 21
-186.0947519166246
 31
0.0
  0
LINE
  5
171
330
1F
100
AcDbEntity
  8
LAYER-006
  6
Continuous
 62
     1
100
AcDbLine
 10
-94.20611442828916
 20
-166.3157974773602
 30
0.0
 11
-87.06371772426515
 21
-166.3157974773602
 31
0.0
  0
LINE
  5
172
330
1F
100
AcDbEntity
  8
LAYER-006
  6
Continuous
 62
     1
100
AcDbLine
 10
-87.06371772426515
 20
-166.3157974773602
 30
0.0
 11
-87.06371772426515
 21
-186.0947519166246
 31
0.0
  0
LINE
  5
173
330
1F
100
AcDbEntity
  8
LAYER-006
  6
Continuous
 62
     1
100
AcDbLine
 10
-6.299620341155887
 20
-166.3157974773602
 30
0.0
 11
-6.299620341155887
 21
-186.0947519166246
 31
0.0
  0
LINE
  5
174
330
1F
100
AcDbEntity
  8
LAYER-006
  6
Continuous
 62
     1
100
AcDbLine
 10
-6.299620341155887
 20
-166.3157974773602
 30
0.0
 11
0.842776362868122
 21
-166.3157974773602
 31
0.0
  0
LINE
  5
175
330
1F
100
AcDbEntity
  8
LAYER-006
  6
Continuous
 62
     1
100
AcDbLine
 10
0.842776362868122
 20
-166.3157974773602
 30
0.0
 11
0.842776362868122
 21
-186.0947519166246
 31
0.0
  0
LINE
  5
176
330
1F
100
AcDbEntity
  8
LAYER-001
  6
Continuous
 62
     1
100
AcDbLine
 10
-221.8545817948864
 20
-167.0669913926129
 30
0.0
 11
-233.2552962064337
 21
-167.0669913926129
 31
0.0
  0
LINE
  5
177
330
1F
100
AcDbEntity
  8
LAYER-001
  6
Continuous
 62
     1
100
AcDbLine
 10
-221.8545817948864
 20
-167.0669913926129
 30
0.0
 11
-217.2761371631611
 21
-171.6454360316561
 31
0.0
  0
LINE
  5
178
330
1F
100
AcDbEntity
  8
LAYER-033
  6
Continuous
 62
     1
100
AcDbLine
 10
-233.2552962064337
 20
-189.9592145609481
 30
0.0
 11
-215.735429628024
 21
-189.9592145609481
 31
0.0
  0
LINE
  5
179
330
1F
100
AcDbEntity
  8
LAYER-001
  6
Continuous
 62
     1
100
AcDbLine
 10
-217.2761371631611
 20
-171.6454360316561
 30
0.0
 11
-217.2761371631611
 21
-200.9289773608454
 31
0.0
  0
LINE
  5
17A
330
1F
100
AcDbEntity
  8
LAYER-001
  6
Continuous
 62
     1
100
AcDbLine
 10
-243.1447706789883
 20
-168.2120238901298
 30
0.0
 11
-246.5781828148878
 21
-171.6454360316561
 31
0.0
  0
LINE
  5
17B
330
1F
100
AcDbEntity
  8
LAYER-001
  6
Continuous
 62
     1
100
AcDbLine
 10
-246.5781828148878
 20
-171.6454360316561
 30
0.0
 11
-246.5781828148878
 21
-200.9289773608454
 31
0.0
  0
LINE
  5
17C
330
1F
100
AcDbEntity
  8
LAYER-001
  6
Continuous
 62
     1
100
AcDbLine
 10
-246.5781828148878
 20
-214.6643662034982
 30
0.0
 11
-246.5781828148878
 21
-246.3157974773602
 31
0.0
  0
LINE
  5
17D
330
1F
100
AcDbEntity
  8
LAYER-001
  6
Continuous
 62
     1
100
AcDbLine
 10
-217.2761371631611
 20
-214.6643662034982
 30
0.0
 11
-217.2761371631611
 21
-246.3157974773602
 31
0.0
  0
ARC
  5
17E
330
1F
100
AcDbEntity
  8
LAYER-033
  6
Continuous
 62
     1
100
AcDbCircle
 10
-231.9271599890245
 20
-189.9592145609481
 30
0.0
 40
8.699044804028386
100
AcDbArc
 50
266.3790214822288
 51
273.6209785072467
  0
ARC
  5
17F
330
1F
100
AcDbEntity
  8
LAYER-033
  6
Continuous
 62
     1
100
AcDbCircle
 10
-231.9271599890245
 20
-189.9592145609481
 30
0.0
 40
8.699044804028386
100
AcDbArc
 50
261.2179576541959
 51
98.7820423458044
  0
ARC
  5
180
330
1F
100
AcDbEntity
  8
LAYER-033
  6
Continuous
 62
     1
100
AcDbCircle
 10
-231.9271599890245
 20
-189.9592145609481
 30
0.0
 40
8.699044804028386
100
AcDbArc
 50
90.0
 51
90.00003618695909
  0
LINE
  5
181
330
1F
100
AcDbEntity
  8
LAYER-001
  6
Continuous
 62
     1
100
AcDbLine
 10
40.0353285944706
 20
-167.0669913926129
 30
0.0
 11
35.45688396274537
 21
-171.6454360316561
 31
0.0
  0
LINE
  5
182
330
1F
100
AcDbEntity
  8
LAYER-033
  6
Continuous
 62
     1
100
AcDbLine
 10
50.10791228276518
 20
-189.9592145609481
 30
0.0
 11
33.91617642760819
 21
-189.9592145609481
 31
0.0
  0
LINE
  5
183
330
1F
100
AcDbEntity
  8
LAYER-001
  6
Continuous
 62
     1
100
AcDbLine
 10
60.18048498274685
 20
-167.0669913926129
 30
0.0
 11
64.75892961447211
 21
-171.6454360316561
 31
0.0
  0
LINE
  5
184
330
1F
100
AcDbEntity
  8
LAYER-001
  6
Continuous
 62
     1
100
AcDbLine
 10
35.45688396274537
 20
-171.6454360316561
 30
0.0
 11
35.45688396274537
 21
-200.9289773608454
 31
0.0
  0
LINE
  5
185
330
1F
100
AcDbEntity
  8
LAYER-001
  6
Continuous
 62
     1
100
AcDbLine
 10
64.75892961447211
 20
-171.6454360316561
 30
0.0
 11
64.75892961447211
 21
-200.9289773608454
 31
0.0
  0
LINE
  5
186
330
1F
100
AcDbEntity
  8
LAYER-001
  6
Continuous
 62
     1
100
AcDbLine
 10
64.75892961447211
 20
-214.6643662034982
 30
0.0
 11
64.75892961447211
 21
-246.3157974773602
 31
0.0
  0
LINE
  5
187
330
1F
100
AcDbEntity
  8
LAYER-001
  6
Continuous
 62
     1
100
AcDbLine
 10
35.45688396274537
 20
-214.6643662034982
 30
0.0
 11
35.45688396274537
 21
-246.3157974773602
 31
0.0
  0
ARC
  5
188
330
1F
100
AcDbEntity
  8
LAYER-033
  6
Continuous
 62
     1
100
AcDbCircle
 10
50.10790678860859
 20
-189.9592145609481
 30
0.0
 40
8.699044804028386
100
AcDbArc
 50
90.0
 51
273.620978507248
  0
ARC
  5
189
330
1F
100
AcDbEntity
  8
LAYER-033
  6
Continuous
 62
     1
100
AcDbCircle
 10
50.10790678860859
 20
-189.9592145609481
 30
0.0
 40
8.699044804028386
100
AcDbArc
 50
266.3790214822299
 51
273.620978507248
  0
LINE
  5
18A
330
1F
100
AcDbEntity
  8
LAYER-033
  6
Continuous
 62
     1
100
AcDbLine
 10
50.10790678860859
 20
-200.9289773608454
 30
0.0
 11
50.10790678860859
 21
-176.9851123847845
 31
0.0
  0
ARC
  5
18B
330
1F
100
AcDbEntity
  8
LAYER-033
  6
Continuous
 62
     1
100
AcDbCircle
 10
50.10790678860859
 20
-189.9592145609481
 30
0.0
 40
8.699044804028386
100
AcDbArc
 50
89.99996381304017
 51
90.0
  0
LINE
  5
18C
330
1F
100
AcDbEntity
  8
LAYER-001
  6
Continuous
 62
     1
100
AcDbLine
 10
40.0353285944706
 20
-167.0669913926129
 30
0.0
 11
50.10791228276518
 21
-167.0669913926129
 31
0.0
  0
LINE
  5
18D
330
1F
100
AcDbEntity
  8
LAYER-001
  6
Continuous
 62
     1
100
AcDbLine
 10
59.9973867553196
 20
-167.0669913926129
 30
0.0
 11
60.18048498274685
 21
-167.0669913926129
 31
0.0
  0
LINE
  5
18E
330
1F
100
AcDbEntity
  8
LAYER-001
  6
Continuous
 62
     1
100
AcDbLine
 10
313.6834200558811
 20
-167.0669913926129
 30
0.0
 11
309.5628198853838
 21
-167.0669913926129
 31
0.0
  0
LINE
  5
18F
330
1F
100
AcDbEntity
  8
LAYER-033
  6
HIDDEN
 62
     1
100
AcDbLine
 10
313.6834200558811
 20
-181.2601697569197
 30
0.0
 11
309.5628198853838
 21
-181.2601697569197
 31
0.0
  0
LINE
  5
190
330
1F
100
AcDbEntity
  8
LAYER-033
  6
Continuous
 62
     1
100
AcDbLine
 10
320.296542178922
 20
-189.9592145609481
 30
0.0
 11
300.9276648455589
 21
-189.9592145609481
 31
0.0
  0
LINE
  5
191
330
1F
100
AcDbEntity
  8
LAYER-033
  6
HIDDEN
 62
     1
100
AcDbLine
 10
313.6834200558811
 20
-198.6408932109266
 30
0.0
 11
309.5628198853838
 21
-198.6408932109266
 31
0.0
  0
LINE
  5
192
330
1F
100
AcDbEntity
  8
LAYER-001
  6
Continuous
 62
     1
100
AcDbLine
 10
309.5628198853838
 20
-248.1951973076858
 30
0.0
 11
309.5628198853838
 21
-167.0669913926129
 31
0.0
  0
ARC
  5
193
330
1F
100
AcDbEntity
  8
LAYER-001
  6
Continuous
 62
     1
100
AcDbCircle
 10
305.4422197167622
 20
-248.1951973076858
 30
0.0
 40
4.120600170329235
100
AcDbArc
 50
270.0
 51
0.0
  0
LINE
  5
194
330
1F
100
AcDbEntity
  8
LAYER-001
  6
Continuous
 62
     1
100
AcDbLine
 10
313.6834200558811
 20
-248.1951973076858
 30
0.0
 11
313.6834200558811
 21
-167.0669913926129
 31
0.0
  0
LINE
  5
195
330
1F
100
AcDbEntity
  8
LAYER-001
  6
Continuous
 62
     1
100
AcDbLine
 10
305.4422197167622
 20
-252.3157974773602
 30
0.0
 11
269.107996777922
 21
-252.3157974773602
 31
0.0
  0
LINE
  5
196
330
1F
100
AcDbEntity
  8
LAYER-001
  6
Continuous
 62
     1
100
AcDbLine
 10
269.107996777922
 20
-256.4363976476894
 30
0.0
 11
269.107996777922
 21
-252.3157974773602
 31
0.0
  0
LINE
  5
197
330
1F
100
AcDbEntity
  8
LAYER-001
  6
Continuous
 62
     1
100
AcDbLine
 10
305.4422197167622
 20
-256.4363976476894
 30
0.0
 11
269.107996777922
 21
-256.4363976476894
 31
0.0
  0
ARC
  5
198
330
1F
100
AcDbEntity
  8
LAYER-001
  6
Continuous
 62
     1
100
AcDbCircle
 10
305.4422197167622
 20
-248.1951973076858
 30
0.0
 40
8.24120034065847
100
AcDbArc
 50
270.0
 51
0.0
  0
LINE
  5
199
330
1F
100
AcDbEntity
  8
LAYER-006
  6
Continuous
 62
     1
100
AcDbLine
 10
-185.9585173913656
 20
-176.2052774440703
 30
0.0
 11
-171.1242919471448
 21
-176.2052774440703
 31
0.0
  0
LINE
  5
19A
330
1F
100
AcDbEntity
  8
LAYER-006
  6
Continuous
 62
     1
100
AcDbLine
 10
-185.9585173913656
 20
-176.2052774440703
 30
0.0
 11
-185.9585173913656
 21
-186.0947519166246
 31
0.0
  0
LINE
  5
19B
330
1F
100
AcDbEntity
  8
LAYER-006
  6
Continuous
 62
     1
100
AcDbLine
 10
-171.1242919471448
 20
-176.2052774440703
 30
0.0
 11
-171.1242919471448
 21
-186.0947519166246
 31
0.0
  0
LINE
  5
19C
330
1F
100
AcDbEntity
  8
LAYER-006
  6
Continuous
 62
     1
100
AcDbLine
 10
-98.05202879838755
 20
-176.2052774440703
 30
0.0
 11
-83.21780335416673
 21
-176.2052774440703
 31
0.0
  0
LINE
  5
19D
330
1F
100
AcDbEntity
  8
LAYER-006
  6
Continuous
 62
     1
100
AcDbLine
 10
-98.05202879838755
 20
-176.2052774440703
 30
0.0
 11
-98.05202879838755
 21
-186.0947519166246
 31
0.0
  0
LINE
  5
19E
330
1F
100
AcDbEntity
  8
LAYER-006
  6
Continuous
 62
     1
100
AcDbLine
 10
-83.21780335416673
 20
-176.2052774440703
 30
0.0
 11
-83.21780335416673
 21
-186.0947519166246
 31
0.0
  0
LINE
  5
19F
330
1F
100
AcDbEntity
  8
LAYER-006
  6
Continuous
 62
     1
100
AcDbLine
 10
-10.1455347112543
 20
-176.2052774440703
 30
0.0
 11
4.688690732966521
 21
-176.2052774440703
 31
0.0
  0
LINE
  5
1A0
330
1F
100
AcDbEntity
  8
LAYER-006
  6
Continuous
 62
     1
100
AcDbLine
 10
-10.1455347112543
 20
-176.2052774440703
 30
0.0
 11
-10.1455347112543
 21
-186.0947519166246
 31
0.0
  0
LINE
  5
1A1
330
1F
100
AcDbEntity
  8
LAYER-006
  6
Continuous
 62
     1
100
AcDbLine
 10
4.688690732966521
 20
-176.2052774440703
 30
0.0
 11
4.688690732966521
 21
-186.0947519166246
 31
0.0
  0
LINE
  5
1A2
330
1F
100
AcDbEntity
  8
LAYER-006
  6
Continuous
 62
     1
100
AcDbLine
 10
267.8822928608407
 20
-176.2052774440703
 30
0.0
 11
267.8822928608407
 21
-186.0947519166246
 31
0.0
  0
LINE
  5
1A3
330
1F
100
AcDbEntity
  8
LAYER-006
  6
Continuous
 62
     1
100
AcDbLine
 10
267.8822928608407
 20
-176.2052774440703
 30
0.0
 11
270.6293706293707
 21
-176.2052774440703
 31
0.0
  0
LINE
  5
1A4
330
1F
100
AcDbEntity
  8
LAYER-006
  6
Continuous
 62
     1
100
AcDbLine
 10
280.518845101925
 20
-176.2052774440703
 30
0.0
 11
282.716518305061
 21
-176.2052774440703
 31
0.0
  0
LINE
  5
1A5
330
1F
100
AcDbEntity
  8
LAYER-006
  6
Continuous
 62
     1
100
AcDbLine
 10
282.716518305061
 20
-176.2052774440703
 30
0.0
 11
282.716518305061
 21
-186.0947519166246
 31
0.0
  0
LINE
  5
1A6
330
1F
100
AcDbEntity
  8
LAYER-006
  6
Continuous
 62
     1
100
AcDbLine
 10
345.3498804392467
 20
-176.2052774440703
 30
0.0
 11
345.3498804392467
 21
-186.0947519166246
 31
0.0
  0
LINE
  5
1A7
330
1F
100
AcDbEntity
  8
LAYER-006
  6
Continuous
 62
     1
100
AcDbLine
 10
347.547553642382
 20
-176.2052774440703
 30
0.0
 11
345.3498804392467
 21
-176.2052774440703
 31
0.0
  0
LINE
  5
1A8
330
1F
100
AcDbEntity
  8
LAYER-006
  6
Continuous
 62
     1
100
AcDbLine
 10
360.1841058834668
 20
-176.2052774440703
 30
0.0
 11
360.1841058834668
 21
-186.0947519166246
 31
0.0
  0
LINE
  5
1A9
330
1F
100
AcDbEntity
  8
LAYER-006
  6
Continuous
 62
     1
100
AcDbLine
 10
360.1841058834668
 20
-176.2052774440703
 30
0.0
 11
357.4370281149369
 21
-176.2052774440703
 31
0.0
  0
LINE
  5
1AA
330
1F
100
AcDbEntity
  8
LAYER-006
  6
HIDDEN
 62
     4
100
AcDbLine
 10
247.0044963278681
 20
-180.6005963795638
 30
0.0
 11
259.0916440015423
 21
-180.6005963795638
 31
0.0
  0
LINE
  5
1AB
330
1F
100
AcDbEntity
  8
LAYER-006
  6
HIDDEN
 62
     4
100
AcDbLine
 10
247.0044963278681
 20
-180.6005963795638
 30
0.0
 11
247.0044963278681
 21
-188.8418406734662
 31
0.0
  0
LINE
  5
1AC
330
1F
100
AcDbEntity
  8
LAYER-006
  6
HIDDEN
 62
     4
100
AcDbLine
 10
259.0916440015423
 20
-180.6005963795638
 30
0.0
 11
264.585799538604
 21
-186.0947519166246
 31
0.0
  0
LINE
  5
1AD
330
1F
100
AcDbEntity
  8
LAYER-006
  6
HIDDEN
 62
     4
100
AcDbLine
 10
368.9747547427647
 20
-180.6005963795638
 30
0.0
 11
363.4805992057037
 21
-186.0947519166246
 31
0.0
  0
LINE
  5
1AE
330
1F
100
AcDbEntity
  8
LAYER-006
  6
HIDDEN
 62
     4
100
AcDbLine
 10
381.0619024162214
 20
-180.6005963795638
 30
0.0
 11
368.9747547427647
 21
-180.6005963795638
 31
0.0
  0
LINE
  5
1AF
330
1F
100
AcDbEntity
  8
LAYER-006
  6
HIDDEN
 62
     4
100
AcDbLine
 10
381.0619024162214
 20
-180.6005963795638
 30
0.0
 11
381.0619024162214
 21
-188.8418406734662
 31
0.0
  0
LINE
  5
1B0
330
1F
100
AcDbEntity
  8
LAYER-006
  6
Continuous
 62
     1
100
AcDbLine
 10
-188.1561741120344
 20
-186.0947519166246
 30
0.0
 11
-168.9266297323208
 21
-186.0947519166246
 31
0.0
  0
LINE
  5
1B1
330
1F
100
AcDbEntity
  8
LAYER-006
  6
Continuous
 62
     1
100
AcDbLine
 10
-188.1561741120344
 20
-186.0947519166246
 30
0.0
 11
-188.1561741120344
 21
-191.0394918999798
 31
0.0
  0
LINE
  5
1B2
330
1F
100
AcDbEntity
  8
LAYER-006
  6
Continuous
 62
     1
100
AcDbLine
 10
-168.9266297323208
 20
-186.0947519166246
 30
0.0
 11
-168.9266297323208
 21
-191.0394918999798
 31
0.0
  0
LINE
  5
1B3
330
1F
100
AcDbEntity
  8
LAYER-006
  6
Continuous
 62
     1
100
AcDbLine
 10
-100.2496855190335
 20
-186.0947519166246
 30
0.0
 11
-81.02014113934273
 21
-186.0947519166246
 31
0.0
  0
LINE
  5
1B4
330
1F
100
AcDbEntity
  8
LAYER-006
  6
Continuous
 62
     1
100
AcDbLine
 10
-100.2496855190335
 20
-186.0947519166246
 30
0.0
 11
-100.2496855190335
 21
-191.0394918999798
 31
0.0
  0
LINE
  5
1B5
330
1F
100
AcDbEntity
  8
LAYER-006
  6
Continuous
 62
     1
100
AcDbLine
 10
-81.02014113934273
 20
-186.0947519166246
 30
0.0
 11
-81.02014113934273
 21
-191.0394918999798
 31
0.0
  0
LINE
  5
1B6
330
1F
100
AcDbEntity
  8
LAYER-006
  6
Continuous
 62
     1
100
AcDbLine
 10
-12.3431914319231
 20
-186.0947519166246
 30
0.0
 11
6.886352947790542
 21
-186.0947519166246
 31
0.0
  0
LINE
  5
1B7
330
1F
100
AcDbEntity
  8
LAYER-006
  6
Continuous
 62
     1
100
AcDbLine
 10
-12.3431914319231
 20
-186.0947519166246
 30
0.0
 11
-12.3431914319231
 21
-191.0394918999798
 31
0.0
  0
LINE
  5
1B8
330
1F
100
AcDbEntity
  8
LAYER-006
  6
Continuous
 62
     1
100
AcDbLine
 10
6.886352947790542
 20
-186.0947519166246
 30
0.0
 11
6.886352947790542
 21
-191.0394918999798
 31
0.0
  0
LINE
  5
1B9
330
1F
100
AcDbEntity
  8
LAYER-006
  6
HIDDEN
 62
     4
100
AcDbLine
 10
264.585799538604
 20
-186.0947519166246
 30
0.0
 11
270.6293706293707
 21
-186.0947519166246
 31
0.0
  0
LINE
  5
1BA
330
1F
100
AcDbEntity
  8
LAYER-006
  6
HIDDEN
 62
     4
100
AcDbLine
 10
280.518845101925
 20
-186.0947519166246
 30
0.0
 11
286.0130061331422
 21
-186.0947519166246
 31
0.0
  0
LINE
  5
1BB
330
1F
100
AcDbEntity
  8
LAYER-006
  6
HIDDEN
 62
     4
100
AcDbLine
 10
286.0130061331422
 20
-186.0947519166246
 30
0.0
 11
286.0130061331422
 21
-188.8418406734662
 31
0.0
  0
LINE
  5
1BC
330
1F
100
AcDbEntity
  8
LAYER-006
  6
HIDDEN
 62
     4
100
AcDbLine
 10
342.0533926111648
 20
-186.0947519166246
 30
0.0
 11
342.0533926111648
 21
-188.8418406734662
 31
0.0
  0
LINE
  5
1BD
330
1F
100
AcDbEntity
  8
LAYER-006
  6
HIDDEN
 62
     4
100
AcDbLine
 10
347.547553642382
 20
-186.0947519166246
 30
0.0
 11
342.0533926111648
 21
-186.0947519166246
 31
0.0
  0
LINE
  5
1BE
330
1F
100
AcDbEntity
  8
LAYER-006
  6
HIDDEN
 62
     4
100
AcDbLine
 10
363.4805992057037
 20
-186.0947519166246
 30
0.0
 11
357.4370281149369
 21
-186.0947519166246
 31
0.0
  0
LINE
  5
1BF
330
1F
100
AcDbEntity
  8
LAYER-006
  6
Continuous
 62
     1
100
AcDbLine
 10
-188.1561741120344
 20
-188.8418406734662
 30
0.0
 11
-168.9266297323208
 21
-188.8418406734662
 31
0.0
  0
LINE
  5
1C0
330
1F
100
AcDbEntity
  8
LAYER-006
  6
Continuous
 62
     1
100
AcDbLine
 10
-100.2496855190335
 20
-188.8418406734662
 30
0.0
 11
-81.02014113934273
 21
-188.8418406734662
 31
0.0
  0
LINE
  5
1C1
330
1F
100
AcDbEntity
  8
LAYER-006
  6
Continuous
 62
     1
100
AcDbLine
 10
-12.3431914319231
 20
-188.8418406734662
 30
0.0
 11
6.886352947790542
 21
-188.8418406734662
 31
0.0
  0
LINE
  5
1C2
330
1F
100
AcDbEntity
  8
LAYER-006
  6
Continuous
 62
     1
100
AcDbLine
 10
247.0044963278681
 20
-188.8418406734662
 30
0.0
 11
247.0044963278681
 21
-196.5336474370406
 31
0.0
  0
LINE
  5
1C3
330
1F
100
AcDbEntity
  8
LAYER-006
  6
Continuous
 62
     1
100
AcDbLine
 10
247.0044963278681
 20
-188.8418406734662
 30
0.0
 11
270.6293706293707
 21
-188.8418406734662
 31
0.0
  0
LINE
  5
1C4
330
1F
100
AcDbEntity
  8
LAYER-006
  6
Continuous
 62
     1
100
AcDbLine
 10
280.518845101925
 20
-188.8418406734662
 30
0.0
 11
286.0130061331422
 21
-188.8418406734662
 31
0.0
  0
LINE
  5
1C5
330
1F
100
AcDbEntity
  8
LAYER-006
  6
Continuous
 62
     1
100
AcDbLine
 10
286.0130061331422
 20
-188.8418406734662
 30
0.0
 11
286.0130061331422
 21
-191.0394918999798
 31
0.0
  0
LINE
  5
1C6
330
1F
100
AcDbEntity
  8
LAYER-006
  6
Continuous
 62
     1
100
AcDbLine
 10
342.0533926111648
 20
-188.8418406734662
 30
0.0
 11
342.0533926111648
 21
-191.0394918999798
 31
0.0
  0
LINE
  5
1C7
330
1F
100
AcDbEntity
  8
LAYER-006
  6
Continuous
 62
     1
100
AcDbLine
 10
347.547553642382
 20
-188.8418406734662
 30
0.0
 11
342.0533926111648
 21
-188.8418406734662
 31
0.0
  0
LINE
  5
1C8
330
1F
100
AcDbEntity
  8
LAYER-006
  6
Continuous
 62
     1
100
AcDbLine
 10
431.5331993721535
 20
-188.8418406734662
 30
0.0
 11
381.0619024162214
 21
-188.8418406734662
 31
0.0
  0
LINE
  5
1C9
330
1F
100
AcDbEntity
  8
LAYER-006
  6
Continuous
 62
     1
100
AcDbLine
 10
381.0619024162214
 20
-188.8418406734662
 30
0.0
 11
381.0619024162214
 21
-196.5336474370406
 31
0.0
  0
LINE
  5
1CA
330
1F
100
AcDbEntity
  8
LAYER-006
  6
Continuous
 62
     1
100
AcDbLine
 10
381.0619024162214
 20
-188.8418406734662
 30
0.0
 11
357.4370281149369
 21
-188.8418406734662
 31
0.0
  0
LINE
  5
1CB
330
1F
100
AcDbEntity
  8
LAYER-006
  6
Continuous
 62
     1
100
AcDbLine
 10
-188.1561741120344
 20
-191.0394918999798
 30
0.0
 11
-168.9266297323208
 21
-191.0394918999798
 31
0.0
  0
LINE
  5
1CC
330
1F
100
AcDbEntity
  8
LAYER-006
  6
Continuous
 62
     1
100
AcDbLine
 10
-185.9585173913656
 20
-191.0394918999798
 30
0.0
 11
-185.9585173913656
 21
-200.9289773608454
 31
0.0
  0
LINE
  5
1CD
330
1F
100
AcDbEntity
  8
LAYER-006
  6
Continuous
 62
     1
100
AcDbLine
 10
-182.1126030212672
 20
-191.0394918999798
 30
0.0
 11
-182.1126030212672
 21
-200.9289773608454
 31
0.0
  0
LINE
  5
1CE
330
1F
100
AcDbEntity
  8
LAYER-006
  6
Continuous
 62
     1
100
AcDbLine
 10
-174.9702063172432
 20
-191.0394918999798
 30
0.0
 11
-174.9702063172432
 21
-200.9289773608454
 31
0.0
  0
LINE
  5
1CF
330
1F
100
AcDbEntity
  8
LAYER-006
  6
Continuous
 62
     1
100
AcDbLine
 10
-171.1242919471448
 20
-191.0394918999798
 30
0.0
 11
-171.1242919471448
 21
-200.9289773608454
 31
0.0
  0
LINE
  5
1D0
330
1F
100
AcDbEntity
  8
LAYER-006
  6
Continuous
 62
     1
100
AcDbLine
 10
-100.2496855190335
 20
-191.0394918999798
 30
0.0
 11
-81.02014113934273
 21
-191.0394918999798
 31
0.0
  0
LINE
  5
1D1
330
1F
100
AcDbEntity
  8
LAYER-006
  6
Continuous
 62
     1
100
AcDbLine
 10
-98.05202879838755
 20
-191.0394918999798
 30
0.0
 11
-98.05202879838755
 21
-200.9289773608454
 31
0.0
  0
LINE
  5
1D2
330
1F
100
AcDbEntity
  8
LAYER-006
  6
Continuous
 62
     1
100
AcDbLine
 10
-94.20611442828916
 20
-191.0394918999798
 30
0.0
 11
-94.20611442828916
 21
-200.9289773608454
 31
0.0
  0
LINE
  5
1D3
330
1F
100
AcDbEntity
  8
LAYER-006
  6
Continuous
 62
     1
100
AcDbLine
 10
-87.06371772426515
 20
-191.0394918999798
 30
0.0
 11
-87.06371772426515
 21
-200.9289773608454
 31
0.0
  0
LINE
  5
1D4
330
1F
100
AcDbEntity
  8
LAYER-006
  6
Continuous
 62
     1
100
AcDbLine
 10
-83.21780335416673
 20
-191.0394918999798
 30
0.0
 11
-83.21780335416673
 21
-200.9289773608454
 31
0.0
  0
LINE
  5
1D5
330
1F
100
AcDbEntity
  8
LAYER-006
  6
Continuous
 62
     1
100
AcDbLine
 10
-12.3431914319231
 20
-191.0394918999798
 30
0.0
 11
6.886352947790542
 21
-191.0394918999798
 31
0.0
  0
LINE
  5
1D6
330
1F
100
AcDbEntity
  8
LAYER-006
  6
Continuous
 62
     1
100
AcDbLine
 10
-10.1455347112543
 20
-191.0394918999798
 30
0.0
 11
-10.1455347112543
 21
-200.9289773608454
 31
0.0
  0
LINE
  5
1D7
330
1F
100
AcDbEntity
  8
LAYER-006
  6
Continuous
 62
     1
100
AcDbLine
 10
-6.299620341155887
 20
-191.0394918999798
 30
0.0
 11
-6.299620341155887
 21
-200.9289773608454
 31
0.0
  0
LINE
  5
1D8
330
1F
100
AcDbEntity
  8
LAYER-006
  6
Continuous
 62
     1
100
AcDbLine
 10
0.842776362868122
 20
-191.0394918999798
 30
0.0
 11
0.842776362868122
 21
-200.9289773608454
 31
0.0
  0
LINE
  5
1D9
330
1F
100
AcDbEntity
  8
LAYER-006
  6
Continuous
 62
     1
100
AcDbLine
 10
4.688690732966521
 20
-191.0394918999798
 30
0.0
 11
4.688690732966521
 21
-200.9289773608454
 31
0.0
  0
LINE
  5
1DA
330
1F
100
AcDbEntity
  8
LAYER-006
  6
Continuous
 62
     1
100
AcDbLine
 10
264.585799538604
 20
-191.0394918999798
 30
0.0
 11
259.0916440015423
 21
-196.5336474370406
 31
0.0
  0
LINE
  5
1DB
330
1F
100
AcDbEntity
  8
LAYER-006
  6
Continuous
 62
     1
100
AcDbLine
 10
264.585799538604
 20
-191.0394918999798
 30
0.0
 11
270.6293706293707
 21
-191.0394918999798
 31
0.0
  0
LINE
  5
1DC
330
1F
100
AcDbEntity
  8
LAYER-006
  6
Continuous
 62
     1
100
AcDbLine
 10
267.8822928608407
 20
-191.0394918999798
 30
0.0
 11
267.8822928608407
 21
-200.9289773608454
 31
0.0
  0
LINE
  5
1DD
330
1F
100
AcDbEntity
  8
LAYER-006
  6
Continuous
 62
     1
100
AcDbLine
 10
280.518845101925
 20
-191.0394918999798
 30
0.0
 11
286.0130061331422
 21
-191.0394918999798
 31
0.0
  0
LINE
  5
1DE
330
1F
100
AcDbEntity
  8
LAYER-006
  6
Continuous
 62
     1
100
AcDbLine
 10
282.716518305061
 20
-191.0394918999798
 30
0.0
 11
282.716518305061
 21
-200.9289773608454
 31
0.0
  0
LINE
  5
1DF
330
1F
100
AcDbEntity
  8
LAYER-006
  6
Continuous
 62
     1
100
AcDbLine
 10
345.3498804392467
 20
-191.0394918999798
 30
0.0
 11
345.3498804392467
 21
-200.9289773608454
 31
0.0
  0
LINE
  5
1E0
330
1F
100
AcDbEntity
  8
LAYER-006
  6
Continuous
 62
     1
100
AcDbLine
 10
347.547553642382
 20
-191.0394918999798
 30
0.0
 11
342.0533926111648
 21
-191.0394918999798
 31
0.0
  0
LINE
  5
1E1
330
1F
100
AcDbEntity
  8
LAYER-006
  6
Continuous
 62
     1
100
AcDbLine
 10
360.1841058834668
 20
-191.0394918999798
 30
0.0
 11
360.1841058834668
 21
-200.9289773608454
 31
0.0
  0
LINE
  5
1E2
330
1F
100
AcDbEntity
  8
LAYER-006
  6
Continuous
 62
     1
100
AcDbLine
 10
363.4805992057037
 20
-191.0394918999798
 30
0.0
 11
368.9747547427647
 21
-196.5336474370406
 31
0.0
  0
LINE
  5
1E3
330
1F
100
AcDbEntity
  8
LAYER-006
  6
Continuous
 62
     1
100
AcDbLine
 10
363.4805992057037
 20
-191.0394918999798
 30
0.0
 11
357.4370281149369
 21
-191.0394918999798
 31
0.0
  0
LINE
  5
1E4
330
1F
100
AcDbEntity
  8
LAYER-006
  6
Continuous
 62
     1
100
AcDbLine
 10
247.0044963278681
 20
-196.5336474370406
 30
0.0
 11
259.0916440015423
 21
-196.5336474370406
 31
0.0
  0
LINE
  5
1E5
330
1F
100
AcDbEntity
  8
LAYER-006
  6
Continuous
 62
     1
100
AcDbLine
 10
381.0619024162214
 20
-196.5336474370406
 30
0.0
 11
368.9747547427647
 21
-196.5336474370406
 31
0.0
  0
LINE
  5
1E6
330
1F
100
AcDbEntity
  8
LAYER-006
  6
Continuous
 62
     1
100
AcDbLine
 10
-248.409626600208
 20
-200.9289773608454
 30
0.0
 11
66.59037339979199
 21
-200.9289773608454
 31
0.0
  0
LINE
  5
1E7
330
1F
100
AcDbEntity
  8
LAYER-006
  6
Continuous
 62
     1
100
AcDbLine
 10
66.59037339979197
 20
-200.9289773608454
 30
0.0
 11
66.59037339979197
 21
-214.6643662034982
 31
0.0
  0
LINE
  5
1E8
330
1F
100
AcDbEntity
  8
LAYER-006
  6
Continuous
 62
     1
100
AcDbLine
 10
259.0916440015423
 20
-200.9289773608454
 30
0.0
 11
292.0565772239096
 21
-200.9289773608454
 31
0.0
  0
LINE
  5
1E9
330
1F
100
AcDbEntity
  8
LAYER-006
  6
Continuous
 62
     1
100
AcDbLine
 10
292.0565772239096
 20
-200.9289773608454
 30
0.0
 11
292.0565772239096
 21
-214.6643662034982
 31
0.0
  0
LINE
  5
1EA
330
1F
100
AcDbEntity
  8
LAYER-006
  6
Continuous
 62
     1
100
AcDbLine
 10
336.009821520398
 20
-200.9289773608454
 30
0.0
 11
336.009821520398
 21
-214.6643662034982
 31
0.0
  0
LINE
  5
1EB
330
1F
100
AcDbEntity
  8
LAYER-006
  6
Continuous
 62
     1
100
AcDbLine
 10
368.9747547427647
 20
-200.9289773608454
 30
0.0
 11
336.009821520398
 21
-200.9289773608454
 31
0.0
  0
LINE
  5
1EC
330
1F
100
AcDbEntity
  8
LAYER-006
  6
Continuous
 62
     1
100
AcDbLine
 10
-248.409626600208
 20
-214.6643662034982
 30
0.0
 11
-248.409626600208
 21
-200.9289773608454
 31
0.0
  0
LINE
  5
1ED
330
1F
100
AcDbEntity
  8
LAYER-006
  6
Continuous
 62
     1
100
AcDbLine
 10
-188.1561741120344
 20
-214.6643662034982
 30
0.0
 11
-188.1561741120344
 21
-217.4114439720288
 31
0.0
  0
LINE
  5
1EE
330
1F
100
AcDbEntity
  8
LAYER-006
  6
Continuous
 62
     1
100
AcDbLine
 10
-168.9266297323209
 20
-214.6643662034982
 30
0.0
 11
-168.9266297323209
 21
-217.4114439720288
 31
0.0
  0
LINE
  5
1EF
330
1F
100
AcDbEntity
  8
LAYER-006
  6
Continuous
 62
     1
100
AcDbLine
 10
-100.2496855190335
 20
-214.6643662034982
 30
0.0
 11
-100.2496855190335
 21
-217.4114439720288
 31
0.0
  0
LINE
  5
1F0
330
1F
100
AcDbEntity
  8
LAYER-006
  6
Continuous
 62
     1
100
AcDbLine
 10
-81.0201411393428
 20
-214.6643662034982
 30
0.0
 11
-81.0201411393428
 21
-217.4114439720288
 31
0.0
  0
LINE
  5
1F1
330
1F
100
AcDbEntity
  8
LAYER-006
  6
Continuous
 62
     1
100
AcDbLine
 10
-12.3431914319231
 20
-214.6643662034982
 30
0.0
 11
-12.3431914319231
 21
-217.4114439720288
 31
0.0
  0
LINE
  5
1F2
330
1F
100
AcDbEntity
  8
LAYER-006
  6
Continuous
 62
     1
100
AcDbLine
 10
6.886352947790456
 20
-214.6643662034982
 30
0.0
 11
6.886352947790456
 21
-217.4114439720288
 31
0.0
  0
LINE
  5
1F3
330
1F
100
AcDbEntity
  8
LAYER-006
  6
Continuous
 62
     1
100
AcDbLine
 10
66.59037339979197
 20
-214.6643662034982
 30
0.0
 11
-248.409626600208
 21
-214.6643662034982
 31
0.0
  0
LINE
  5
1F4
330
1F
100
AcDbEntity
  8
LAYER-006
  6
Continuous
 62
     1
100
AcDbLine
 10
259.0916440015423
 20
-214.6643662034982
 30
0.0
 11
259.0916440015423
 21
-200.9289773608454
 31
0.0
  0
LINE
  5
1F5
330
1F
100
AcDbEntity
  8
LAYER-006
  6
Continuous
 62
     1
100
AcDbLine
 10
265.5716107378959
 20
-214.6643662034982
 30
0.0
 11
265.5716107378959
 21
-217.2278489723439
 31
0.0
  0
LINE
  5
1F6
330
1F
100
AcDbEntity
  8
LAYER-006
  6
Continuous
 62
     1
100
AcDbLine
 10
284.8011551170246
 20
-214.6643662034982
 30
0.0
 11
284.8011551170246
 21
-217.2278489723439
 31
0.0
  0
LINE
  5
1F7
330
1F
100
AcDbEntity
  8
LAYER-006
  6
Continuous
 62
     1
100
AcDbLine
 10
292.0565772239096
 20
-214.6643662034982
 30
0.0
 11
259.0916440015423
 21
-214.6643662034982
 31
0.0
  0
LINE
  5
1F8
330
1F
100
AcDbEntity
  8
LAYER-006
  6
Continuous
 62
     1
100
AcDbLine
 10
336.009821520398
 20
-214.6643662034982
 30
0.0
 11
368.9747547427647
 21
-214.6643662034982
 31
0.0
  0
LINE
  5
1F9
330
1F
100
AcDbEntity
  8
LAYER-006
  6
Continuous
 62
     1
100
AcDbLine
 10
343.2652436272824
 20
-214.6643662034982
 30
0.0
 11
343.2652436272824
 21
-217.2278489723439
 31
0.0
  0
LINE
  5
1FA
330
1F
100
AcDbEntity
  8
LAYER-006
  6
Continuous
 62
     1
100
AcDbLine
 10
362.4947880064117
 20
-214.6643662034982
 30
0.0
 11
362.4947880064117
 21
-217.2278489723439
 31
0.0
  0
LINE
  5
1FB
330
1F
100
AcDbEntity
  8
LAYER-006
  6
Continuous
 62
     1
100
AcDbLine
 10
368.9747547427647
 20
-214.6643662034982
 30
0.0
 11
368.9747547427647
 21
-200.9289773608454
 31
0.0
  0
LINE
  5
1FC
330
1F
100
AcDbEntity
  8
LAYER-006
  6
Continuous
 62
     1
100
AcDbLine
 10
-188.1561741120344
 20
-217.4114439720288
 30
0.0
 11
-168.9266297323209
 21
-217.4114439720288
 31
0.0
  0
LINE
  5
1FD
330
1F
100
AcDbEntity
  8
LAYER-006
  6
Continuous
 62
     1
100
AcDbLine
 10
-100.2496855190335
 20
-217.4114439720288
 30
0.0
 11
-81.0201411393428
 21
-217.4114439720288
 31
0.0
  0
LINE
  5
1FE
330
1F
100
AcDbEntity
  8
LAYER-006
  6
Continuous
 62
     1
100
AcDbLine
 10
-12.3431914319231
 20
-217.4114439720288
 30
0.0
 11
6.886352947790456
 21
-217.4114439720288
 31
0.0
  0
LINE
  5
1FF
330
1F
100
AcDbEntity
  8
LAYER-006
  6
Continuous
 62
     1
100
AcDbLine
 10
270.0799550756651
 20
-217.2278489723439
 30
0.0
 11
265.5716107378959
 21
-217.2278489723439
 31
0.0
  0
LINE
  5
200
330
1F
100
AcDbEntity
  8
LAYER-006
  6
Continuous
 62
     1
100
AcDbLine
 10
284.8011551170246
 20
-217.2278489723439
 30
0.0
 11
281.0682661497873
 21
-217.2278489723439
 31
0.0
  0
LINE
  5
201
330
1F
100
AcDbEntity
  8
LAYER-006
  6
Continuous
 62
     1
100
AcDbLine
 10
343.2652436272824
 20
-217.2278489723439
 30
0.0
 11
346.9981325945203
 21
-217.2278489723439
 31
0.0
  0
LINE
  5
202
330
1F
100
AcDbEntity
  8
LAYER-006
  6
Continuous
 62
     1
100
AcDbLine
 10
357.9864436686426
 20
-217.2278489723439
 30
0.0
 11
362.4947880064117
 21
-217.2278489723439
 31
0.0
  0
LINE
  5
203
330
1F
100
AcDbEntity
  8
LAYER-006
  6
Continuous
 62
     1
100
AcDbLine
 10
-185.9585173913656
 20
-225.9526255350008
 30
0.0
 11
-185.9585173913656
 21
-217.4114439720288
 31
0.0
  0
LINE
  5
204
330
1F
100
AcDbEntity
  8
LAYER-006
  6
Continuous
 62
     1
100
AcDbLine
 10
-185.9585173913656
 20
-225.9526255350008
 30
0.0
 11
-171.1242919471448
 21
-225.9526255350008
 31
0.0
  0
LINE
  5
205
330
1F
100
AcDbEntity
  8
LAYER-006
  6
Continuous
 62
     1
100
AcDbLine
 10
-182.1126030212672
 20
-225.9526255350008
 30
0.0
 11
-182.1126030212672
 21
-217.4114439720288
 31
0.0
  0
LINE
  5
206
330
1F
100
AcDbEntity
  8
LAYER-006
  6
Continuous
 62
     1
100
AcDbLine
 10
-174.9702063172432
 20
-225.9526255350008
 30
0.0
 11
-174.9702063172432
 21
-217.4114439720288
 31
0.0
  0
LINE
  5
207
330
1F
100
AcDbEntity
  8
LAYER-006
  6
Continuous
 62
     1
100
AcDbLine
 10
-171.1242919471448
 20
-225.9526255350008
 30
0.0
 11
-171.1242919471448
 21
-217.4114439720288
 31
0.0
  0
LINE
  5
208
330
1F
100
AcDbEntity
  8
LAYER-006
  6
Continuous
 62
     1
100
AcDbLine
 10
-98.05202879838755
 20
-225.9526255350008
 30
0.0
 11
-98.05202879838755
 21
-217.4114439720288
 31
0.0
  0
LINE
  5
209
330
1F
100
AcDbEntity
  8
LAYER-006
  6
Continuous
 62
     1
100
AcDbLine
 10
-98.05202879838755
 20
-225.9526255350008
 30
0.0
 11
-83.21780335416673
 21
-225.9526255350008
 31
0.0
  0
LINE
  5
20A
330
1F
100
AcDbEntity
  8
LAYER-006
  6
Continuous
 62
     1
100
AcDbLine
 10
-94.20611442828916
 20
-225.9526255350008
 30
0.0
 11
-94.20611442828916
 21
-217.4114439720288
 31
0.0
  0
LINE
  5
20B
330
1F
100
AcDbEntity
  8
LAYER-006
  6
Continuous
 62
     1
100
AcDbLine
 10
-87.06371772426515
 20
-225.9526255350008
 30
0.0
 11
-87.06371772426515
 21
-217.4114439720288
 31
0.0
  0
LINE
  5
20C
330
1F
100
AcDbEntity
  8
LAYER-006
  6
Continuous
 62
     1
100
AcDbLine
 10
-83.21780335416673
 20
-225.9526255350008
 30
0.0
 11
-83.21780335416673
 21
-217.4114439720288
 31
0.0
  0
LINE
  5
20D
330
1F
100
AcDbEntity
  8
LAYER-006
  6
Continuous
 62
     1
100
AcDbLine
 10
-10.1455347112543
 20
-225.9526255350008
 30
0.0
 11
-10.1455347112543
 21
-217.4114439720288
 31
0.0
  0
LINE
  5
20E
330
1F
100
AcDbEntity
  8
LAYER-006
  6
Continuous
 62
     1
100
AcDbLine
 10
-10.1455347112543
 20
-225.9526255350008
 30
0.0
 11
4.688690732966521
 21
-225.9526255350008
 31
0.0
  0
LINE
  5
20F
330
1F
100
AcDbEntity
  8
LAYER-006
  6
Continuous
 62
     1
100
AcDbLine
 10
-6.299620341155887
 20
-225.9526255350008
 30
0.0
 11
-6.299620341155887
 21
-217.4114439720288
 31
0.0
  0
LINE
  5
210
330
1F
100
AcDbEntity
  8
LAYER-006
  6
Continuous
 62
     1
100
AcDbLine
 10
0.842776362868122
 20
-225.9526255350008
 30
0.0
 11
0.842776362868122
 21
-217.4114439720288
 31
0.0
  0
LINE
  5
211
330
1F
100
AcDbEntity
  8
LAYER-006
  6
Continuous
 62
     1
100
AcDbLine
 10
4.688690732966521
 20
-225.9526255350008
 30
0.0
 11
4.688690732966521
 21
-217.4114439720288
 31
0.0
  0
LINE
  5
212
330
1F
100
AcDbEntity
  8
LAYER-006
  6
Continuous
 62
     1
100
AcDbLine
 10
267.7692729499701
 20
-225.7690305353159
 30
0.0
 11
267.7692729499701
 21
-217.2278489723439
 31
0.0
  0
LINE
  5
213
330
1F
100
AcDbEntity
  8
LAYER-006
  6
Continuous
 62
     1
100
AcDbLine
 10
270.0799550756651
 20
-225.7690305353159
 30
0.0
 11
267.7692729499701
 21
-225.7690305353159
 31
0.0
  0
LINE
  5
214
330
1F
100
AcDbEntity
  8
LAYER-006
  6
Continuous
 62
     1
100
AcDbLine
 10
282.6034983964976
 20
-225.7690305353159
 30
0.0
 11
282.6034983964976
 21
-217.2278489723439
 31
0.0
  0
LINE
  5
215
330
1F
100
AcDbEntity
  8
LAYER-006
  6
Continuous
 62
     1
100
AcDbLine
 10
282.6034983964976
 20
-225.7690305353159
 30
0.0
 11
281.0682661497873
 21
-225.7690305353159
 31
0.0
  0
LINE
  5
216
330
1F
100
AcDbEntity
  8
LAYER-006
  6
Continuous
 62
     1
100
AcDbLine
 10
345.4629003478101
 20
-225.7690305353159
 30
0.0
 11
345.4629003478101
 21
-217.2278489723439
 31
0.0
  0
LINE
  5
217
330
1F
100
AcDbEntity
  8
LAYER-006
  6
Continuous
 62
     1
100
AcDbLine
 10
345.4629003478101
 20
-225.7690305353159
 30
0.0
 11
346.9981325945203
 21
-225.7690305353159
 31
0.0
  0
LINE
  5
218
330
1F
100
AcDbEntity
  8
LAYER-006
  6
Continuous
 62
     1
100
AcDbLine
 10
357.9864436686426
 20
-225.7690305353159
 30
0.0
 11
360.2971257943376
 21
-225.7690305353159
 31
0.0
  0
LINE
  5
219
330
1F
100
AcDbEntity
  8
LAYER-006
  6
Continuous
 62
     1
100
AcDbLine
 10
360.2971257943376
 20
-225.7690305353159
 30
0.0
 11
360.2971257943376
 21
-217.2278489723439
 31
0.0
  0
LINE
  5
21A
330
1F
100
AcDbEntity
  8
LAYER-006
  6
Continuous
 62
     1
100
AcDbLine
 10
-248.409626600208
 20
-246.3157974773602
 30
0.0
 11
66.59037339979199
 21
-246.3157974773602
 31
0.0
  0
LINE
  5
21B
330
1F
100
AcDbEntity
  8
LAYER-006
  6
Continuous
 62
     1
100
AcDbLine
 10
66.59037339979197
 20
-246.3157974773602
 30
0.0
 11
66.59037339979197
 21
-431.3157974773602
 31
0.0
  0
LINE
  5
21C
330
1F
100
AcDbEntity
  8
LAYER-007
  6
HIDDEN
 62
     1
100
AcDbLine
 10
-248.409626600208
 20
-252.3157974773602
 30
0.0
 11
66.59037339979199
 21
-252.3157974773602
 31
0.0
  0
LINE
  5
21D
330
1F
100
AcDbEntity
  8
LAYER-007
  6
Continuous
 62
     4
100
AcDbLine
 10
34.09037339979197
 20
-261.4263120164947
 30
0.0
 11
34.09037339979197
 21
-280.655856396209
 31
0.0
  0
LINE
  5
21E
330
1F
100
AcDbEntity
  8
LAYER-007
  6
CENTER
 62
     4
100
AcDbLine
 10
-240.409626600208
 20
-262.5251431226689
 30
0.0
 11
-240.409626600208
 21
-280.655856396209
 31
0.0
  0
LINE
  5
21F
330
1F
100
AcDbEntity
  8
LAYER-007
  6
CENTER
 62
     4
100
AcDbLine
 10
58.59037339979197
 20
-262.5251431226689
 30
0.0
 11
58.59037339979197
 21
-280.655856396209
 31
0.0
  0
LINE
  5
220
330
1F
100
AcDbEntity
  8
LAYER-007
  6
Continuous
 62
     4
100
AcDbLine
 10
-215.909626600208
 20
-263.0745641717685
 30
0.0
 11
-215.909626600208
 21
-280.1064408425024
 31
0.0
  0
LINE
  5
221
330
1F
100
AcDbEntity
  8
LAYER-006
  6
Continuous
 62
     1
100
AcDbLine
 10
240.7919715616011
 20
-263.6239852196302
 30
0.0
 11
240.7919715616011
 21
-280.1064518308133
 31
0.0
  0
LINE
  5
222
330
1F
100
AcDbEntity
  8
LAYER-006
  6
Continuous
 62
     1
100
AcDbLine
 10
249.0331993721535
 20
-263.6239852196302
 30
0.0
 11
240.7919715616011
 21
-263.6239852196302
 31
0.0
  0
LINE
  5
223
330
1F
100
AcDbEntity
  8
LAYER-006
  6
Continuous
 62
     1
100
AcDbLine
 10
379.0331993721535
 20
-263.6239852196302
 30
0.0
 11
387.2744326777453
 21
-263.6239852196302
 31
0.0
  0
LINE
  5
224
330
1F
100
AcDbEntity
  8
LAYER-006
  6
Continuous
 62
     1
100
AcDbLine
 10
387.2744326777453
 20
-263.6239852196302
 30
0.0
 11
387.2744326777453
 21
-280.1064518308133
 31
0.0
  0
LINE
  5
225
330
1F
100
AcDbEntity
  8
LAYER-006
  6
Continuous
 62
     1
100
AcDbLine
 10
235.2978160245401
 20
-267.4698886013602
 30
0.0
 11
235.2978160245401
 21
-275.7111219070091
 31
0.0
  0
LINE
  5
226
330
1F
100
AcDbEntity
  8
LAYER-006
  6
Continuous
 62
     1
100
AcDbLine
 10
249.0331993721535
 20
-267.4698886013602
 30
0.0
 11
235.2978160245401
 21
-267.4698886013602
 31
0.0
  0
LINE
  5
227
330
1F
100
AcDbEntity
  8
LAYER-006
  6
Continuous
 62
     1
100
AcDbLine
 10
257.7802771398008
 20
-267.4698886013602
 30
0.0
 11
370.2861216036237
 21
-267.4698886013602
 31
0.0
  0
LINE
  5
228
330
1F
100
AcDbEntity
  8
LAYER-006
  6
Continuous
 62
     1
100
AcDbLine
 10
379.0331993721535
 20
-267.4698886013602
 30
0.0
 11
392.7685882148063
 21
-267.4698886013602
 31
0.0
  0
LINE
  5
229
330
1F
100
AcDbEntity
  8
LAYER-006
  6
Continuous
 62
     1
100
AcDbLine
 10
392.7685882148063
 20
-267.4698886013602
 30
0.0
 11
392.7685882148063
 21
-275.7111219070091
 31
0.0
  0
LINE
  5
22A
330
1F
100
AcDbEntity
  8
LAYER-007
  6
CENTER
 62
     4
100
AcDbLine
 10
237.8606153624386
 20
-271.3157974773602
 30
0.0
 11
392.4594421341629
 21
-271.3157974773602
 31
0.0
  0
LINE
  5
22B
330
1F
100
AcDbEntity
  8
LAYER-007
  6
CENTER
 62
     4
100
AcDbLine
 10
-245.903782137597
 20
-271.3157974773602
 30
0.0
 11
-234.9154710634753
 21
-271.3157974773602
 31
0.0
  0
LINE
  5
22C
330
1F
100
AcDbEntity
  8
LAYER-007
  6
CENTER
 62
     4
100
AcDbLine
 10
-223.052034292543
 20
-271.3157974773602
 30
0.0
 11
-208.2178088483221
 21
-271.3157974773602
 31
0.0
  0
CIRCLE
  5
22D
330
1F
100
AcDbEntity
  8
LAYER-006
  6
Continuous
 62
     5
100
AcDbCircle
 10
-215.909626600208
 20
-271.3157974773602
 30
0.0
 40
3.845903381787253
  0
LINE
  5
22E
330
1F
100
AcDbEntity
  8
LAYER-007
  6
CENTER
 62
     4
100
AcDbLine
 10
26.94797120161276
 20
-271.3157974773602
 30
0.0
 11
41.7821966458328
 21
-271.3157974773602
 31
0.0
  0
CIRCLE
  5
22F
330
1F
100
AcDbEntity
  8
LAYER-006
  6
Continuous
 62
     5
100
AcDbCircle
 10
34.09037339979197
 20
-271.3157974773602
 30
0.0
 40
3.845903381787253
  0
LINE
  5
230
330
1F
100
AcDbEntity
  8
LAYER-007
  6
CENTER
 62
     4
100
AcDbLine
 10
53.09621786273114
 20
-271.3157974773602
 30
0.0
 11
64.08452893685355
 21
-271.3157974773602
 31
0.0
  0
LINE
  5
231
330
1F
100
AcDbEntity
  8
LAYER-006
  6
Continuous
 62
     1
100
AcDbLine
 10
249.0331993721535
 20
-275.7111219070091
 30
0.0
 11
235.2978160245401
 21
-275.7111219070091
 31
0.0
  0
LINE
  5
232
330
1F
100
AcDbEntity
  8
LAYER-006
  6
Continuous
 62
     1
100
AcDbLine
 10
257.7802771398008
 20
-275.7111219070091
 30
0.0
 11
370.2861216036237
 21
-275.7111219070091
 31
0.0
  0
LINE
  5
233
330
1F
100
AcDbEntity
  8
LAYER-006
  6
Continuous
 62
     1
100
AcDbLine
 10
379.0331993721535
 20
-275.7111219070091
 30
0.0
 11
392.7685882148063
 21
-275.7111219070091
 31
0.0
  0
LINE
  5
234
330
1F
100
AcDbEntity
  8
LAYER-006
  6
Continuous
 62
     1
100
AcDbLine
 10
249.0331993721535
 20
-280.1064518308133
 30
0.0
 11
240.7919715616011
 21
-280.1064518308133
 31
0.0
  0
LINE
  5
235
330
1F
100
AcDbEntity
  8
LAYER-006
  6
Continuous
 62
     1
100
AcDbLine
 10
379.0331993721535
 20
-280.1064518308133
 30
0.0
 11
387.2744326777453
 21
-280.1064518308133
 31
0.0
  0
LINE
  5
236
330
1F
100
AcDbEntity
  8
LAYER-006
  6
Continuous
 62
     1
100
AcDbLine
 10
-248.409626600208
 20
-296.3157974773602
 30
0.0
 11
66.59037339979199
 21
-296.3157974773602
 31
0.0
  0
LINE
  5
237
330
1F
100
AcDbEntity
  8
LAYER-006
  6
Continuous
 62
     1
100
AcDbLine
 10
-190.909626600208
 20
-296.3157974773602
 30
0.0
 11
-190.909626600208
 21
-308.0371136107181
 31
0.0
  0
LINE
  5
238
330
1F
100
AcDbEntity
  8
LAYER-006
  6
Continuous
 62
     1
100
AcDbLine
 10
9.090373399791986
 20
-296.3157974773602
 30
0.0
 11
9.090373399791986
 21
-308.0371136107181
 31
0.0
  0
LINE
  5
239
330
1F
100
AcDbEntity
  8
LAYER-006
  6
Continuous
 62
     1
100
AcDbLine
 10
216.5331993721535
 20
-308.0371136107181
 30
0.0
 11
411.5331993721535
 21
-308.0371136107181
 31
0.0
  0
LINE
  5
23A
330
1F
100
AcDbEntity
  8
LAYER-033
  6
Continuous
 62
     5
100
AcDbLine
 10
50.59037339979197
 20
-342.8567087179324
 30
0.0
 11
66.59037339979199
 21
-342.8567087179324
 31
0.0
  0
LINE
  5
23B
330
1F
100
AcDbEntity
  8
LAYER-033
  6
CENTER
 62
     5
100
AcDbLine
 10
58.59037339979197
 20
-344.9642652834464
 30
0.0
 11
58.59037339979197
 21
-354.4845409950711
 31
0.0
  0
LINE
  5
23C
330
1F
100
AcDbEntity
  8
LAYER-033
  6
HIDDEN
 62
     5
100
AcDbLine
 10
255.0331993721535
 20
-342.8567087179324
 30
0.0
 11
257.7802771398008
 21
-342.8567087179324
 31
0.0
  0
LINE
  5
23D
330
1F
100
AcDbEntity
  8
LAYER-033
  6
CENTER
 62
     5
100
AcDbLine
 10
53.83023554397964
 20
-349.7244031392588
 30
0.0
 11
63.3505112556043
 21
-349.7244031392588
 31
0.0
  0
CIRCLE
  5
23E
330
1F
100
AcDbEntity
  8
LAYER-033
  6
Continuous
 62
     5
100
AcDbCircle
 10
58.59037339979197
 20
-349.7244031392588
 30
0.0
 40
2.670456138506594
  0
LINE
  5
23F
330
1F
100
AcDbEntity
  8
LAYER-033
  6
HIDDEN
 62
     5
100
AcDbLine
 10
255.0331993721535
 20
-356.5920975605852
 30
0.0
 11
257.7802771398008
 21
-356.5920975605852
 31
0.0
  0
LINE
  5
240
330
1F
100
AcDbEntity
  8
LAYER-033
  6
Continuous
 62
     5
100
AcDbLine
 10
50.59037339979197
 20
-356.5920975605852
 30
0.0
 11
66.59037339979199
 21
-356.5920975605852
 31
0.0
  0
LINE
  5
241
330
1F
100
AcDbEntity
  8
LAYER-006
  6
Continuous
 62
     1
100
AcDbLine
 10
-190.909626600208
 20
-370.3274918973798
 30
0.0
 11
-190.909626600208
 21
-381.3157974773602
 31
0.0
  0
LINE
  5
242
330
1F
100
AcDbEntity
  8
LAYER-006
  6
Continuous
 62
     1
100
AcDbLine
 10
9.090373399791986
 20
-370.3274918973798
 30
0.0
 11
9.090373399791986
 21
-381.3157974773602
 31
0.0
  0
LINE
  5
243
330
1F
100
AcDbEntity
  8
LAYER-006
  6
Continuous
 62
     1
100
AcDbLine
 10
411.5331993721535
 20
-370.3274918973938
 30
0.0
 11
216.5331993721535
 21
-370.3274918973938
 31
0.0
  0
LINE
  5
244
330
1F
100
AcDbEntity
  8
LAYER-006
  6
Continuous
 62
     1
100
AcDbLine
 10
-248.409626600208
 20
-381.3157974773602
 30
0.0
 11
66.59037339979199
 21
-381.3157974773602
 31
0.0
  0
LINE
  5
245
330
1F
100
AcDbEntity
  8
LAYER-006
  6
Continuous
 62
     1
100
AcDbLine
 10
-226.8979376743302
 20
-381.3157974773602
 30
0.0
 11
-226.8979376743302
 21
-431.3157974773602
 31
0.0
  0
LINE
  5
246
330
1F
100
AcDbEntity
  8
LAYER-006
  6
Continuous
 62
     1
100
AcDbLine
 10
-204.9213155260857
 20
-381.3157974773602
 30
0.0
 11
-204.9213155260857
 21
-431.3157974773602
 31
0.0
  0
LINE
  5
247
330
1F
100
AcDbEntity
  8
LAYER-006
  6
Continuous
 62
     1
100
AcDbLine
 10
23.10206232566955
 20
-381.3157974773602
 30
0.0
 11
23.10206232566955
 21
-431.3157974773602
 31
0.0
  0
LINE
  5
248
330
1F
100
AcDbEntity
  8
LAYER-006
  6
Continuous
 62
     1
100
AcDbLine
 10
45.07868447391424
 20
-381.3157974773602
 30
0.0
 11
45.07868447391424
 21
-431.3157974773602
 31
0.0
  0
LINE
  5
249
330
1F
100
AcDbEntity
  8
LAYER-007
  6
CENTER
 62
     4
100
AcDbLine
 10
-240.409626600208
 20
-397.5251541122178
 30
0.0
 11
-240.409626600208
 21
-415.6558673845552
 31
0.0
  0
LINE
  5
24A
330
1F
100
AcDbEntity
  8
LAYER-007
  6
CENTER
 62
     4
100
AcDbLine
 10
58.59037339979197
 20
-397.5251541122178
 30
0.0
 11
58.59037339979197
 21
-415.6558673845552
 31
0.0
  0
LINE
  5
24B
330
1F
100
AcDbEntity
  8
LAYER-007
  6
CENTER
 62
     4
100
AcDbLine
 10
34.09037339979197
 20
-398.6239797254744
 30
0.0
 11
34.09037339979197
 21
-415.1064518308133
 31
0.0
  0
LINE
  5
24C
330
1F
100
AcDbEntity
  8
LAYER-006
  6
Continuous
 62
     1
100
AcDbLine
 10
234.7919715607173
 20
-398.6239797254744
 30
0.0
 11
234.7919715607173
 21
-415.1064518308133
 31
0.0
  0
LINE
  5
24D
330
1F
100
AcDbEntity
  8
LAYER-006
  6
Continuous
 62
     1
100
AcDbLine
 10
243.0331993721535
 20
-398.6239797254744
 30
0.0
 11
234.7919715607173
 21
-398.6239797254744
 31
0.0
  0
LINE
  5
24E
330
1F
100
AcDbEntity
  8
LAYER-006
  6
Continuous
 62
     1
100
AcDbLine
 10
385.0331993721535
 20
-398.6239797254744
 30
0.0
 11
393.2744326777445
 21
-398.6239797254744
 31
0.0
  0
LINE
  5
24F
330
1F
100
AcDbEntity
  8
LAYER-006
  6
Continuous
 62
     1
100
AcDbLine
 10
393.2744326777445
 20
-398.6239797254744
 30
0.0
 11
393.2744326777445
 21
-415.1064518308133
 31
0.0
  0
LINE
  5
250
330
1F
100
AcDbEntity
  8
LAYER-007
  6
CENTER
 62
     4
100
AcDbLine
 10
-215.909626600208
 20
-399.7228163270421
 30
0.0
 11
-215.909626600208
 21
-414.0076152292456
 31
0.0
  0
LINE
  5
251
330
1F
100
AcDbEntity
  8
LAYER-006
  6
Continuous
 62
     1
100
AcDbLine
 10
229.2978160236562
 20
-402.4698940955723
 30
0.0
 11
229.2978160236562
 21
-410.7111274011647
 31
0.0
  0
LINE
  5
252
330
1F
100
AcDbEntity
  8
LAYER-006
  6
Continuous
 62
     1
100
AcDbLine
 10
243.0331993721535
 20
-402.4698940955723
 30
0.0
 11
229.2978160236562
 21
-402.4698940955723
 31
0.0
  0
LINE
  5
253
330
1F
100
AcDbEntity
  8
LAYER-006
  6
Continuous
 62
     1
100
AcDbLine
 10
257.7802771398008
 20
-402.4698940955723
 30
0.0
 11
370.2861216036237
 21
-402.4698940955723
 31
0.0
  0
LINE
  5
254
330
1F
100
AcDbEntity
  8
LAYER-006
  6
Continuous
 62
     1
100
AcDbLine
 10
385.0331993721535
 20
-402.4698940955723
 30
0.0
 11
398.7685882148063
 21
-402.4698940955723
 31
0.0
  0
LINE
  5
255
330
1F
100
AcDbEntity
  8
LAYER-006
  6
Continuous
 62
     1
100
AcDbLine
 10
398.7685882148063
 20
-402.4698940955723
 30
0.0
 11
398.7685882148063
 21
-410.7111274011647
 31
0.0
  0
LINE
  5
256
330
1F
100
AcDbEntity
  8
LAYER-007
  6
CENTER
 62
     4
100
AcDbLine
 10
-245.903782137597
 20
-406.3157974773602
 30
0.0
 11
-234.9154710634753
 21
-406.3157974773602
 31
0.0
  0
LINE
  5
257
330
1F
100
AcDbEntity
  8
LAYER-007
  6
CENTER
 62
     4
100
AcDbLine
 10
-223.052034292543
 20
-406.3157974773602
 30
0.0
 11
-208.2178088483221
 21
-406.3157974773602
 31
0.0
  0
CIRCLE
  5
258
330
1F
100
AcDbEntity
  8
LAYER-006
  6
Continuous
 62
     5
100
AcDbCircle
 10
-215.909626600208
 20
-406.3157974773602
 30
0.0
 40
3.845903381787253
  0
LINE
  5
259
330
1F
100
AcDbEntity
  8
LAYER-007
  6
CENTER
 62
     4
100
AcDbLine
 10
26.94797120161276
 20
-406.3157974773602
 30
0.0
 11
41.7821966458328
 21
-406.3157974773602
 31
0.0
  0
CIRCLE
  5
25A
330
1F
100
AcDbEntity
  8
LAYER-006
  6
Continuous
 62
     5
100
AcDbCircle
 10
34.09037339979197
 20
-406.3157974773602
 30
0.0
 40
3.845903381787253
  0
LINE
  5
25B
330
1F
100
AcDbEntity
  8
LAYER-007
  6
CENTER
 62
     4
100
AcDbLine
 10
53.09621786273114
 20
-406.3157974773602
 30
0.0
 11
64.08452893685355
 21
-406.3157974773602
 31
0.0
  0
LINE
  5
25C
330
1F
100
AcDbEntity
  8
LAYER-007
  6
CENTER
 62
     4
100
AcDbLine
 10
222.8302174569386
 20
-406.3157974773602
 30
0.0
 11
404.6867712278176
 21
-406.3157974773602
 31
0.0
  0
LINE
  5
25D
330
1F
100
AcDbEntity
  8
LAYER-006
  6
Continuous
 62
     1
100
AcDbLine
 10
243.0331993721535
 20
-410.7111274011647
 30
0.0
 11
229.2978160236562
 21
-410.7111274011647
 31
0.0
  0
LINE
  5
25E
330
1F
100
AcDbEntity
  8
LAYER-006
  6
Continuous
 62
     1
100
AcDbLine
 10
257.7802771398008
 20
-410.7111274011647
 30
0.0
 11
370.2861216036237
 21
-410.7111274011647
 31
0.0
  0
LINE
  5
25F
330
1F
100
AcDbEntity
  8
LAYER-006
  6
Continuous
 62
     1
100
AcDbLine
 10
385.0331993721535
 20
-410.7111274011647
 30
0.0
 11
398.7685882148063
 21
-410.7111274011647
 31
0.0
  0
LINE
  5
260
330
1F
100
AcDbEntity
  8
LAYER-006
  6
Continuous
 62
     1
100
AcDbLine
 10
243.0331993721535
 20
-415.1064518308133
 30
0.0
 11
234.7919715607173
 21
-415.1064518308133
 31
0.0
  0
LINE
  5
261
330
1F
100
AcDbEntity
  8
LAYER-006
  6
Continuous
 62
     1
100
AcDbLine
 10
385.0331993721535
 20
-415.1064518308133
 30
0.0
 11
393.2744326777445
 21
-415.1064518308133
 31
0.0
  0
LINE
  5
262
330
1F
100
AcDbEntity
  8
LAYER-007
  6
HIDDEN
 62
     1
100
AcDbLine
 10
-248.409626600208
 20
-425.3157974773602
 30
0.0
 11
66.59037339979199
 21
-425.3157974773602
 31
0.0
  0
LINE
  5
263
330
1F
100
AcDbEntity
  8
LAYER-007
  6
HIDDEN
 62
     1
100
AcDbLine
 10
-221.9055409703062
 20
-425.3157974773602
 30
0.0
 11
-221.9055409703062
 21
-431.3157974773602
 31
0.0
  0
LINE
  5
264
330
1F
100
AcDbEntity
  8
LAYER-007
  6
HIDDEN
 62
     1
100
AcDbLine
 10
-209.9137232184213
 20
-425.3157974773602
 30
0.0
 11
-209.9137232184213
 21
-431.3157974773602
 31
0.0
  0
LINE
  5
265
330
1F
100
AcDbEntity
  8
LAYER-007
  6
HIDDEN
 62
     1
100
AcDbLine
 10
28.09447001800473
 20
-425.3157974773602
 30
0.0
 11
28.09447001800473
 21
-431.3157974773602
 31
0.0
  0
LINE
  5
266
330
1F
100
AcDbEntity
  8
LAYER-007
  6
HIDDEN
 62
     1
100
AcDbLine
 10
40.08628227573516
 20
-425.3157974773602
 30
0.0
 11
40.08628227573516
 21
-431.3157974773602
 31
0.0
  0
LINE
  5
267
330
1F
100
AcDbEntity
  8
LAYER-006
  6
Continuous
 62
     1
100
AcDbLine
 10
-248.409626600208
 20
-431.3157974773602
 30
0.0
 11
-248.409626600208
 21
-246.3157974773602
 31
0.0
  0
LINE
  5
268
330
1F
100
AcDbEntity
  8
LAYER-006
  6
Continuous
 62
     1
100
AcDbLine
 10
66.59037339979199
 20
-431.3157974773602
 30
0.0
 11
-248.409626600208
 21
-431.3157974773602
 31
0.0
  0
LINE
  5
269
330
1F
100
AcDbEntity
  8
LAYER-007
  6
CENTER
 62
     4
100
AcDbLine
 10
-90.90962660020803
 20
-158.3655686884042
 30
0.0
 11
-90.90962660020803
 21
-430.16360373349
 31
0.0
  0
LINE
  5
26A
330
1F
100
AcDbEntity
  8
LAYER-006
  6
Continuous
 62
     1
100
AcDbLine
 10
24.09037339979199
 20
-370.3274918973938
 30
0.0
 11
-205.909626600208
 21
-370.3274918973938
 31
0.0
  0
LINE
  5
26B
330
1F
100
AcDbEntity
  8
LAYER-006
  6
Continuous
 62
     1
100
AcDbLine
 10
-205.909626600208
 20
-308.0371136107181
 30
0.0
 11
24.09037339979199
 21
-308.0371136107181
 31
0.0
  0
LINE
  5
26C
330
1F
100
AcDbEntity
  8
LAYER-006
  6
Continuous
 62
     1
100
AcDbLine
 10
59.9973867553196
 20
-149.8537316644196
 30
0.0
 11
59.9973867553196
 21
-200.9289773608454
 31
0.0
  0
LINE
  5
26D
330
1F
100
AcDbEntity
  8
LAYER-006
  6
Continuous
 62
     1
100
AcDbLine
 10
50.10791228276518
 20
-149.8537316644196
 30
0.0
 11
50.10791228276518
 21
-200.9289773608454
 31
0.0
  0
LINE
  5
26E
330
1F
100
AcDbEntity
  8
LAYER-006
  6
Continuous
 62
     1
100
AcDbLine
 10
-233.2552962064337
 20
-149.8537316644196
 30
0.0
 11
-233.2552962064337
 21
-200.9289773608454
 31
0.0
  0
LINE
  5
26F
330
1F
100
AcDbEntity
  8
LAYER-006
  6
Continuous
 62
     1
100
AcDbLine
 10
-243.1447706789883
 20
-149.8537316644196
 30
0.0
 11
-243.1447706789883
 21
-200.9289773608454
 31
0.0
  0
LINE
  5
270
330
1F
100
AcDbEntity
  8
LAYER-006
  6
Continuous
 62
     1
100
AcDbLine
 10
-231.9271599890246
 20
-214.6643662034982
 30
0.0
 11
-231.9271599890246
 21
-246.3157974773602
 31
0.0
  0
LINE
  5
271
330
1F
100
AcDbEntity
  8
LAYER-006
  6
Continuous
 62
     1
100
AcDbLine
 10
-242.9154710631468
 20
-214.6643662034982
 30
0.0
 11
-242.9154710631468
 21
-246.3157974773602
 31
0.0
  0
LINE
  5
272
330
1F
100
AcDbEntity
  8
LAYER-006
  6
Continuous
 62
     1
100
AcDbLine
 10
61.09621786273083
 20
-214.6643662034982
 30
0.0
 11
61.09621786273083
 21
-246.3157974773602
 31
0.0
  0
LINE
  5
273
330
1F
100
AcDbEntity
  8
LAYER-006
  6
Continuous
 62
     1
100
AcDbLine
 10
50.10790678860859
 20
-214.6643662034982
 30
0.0
 11
50.10790678860859
 21
-246.3157974773602
 31
0.0
  0
LINE
  5
274
330
1F
100
AcDbEntity
  8
LAYER-006
  6
Continuous
 62
     1
100
AcDbLine
 10
50.59037339979197
 20
-296.3157974773602
 30
0.0
 11
50.59037339979197
 21
-381.3157974773602
 31
0.0
  0
LINE
  5
275
330
1F
100
AcDbEntity
  8
LAYER-006
  6
Continuous
 62
     1
100
AcDbLine
 10
24.09037339979197
 20
-308.0371136107181
 30
0.0
 11
24.09037339979197
 21
-370.3274918973938
 31
0.0
  0
LINE
  5
276
330
1F
100
AcDbEntity
  8
LAYER-006
  6
Continuous
 62
     1
100
AcDbLine
 10
-49.23962660020803
 20
-308.0371136107181
 30
0.0
 11
-49.23962660020803
 21
-370.3274918973938
 31
0.0
  0
LINE
  5
277
330
1F
100
AcDbEntity
  8
LAYER-006
  6
Continuous
 62
     1
100
AcDbLine
 10
-54.23962660020803
 20
-308.0371136107181
 30
0.0
 11
-54.23962660020803
 21
-370.3274918973938
 31
0.0
  0
LINE
  5
278
330
1F
100
AcDbEntity
  8
LAYER-006
  6
Continuous
 62
     1
100
AcDbLine
 10
-127.579626600208
 20
-308.0371136107181
 30
0.0
 11
-127.579626600208
 21
-370.3274918973938
 31
0.0
  0
LINE
  5
279
330
1F
100
AcDbEntity
  8
LAYER-006
  6
Continuous
 62
     1
100
AcDbLine
 10
-132.579626600208
 20
-308.0371136107181
 30
0.0
 11
-132.579626600208
 21
-370.3274918973938
 31
0.0
  0
LINE
  5
27A
330
1F
100
AcDbEntity
  8
LAYER-006
  6
Continuous
 62
     1
100
AcDbLine
 10
-205.909626600208
 20
-370.3274918973938
 30
0.0
 11
-205.909626600208
 21
-308.0371136107181
 31
0.0
  0
LINE
  5
27B
330
1F
100
AcDbEntity
  8
LAYER-006
  6
Continuous
 62
     1
100
AcDbLine
 10
-232.409626600208
 20
-296.3157974773602
 30
0.0
 11
-232.409626600208
 21
-381.3157974773602
 31
0.0
  0
LINE
  5
27C
330
1F
100
AcDbEntity
  8
LAYER-033
  6
CENTER
 62
     4
100
AcDbLine
 10
34.09037339979197
 20
-419.9845982770416
 30
0.0
 11
34.09037339979197
 21
-438.8608596539461
 31
0.0
  0
LINE
  5
27D
330
1F
100
AcDbEntity
  8
LAYER-033
  6
CENTER
 62
     4
100
AcDbLine
 10
-215.9096265394152
 20
-419.9845982770416
 30
0.0
 11
-215.9096265394152
 21
-438.8608596539461
 31
0.0
  0
LINE
  5
27E
330
1F
100
AcDbEntity
  8
LAYER-007
  6
CENTER
 62
     4
100
AcDbLine
 10
314.0331993721535
 20
-228.0873026227436
 30
0.0
 11
314.0331993721535
 21
-431.3157974773602
 31
0.0
  0
LINE
  5
27F
330
1F
100
AcDbEntity
  8
LAYER-033
  6
Continuous
 62
     1
100
AcDbLine
 10
249.0331993721535
 20
-381.3157974773602
 30
0.0
 11
249.0331993721535
 21
-431.3157974773602
 31
0.0
  0
LINE
  5
280
330
1F
100
AcDbEntity
  8
LAYER-033
  6
Continuous
 62
     1
100
AcDbLine
 10
249.0331993721535
 20
-431.3157974773602
 30
0.0
 11
199.0331993721535
 21
-431.3157974773602
 31
0.0
  0
LINE
  5
281
330
1F
100
AcDbEntity
  8
LAYER-033
  6
Continuous
 62
     1
100
AcDbLine
 10
249.0331993721535
 20
-381.3157974773602
 30
0.0
 11
243.0331993721535
 21
-381.3157974773602
 31
0.0
  0
LINE
  5
282
330
1F
100
AcDbEntity
  8
LAYER-033
  6
Continuous
 62
     1
100
AcDbLine
 10
199.0331993721535
 20
-425.3157974773602
 30
0.0
 11
199.0331993721535
 21
-431.3157974773602
 31
0.0
  0
LINE
  5
283
330
1F
100
AcDbEntity
  8
LAYER-033
  6
Continuous
 62
     1
100
AcDbLine
 10
243.0331993721535
 20
-425.3157974773602
 30
0.0
 11
199.0331993721535
 21
-425.3157974773602
 31
0.0
  0
LINE
  5
284
330
1F
100
AcDbEntity
  8
LAYER-033
  6
Continuous
 62
     1
100
AcDbLine
 10
243.0331993721535
 20
-381.3157974773602
 30
0.0
 11
243.0331993721535
 21
-425.3157974773602
 31
0.0
  0
LINE
  5
285
330
1F
100
AcDbEntity
  8
LAYER-033
  6
HIDDEN
 62
     4
100
AcDbLine
 10
204.0331993721535
 20
-425.3157974773602
 30
0.0
 11
204.0331993721535
 21
-431.3157974773602
 31
0.0
  0
LINE
  5
286
330
1F
100
AcDbEntity
  8
LAYER-033
  6
HIDDEN
 62
     4
100
AcDbLine
 10
224.0331993721535
 20
-425.3157974773602
 30
0.0
 11
224.0331993721535
 21
-431.3157974773602
 31
0.0
  0
LINE
  5
287
330
1F
100
AcDbEntity
  8
LAYER-033
  6
CENTER
 62
     4
100
AcDbLine
 10
214.0331993721535
 20
-420.6032877977814
 30
0.0
 11
214.0331993721535
 21
-438.0741112886718
 31
0.0
  0
LINE
  5
288
330
1F
100
AcDbEntity
  8
LAYER-033
  6
Continuous
 62
     1
100
AcDbLine
 10
249.0331993721535
 20
-381.3157974773602
 30
0.0
 11
249.0331993721535
 21
-431.3157974773602
 31
0.0
  0
LINE
  5
289
330
1F
100
AcDbEntity
  8
LAYER-033
  6
Continuous
 62
     1
100
AcDbLine
 10
249.0331993721535
 20
-431.3157974773602
 30
0.0
 11
299.0331993721535
 21
-431.3157974773602
 31
0.0
  0
LINE
  5
28A
330
1F
100
AcDbEntity
  8
LAYER-033
  6
Continuous
 62
     1
100
AcDbLine
 10
299.0331993721535
 20
-425.3157974773602
 30
0.0
 11
299.0331993721535
 21
-431.3157974773602
 31
0.0
  0
LINE
  5
28B
330
1F
100
AcDbEntity
  8
LAYER-033
  6
Continuous
 62
     1
100
AcDbLine
 10
249.0331993721535
 20
-381.3157974773602
 30
0.0
 11
255.0331993721535
 21
-381.3157974773602
 31
0.0
  0
LINE
  5
28C
330
1F
100
AcDbEntity
  8
LAYER-033
  6
Continuous
 62
     1
100
AcDbLine
 10
255.0331993721535
 20
-381.3157974773602
 30
0.0
 11
255.0331993721535
 21
-425.3157974773602
 31
0.0
  0
LINE
  5
28D
330
1F
100
AcDbEntity
  8
LAYER-033
  6
Continuous
 62
     1
100
AcDbLine
 10
255.0331993721535
 20
-425.3157974773602
 30
0.0
 11
299.0331993721535
 21
-425.3157974773602
 31
0.0
  0
LINE
  5
28E
330
1F
100
AcDbEntity
  8
LAYER-033
  6
Continuous
 62
     1
100
AcDbLine
 10
373.0331993721535
 20
-425.3157974773602
 30
0.0
 11
329.0331993721535
 21
-425.3157974773602
 31
0.0
  0
LINE
  5
28F
330
1F
100
AcDbEntity
  8
LAYER-033
  6
Continuous
 62
     1
100
AcDbLine
 10
379.0331993721535
 20
-431.3157974773602
 30
0.0
 11
329.0331993721535
 21
-431.3157974773602
 31
0.0
  0
LINE
  5
290
330
1F
100
AcDbEntity
  8
LAYER-033
  6
Continuous
 62
     1
100
AcDbLine
 10
329.0331993721535
 20
-425.3157974773602
 30
0.0
 11
329.0331993721535
 21
-431.3157974773602
 31
0.0
  0
LINE
  5
291
330
1F
100
AcDbEntity
  8
LAYER-033
  6
Continuous
 62
     1
100
AcDbLine
 10
373.0331993721535
 20
-381.3157974773602
 30
0.0
 11
373.0331993721535
 21
-425.3157974773602
 31
0.0
  0
LINE
  5
292
330
1F
100
AcDbEntity
  8
LAYER-033
  6
Continuous
 62
     1
100
AcDbLine
 10
379.0331993721535
 20
-381.3157974773602
 30
0.0
 11
379.0331993721535
 21
-431.3157974773602
 31
0.0
  0
LINE
  5
293
330
1F
100
AcDbEntity
  8
LAYER-033
  6
Continuous
 62
     1
100
AcDbLine
 10
379.0331993721535
 20
-381.3157974773602
 30
0.0
 11
373.0331993721535
 21
-381.3157974773602
 31
0.0
  0
LINE
  5
294
330
1F
100
AcDbEntity
  8
LAYER-033
  6
Continuous
 62
     1
100
AcDbLine
 10
379.0331993721535
 20
-431.3157974773602
 30
0.0
 11
429.0331993721535
 21
-431.3157974773602
 31
0.0
  0
LINE
  5
295
330
1F
100
AcDbEntity
  8
LAYER-033
  6
HIDDEN
 62
     4
100
AcDbLine
 10
404.0331993721535
 20
-425.3157974773602
 30
0.0
 11
404.0331993721535
 21
-431.3157974773602
 31
0.0
  0
LINE
  5
296
330
1F
100
AcDbEntity
  8
LAYER-033
  6
CENTER
 62
     4
100
AcDbLine
 10
414.0331993721535
 20
-420.6032877977814
 30
0.0
 11
414.0331993721535
 21
-438.0741112886718
 31
0.0
  0
LINE
  5
297
330
1F
100
AcDbEntity
  8
LAYER-033
  6
HIDDEN
 62
     4
100
AcDbLine
 10
424.0331993721535
 20
-425.3157974773602
 30
0.0
 11
424.0331993721535
 21
-431.3157974773602
 31
0.0
  0
LINE
  5
298
330
1F
100
AcDbEntity
  8
LAYER-033
  6
Continuous
 62
     1
100
AcDbLine
 10
429.0331993721535
 20
-425.3157974773602
 30
0.0
 11
429.0331993721535
 21
-431.3157974773602
 31
0.0
  0
LINE
  5
299
330
1F
100
AcDbEntity
  8
LAYER-033
  6
Continuous
 62
     1
100
AcDbLine
 10
379.0331993721535
 20
-381.3157974773602
 30
0.0
 11
379.0331993721535
 21
-431.3157974773602
 31
0.0
  0
LINE
  5
29A
330
1F
100
AcDbEntity
  8
LAYER-033
  6
Continuous
 62
     1
100
AcDbLine
 10
385.0331993721535
 20
-381.3157974773602
 30
0.0
 11
385.0331993721535
 21
-425.3157974773602
 31
0.0
  0
LINE
  5
29B
330
1F
100
AcDbEntity
  8
LAYER-033
  6
Continuous
 62
     1
100
AcDbLine
 10
379.0331993721535
 20
-381.3157974773602
 30
0.0
 11
385.0331993721535
 21
-381.3157974773602
 31
0.0
  0
LINE
  5
29C
330
1F
100
AcDbEntity
  8
LAYER-033
  6
Continuous
 62
     1
100
AcDbLine
 10
385.0331993721535
 20
-425.3157974773602
 30
0.0
 11
429.0331993721535
 21
-425.3157974773602
 31
0.0
  0
LINE
  5
29D
330
1F
100
AcDbEntity
  8
LAYER-006
  6
Continuous
 62
     1
100
AcDbLine
 10
411.5331993721535
 20
-308.0371136107181
 30
0.0
 11
411.5331993721535
 21
-370.3274918973938
 31
0.0
  0
LINE
  5
29E
330
1F
100
AcDbEntity
  8
LAYER-006
  6
Continuous
 62
     1
100
AcDbLine
 10
216.5331993721535
 20
-370.3274918973938
 30
0.0
 11
216.5331993721535
 21
-308.0371136107181
 31
0.0
  0
LINE
  5
29F
330
1F
100
AcDbEntity
  8
LAYER-033
  6
Continuous
 62
     1
100
AcDbLine
 10
379.0331993721535
 20
-246.3157974773602
 30
0.0
 11
329.0331993721535
 21
-246.3157974773602
 31
0.0
  0
LINE
  5
2A0
330
1F
100
AcDbEntity
  8
LAYER-033
  6
Continuous
 62
     1
100
AcDbLine
 10
329.0331993721535
 20
-252.3157974773602
 30
0.0
 11
329.0331993721535
 21
-246.3157974773602
 31
0.0
  0
LINE
  5
2A1
330
1F
100
AcDbEntity
  8
LAYER-033
  6
Continuous
 62
     1
100
AcDbLine
 10
373.0331993721535
 20
-296.3157974773602
 30
0.0
 11
373.0331993721535
 21
-252.3157974773602
 31
0.0
  0
LINE
  5
2A2
330
1F
100
AcDbEntity
  8
LAYER-033
  6
Continuous
 62
     1
100
AcDbLine
 10
379.0331993721535
 20
-296.3157974773602
 30
0.0
 11
379.0331993721535
 21
-246.3157974773602
 31
0.0
  0
LINE
  5
2A3
330
1F
100
AcDbEntity
  8
LAYER-033
  6
Continuous
 62
     1
100
AcDbLine
 10
379.0331993721535
 20
-296.3157974773602
 30
0.0
 11
373.0331993721535
 21
-296.3157974773602
 31
0.0
  0
LINE
  5
2A4
330
1F
100
AcDbEntity
  8
LAYER-033
  6
Continuous
 62
     1
100
AcDbLine
 10
373.0331993721535
 20
-252.3157974773602
 30
0.0
 11
329.0331993721535
 21
-252.3157974773602
 31
0.0
  0
LINE
  5
2A5
330
1F
100
AcDbEntity
  8
LAYER-033
  6
Continuous
 62
     1
100
AcDbLine
 10
249.0331993721535
 20
-246.3157974773602
 30
0.0
 11
299.0331993721535
 21
-246.3157974773602
 31
0.0
  0
LINE
  5
2A6
330
1F
100
AcDbEntity
  8
LAYER-033
  6
Continuous
 62
     1
100
AcDbLine
 10
299.0331993721535
 20
-252.3157974773602
 30
0.0
 11
299.0331993721535
 21
-246.3157974773602
 31
0.0
  0
LINE
  5
2A7
330
1F
100
AcDbEntity
  8
LAYER-033
  6
Continuous
 62
     1
100
AcDbLine
 10
255.0331993721535
 20
-296.3157974773602
 30
0.0
 11
255.0331993721535
 21
-252.3157974773602
 31
0.0
  0
LINE
  5
2A8
330
1F
100
AcDbEntity
  8
LAYER-033
  6
Continuous
 62
     1
100
AcDbLine
 10
249.0331993721535
 20
-296.3157974773602
 30
0.0
 11
249.0331993721535
 21
-246.3157974773602
 31
0.0
  0
LINE
  5
2A9
330
1F
100
AcDbEntity
  8
LAYER-033
  6
Continuous
 62
     1
100
AcDbLine
 10
249.0331993721535
 20
-296.3157974773602
 30
0.0
 11
255.0331993721535
 21
-296.3157974773602
 31
0.0
  0
LINE
  5
2AA
330
1F
100
AcDbEntity
  8
LAYER-033
  6
Continuous
 62
     1
100
AcDbLine
 10
255.0331993721535
 20
-252.3157974773602
 30
0.0
 11
299.0331993721535
 21
-252.3157974773602
 31
0.0
  0
LINE
  5
2AB
330
1F
100
AcDbEntity
  8
LAYER-006
  6
Continuous
 62
     1
100
AcDbLine
 10
257.7802771398008
 20
-252.3157974773602
 30
0.0
 11
257.7802771398008
 21
-425.3157974773602
 31
0.0
  0
LINE
  5
2AC
330
1F
100
AcDbEntity
  8
LAYER-006
  6
Continuous
 62
     1
100
AcDbLine
 10
255.0331993721535
 20
-252.3157974773602
 30
0.0
 11
255.0331993721535
 21
-425.3157974773602
 31
0.0
  0
LINE
  5
2AD
330
1F
100
AcDbEntity
  8
LAYER-006
  6
Continuous
 62
     1
100
AcDbLine
 10
373.0331993721535
 20
-252.3157974773602
 30
0.0
 11
373.0331993721535
 21
-425.3157974773602
 31
0.0
  0
LINE
  5
2AE
330
1F
100
AcDbEntity
  8
LAYER-006
  6
Continuous
 62
     1
100
AcDbLine
 10
370.2861216036237
 20
-425.3157974773602
 30
0.0
 11
370.2861216036237
 21
-252.3157974773602
 31
0.0
  0
LINE
  5
2AF
330
1F
100
AcDbEntity
  8
LAYER-006
  6
Continuous
 62
     1
100
AcDbLine
 10
357.4370281149369
 20
-149.8537316643235
 30
0.0
 11
357.4370281149369
 21
-200.9289773608454
 31
0.0
  0
LINE
  5
2B0
330
1F
100
AcDbEntity
  8
LAYER-006
  6
Continuous
 62
     1
100
AcDbLine
 10
347.547553642382
 20
-149.8537316643235
 30
0.0
 11
347.547553642382
 21
-200.9289773608454
 31
0.0
  0
LINE
  5
2B1
330
1F
100
AcDbEntity
  8
LAYER-006
  6
Continuous
 62
     1
100
AcDbLine
 10
280.518845101925
 20
-149.8537316643235
 30
0.0
 11
280.518845101925
 21
-200.9289773608454
 31
0.0
  0
LINE
  5
2B2
330
1F
100
AcDbEntity
  8
LAYER-006
  6
Continuous
 62
     1
100
AcDbLine
 10
270.6293706293707
 20
-149.8537316643235
 30
0.0
 11
270.6293706293707
 21
-200.9289773608454
 31
0.0
  0
LINE
  5
2B3
330
1F
100
AcDbEntity
  8
LAYER-006
  6
Continuous
 62
     1
100
AcDbLine
 10
357.9864436686426
 20
-214.6643662034982
 30
0.0
 11
357.9864436686426
 21
-246.3157974773602
 31
0.0
  0
LINE
  5
2B4
330
1F
100
AcDbEntity
  8
LAYER-006
  6
Continuous
 62
     1
100
AcDbLine
 10
346.9981325945203
 20
-214.6643662034982
 30
0.0
 11
346.9981325945203
 21
-246.3157974773602
 31
0.0
  0
LINE
  5
2B5
330
1F
100
AcDbEntity
  8
LAYER-006
  6
Continuous
 62
     1
100
AcDbLine
 10
281.0682661497873
 20
-214.6643662034982
 30
0.0
 11
281.0682661497873
 21
-246.3157974773602
 31
0.0
  0
LINE
  5
2B6
330
1F
100
AcDbEntity
  8
LAYER-006
  6
Continuous
 62
     1
100
AcDbLine
 10
270.0799550756651
 20
-214.6643662034982
 30
0.0
 11
270.0799550756651
 21
-246.3157974773602
 31
0.0
  0
LINE
  5
2B7
330
1F
100
AcDbEntity
  8
LAYER-033
  6
Continuous
 62
     1
100
AcDbLine
 10
329.0331993721535
 20
-425.3157974773602
 30
0.0
 11
299.0331993721535
 21
-425.3157974773602
 31
0.0
  0
LINE
  5
2B8
330
1F
100
AcDbEntity
  8
LAYER-033
  6
CENTER
 62
     4
100
AcDbLine
 10
299.0331993721535
 20
-431.3157974773602
 30
0.0
 11
329.0331993721535
 21
-431.3157974773602
 31
0.0
  0
LINE
  5
2B9
330
1F
100
AcDbEntity
  8
LAYER-033
  6
Continuous
 62
     1
100
AcDbLine
 10
329.0331993721535
 20
-252.3157974773602
 30
0.0
 11
312.5793085698275
 21
-252.3157974773602
 31
0.0
  0
ARC
  5
2BA
330
1F
100
AcDbEntity
  8
LAYER-006
  6
Continuous
 62
     1
100
AcDbCircle
 10
431.5331993721535
 20
-218.8418406734662
 30
0.0
 40
30.0
100
AcDbArc
 50
332.0593372072308
 51
90.0
  0
LINE
  5
2BB
330
1F
100
AcDbEntity
  8
LAYER-033
  6
Continuous
 62
     1
100
AcDbLine
 10
431.5331993721535
 20
-196.5336474370406
 30
0.0
 11
381.0619024162214
 21
-196.5336474370406
 31
0.0
  0
ARC
  5
2BC
330
1F
100
AcDbEntity
  8
LAYER-033
  6
Continuous
 62
     1
100
AcDbCircle
 10
431.5331993721535
 20
-218.8418406734662
 30
0.0
 40
22.30819323642561
100
AcDbArc
 50
332.0593372072309
 51
90.0
  0
LINE
  5
2BD
330
1F
100
AcDbEntity
  8
LAYER-033
  6
Continuous
 62
     1
100
AcDbLine
 10
451.641300961935
 20
-228.6867155675334
 30
0.0
 11
399.3792371276006
 21
-308.0371136107181
 31
0.0
  0
LINE
  5
2BE
330
1F
100
AcDbEntity
  8
LAYER-033
  6
Continuous
 62
     1
100
AcDbLine
 10
458.0361989104132
 20
-232.8985478083185
 30
0.0
 11
408.5481481983271
 21
-308.0371136107181
 31
0.0
  0
LINE
  5
2BF
330
1F
100
AcDbEntity
  8
LAYER-033
  6
Continuous
 62
     1
100
AcDbLine
 10
196.5331993721535
 20
-196.5336474370406
 30
0.0
 11
247.0044963278681
 21
-196.5336474370406
 31
0.0
  0
LINE
  5
2C0
330
1F
100
AcDbEntity
  8
LAYER-006
  6
Continuous
 62
     1
100
AcDbLine
 10
196.5331993721535
 20
-188.8418406734662
 30
0.0
 11
247.0044963278681
 21
-188.8418406734662
 31
0.0
  0
ARC
  5
2C1
330
1F
100
AcDbEntity
  8
LAYER-033
  6
Continuous
 62
     1
100
AcDbCircle
 10
196.5331993721535
 20
-218.8418406734662
 30
0.0
 40
22.30819323642561
100
AcDbArc
 50
90.0
 51
207.9406627927691
  0
ARC
  5
2C2
330
1F
100
AcDbEntity
  8
LAYER-006
  6
Continuous
 62
     1
100
AcDbCircle
 10
196.5331993721535
 20
-218.8418406734662
 30
0.0
 40
30.0
100
AcDbArc
 50
90.0
 51
207.9406627927691
  0
LINE
  5
2C3
330
1F
100
AcDbEntity
  8
LAYER-033
  6
Continuous
 62
     1
100
AcDbLine
 10
170.0301998338938
 20
-232.8985478083185
 30
0.0
 11
219.518250546
 21
-308.0371136107181
 31
0.0
  0
LINE
  5
2C4
330
1F
100
AcDbEntity
  8
LAYER-033
  6
Continuous
 62
     1
100
AcDbLine
 10
176.425097782372
 20
-228.6867155675334
 30
0.0
 11
228.6871616167064
 21
-308.0371136107181
 31
0.0
  0
LINE
  5
2C5
330
1F
100
AcDbEntity
  8
LAYER-033
  6
Continuous
 62
     4
100
AcDbLine
 10
381.0619024162214
 20
-192.3773745793989
 30
0.0
 11
384.5974363221542
 21
-188.8418406734662
 31
0.0
  0
LINE
  5
2C6
330
1F
100
AcDbEntity
  8
LAYER-033
  6
Continuous
 62
     4
100
AcDbLine
 10
381.0619024162214
 20
-195.9129084853317
 30
0.0
 11
388.1329702280869
 21
-188.8418406734662
 31
0.0
  0
LINE
  5
2C7
330
1F
100
AcDbEntity
  8
LAYER-033
  6
Continuous
 62
     4
100
AcDbLine
 10
383.97669737
 20
-196.5336474370406
 30
0.0
 11
391.6685041340196
 21
-188.8418406734662
 31
0.0
  0
LINE
  5
2C8
330
1F
100
AcDbEntity
  8
LAYER-033
  6
Continuous
 62
     4
100
AcDbLine
 10
387.512231276378
 20
-196.5336474370406
 30
0.0
 11
395.2040380399524
 21
-188.8418406734662
 31
0.0
  0
LINE
  5
2C9
330
1F
100
AcDbEntity
  8
LAYER-033
  6
Continuous
 62
     4
100
AcDbLine
 10
391.0477651823107
 20
-196.5336474370406
 30
0.0
 11
398.7395719458851
 21
-188.8418406734662
 31
0.0
  0
LINE
  5
2CA
330
1F
100
AcDbEntity
  8
LAYER-033
  6
Continuous
 62
     4
100
AcDbLine
 10
394.5832990882435
 20
-196.5336474370406
 30
0.0
 11
402.2751058518178
 21
-188.8418406734662
 31
0.0
  0
LINE
  5
2CB
330
1F
100
AcDbEntity
  8
LAYER-033
  6
Continuous
 62
     4
100
AcDbLine
 10
398.1188329941762
 20
-196.5336474370406
 30
0.0
 11
405.8106397577506
 21
-188.8418406734662
 31
0.0
  0
LINE
  5
2CC
330
1F
100
AcDbEntity
  8
LAYER-033
  6
Continuous
 62
     4
100
AcDbLine
 10
401.6543669001089
 20
-196.5336474370406
 30
0.0
 11
409.3461736636833
 21
-188.8418406734662
 31
0.0
  0
LINE
  5
2CD
330
1F
100
AcDbEntity
  8
LAYER-033
  6
Continuous
 62
     4
100
AcDbLine
 10
405.1899008060416
 20
-196.5336474370406
 30
0.0
 11
412.8817075696161
 21
-188.8418406734662
 31
0.0
  0
LINE
  5
2CE
330
1F
100
AcDbEntity
  8
LAYER-033
  6
Continuous
 62
     4
100
AcDbLine
 10
408.7254347119744
 20
-196.5336474370406
 30
0.0
 11
416.4172414755488
 21
-188.8418406734662
 31
0.0
  0
LINE
  5
2CF
330
1F
100
AcDbEntity
  8
LAYER-033
  6
Continuous
 62
     4
100
AcDbLine
 10
412.2609686179071
 20
-196.5336474370406
 30
0.0
 11
419.9527753814816
 21
-188.8418406734662
 31
0.0
  0
LINE
  5
2D0
330
1F
100
AcDbEntity
  8
LAYER-033
  6
Continuous
 62
     4
100
AcDbLine
 10
415.7965025238399
 20
-196.5336474370406
 30
0.0
 11
423.4883092874143
 21
-188.8418406734662
 31
0.0
  0
LINE
  5
2D1
330
1F
100
AcDbEntity
  8
LAYER-033
  6
Continuous
 62
     4
100
AcDbLine
 10
419.3320364297726
 20
-196.5336474370406
 30
0.0
 11
427.023843193347
 21
-188.8418406734662
 31
0.0
  0
LINE
  5
2D2
330
1F
100
AcDbEntity
  8
LAYER-033
  6
Continuous
 62
     4
100
AcDbLine
 10
422.8675703357054
 20
-196.5336474370406
 30
0.0
 11
430.5593770992797
 21
-188.8418406734662
 31
0.0
  0
LINE
  5
2D3
330
1F
100
AcDbEntity
  8
LAYER-033
  6
Continuous
 62
     4
100
AcDbLine
 10
426.4031042416381
 20
-196.5336474370406
 30
0.0
 11
433.9938290706984
 21
-188.9429226079803
 31
0.0
  0
LINE
  5
2D4
330
1F
100
AcDbEntity
  8
LAYER-033
  6
Continuous
 62
     4
100
AcDbLine
 10
429.9386381475708
 20
-196.5336474370406
 30
0.0
 11
437.1079335841283
 21
-189.3643520004832
 31
0.0
  0
LINE
  5
2D5
330
1F
100
AcDbEntity
  8
LAYER-033
  6
Continuous
 62
     4
100
AcDbLine
 10
433.3962410963995
 20
-196.6115783941447
 30
0.0
 11
439.9585676188451
 21
-190.0492518716991
 31
0.0
  0
LINE
  5
2D6
330
1F
100
AcDbEntity
  8
LAYER-033
  6
Continuous
 62
     4
100
AcDbLine
 10
436.4590697258589
 20
-197.0842836706179
 30
0.0
 11
442.5897360032082
 21
-190.9536173932687
 31
0.0
  0
LINE
  5
2D7
330
1F
100
AcDbEntity
  8
LAYER-033
  6
Continuous
 62
     4
100
AcDbLine
 10
439.1900460445274
 20
-197.8888412578822
 30
0.0
 11
445.0296776135775
 21
-192.0492096888322
 31
0.0
  0
LINE
  5
2D8
330
1F
100
AcDbEntity
  8
LAYER-033
  6
Continuous
 62
     4
100
AcDbLine
 10
441.653234040075
 20
-198.9611871682674
 30
0.0
 11
447.2970799346778
 21
-193.3173412736646
 31
0.0
  0
LINE
  5
2D9
330
1F
100
AcDbEntity
  8
LAYER-033
  6
Continuous
 62
     4
100
AcDbLine
 10
443.88480325008
 20
-200.2651518641951
 30
0.0
 11
449.4042714521067
 21
-194.7456836621684
 31
0.0
  0
LINE
  5
2DA
330
1F
100
AcDbEntity
  8
LAYER-033
  6
Continuous
 62
     4
100
AcDbLine
 10
445.9052721935532
 20
-201.7802168266547
 30
0.0
 11
451.358959488487
 21
-196.3265295317208
 31
0.0
  0
LINE
  5
2DB
330
1F
100
AcDbEntity
  8
LAYER-033
  6
Continuous
 62
     4
100
AcDbLine
 10
447.7247931911385
 20
-203.496229735002
 30
0.0
 11
453.1651766024386
 21
-198.055846323702
 31
0.0
  0
LINE
  5
2DC
330
1F
100
AcDbEntity
  8
LAYER-033
  6
Continuous
 62
     4
100
AcDbLine
 10
449.3453636047841
 20
-205.4111932272892
 30
0.0
 11
454.8237344860593
 21
-199.932822346014
 31
0.0
  0
LINE
  5
2DD
330
1F
100
AcDbEntity
  8
LAYER-033
  6
Continuous
 62
     4
100
AcDbLine
 10
450.7612309258308
 20
-207.5308598121752
 30
0.0
 11
456.3323119721538
 21
-201.9597787658522
 31
0.0
  0
LINE
  5
2DE
330
1F
100
AcDbEntity
  8
LAYER-033
  6
Continuous
 62
     4
100
AcDbLine
 10
451.9576996995537
 20
-209.8699249443851
 30
0.0
 11
457.6852003861799
 21
-204.1424242577589
 31
0.0
  0
LINE
  5
2DF
330
1F
100
AcDbEntity
  8
LAYER-033
  6
Continuous
 62
     4
100
AcDbLine
 10
452.9077059752288
 20
-212.4554525746427
 30
0.0
 11
458.8726378326903
 21
-206.4905207171812
 31
0.0
  0
LINE
  5
2E0
330
1F
100
AcDbEntity
  8
LAYER-033
  6
Continuous
 62
     4
100
AcDbLine
 10
453.5639847393513
 20
-215.334707716453
 30
0.0
 11
459.8795369764582
 21
-209.0191554793461
 31
0.0
  0
LINE
  5
2E1
330
1F
100
AcDbEntity
  8
LAYER-033
  6
Continuous
 62
     4
100
AcDbLine
 10
453.8400181422392
 20
-218.5942082194978
 30
0.0
 11
460.6831698653481
 21
-211.7510564963889
 31
0.0
  0
LINE
  5
2E2
330
1F
100
AcDbEntity
  8
LAYER-033
  6
Continuous
 62
     4
100
AcDbLine
 10
453.5531034340414
 20
-222.4166568336283
 30
0.0
 11
461.2488210424743
 21
-214.7209392251954
 31
0.0
  0
LINE
  5
2E3
330
1F
100
AcDbEntity
  8
LAYER-033
  6
Continuous
 62
     4
100
AcDbLine
 10
452.1551256198681
 20
-227.3501685541729
 30
0.0
 11
461.5209420901054
 21
-217.9843520834971
 31
0.0
  0
LINE
  5
2E4
330
1F
100
AcDbEntity
  8
LAYER-033
  6
Continuous
 62
     4
100
AcDbLine
 10
446.4074194944733
 20
-236.6334085850619
 30
0.0
 11
461.4025838142852
 21
-221.63824426525
 31
0.0
  0
LINE
  5
2E5
330
1F
100
AcDbEntity
  8
LAYER-033
  6
Continuous
 62
     4
100
AcDbLine
 10
439.5862433654538
 20
-246.9901186200141
 30
0.0
 11
460.6957802681965
 21
-225.8805817172714
 31
0.0
  0
LINE
  5
2E6
330
1F
100
AcDbEntity
  8
LAYER-033
  6
Continuous
 62
     4
100
AcDbLine
 10
432.7650672364344
 20
-257.3468286552038
 30
0.0
 11
458.8343637946722
 21
-231.2775320967284
 31
0.0
  0
LINE
  5
2E7
330
1F
100
AcDbEntity
  8
LAYER-033
  6
Continuous
 62
     4
100
AcDbLine
 10
425.943891107415
 20
-267.7035386899185
 30
0.0
 11
452.8025653055131
 21
-240.8448644918203
 31
0.0
  0
LINE
  5
2E8
330
1F
100
AcDbEntity
  8
LAYER-033
  6
Continuous
 62
     4
100
AcDbLine
 10
419.1227149783955
 20
-278.0602487248706
 30
0.0
 11
445.9813891764936
 21
-251.2015745267725
 31
0.0
  0
LINE
  5
2E9
330
1F
100
AcDbEntity
  8
LAYER-033
  6
Continuous
 62
     4
100
AcDbLine
 10
412.3015388493761
 20
-288.4169587598228
 30
0.0
 11
439.1602130474742
 21
-261.558284562
 31
0.0
  0
LINE
  5
2EA
330
1F
100
AcDbEntity
  8
LAYER-033
  6
Continuous
 62
     4
100
AcDbLine
 10
405.4803627203588
 20
-298.7736687947717
 30
0.0
 11
432.3390369184547
 21
-271.9149945966769
 31
0.0
  0
LINE
  5
2EB
330
1F
100
AcDbEntity
  8
LAYER-033
  6
Continuous
 62
     4
100
AcDbLine
 10
399.7524518103463
 20
-308.0371136107181
 30
0.0
 11
425.5178607894353
 21
-282.2717046316291
 31
0.0
  0
LINE
  5
2EC
330
1F
100
AcDbEntity
  8
LAYER-033
  6
Continuous
 62
     4
100
AcDbLine
 10
403.287985716279
 20
-308.0371136107181
 30
0.0
 11
418.6966846604158
 21
-292.6284146665813
 31
0.0
  0
LINE
  5
2ED
330
1F
100
AcDbEntity
  8
LAYER-033
  6
Continuous
 62
     4
100
AcDbLine
 10
406.8235196222118
 20
-308.0371136107181
 30
0.0
 11
411.8755085313964
 21
-302.9851247015334
 31
0.0
  0
LINE
  5
2EE
330
1F
100
AcDbEntity
  8
LAYER-033
  6
Continuous
 62
     4
100
AcDbLine
 10
400.5291592091566
 20
-306.2911669680566
 30
0.0
 11
402.275105851818
 21
-308.0371136107181
 31
0.0
  0
LINE
  5
2EF
330
1F
100
AcDbEntity
  8
LAYER-033
  6
Continuous
 62
     4
100
AcDbLine
 10
401.9330862844838
 20
-304.159560137451
 30
0.0
 11
405.8106397577508
 21
-308.0371136107181
 31
0.0
  0
LINE
  5
2F0
330
1F
100
AcDbEntity
  8
LAYER-033
  6
Continuous
 62
     4
100
AcDbLine
 10
403.3370133598109
 20
-302.0279533068454
 30
0.0
 11
408.8650365629767
 21
-307.5559765100113
 31
0.0
  0
LINE
  5
2F1
330
1F
100
AcDbEntity
  8
LAYER-033
  6
Continuous
 62
     4
100
AcDbLine
 10
404.740940435138
 20
-299.8963464762398
 30
0.0
 11
410.2689636383039
 21
-305.4243696794056
 31
0.0
  0
LINE
  5
2F2
330
1F
100
AcDbEntity
  8
LAYER-033
  6
Continuous
 62
     4
100
AcDbLine
 10
406.1448675104652
 20
-297.7647396456342
 30
0.0
 11
411.672890713631
 21
-303.2927628488
 31
0.0
  0
LINE
  5
2F3
330
1F
100
AcDbEntity
  8
LAYER-033
  6
Continuous
 62
     4
100
AcDbLine
 10
407.5487945857923
 20
-295.6331328150286
 30
0.0
 11
413.0768177889582
 21
-301.1611560181944
 31
0.0
  0
LINE
  5
2F4
330
1F
100
AcDbEntity
  8
LAYER-033
  6
Continuous
 62
     4
100
AcDbLine
 10
408.9527216826075
 20
-293.5015259517974
 30
0.0
 11
414.4807448643336
 21
-299.0295491875156
 31
0.0
  0
LINE
  5
2F5
330
1F
100
AcDbEntity
  8
LAYER-033
  6
Continuous
 62
     4
100
AcDbLine
 10
410.3566487364949
 20
-291.3699191537441
 30
0.0
 11
415.8846719396607
 21
-296.8979423569099
 31
0.0
  0
LINE
  5
2F6
330
1F
100
AcDbEntity
  8
LAYER-033
  6
Continuous
 62
     4
100
AcDbLine
 10
411.760575811822
 20
-289.2383123231385
 30
0.0
 11
417.2885990149879
 21
-294.7663355263043
 31
0.0
  0
LINE
  5
2F7
330
1F
100
AcDbEntity
  8
LAYER-033
  6
Continuous
 62
     4
100
AcDbLine
 10
413.1645028871492
 20
-287.1067054925329
 30
0.0
 11
418.692526090315
 21
-292.6347286956987
 31
0.0
  0
LINE
  5
2F8
330
1F
100
AcDbEntity
  8
LAYER-033
  6
Continuous
 62
     4
100
AcDbLine
 10
414.5684299624764
 20
-284.9750986619272
 30
0.0
 11
420.0964531656422
 21
-290.5031218650931
 31
0.0
  0
LINE
  5
2F9
330
1F
100
AcDbEntity
  8
LAYER-033
  6
Continuous
 62
     4
100
AcDbLine
 10
415.9723570378035
 20
-282.8434918313602
 30
0.0
 11
421.5003802409694
 21
-288.3715150344875
 31
0.0
  0
LINE
  5
2FA
330
1F
100
AcDbEntity
  8
LAYER-033
  6
Continuous
 62
     4
100
AcDbLine
 10
417.3762841131307
 20
-280.7118850007161
 30
0.0
 11
422.9043073162965
 21
-286.2399082038819
 31
0.0
  0
LINE
  5
2FB
330
1F
100
AcDbEntity
  8
LAYER-033
  6
Continuous
 62
     4
100
AcDbLine
 10
418.7802111884578
 20
-278.5802781701104
 30
0.0
 11
424.3082343916221
 21
-284.1083013732787
 31
0.0
  0
LINE
  5
2FC
330
1F
100
AcDbEntity
  8
LAYER-033
  6
Continuous
 62
     4
100
AcDbLine
 10
420.184138263785
 20
-276.4486713395048
 30
0.0
 11
425.7121614669508
 21
-281.9766945426707
 31
0.0
  0
LINE
  5
2FD
330
1F
100
AcDbEntity
  8
LAYER-033
  6
Continuous
 62
     4
100
AcDbLine
 10
421.5880653391121
 20
-274.3170645088992
 30
0.0
 11
427.116088542278
 21
-279.845087712065
 31
0.0
  0
LINE
  5
2FE
330
1F
100
AcDbEntity
  8
LAYER-033
  6
Continuous
 62
     4
100
AcDbLine
 10
422.9919924144393
 20
-272.1854576782936
 30
0.0
 11
428.5200156176051
 21
-277.7134808814594
 31
0.0
  0
LINE
  5
2FF
330
1F
100
AcDbEntity
  8
LAYER-033
  6
Continuous
 62
     4
100
AcDbLine
 10
424.3959194897664
 20
-270.053850847688
 30
0.0
 11
429.9239426929323
 21
-275.5818740508538
 31
0.0
  0
LINE
  5
300
330
1F
100
AcDbEntity
  8
LAYER-033
  6
Continuous
 62
     4
100
AcDbLine
 10
425.7998465650964
 20
-267.9222440170781
 30
0.0
 11
431.3278697682595
 21
-273.4502672202482
 31
0.0
  0
LINE
  5
301
330
1F
100
AcDbEntity
  8
LAYER-033
  6
Continuous
 62
     4
100
AcDbLine
 10
427.2037736404208
 20
-265.7906371864767
 30
0.0
 11
432.7317968435866
 21
-271.3186603896426
 31
0.0
  0
LINE
  5
302
330
1F
100
AcDbEntity
  8
LAYER-033
  6
Continuous
 62
     4
100
AcDbLine
 10
428.6077007157479
 20
-263.6590303558712
 30
0.0
 11
434.1357239189138
 21
-269.187053559037
 31
0.0
  0
LINE
  5
303
330
1F
100
AcDbEntity
  8
LAYER-033
  6
Continuous
 62
     4
100
AcDbLine
 10
430.0116277910751
 20
-261.5274235252655
 30
0.0
 11
435.5396509942409
 21
-267.0554467284314
 31
0.0
  0
LINE
  5
304
330
1F
100
AcDbEntity
  8
LAYER-033
  6
Continuous
 62
     4
100
AcDbLine
 10
431.4155548664022
 20
-259.39581669466
 30
0.0
 11
436.9435780695681
 21
-264.9238398978258
 31
0.0
  0
LINE
  5
305
330
1F
100
AcDbEntity
  8
LAYER-033
  6
Continuous
 62
     4
100
AcDbLine
 10
432.8194819417294
 20
-257.2642098640544
 30
0.0
 11
438.3475051448952
 21
-262.7922330672202
 31
0.0
  0
LINE
  5
306
330
1F
100
AcDbEntity
  8
LAYER-033
  6
Continuous
 62
     4
100
AcDbLine
 10
434.2234090170564
 20
-255.1326030334488
 30
0.0
 11
439.7514322202223
 21
-260.6606262366146
 31
0.0
  0
LINE
  5
307
330
1F
100
AcDbEntity
  8
LAYER-033
  6
Continuous
 62
     4
100
AcDbLine
 10
435.6273360923836
 20
-253.0009962028432
 30
0.0
 11
441.1553592955495
 21
-258.529019406009
 31
0.0
  0
LINE
  5
308
330
1F
100
AcDbEntity
  8
LAYER-033
  6
Continuous
 62
     4
100
AcDbLine
 10
381.0619024162214
 20
-194.9000286207482
 30
0.0
 11
382.695521233
 21
-196.5336474370406
 31
0.0
  0
LINE
  5
309
330
1F
100
AcDbEntity
  8
LAYER-033
  6
Continuous
 62
     4
100
AcDbLine
 10
437.0312631677107
 20
-250.8693893722376
 30
0.0
 11
442.5592863708766
 21
-256.3974125754034
 31
0.0
  0
LINE
  5
30A
330
1F
100
AcDbEntity
  8
LAYER-033
  6
Continuous
 62
     4
100
AcDbLine
 10
381.0619024162214
 20
-191.3644947148155
 30
0.0
 11
386.2310551384413
 21
-196.5336474370406
 31
0.0
  0
LINE
  5
30B
330
1F
100
AcDbEntity
  8
LAYER-033
  6
Continuous
 62
     4
100
AcDbLine
 10
438.4351902430379
 20
-248.737782541632
 30
0.0
 11
443.9632134462037
 21
-254.2658057447978
 31
0.0
  0
LINE
  5
30C
330
1F
100
AcDbEntity
  8
LAYER-033
  6
Continuous
 62
     4
100
AcDbLine
 10
382.0747822808048
 20
-188.8418406734662
 30
0.0
 11
389.7665890443792
 21
-196.5336474370406
 31
0.0
  0
LINE
  5
30D
330
1F
100
AcDbEntity
  8
LAYER-033
  6
Continuous
 62
     4
100
AcDbLine
 10
439.839117318365
 20
-246.6061757110264
 30
0.0
 11
445.3671405215309
 21
-252.1341989141922
 31
0.0
  0
LINE
  5
30E
330
1F
100
AcDbEntity
  8
LAYER-033
  6
Continuous
 62
     4
100
AcDbLine
 10
385.6103161867376
 20
-188.8418406734662
 30
0.0
 11
393.302122950312
 21
-196.5336474370406
 31
0.0
  0
LINE
  5
30F
330
1F
100
AcDbEntity
  8
LAYER-033
  6
Continuous
 62
     4
100
AcDbLine
 10
441.2430443936922
 20
-244.4745688804208
 30
0.0
 11
446.771067596858
 21
-250.0025920835866
 31
0.0
  0
LINE
  5
310
330
1F
100
AcDbEntity
  8
LAYER-033
  6
Continuous
 62
     4
100
AcDbLine
 10
389.1458500926703
 20
-188.8418406734662
 30
0.0
 11
396.8376568562447
 21
-196.5336474370406
 31
0.0
  0
LINE
  5
311
330
1F
100
AcDbEntity
  8
LAYER-033
  6
Continuous
 62
     4
100
AcDbLine
 10
442.6469714690193
 20
-242.3429620498152
 30
0.0
 11
448.1749946721852
 21
-247.870985252981
 31
0.0
  0
LINE
  5
312
330
1F
100
AcDbEntity
  8
LAYER-033
  6
Continuous
 62
     4
100
AcDbLine
 10
392.6813839986031
 20
-188.8418406734662
 30
0.0
 11
400.3731907621774
 21
-196.5336474370406
 31
0.0
  0
LINE
  5
313
330
1F
100
AcDbEntity
  8
LAYER-033
  6
Continuous
 62
     4
100
AcDbLine
 10
444.0508985443465
 20
-240.2113552192096
 30
0.0
 11
449.5789217475123
 21
-245.7393784223754
 31
0.0
  0
LINE
  5
314
330
1F
100
AcDbEntity
  8
LAYER-033
  6
Continuous
 62
     4
100
AcDbLine
 10
396.2169179045358
 20
-188.8418406734662
 30
0.0
 11
403.9087246681102
 21
-196.5336474370406
 31
0.0
  0
LINE
  5
315
330
1F
100
AcDbEntity
  8
LAYER-033
  6
Continuous
 62
     4
100
AcDbLine
 10
445.4548256196736
 20
-238.079748388604
 30
0.0
 11
450.9828488228395
 21
-243.6077715917699
 31
0.0
  0
LINE
  5
316
330
1F
100
AcDbEntity
  8
LAYER-033
  6
Continuous
 62
     4
100
AcDbLine
 10
399.7524518104685
 20
-188.8418406734662
 30
0.0
 11
407.4442585740429
 21
-196.5336474370406
 31
0.0
  0
LINE
  5
317
330
1F
100
AcDbEntity
  8
LAYER-033
  6
Continuous
 62
     4
100
AcDbLine
 10
446.8587526950008
 20
-235.9481415579984
 30
0.0
 11
452.3867758981666
 21
-241.4761647607181
 31
0.0
  0
LINE
  5
318
330
1F
100
AcDbEntity
  8
LAYER-033
  6
Continuous
 62
     4
100
AcDbLine
 10
403.2879857164012
 20
-188.8418406734662
 30
0.0
 11
410.9797924799756
 21
-196.5336474370406
 31
0.0
  0
LINE
  5
319
330
1F
100
AcDbEntity
  8
LAYER-033
  6
Continuous
 62
     4
100
AcDbLine
 10
448.2626797703279
 20
-233.8165347273928
 30
0.0
 11
453.7907029734938
 21
-239.3445579305587
 31
0.0
  0
LINE
  5
31A
330
1F
100
AcDbEntity
  8
LAYER-033
  6
Continuous
 62
     4
100
AcDbLine
 10
406.823519622334
 20
-188.8418406734662
 30
0.0
 11
414.5153263859084
 21
-196.5336474370406
 31
0.0
  0
LINE
  5
31B
330
1F
100
AcDbEntity
  8
LAYER-033
  6
Continuous
 62
     4
100
AcDbLine
 10
449.6666068456551
 20
-231.6849278967872
 30
0.0
 11
455.1946300488209
 21
-237.2129510999531
 31
0.0
  0
LINE
  5
31C
330
1F
100
AcDbEntity
  8
LAYER-033
  6
Continuous
 62
     4
100
AcDbLine
 10
410.3590535282667
 20
-188.8418406734662
 30
0.0
 11
418.0508602918411
 21
-196.5336474370406
 31
0.0
  0
LINE
  5
31D
330
1F
100
AcDbEntity
  8
LAYER-033
  6
Continuous
 62
     4
100
AcDbLine
 10
451.0705339209821
 20
-229.5533210661816
 30
0.0
 11
456.598557124148
 21
-235.0813442693475
 31
0.0
  0
LINE
  5
31E
330
1F
100
AcDbEntity
  8
LAYER-033
  6
Continuous
 62
     4
100
AcDbLine
 10
413.8945874341995
 20
-188.8418406734662
 30
0.0
 11
421.5863941977739
 21
-196.5336474370406
 31
0.0
  0
LINE
  5
31F
330
1F
100
AcDbEntity
  8
LAYER-033
  6
Continuous
 62
     4
100
AcDbLine
 10
452.2268794512553
 20
-227.174132690522
 30
0.0
 11
458.0024841994752
 21
-232.9497374387419
 31
0.0
  0
LINE
  5
320
330
1F
100
AcDbEntity
  8
LAYER-033
  6
Continuous
 62
     4
100
AcDbLine
 10
417.43012134
 20
-188.8418406734662
 30
0.0
 11
425.1219281037066
 21
-196.5336474370406
 31
0.0
  0
LINE
  5
321
330
1F
100
AcDbEntity
  8
LAYER-033
  6
Continuous
 62
     4
100
AcDbLine
 10
453.1069937730854
 20
-224.5187131064194
 30
0.0
 11
459.1494504705914
 21
-230.5611698039254
 31
0.0
  0
LINE
  5
322
330
1F
100
AcDbEntity
  8
LAYER-033
  6
Continuous
 62
     4
100
AcDbLine
 10
420.965655246065
 20
-188.8418406734662
 30
0.0
 11
428.6574620096394
 21
-196.5336474370406
 31
0.0
  0
LINE
  5
323
330
1F
100
AcDbEntity
  8
LAYER-033
  6
Continuous
 62
     4
100
AcDbLine
 10
453.676118639225
 20
-221.5523040666262
 30
0.0
 11
460.1066517781853
 21
-227.9828372055865
 31
0.0
  0
LINE
  5
324
330
1F
100
AcDbEntity
  8
LAYER-033
  6
Continuous
 62
     4
100
AcDbLine
 10
424.5011891519977
 20
-188.8418406734662
 30
0.0
 11
432.203055179139
 21
-196.5437067006075
 31
0.0
  0
LINE
  5
325
330
1F
100
AcDbEntity
  8
LAYER-033
  6
Continuous
 62
     4
100
AcDbLine
 10
453.8313333450121
 20
-218.1719848664806
 30
0.0
 11
460.8530531247221
 21
-225.1937046461906
 31
0.0
  0
LINE
  5
326
330
1F
100
AcDbEntity
  8
LAYER-033
  6
Continuous
 62
     4
100
AcDbLine
 10
428.0367230579304
 20
-188.8418406734662
 30
0.0
 11
436.2281773100799
 21
-197.0332949256157
 31
0.0
  0
LINE
  5
327
330
1F
100
AcDbEntity
  8
LAYER-033
  6
Continuous
 62
     4
100
AcDbLine
 10
453.341745120004
 20
-214.1468627355398
 30
0.0
 11
461.3497071551211
 21
-222.1548247706568
 31
0.0
  0
LINE
  5
328
330
1F
100
AcDbEntity
  8
LAYER-033
  6
Continuous
 62
     4
100
AcDbLine
 10
431.5722824219656
 20
-188.8418661315686
 30
0.0
 11
441.7317845376363
 21
-199.0013682472393
 31
0.0
  0
LINE
  5
329
330
1F
100
AcDbEntity
  8
LAYER-033
  6
Continuous
 62
     4
100
AcDbLine
 10
451.3736717984042
 20
-208.6432555080073
 30
0.0
 11
461.533173914075
 21
-218.8027576236781
 31
0.0
  0
LINE
  5
32A
330
1F
100
AcDbEntity
  8
LAYER-033
  6
Continuous
 62
     4
100
AcDbLine
 10
435.351813559551
 20
-189.0858633632213
 30
0.0
 11
461.2891766823984
 21
-215.0232264860686
 31
0.0
  0
LINE
  5
32B
330
1F
100
AcDbEntity
  8
LAYER-033
  6
Continuous
 62
     4
100
AcDbLine
 10
439.8067423354621
 20
-190.0052582331996
 30
0.0
 11
460.3697818124201
 21
-210.5682977101576
 31
0.0
  0
LINE
  5
32C
330
1F
100
AcDbEntity
  8
LAYER-033
  6
Continuous
 62
     4
100
AcDbLine
 10
445.7746973615683
 20
-192.4376793533732
 30
0.0
 11
457.9373606922466
 21
-204.6003426840514
 31
0.0
  0
LINE
  5
32D
330
1F
100
AcDbEntity
  8
LAYER-033
  6
Continuous
 62
     4
100
AcDbLine
 10
173.887080976138
 20
-199.1656285991454
 30
0.0
 11
176.8569872978328
 21
-196.1957222774505
 31
0.0
  0
LINE
  5
32E
330
1F
100
AcDbEntity
  8
LAYER-033
  6
Continuous
 62
     4
100
AcDbLine
 10
168.543516831
 20
-208.0447266506344
 30
0.0
 11
185.7360853493218
 21
-190.8521581318943
 31
0.0
  0
LINE
  5
32F
330
1F
100
AcDbEntity
  8
LAYER-033
  6
Continuous
 62
     4
100
AcDbLine
 10
167.1034534956141
 20
-213.0203238915347
 30
0.0
 11
190.7116825902222
 21
-189.4120947969266
 31
0.0
  0
LINE
  5
330
330
1F
100
AcDbEntity
  8
LAYER-033
  6
Continuous
 62
     4
100
AcDbLine
 10
166.5853336678556
 20
-217.073977625226
 30
0.0
 11
194.7653363239135
 21
-188.8939749691681
 31
0.0
  0
LINE
  5
331
330
1F
100
AcDbEntity
  8
LAYER-033
  6
Continuous
 62
     4
100
AcDbLine
 10
166.5853229555038
 20
-220.6095222435104
 30
0.0
 11
175.3510713976835
 21
-211.8437738013307
 31
0.0
  0
LINE
  5
332
330
1F
100
AcDbEntity
  8
LAYER-033
  6
Continuous
 62
     4
100
AcDbLine
 10
189.5351325000183
 20
-197.659712698996
 30
0.0
 11
198.3530045255481
 21
-188.8418406734662
 31
0.0
  0
LINE
  5
333
330
1F
100
AcDbEntity
  8
LAYER-033
  6
Continuous
 62
     4
100
AcDbLine
 10
166.9435537723647
 20
-223.7868253325823
 30
0.0
 11
174.3626246665907
 21
-216.3677544383563
 31
0.0
  0
LINE
  5
334
330
1F
100
AcDbEntity
  8
LAYER-033
  6
Continuous
 62
     4
100
AcDbLine
 10
194.0591131370439
 20
-196.6712659679031
 30
0.0
 11
201.8885384314809
 21
-188.8418406734662
 31
0.0
  0
LINE
  5
335
330
1F
100
AcDbEntity
  8
LAYER-033
  6
Continuous
 62
     4
100
AcDbLine
 10
167.5775166236662
 20
-226.6883963872136
 30
0.0
 11
174.2556272096169
 21
-220.0102858012629
 31
0.0
  0
LINE
  5
336
330
1F
100
AcDbEntity
  8
LAYER-033
  6
Continuous
 62
     4
100
AcDbLine
 10
197.7322655738392
 20
-196.5336474370406
 30
0.0
 11
205.4240723374136
 21
-188.8418406734662
 31
0.0
  0
LINE
  5
337
330
1F
100
AcDbEntity
  8
LAYER-033
  6
Continuous
 62
     4
100
AcDbLine
 10
168.4385752205826
 20
-229.3628716962299
 30
0.0
 11
174.6460230852902
 21
-223.1554238315223
 31
0.0
  0
LINE
  5
338
330
1F
100
AcDbEntity
  8
LAYER-033
  6
Continuous
 62
     4
100
AcDbLine
 10
201.2677994797719
 20
-196.5336474370406
 30
0.0
 11
208.9596062433463
 21
-188.8418406734662
 31
0.0
  0
LINE
  5
339
330
1F
100
AcDbEntity
  8
LAYER-033
  6
Continuous
 62
     4
100
AcDbLine
 10
169.4958475704329
 20
-231.8411332523124
 30
0.0
 11
175.3875648589415
 21
-225.9494159638038
 31
0.0
  0
LINE
  5
33A
330
1F
100
AcDbEntity
  8
LAYER-033
  6
Continuous
 62
     4
100
AcDbLine
 10
204.8033333857047
 20
-196.5336474370406
 30
0.0
 11
212.4951401492791
 21
-188.8418406734662
 31
0.0
  0
LINE
  5
33B
330
1F
100
AcDbEntity
  8
LAYER-033
  6
Continuous
 62
     4
100
AcDbLine
 10
170.8020513599789
 20
-234.0704633686992
 30
0.0
 11
176.4073952676885
 21
-228.4651194609895
 31
0.0
  0
LINE
  5
33C
330
1F
100
AcDbEntity
  8
LAYER-033
  6
Continuous
 62
     4
100
AcDbLine
 10
208.3388672916374
 20
-196.5336474370406
 30
0.0
 11
216.0306740552118
 21
-188.8418406734662
 31
0.0
  0
LINE
  5
33D
330
1F
100
AcDbEntity
  8
LAYER-033
  6
Continuous
 62
     4
100
AcDbLine
 10
172.2059784353063
 20
-236.2020701993044
 30
0.0
 11
177.7340016384716
 21
-230.6740469961391
 31
0.0
  0
LINE
  5
33E
330
1F
100
AcDbEntity
  8
LAYER-033
  6
Continuous
 62
     4
100
AcDbLine
 10
211.8744011975701
 20
-196.5336474370406
 30
0.0
 11
219.5662079611445
 21
-188.8418406734662
 31
0.0
  0
LINE
  5
33F
330
1F
100
AcDbEntity
  8
LAYER-033
  6
Continuous
 62
     4
100
AcDbLine
 10
173.6099055106338
 20
-238.3336770299097
 30
0.0
 11
179.1379287137988
 21
-232.8056538267447
 31
0.0
  0
LINE
  5
340
330
1F
100
AcDbEntity
  8
LAYER-033
  6
Continuous
 62
     4
100
AcDbLine
 10
215.4099351035029
 20
-196.5336474370406
 30
0.0
 11
223.1017418670773
 21
-188.8418406734662
 31
0.0
  0
LINE
  5
341
330
1F
100
AcDbEntity
  8
LAYER-033
  6
Continuous
 62
     4
100
AcDbLine
 10
175.0138325859613
 20
-240.4652838605149
 30
0.0
 11
180.5418557891259
 21
-234.9372606573503
 31
0.0
  0
LINE
  5
342
330
1F
100
AcDbEntity
  8
LAYER-033
  6
Continuous
 62
     4
100
AcDbLine
 10
218.9454690094356
 20
-196.5336474370406
 30
0.0
 11
226.63727577301
 21
-188.8418406734662
 31
0.0
  0
LINE
  5
343
330
1F
100
AcDbEntity
  8
LAYER-033
  6
Continuous
 62
     4
100
AcDbLine
 10
176.4177596612888
 20
-242.5968906911202
 30
0.0
 11
181.9457828644531
 21
-237.0688674879559
 31
0.0
  0
LINE
  5
344
330
1F
100
AcDbEntity
  8
LAYER-033
  6
Continuous
 62
     4
100
AcDbLine
 10
222.4810029153683
 20
-196.5336474370406
 30
0.0
 11
230.1728096789428
 21
-188.8418406734662
 31
0.0
  0
LINE
  5
345
330
1F
100
AcDbEntity
  8
LAYER-033
  6
Continuous
 62
     4
100
AcDbLine
 10
177.8216867366162
 20
-244.7284975217254
 30
0.0
 11
183.3497099397802
 21
-239.2004743185615
 31
0.0
  0
LINE
  5
346
330
1F
100
AcDbEntity
  8
LAYER-033
  6
Continuous
 62
     4
100
AcDbLine
 10
226.0165368213011
 20
-196.5336474370406
 30
0.0
 11
233.7083435848755
 21
-188.8418406734662
 31
0.0
  0
LINE
  5
347
330
1F
100
AcDbEntity
  8
LAYER-033
  6
Continuous
 62
     4
100
AcDbLine
 10
179.2256138119437
 20
-246.8601043523307
 30
0.0
 11
184.7536370151074
 21
-241.332081149167
 31
0.0
  0
LINE
  5
348
330
1F
100
AcDbEntity
  8
LAYER-033
  6
Continuous
 62
     4
100
AcDbLine
 10
229.5520707272338
 20
-196.5336474370406
 30
0.0
 11
237.243877491
 21
-188.8418406734662
 31
0.0
  0
LINE
  5
349
330
1F
100
AcDbEntity
  8
LAYER-033
  6
Continuous
 62
     4
100
AcDbLine
 10
180.6295408872712
 20
-248.9917111829359
 30
0.0
 11
186.1575640904345
 21
-243.4636879797727
 31
0.0
  0
LINE
  5
34A
330
1F
100
AcDbEntity
  8
LAYER-033
  6
Continuous
 62
     4
100
AcDbLine
 10
233.0876046331666
 20
-196.5336474370406
 30
0.0
 11
240.779411396741
 21
-188.8418406734662
 31
0.0
  0
LINE
  5
34B
330
1F
100
AcDbEntity
  8
LAYER-033
  6
Continuous
 62
     4
100
AcDbLine
 10
182.0334679625987
 20
-251.1233180135412
 30
0.0
 11
187.5614911657617
 21
-245.5952948103783
 31
0.0
  0
LINE
  5
34C
330
1F
100
AcDbEntity
  8
LAYER-033
  6
Continuous
 62
     4
100
AcDbLine
 10
236.6231385390993
 20
-196.5336474370406
 30
0.0
 11
244.3149453026737
 21
-188.8418406734662
 31
0.0
  0
LINE
  5
34D
330
1F
100
AcDbEntity
  8
LAYER-033
  6
Continuous
 62
     4
100
AcDbLine
 10
183.4373950379262
 20
-253.2549248441464
 30
0.0
 11
188.9654182410888
 21
-247.7269016409838
 31
0.0
  0
LINE
  5
34E
330
1F
100
AcDbEntity
  8
LAYER-033
  6
Continuous
 62
     4
100
AcDbLine
 10
240.158672445032
 20
-196.5336474370406
 30
0.0
 11
247.0044963278681
 21
-189.6878235539864
 31
0.0
  0
LINE
  5
34F
330
1F
100
AcDbEntity
  8
LAYER-033
  6
Continuous
 62
     4
100
AcDbLine
 10
184.8413221132537
 20
-255.3865316747517
 30
0.0
 11
190.369345316416
 21
-249.8585084715894
 31
0.0
  0
LINE
  5
350
330
1F
100
AcDbEntity
  8
LAYER-033
  6
Continuous
 62
     4
100
AcDbLine
 10
243.6942063509648
 20
-196.5336474370406
 30
0.0
 11
247.0044963278681
 21
-193.2233574599191
 31
0.0
  0
LINE
  5
351
330
1F
100
AcDbEntity
  8
LAYER-033
  6
Continuous
 62
     4
100
AcDbLine
 10
186.2452491884569
 20
-257.5181385051682
 30
0.0
 11
191.7732723916188
 21
-251.9901153020063
 31
0.0
  0
LINE
  5
352
330
1F
100
AcDbEntity
  8
LAYER-033
  6
Continuous
 62
     4
100
AcDbLine
 10
187.649176264
 20
-259.6497453357735
 30
0.0
 11
193.1771994669459
 21
-254.1217221326119
 31
0.0
  0
LINE
  5
353
330
1F
100
AcDbEntity
  8
LAYER-033
  6
Continuous
 62
     4
100
AcDbLine
 10
189.0531033391118
 20
-261.7813521663787
 30
0.0
 11
194.581126542273
 21
-256.2533289632174
 31
0.0
  0
LINE
  5
354
330
1F
100
AcDbEntity
  8
LAYER-033
  6
Continuous
 62
     4
100
AcDbLine
 10
190.4570304144393
 20
-263.9129589969839
 30
0.0
 11
195.9850536176002
 21
-258.3849357938231
 31
0.0
  0
LINE
  5
355
330
1F
100
AcDbEntity
  8
LAYER-033
  6
Continuous
 62
     4
100
AcDbLine
 10
191.8609574897668
 20
-266.0445658275892
 30
0.0
 11
197.3889806929273
 21
-260.5165426244287
 31
0.0
  0
LINE
  5
356
330
1F
100
AcDbEntity
  8
LAYER-033
  6
Continuous
 62
     4
100
AcDbLine
 10
193.2648845650943
 20
-268.1761726581945
 30
0.0
 11
198.7929077682545
 21
-262.6481494550342
 31
0.0
  0
LINE
  5
357
330
1F
100
AcDbEntity
  8
LAYER-033
  6
Continuous
 62
     4
100
AcDbLine
 10
194.6688116404218
 20
-270.3077794887997
 30
0.0
 11
200.1968348435816
 21
-264.7797562856399
 31
0.0
  0
LINE
  5
358
330
1F
100
AcDbEntity
  8
LAYER-033
  6
Continuous
 62
     4
100
AcDbLine
 10
196.0727387157493
 20
-272.439386319405
 30
0.0
 11
201.6007619189087
 21
-266.9113631162454
 31
0.0
  0
LINE
  5
359
330
1F
100
AcDbEntity
  8
LAYER-033
  6
Continuous
 62
     4
100
AcDbLine
 10
197.4766657910768
 20
-274.5709931500102
 30
0.0
 11
203.0046889942359
 21
-269.042969946851
 31
0.0
  0
LINE
  5
35A
330
1F
100
AcDbEntity
  8
LAYER-033
  6
Continuous
 62
     4
100
AcDbLine
 10
198.8805928664042
 20
-276.7025999806155
 30
0.0
 11
204.408616069563
 21
-271.1745767774566
 31
0.0
  0
LINE
  5
35B
330
1F
100
AcDbEntity
  8
LAYER-033
  6
Continuous
 62
     4
100
AcDbLine
 10
200.2845199417317
 20
-278.8342068112207
 30
0.0
 11
205.8125431448902
 21
-273.3061836080622
 31
0.0
  0
LINE
  5
35C
330
1F
100
AcDbEntity
  8
LAYER-033
  6
Continuous
 62
     4
100
AcDbLine
 10
201.6884470170592
 20
-280.965813641826
 30
0.0
 11
207.2164702202173
 21
-275.4377904386678
 31
0.0
  0
LINE
  5
35D
330
1F
100
AcDbEntity
  8
LAYER-033
  6
Continuous
 62
     4
100
AcDbLine
 10
203.0923740923867
 20
-283.0974204724312
 30
0.0
 11
208.6203972955444
 21
-277.5693972692734
 31
0.0
  0
LINE
  5
35E
330
1F
100
AcDbEntity
  8
LAYER-033
  6
Continuous
 62
     4
100
AcDbLine
 10
204.4963011677142
 20
-285.2290273030365
 30
0.0
 11
210.0243243708716
 21
-279.701004099879
 31
0.0
  0
LINE
  5
35F
330
1F
100
AcDbEntity
  8
LAYER-033
  6
Continuous
 62
     4
100
AcDbLine
 10
205.9002282430416
 20
-287.3606341336417
 30
0.0
 11
211.4282514461987
 21
-281.8326109304846
 31
0.0
  0
LINE
  5
360
330
1F
100
AcDbEntity
  8
LAYER-033
  6
Continuous
 62
     4
100
AcDbLine
 10
207.3041553183691
 20
-289.492240964247
 30
0.0
 11
212.8321785215259
 21
-283.9642177610902
 31
0.0
  0
LINE
  5
361
330
1F
100
AcDbEntity
  8
LAYER-033
  6
Continuous
 62
     4
100
AcDbLine
 10
208.7080823936966
 20
-291.6238477948522
 30
0.0
 11
214.236105596853
 21
-286.0958245916958
 31
0.0
  0
LINE
  5
362
330
1F
100
AcDbEntity
  8
LAYER-033
  6
Continuous
 62
     4
100
AcDbLine
 10
210.1120094690241
 20
-293.7554546254575
 30
0.0
 11
215.6400326721802
 21
-288.2274314223014
 31
0.0
  0
LINE
  5
363
330
1F
100
AcDbEntity
  8
LAYER-033
  6
Continuous
 62
     4
100
AcDbLine
 10
211.5159365443516
 20
-295.8870614560627
 30
0.0
 11
217.0439597475073
 21
-290.359038252907
 31
0.0
  0
LINE
  5
364
330
1F
100
AcDbEntity
  8
LAYER-033
  6
Continuous
 62
     4
100
AcDbLine
 10
212.9198636196791
 20
-298.018668286668
 30
0.0
 11
218.4478868228345
 21
-292.4906450835126
 31
0.0
  0
LINE
  5
365
330
1F
100
AcDbEntity
  8
LAYER-033
  6
Continuous
 62
     4
100
AcDbLine
 10
214.3237906950066
 20
-300.1502751172733
 30
0.0
 11
219.8518138981617
 21
-294.6222519141182
 31
0.0
  0
LINE
  5
366
330
1F
100
AcDbEntity
  8
LAYER-033
  6
Continuous
 62
     4
100
AcDbLine
 10
215.7277177703341
 20
-302.2818819483602
 30
0.0
 11
221.2557409734888
 21
-296.7538587447239
 31
0.0
  0
LINE
  5
367
330
1F
100
AcDbEntity
  8
LAYER-033
  6
Continuous
 62
     4
100
AcDbLine
 10
217.1316448456616
 20
-304.4134887784838
 30
0.0
 11
222.6596680488159
 21
-298.8854655753295
 31
0.0
  0
LINE
  5
368
330
1F
100
AcDbEntity
  8
LAYER-033
  6
Continuous
 62
     4
100
AcDbLine
 10
218.5355719209891
 20
-306.5450956090891
 30
0.0
 11
224.0635951241431
 21
-301.0170724059351
 31
0.0
  0
LINE
  5
369
330
1F
100
AcDbEntity
  8
LAYER-033
  6
Continuous
 62
     4
100
AcDbLine
 10
220.5790878252929
 20
-308.0371136107181
 30
0.0
 11
225.4675221994702
 21
-303.1486792365407
 31
0.0
  0
LINE
  5
36A
330
1F
100
AcDbEntity
  8
LAYER-033
  6
Continuous
 62
     4
100
AcDbLine
 10
224.1146217312257
 20
-308.0371136107181
 30
0.0
 11
226.8714492747974
 21
-305.2802860671463
 31
0.0
  0
LINE
  5
36B
330
1F
100
AcDbEntity
  8
LAYER-033
  6
Continuous
 62
     4
100
AcDbLine
 10
227.6501556371584
 20
-308.0371136107181
 30
0.0
 11
228.2753763501245
 21
-307.4118928977519
 31
0.0
  0
LINE
  5
36C
330
1F
100
AcDbEntity
  8
LAYER-033
  6
Continuous
 62
     4
100
AcDbLine
 10
219.4257253475635
 20
-307.8966309970151
 30
0.0
 11
219.5662079612665
 21
-308.0371136107181
 31
0.0
  0
LINE
  5
36D
330
1F
100
AcDbEntity
  8
LAYER-033
  6
Continuous
 62
     4
100
AcDbLine
 10
212.6045492185359
 20
-297.5399209620547
 30
0.0
 11
223.1017418671992
 21
-308.0371136107181
 31
0.0
  0
LINE
  5
36E
330
1F
100
AcDbEntity
  8
LAYER-033
  6
Continuous
 62
     4
100
AcDbLine
 10
205.7833730895082
 20
-287.1832109270943
 30
0.0
 11
226.637275773132
 21
-308.0371136107181
 31
0.0
  0
LINE
  5
36F
330
1F
100
AcDbEntity
  8
LAYER-033
  6
Continuous
 62
     4
100
AcDbLine
 10
198.9621969604806
 20
-276.8265008921339
 30
0.0
 11
225.8208711585444
 21
-303.6851750903602
 31
0.0
  0
LINE
  5
370
330
1F
100
AcDbEntity
  8
LAYER-033
  6
Continuous
 62
     4
100
AcDbLine
 10
192.141020831453
 20
-266.4697908571736
 30
0.0
 11
218.9996950300069
 21
-293.3284650552454
 31
0.0
  0
LINE
  5
371
330
1F
100
AcDbEntity
  8
LAYER-033
  6
Continuous
 62
     4
100
AcDbLine
 10
185.3198447024254
 20
-256.1130808222132
 30
0.0
 11
212.1785189005054
 21
-282.9717550202932
 31
0.0
  0
LINE
  5
372
330
1F
100
AcDbEntity
  8
LAYER-033
  6
Continuous
 62
     4
100
AcDbLine
 10
178.4986685733978
 20
-245.7563707872528
 30
0.0
 11
205.3573427714859
 21
-272.6150449853409
 31
0.0
  0
LINE
  5
373
330
1F
100
AcDbEntity
  8
LAYER-033
  6
Continuous
 62
     4
100
AcDbLine
 10
171.6774924443702
 20
-235.3996607522924
 30
0.0
 11
198.5361666424664
 21
-262.2583349503886
 31
0.0
  0
LINE
  5
374
330
1F
100
AcDbEntity
  8
LAYER-033
  6
Continuous
 62
     4
100
AcDbLine
 10
168.0383454732424
 20
-228.2249798752319
 30
0.0
 11
191.7149905134469
 21
-251.9016249154364
 31
0.0
  0
LINE
  5
375
330
1F
100
AcDbEntity
  8
LAYER-033
  6
Continuous
 62
     4
100
AcDbLine
 10
166.9060926834508
 20
-223.5571931795076
 30
0.0
 11
184.8938143993577
 21
-241.544914903153
 31
0.0
  0
LINE
  5
376
330
1F
100
AcDbEntity
  8
LAYER-033
  6
Continuous
 62
     4
100
AcDbLine
 10
166.5443557402583
 20
-219.6599223306953
 30
0.0
 11
178.0726382560119
 21
-231.1882048464489
 31
0.0
  0
LINE
  5
377
330
1F
100
AcDbEntity
  8
LAYER-033
  6
Continuous
 62
     4
100
AcDbLine
 10
166.6473405123641
 20
-216.2273731968684
 30
0.0
 11
174.9668324771495
 21
-224.5468651616538
 31
0.0
  0
LINE
  5
378
330
1F
100
AcDbEntity
  8
LAYER-033
  6
Continuous
 62
     4
100
AcDbLine
 10
167.0825442396896
 20
-213.1270430182611
 30
0.0
 11
174.2739275931287
 21
-220.318426372
 31
0.0
  0
LINE
  5
379
330
1F
100
AcDbEntity
  8
LAYER-033
  6
Continuous
 62
     4
100
AcDbLine
 10
167.7786351067983
 20
-210.2875999790661
 30
0.0
 11
174.3163352863437
 21
-216.8253001589825
 31
0.0
  0
LINE
  5
37A
330
1F
100
AcDbEntity
  8
LAYER-033
  6
Continuous
 62
     4
100
AcDbLine
 10
168.6925704744241
 20
-207.6660014411301
 30
0.0
 11
174.8068156236053
 21
-213.7802465903113
 31
0.0
  0
LINE
  5
37B
330
1F
100
AcDbEntity
  8
LAYER-033
  6
Continuous
 62
     4
100
AcDbLine
 10
169.7966687367539
 20
-205.2345657975272
 30
0.0
 11
175.6251617330321
 21
-211.0630587938054
 31
0.0
  0
LINE
  5
37C
330
1F
100
AcDbEntity
  8
LAYER-033
  6
Continuous
 62
     4
100
AcDbLine
 10
171.0725990637527
 20
-202.9749622185932
 30
0.0
 11
176.7091009090467
 21
-208.6114640638873
 31
0.0
  0
LINE
  5
37D
330
1F
100
AcDbEntity
  8
LAYER-033
  6
Continuous
 62
     4
100
AcDbLine
 10
172.5082822499119
 20
-200.8751114988197
 30
0.0
 11
178.0233970029981
 21
-206.390226251906
 31
0.0
  0
LINE
  5
37E
330
1F
100
AcDbEntity
  8
LAYER-033
  6
Continuous
 62
     4
100
AcDbLine
 10
174.096201072
 20
-198.9274964149917
 30
0.0
 11
179.548106998503
 21
-204.3794023414781
 31
0.0
  0
LINE
  5
37F
330
1F
100
AcDbEntity
  8
LAYER-033
  6
Continuous
 62
     4
100
AcDbLine
 10
175.8324820554304
 20
-197.1282434924728
 30
0.0
 11
181.2734964240817
 21
-202.569257861124
 31
0.0
  0
LINE
  5
380
330
1F
100
AcDbEntity
  8
LAYER-033
  6
Continuous
 62
     4
100
AcDbLine
 10
177.7164607349103
 20
-195.4766882660199
 30
0.0
 11
183.1979307448681
 21
-200.9581582761045
 31
0.0
  0
LINE
  5
381
330
1F
100
AcDbEntity
  8
LAYER-033
  6
Continuous
 62
     4
100
AcDbLine
 10
179.7506096499604
 20
-193.9753032751373
 30
0.0
 11
185.3275442071022
 21
-199.5522378322791
 31
0.0
  0
LINE
  5
382
330
1F
100
AcDbEntity
  8
LAYER-033
  6
Continuous
 62
     4
100
AcDbLine
 10
181.9408100801716
 20
-192.6299697994158
 30
0.0
 11
187.6775163825446
 21
-198.3666761017888
 31
0.0
  0
LINE
  5
383
330
1F
100
AcDbEntity
  8
LAYER-033
  6
Continuous
 62
     4
100
AcDbLine
 10
184.2970407120428
 20
-191.4506665253542
 30
0.0
 11
190.2756386625775
 21
-197.4292644758889
 31
0.0
  0
LINE
  5
384
330
1F
100
AcDbEntity
  8
LAYER-033
  6
Continuous
 62
     4
100
AcDbLine
 10
186.8346866090942
 20
-190.4527785164729
 30
0.0
 11
193.17046149576
 21
-196.7885534031387
 31
0.0
  0
LINE
  5
385
330
1F
100
AcDbEntity
  8
LAYER-033
  6
Continuous
 62
     4
100
AcDbLine
 10
189.5769215752436
 20
-189.6594795766895
 30
0.0
 11
196.451239994193
 21
-196.533797995639
 31
0.0
  0
LINE
  5
386
330
1F
100
AcDbEntity
  8
LAYER-033
  6
Continuous
 62
     4
100
AcDbLine
 10
192.5591935375792
 20
-189.1062176330925
 30
0.0
 11
199.9866233415274
 21
-196.5336474370406
 31
0.0
  0
LINE
  5
387
330
1F
100
AcDbEntity
  8
LAYER-033
  6
Continuous
 62
     4
100
AcDbLine
 10
195.8383973933458
 20
-188.8498875829262
 30
0.0
 11
203.5221572474601
 21
-196.5336474370406
 31
0.0
  0
LINE
  5
388
330
1F
100
AcDbEntity
  8
LAYER-033
  6
Continuous
 62
     4
100
AcDbLine
 10
199.3658843898185
 20
-188.8418406734662
 30
0.0
 11
207.0576911533929
 21
-196.5336474370406
 31
0.0
  0
LINE
  5
389
330
1F
100
AcDbEntity
  8
LAYER-033
  6
Continuous
 62
     4
100
AcDbLine
 10
202.9014182957512
 20
-188.8418406734662
 30
0.0
 11
210.5932250593256
 21
-196.5336474370406
 31
0.0
  0
LINE
  5
38A
330
1F
100
AcDbEntity
  8
LAYER-033
  6
Continuous
 62
     4
100
AcDbLine
 10
206.4369522016839
 20
-188.8418406734662
 30
0.0
 11
214.1287589652501
 21
-196.5336474370406
 31
0.0
  0
LINE
  5
38B
330
1F
100
AcDbEntity
  8
LAYER-033
  6
Continuous
 62
     4
100
AcDbLine
 10
209.972486108
 20
-188.8418406734662
 30
0.0
 11
217.664292871
 21
-196.5336474370406
 31
0.0
  0
LINE
  5
38C
330
1F
100
AcDbEntity
  8
LAYER-033
  6
Continuous
 62
     4
100
AcDbLine
 10
213.5080200135494
 20
-188.8418406734662
 30
0.0
 11
221.1998267771238
 21
-196.5336474370406
 31
0.0
  0
LINE
  5
38D
330
1F
100
AcDbEntity
  8
LAYER-033
  6
Continuous
 62
     4
100
AcDbLine
 10
217.0435539194821
 20
-188.8418406734662
 30
0.0
 11
224.7353606830566
 21
-196.5336474370406
 31
0.0
  0
LINE
  5
38E
330
1F
100
AcDbEntity
  8
LAYER-033
  6
Continuous
 62
     4
100
AcDbLine
 10
220.5790878254149
 20
-188.8418406734662
 30
0.0
 11
228.2708945889893
 21
-196.5336474370406
 31
0.0
  0
LINE
  5
38F
330
1F
100
AcDbEntity
  8
LAYER-033
  6
Continuous
 62
     4
100
AcDbLine
 10
224.1146217313476
 20
-188.8418406734662
 30
0.0
 11
231.8064284949221
 21
-196.5336474370406
 31
0.0
  0
LINE
  5
390
330
1F
100
AcDbEntity
  8
LAYER-033
  6
Continuous
 62
     4
100
AcDbLine
 10
227.6501556372804
 20
-188.8418406734662
 30
0.0
 11
235.3419624008548
 21
-196.5336474370406
 31
0.0
  0
LINE
  5
391
330
1F
100
AcDbEntity
  8
LAYER-033
  6
Continuous
 62
     4
100
AcDbLine
 10
231.1856895432131
 20
-188.8418406734662
 30
0.0
 11
238.8774963067875
 21
-196.5336474370406
 31
0.0
  0
LINE
  5
392
330
1F
100
AcDbEntity
  8
LAYER-033
  6
Continuous
 62
     4
100
AcDbLine
 10
234.7212234491458
 20
-188.8418406734662
 30
0.0
 11
242.4130302127202
 21
-196.5336474370406
 31
0.0
  0
LINE
  5
393
330
1F
100
AcDbEntity
  8
LAYER-033
  6
Continuous
 62
     4
100
AcDbLine
 10
238.2567573550786
 20
-188.8418406734662
 30
0.0
 11
245.948564118653
 21
-196.5336474370406
 31
0.0
  0
LINE
  5
394
330
1F
100
AcDbEntity
  8
LAYER-033
  6
Continuous
 62
     4
100
AcDbLine
 10
241.7922912610113
 20
-188.8418406734662
 30
0.0
 11
247.0044963278681
 21
-194.0540457405411
 31
0.0
  0
LINE
  5
395
330
1F
100
AcDbEntity
  8
LAYER-033
  6
Continuous
 62
     4
100
AcDbLine
 10
245.327825166944
 20
-188.8418406734662
 30
0.0
 11
247.0044963278681
 21
-190.5185118346084
 31
0.0
  0
TEXT
  5
396
330
1F
100
AcDbEntity
  8
LAYER-033
  6
Continuous
 62
     7
100
AcDbText
 10
-189.9718281110802
 20
-608.6095046642289
 30
0.0
 40
15.0
  1
４００／４４０Ｖ　５０／６０Ｈｚ　３０～３７ｋＷ
  7
STRING_H
 11
-189.9718281110802
 21
-601.1095046642289
 31
0.0
100
AcDbText
 73
     2
  0
TEXT
  5
397
330
1F
100
AcDbEntity
  8
LAYER-033
  6
Continuous
 62
     7
100
AcDbText
 10
-189.9718281110802
 20
-628.6095046642289
 30
0.0
 40
15.0
  1
質　　量　　　３６㎏
  7
STRING_H
 11
-189.9718281110802
 21
-621.1095046642289
 31
0.0
100
AcDbText
 73
     2
  0
TEXT
  5
398
330
1F
100
AcDbEntity
  8
LAYER-033
  6
Continuous
 62
     7
100
AcDbText
 10
-189.9718281110802
 20
-588.6095046642289
 30
0.0
 40
15.0
  1
ＲＳ－１Ｐ(低　圧)
  7
STRING_H
 11
-189.9718281110802
 21
-581.1095046642289
 31
0.0
100
AcDbText
 73
     2
  0
DIMENSION
  5
3A8
330
1F
100
AcDbEntity
  8
LAYER-035
  6
Continuous
 62
     5
100
AcDbDimension
  2
*D02
 10
66.59037339979197
 20
-494.6642602700668
 30
0.0
 11
-90.90962656981164
 21
-494.6642602700668
 31
0.0
 70
   129
  1
<>
 71
     0
 42
0.0
  3
DIO_DIMSTYLE
100
AcDbAlignedDimension
 13
-248.409626600208
 23
-431.3157974773602
 33
0.0
 14
66.59037339979197
 24
-431.3157974773602
 34
0.0
1001
ACAD
1000
DSTYLE
1002
{
1070
    41
1040
4.0
1070
    44
1040
1.0
1070
    42
1040
1.0
1070
     6
1000
_OPEN
1070
     7
1000
_OPEN
1070
   173
1070
     1
1070
   140
1040
10.0
1070
   178
1070
     5
1070
   147
1040
0.5
1002
}
  0
DIMENSION
  5
3B2
330
1F
100
AcDbEntity
  8
LAYER-035
  6
Continuous
 62
     5
100
AcDbDimension
  2
*D13
 10
34.09037339979197
 20
-469.0017956444202
 30
0.0
 11
-90.90962656981162
 21
-469.0017956444202
 31
0.0
 70
   129
  1
<>
 71
     0
 42
0.0
  3
DIO_DIMSTYLE
100
AcDbAlignedDimension
 13
-215.9096265394152
 23
-438.8608596539461
 33
0.0
 14
34.09037339979197
 24
-438.8608596539461
 34
0.0
1001
ACAD
1000
DSTYLE
1002
{
1070
    41
1040
4.0
1070
    44
1040
1.0
1070
    42
1040
1.0
1070
     6
1000
_OPEN
1070
     7
1000
_OPEN
1070
   173
1070
     1
1070
   140
1040
10.0
1070
   178
1070
     5
1070
   147
1040
0.5
1002
}
  0
DIMENSION
  5
3BC
330
1F
100
AcDbEntity
  8
LAYER-035
  6
Continuous
 62
     5
100
AcDbDimension
  2
*D24
 10
124.7778386633172
 20
-431.3157974773602
 30
0.0
 11
124.7778386633172
 21
-298.8157974773602
 31
0.0
 70
   128
  1
<>
 71
     0
 42
0.0
  3
DIO_DIMSTYLE
100
AcDbAlignedDimension
 13
0.842776362868122
 23
-166.3157974773602
 33
0.0
 14
66.59037339979197
 24
-431.3157974773602
 34
0.0
 50
90.0
100
AcDbRotatedDimension
1001
ACAD
1000
DSTYLE
1002
{
1070
    41
1040
4.0
1070
    44
1040
1.0
1070
    42
1040
1.0
1070
     6
1000
_OPEN
1070
     7
1000
_OPEN
1070
   173
1070
     1
1070
   140
1040
10.0
1070
   178
1070
     5
1070
   147
1040
0.5
1002
}
  0
DIMENSION
  5
3C8
330
1F
100
AcDbEntity
  8
LAYER-035
  6
Continuous
 62
     5
100
AcDbDimension
  2
*D35
 10
124.7778386633172
 20
-166.3157974773602
 30
0.0
 11
124.7778386633172
 21
-121.3157974773602
 31
0.0
 70
   128
  1
25±5
 71
     0
 42
0.0
  3
DIO_DIMSTYLE
100
AcDbAlignedDimension
 13
59.9973867553196
 23
-141.3157974773602
 33
0.0
 14
0.842776362868122
 24
-166.3157974773602
 34
0.0
 50
90.0
100
AcDbRotatedDimension
1001
ACAD
1000
DSTYLE
1002
{
1070
    41
1040
4.0
1070
    44
1040
1.0
1070
    42
1040
1.0
1070
     6
1000
_OPEN
1070
     7
1000
_OPEN
1070
   173
1070
     1
1070
   140
1040
10.0
1070
   178
1070
     5
1070
   147
1040
0.5
1002
}
  0
DIMENSION
  5
3D2
330
1F
100
AcDbEntity
  8
LAYER-035
  6
Continuous
 62
     5
100
AcDbDimension
  2
*D46
 10
411.5331993721535
 20
-349.1916716032343
 30
0.0
 11
436.5331993721535
 21
-349.1916716032343
 31
0.0
 70
   128
  1
(<>)
 71
     0
 42
0.0
  3
DIO_DIMSTYLE
100
AcDbAlignedDimension
 13
461.5331993721535
 23
-218.8418406734662
 33
0.0
 14
411.5331993721535
 24
-308.0371136107181
 34
0.0
100
AcDbRotatedDimension
1001
ACAD
1000
DSTYLE
1002
{
1070
    41
1040
4.0
1070
    44
1040
1.0
1070
    42
1040
1.0
1070
     6
1000
_OPEN
1070
     7
1000
_OPEN
1070
   173
1070
     1
1070
   140
1040
10.0
1070
   178
1070
     5
1070
   147
1040
0.5
1002
}
  0
DIMENSION
  5
3DC
330
1F
100
AcDbEntity
  8
LAYER-035
  6
Continuous
 62
     5
100
AcDbDimension
  2
*D57
 10
216.5331993721535
 20
-349.1916716032343
 30
0.0
 11
191.5331993721535
 21
-349.1916716032343
 31
0.0
 70
   128
  1
(<>)
 71
     0
 42
0.0
  3
DIO_DIMSTYLE
100
AcDbAlignedDimension
 13
166.5331993721535
 23
-218.8418406734662
 33
0.0
 14
216.5331993721535
 24
-308.0371136107181
 34
0.0
 50
180.0
100
AcDbRotatedDimension
1001
ACAD
1000
DSTYLE
1002
{
1070
    41
1040
4.0
1070
    44
1040
1.0
1070
    42
1040
1.0
1070
     6
1000
_OPEN
1070
     7
1000
_OPEN
1070
   173
1070
     1
1070
   140
1040
10.0
1070
   178
1070
     5
1070
   147
1040
0.5
1002
}
  0
DIMENSION
  5
3E6
330
1F
100
AcDbEntity
  8
LAYER-035
  6
Continuous
 62
     5
100
AcDbDimension
  2
*D68
 10
216.5331993721535
 20
-349.1916716032343
 30
0.0
 11
291.821459406884
 21
-349.1916716032343
 31
0.0
 70
   129
  1
<>
 71
     0
 42
0.0
  3
DIO_DIMSTYLE
100
AcDbAlignedDimension
 13
411.5331993721535
 23
-308.0371136107181
 33
0.0
 14
216.5331993721535
 24
-308.0371136107181
 34
0.0
1001
ACAD
1000
DSTYLE
1002
{
1070
    41
1040
4.0
1070
    44
1040
1.0
1070
    42
1040
1.0
1070
     6
1000
_OPEN
1070
     7
1000
_OPEN
1070
   173
1070
     1
1070
   140
1040
10.0
1070
   178
1070
     5
1070
   147
1040
0.5
1002
}
  0
DIMENSION
  5
3F0
330
1F
100
AcDbEntity
  8
LAYER-035
  6
Continuous
 62
     5
100
AcDbDimension
  2
*D79
 10
429.0331993721536
 20
-494.6642602700668
 30
0.0
 11
314.0331993721536
 21
-494.6642602700668
 31
0.0
 70
   128
  1
<>
 71
     0
 42
0.0
  3
DIO_DIMSTYLE
100
AcDbAlignedDimension
 13
199.0331993721535
 23
-431.3157974773602
 33
0.0
 14
429.0331993721535
 24
-431.3157974773602
 34
0.0
 50
180.0
100
AcDbRotatedDimension
1001
ACAD
1000
DSTYLE
1002
{
1070
    41
1040
4.0
1070
    44
1040
1.0
1070
    42
1040
1.0
1070
     6
1000
_OPEN
1070
     7
1000
_OPEN
1070
   173
1070
     1
1070
   140
1040
10.0
1070
   178
1070
     5
1070
   147
1040
0.5
1002
}
  0
DIMENSION
  5
3FA
330
1F
100
AcDbEntity
  8
LAYER-035
  6
Continuous
 62
     5
100
AcDbDimension
  2
*D810
 10
414.0331993721536
 20
-469.0017956444202
 30
0.0
 11
314.0331993721536
 21
-469.0017956444202
 31
0.0
 70
   128
  1
<>
 71
     0
 42
0.0
  3
DIO_DIMSTYLE
100
AcDbAlignedDimension
 13
214.0331993721535
 23
-438.0741112886718
 33
0.0
 14
414.0331993721535
 24
-438.0741112886718
 34
0.0
 50
180.0
100
AcDbRotatedDimension
1001
ACAD
1000
DSTYLE
1002
{
1070
    41
1040
4.0
1070
    44
1040
1.0
1070
    42
1040
1.0
1070
     6
1000
_OPEN
1070
     7
1000
_OPEN
1070
   173
1070
     1
1070
   140
1040
10.0
1070
   178
1070
     5
1070
   147
1040
0.5
1002
}
  0
ENDSEC
  0
SECTION
  2
OBJECTS
  0
DICTIONARY
  5
C
330
0
100
AcDbDictionary
281
     1
  3
ACAD_GROUP
350
D
  3
ACAD_LAYOUT
350
1A
  3
ACAD_MLINESTYLE
350
17
  3
ACAD_PLOTSETTINGS
350
19
  3
ACAD_PLOTSTYLENAME
350
E
  0
DICTIONARY
  5
D
102
{ACAD_REACTORS
330
C
102
}
330
C
100
AcDbDictionary
281
     1
  0
DICTIONARY
  5
1A
102
{ACAD_REACTORS
330
C
102
}
330
C
100
AcDbDictionary
281
     1
  3
Model
350
22
  3
ﾚｲｱｳﾄ1
350
1E
  3
ﾚｲｱｳﾄ2
350
26
  0
DICTIONARY
  5
17
102
{ACAD_REACTORS
330
C
102
}
330
C
100
AcDbDictionary
281
     1
  3
Standard
350
18
  0
DICTIONARY
  5
19
102
{ACAD_REACTORS
330
C
102
}
330
C
100
AcDbDictionary
281
     1
  0
ACDBDICTIONARYWDFLT
  5
E
102
{ACAD_REACTORS
330
C
102
}
330
C
100
AcDbDictionary
281
     1
  3
Normal
350
F
100
AcDbDictionaryWithDefault
340
F
  0
LAYOUT
  5
22
102
{ACAD_REACTORS
330
1A
102
}
330
1A
100
AcDbPlotSettings
  1

  2
DWF ePlot.pc3
  4
ANSI_A_(8.50_x_11.00_Inches)
  6

 40
5.793749809265137
 41
17.79375076293945
 42
5.793746948242188
 43
17.79376220703125
 44
215.8999938964844
 45
279.3999938964844
 46
0.0
 47
0.0
 48
0.0
 49
0.0
140
0.0
141
0.0
142
1.0
143
39.26051453979704
 70
 11952
 72
     0
 73
     1
 74
     0
  7
acad.ctb
 75
     0
147
0.0254708837039396
148
-1793.922354682663
149
1.490346453088415
100
AcDbLayout
  1
Model
 70
     1
 71
     0
 10
-1000.0
 20
-750.0
 11
1000.0
 21
750.0
 12
0.0
 22
0.0
 32
0.0
 14
-1000.0
 24
-750.0
 34
0.0
 15
1000.0
 25
750.0
 35
0.0
146
0.0
 13
0.0
 23
0.0
 33
0.0
 16
1.0
 26
0.0
 36
0.0
 17
0.0
 27
1.0
 37
0.0
 76
     0
330
1F
  0
LAYOUT
  5
1E
102
{ACAD_REACTORS
330
1A
102
}
330
1A
100
AcDbPlotSettings
  1

  2
RICOH IPSiO NX700
  4

  6

 40
0.0
 41
0.0
 42
0.0
 43
0.0
 44
0.0
 45
0.0
 46
0.0
 47
0.0
 48
0.0
 49
0.0
140
0.0
141
0.0
142
1.0
143
1.0
 70
   688
 72
     0
 73
     0
 74
     5
  7
acad.ctb
 75
    16
147
1.0
148
0.0
149
0.0
100
AcDbLayout
  1
ﾚｲｱｳﾄ1
 70
     1
 71
     1
 10
-1000.0
 20
-750.0
 11
1000.0
 21
750.0
 12
0.0
 22
0.0
 32
0.0
 14
-1000.0
 24
-750.0
 34
0.0
 15
1000.0
 25
750.0
 35
0.0
146
0.0
 13
0.0
 23
0.0
 33
0.0
 16
1.0
 26
0.0
 36
0.0
 17
0.0
 27
1.0
 37
0.0
 76
     0
330
1B
  0
LAYOUT
  5
26
102
{ACAD_REACTORS
330
1A
102
}
330
1A
100
AcDbPlotSettings
  1

  2
RICOH IPSiO NX700
  4

  6

 40
0.0
 41
0.0
 42
0.0
 43
0.0
 44
0.0
 45
0.0
 46
0.0
 47
0.0
 48
0.0
 49
0.0
140
0.0
141
0.0
142
1.0
143
1.0
 70
   688
 72
     0
 73
     0
 74
     5
  7
acad.ctb
 75
    16
147
1.0
148
0.0
149
0.0
100
AcDbLayout
  1
ﾚｲｱｳﾄ2
 70
     1
 71
     2
 10
0.0
 20
0.0
 11
12.0
 21
9.0
 12
0.0
 22
0.0
 32
0.0
 14
0.0
 24
0.0
 34
0.0
 15
0.0
 25
0.0
 35
0.0
146
0.0
 13
0.0
 23
0.0
 33
0.0
 16
1.0
 26
0.0
 36
0.0
 17
0.0
 27
1.0
 37
0.0
 76
     0
330
23
  0
MLINESTYLE
  5
18
102
{ACAD_REACTORS
330
17
102
}
330
17
100
AcDbMlineStyle
  2
STANDARD
 70
     0
  3

 62
   256
 51
90.0
 52
90.0
 71
     2
 49
0.5
 62
   256
  6
BYLAYER
 49
-0.5
 62
   256
  6
BYLAYER
  0
ACDBPLACEHOLDER
  5
F
102
{ACAD_REACTORS
330
E
102
}
330
E
  0
ENDSEC
  0
EOF
