  0
SECTION
  2
HEADER
  9
$ACADVER
  1
AC1015
  9
$ACADMAINTVER
 70
     6
  9
$DWGCODEPAGE
  3
ANSI_932
  9
$INSBASE
 10
0.0
 20
0.0
 30
0.0
  9
$EXTMIN
 10
-1000.0
 20
-750.0
 30
0.0
  9
$EXTMAX
 10
1000.0
 20
750.0
 30
0.0
  9
$LIMMIN
 10
-1000.0
 20
-750.0
  9
$LIMMAX
 10
1000.0
 20
750.0
  9
$ORTHOMODE
 70
     0
  9
$REGENMODE
 70
     1
  9
$FILLMODE
 70
     1
  9
$QTEXTMODE
 70
     0
  9
$MIRRTEXT
 70
     1
  9
$LTSCALE
 40
4.0
  9
$ATTMODE
 70
     1
  9
$TEXTSIZE
 40
2.5
  9
$TRACEWID
 40
1.0
  9
$TEXTSTYLE
  7
Standard
  9
$CLAYER
  8
0
  9
$CELTYPE
  6
ByLayer
  9
$CECOLOR
 62
   256
  9
$CELTSCALE
 40
1.0
  9
$DISPSILH
 70
     0
  9
$DIMSCALE
 40
1.0
  9
$DIMASZ
 40
4.0
  9
$DIMEXO
 40
1.0
  9
$DIMDLI
 40
3.75
  9
$DIMRND
 40
0.1
  9
$DIMDLE
 40
0.0
  9
$DIMEXE
 40
1.0
  9
$DIMTP
 40
0.0
  9
$DIMTM
 40
0.0
  9
$DIMTXT
 40
2.5
  9
$DIMCEN
 40
2.5
  9
$DIMTSZ
 40
0.0
  9
$DIMTOL
 70
     0
  9
$DIMLIM
 70
     0
  9
$DIMTIH
 70
     0
  9
$DIMTOH
 70
     0
  9
$DIMSE1
 70
     0
  9
$DIMSE2
 70
     0
  9
$DIMTAD
 70
     1
  9
$DIMZIN
 70
     8
  9
$DIMBLK
  1

  9
$DIMASO
 70
     1
  9
$DIMSHO
 70
     1
  9
$DIMPOST
  1

  9
$DIMAPOST
  1

  9
$DIMALT
 70
     0
  9
$DIMALTD
 70
     3
  9
$DIMALTF
 40
0.03937007874016
  9
$DIMLFAC
 40
1.0
  9
$DIMTOFL
 70
     1
  9
$DIMTVP
 40
0.0
  9
$DIMTIX
 70
     0
  9
$DIMSOXD
 70
     0
  9
$DIMSAH
 70
     1
  9
$DIMBLK1
  1

  9
$DIMBLK2
  1

  9
$DIMSTYLE
  2
ISO-25
  9
$DIMCLRD
 70
     0
  9
$DIMCLRE
 70
     0
  9
$DIMCLRT
 70
     0
  9
$DIMTFAC
 40
1.0
  9
$DIMGAP
 40
0.5
  9
$DIMJUST
 70
     0
  9
$DIMSD1
 70
     0
  9
$DIMSD2
 70
     0
  9
$DIMTOLJ
 70
     0
  9
$DIMTZIN
 70
     8
  9
$DIMALTZ
 70
     0
  9
$DIMALTTZ
 70
     0
  9
$DIMUPT
 70
     1
  9
$DIMDEC
 70
     1
  9
$DIMTDEC
 70
     2
  9
$DIMALTU
 70
     2
  9
$DIMALTTD
 70
     3
  9
$DIMTXSTY
  7
Standard
  9
$DIMAUNIT
 70
     0
  9
$DIMADEC
 70
     1
  9
$DIMALTRND
 40
0.0
  9
$DIMAZIN
 70
     2
  9
$DIMDSEP
 70
    46
  9
$DIMATFIT
 70
     0
  9
$DIMFRAC
 70
     0
  9
$DIMLDRBLK
  1

  9
$DIMLUNIT
 70
     2
  9
$DIMLWD
 70
    -2
  9
$DIMLWE
 70
    -2
  9
$DIMTMOVE
 70
     0
  9
$LUNITS
 70
     2
  9
$LUPREC
 70
     4
  9
$SKETCHINC
 40
1.0
  9
$FILLETRAD
 40
10.0
  9
$AUNITS
 70
     0
  9
$AUPREC
 70
     0
  9
$MENU
  1
.
  9
$ELEVATION
 40
0.0
  9
$PELEVATION
 40
0.0
  9
$THICKNESS
 40
0.0
  9
$LIMCHECK
 70
     0
  9
$CHAMFERA
 40
10.0
  9
$CHAMFERB
 40
10.0
  9
$CHAMFERC
 40
20.0
  9
$CHAMFERD
 40
0.0
  9
$SKPOLY
 70
     0
  9
$TDCREATE
 40
2455091.0
  9
$TDUCREATE
 40
2451562.87528772
  9
$TDUPDATE
 40
2455505.0
  9
$TDUUPDATE
 40
2452026.917654526
  9
$TDINDWG
 40
0.0010008681
  9
$TDUSRTIMER
 40
0.0009680671
  9
$USRTIMER
 70
     1
  9
$ANGBASE
 50
0.0
  9
$ANGDIR
 70
     0
  9
$PDMODE
 70
     0
  9
$PDSIZE
 40
0.0
  9
$PLINEWID
 40
0.0
  9
$SPLFRAME
 70
     0
  9
$SPLINETYPE
 70
     6
  9
$SPLINESEGS
 70
     8
  9
$HANDSEED
  5
3F8
  9
$SURFTAB1
 70
     6
  9
$SURFTAB2
 70
     6
  9
$SURFTYPE
 70
     6
  9
$SURFU
 70
     6
  9
$SURFV
 70
     6
  9
$UCSBASE
  2

  9
$UCSNAME
  2

  9
$UCSORG
 10
0.0
 20
0.0
 30
0.0
  9
$UCSXDIR
 10
1.0
 20
0.0
 30
0.0
  9
$UCSYDIR
 10
0.0
 20
1.0
 30
0.0
  9
$UCSORTHOREF
  2

  9
$UCSORTHOVIEW
 70
     0
  9
$UCSORGTOP
 10
0.0
 20
0.0
 30
0.0
  9
$UCSORGBOTTOM
 10
0.0
 20
0.0
 30
0.0
  9
$UCSORGLEFT
 10
0.0
 20
0.0
 30
0.0
  9
$UCSORGRIGHT
 10
0.0
 20
0.0
 30
0.0
  9
$UCSORGFRONT
 10
0.0
 20
0.0
 30
0.0
  9
$UCSORGBACK
 10
0.0
 20
0.0
 30
0.0
  9
$PUCSBASE
  2

  9
$PUCSNAME
  2

  9
$PUCSORG
 10
0.0
 20
0.0
 30
0.0
  9
$PUCSXDIR
 10
1.0
 20
0.0
 30
0.0
  9
$PUCSYDIR
 10
0.0
 20
1.0
 30
0.0
  9
$PUCSORTHOREF
  2

  9
$PUCSORTHOVIEW
 70
     0
  9
$PUCSORGTOP
 10
0.0
 20
0.0
 30
0.0
  9
$PUCSORGBOTTOM
 10
0.0
 20
0.0
 30
0.0
  9
$PUCSORGLEFT
 10
0.0
 20
0.0
 30
0.0
  9
$PUCSORGRIGHT
 10
0.0
 20
0.0
 30
0.0
  9
$PUCSORGFRONT
 10
0.0
 20
0.0
 30
0.0
  9
$PUCSORGBACK
 10
0.0
 20
0.0
 30
0.0
  9
$USERI1
 70
     0
  9
$USERI2
 70
     0
  9
$USERI3
 70
     0
  9
$USERI4
 70
     0
  9
$USERI5
 70
     0
  9
$USERR1
 40
0.0
  9
$USERR2
 40
0.0
  9
$USERR3
 40
0.0
  9
$USERR4
 40
0.0
  9
$USERR5
 40
0.0
  9
$WORLDVIEW
 70
     1
  9
$SHADEDGE
 70
     3
  9
$SHADEDIF
 70
    70
  9
$TILEMODE
 70
     1
  9
$MAXACTVP
 70
    64
  9
$PINSBASE
 10
0.0
 20
0.0
 30
0.0
  9
$PLIMCHECK
 70
     0
  9
$PEXTMIN
 10
-1000.0
 20
-750.0
 30
0.0
  9
$PEXTMAX
 10
1000.0
 20
750.0
 30
0.0
  9
$PLIMMIN
 10
-1000.0
 20
-750.0
  9
$PLIMMAX
 10
1000.0
 20
750.0
  9
$UNITMODE
 70
     0
  9
$VISRETAIN
 70
     1
  9
$PLINEGEN
 70
     0
  9
$PSLTSCALE
 70
     1
  9
$TREEDEPTH
 70
  3020
  9
$CMLSTYLE
  2
Standard
  9
$CMLJUST
 70
     0
  9
$CMLSCALE
 40
20.0
  9
$PROXYGRAPHICS
 70
     1
  9
$MEASUREMENT
 70
     1
  9
$CELWEIGHT
370
    -1
  9
$ENDCAPS
280
     0
  9
$JOINSTYLE
280
     0
  9
$LWDISPLAY
290
     0
  9
$INSUNITS
 70
     4
  9
$HYPERLINKBASE
  1

  9
$STYLESHEET
  1

  9
$XEDIT
290
     1
  9
$CEPSNTYPE
380
     0
  9
$PSTYLEMODE
290
     1
  9
$FINGERPRINTGUID
  2
{B6423330-CE35-11D3-AA43-00E0292263AD}
  9
$VERSIONGUID
  2
{EAA0F794-BAE8-4B09-85E0-65C527BE2B8E}
  9
$EXTNAMES
290
     1
  9
$PSVPSCALE
 40
0.0
  9
$OLESTARTUP
290
     0
  0
ENDSEC
  0
SECTION
  2
CLASSES
  0
CLASS
  1
ACDBDICTIONARYWDFLT
  2
AcDbDictionaryWithDefault
  3
ObjectDBX Classes
 90
        0
280
     0
281
     0
  0
CLASS
  1
ACDBPLACEHOLDER
  2
AcDbPlaceHolder
  3
ObjectDBX Classes
 90
        0
280
     0
281
     0
  0
CLASS
  1
LAYOUT
  2
AcDbLayout
  3
ObjectDBX Classes
 90
        0
280
     0
281
     0
  0
ENDSEC
  0
SECTION
  2
TABLES
  0
TABLE
  2
VPORT
  5
8
330
0
100
AcDbSymbolTable
 70
     3
  0
VPORT
  5
30
330
8
100
AcDbSymbolTableRecord
100
AcDbViewportTableRecord
  2
*Active
 70
     0
 10
0.0
 20
0.0
 11
1.0
 21
1.0
 12
259.0560661764706
 22
148.5
 13
0.0
 23
0.0
 14
10.0
 24
10.0
 15
10.0
 25
10.0
 16
0.0
 26
0.0
 36
1.0
 17
0.0
 27
0.0
 37
0.0
 40
297.1173501144164
 41
1.268382352941176
 42
50.0
 43
0.0
 44
0.0
 50
0.0
 51
0.0
 71
     0
 72
   100
 73
     1
 74
     3
 75
     0
 76
     0
 77
     0
 78
     0
281
     0
 65
     1
110
0.0
120
0.0
130
0.0
111
1.0
121
0.0
131
0.0
112
0.0
122
1.0
132
0.0
 79
     0
146
0.0
  0
ENDTAB
  0
TABLE
  2
LTYPE
  5
5
330
0
100
AcDbSymbolTable
 70
    26
  0
LTYPE
  5
14
330
5
100
AcDbSymbolTableRecord
100
AcDbLinetypeTableRecord
  2
ByBlock
 70
     0
  3

 72
    65
 73
     0
 40
0.0
  0
LTYPE
  5
15
330
5
100
AcDbSymbolTableRecord
100
AcDbLinetypeTableRecord
  2
ByLayer
 70
     0
  3

 72
    65
 73
     0
 40
0.0
  0
LTYPE
  5
16
330
5
100
AcDbSymbolTableRecord
100
AcDbLinetypeTableRecord
  2
Continuous
 70
     0
  3
Solid line
 72
    65
 73
     0
 40
0.0
  0
LTYPE
  5
37
330
5
100
AcDbSymbolTableRecord
100
AcDbLinetypeTableRecord
  2
BORDER
 70
     0
  3
 __ __ . __ __ . __ __ . __ __ . __ __ . __ __
 72
    65
 73
     6
 40
1.75
 49
0.5
 74
     0
 49
-0.25
 74
     0
 49
0.5
 74
     0
 49
-0.25
 74
     0
 49
0.0
 74
     0
 49
-0.25
 74
     0
  0
LTYPE
  5
38
330
5
100
AcDbSymbolTableRecord
100
AcDbLinetypeTableRecord
  2
BORDER2
 70
     0
  3
__.__.__.__.__.__.__.__.__.__.__.__.__.__.__
 72
    65
 73
     6
 40
0.875
 49
0.25
 74
     0
 49
-0.125
 74
     0
 49
0.25
 74
     0
 49
-0.125
 74
     0
 49
0.0
 74
     0
 49
-0.125
 74
     0
  0
LTYPE
  5
39
330
5
100
AcDbSymbolTableRecord
100
AcDbLinetypeTableRecord
  2
BORDERX2
 70
     0
  3
____  ____  .  ____  ____  .  ____  ____  .
 72
    65
 73
     6
 40
3.5
 49
1.0
 74
     0
 49
-0.5
 74
     0
 49
1.0
 74
     0
 49
-0.5
 74
     0
 49
0.0
 74
     0
 49
-0.5
 74
     0
  0
LTYPE
  5
3A
330
5
100
AcDbSymbolTableRecord
100
AcDbLinetypeTableRecord
  2
CENTER
 70
     0
  3
____ _ ____ _ ____ _ ____ _ ____ _ ____ _ ____
 72
    65
 73
     4
 40
2.0
 49
1.25
 74
     0
 49
-0.25
 74
     0
 49
0.25
 74
     0
 49
-0.25
 74
     0
  0
LTYPE
  5
3B
330
5
100
AcDbSymbolTableRecord
100
AcDbLinetypeTableRecord
  2
CENTER2
 70
     0
  3
___ _ ___ _ ___ _ ___ _ ___ _ ___ _ ___ _ ___ 
 72
    65
 73
     4
 40
1.125
 49
0.75
 74
     0
 49
-0.125
 74
     0
 49
0.125
 74
     0
 49
-0.125
 74
     0
  0
LTYPE
  5
3C
330
5
100
AcDbSymbolTableRecord
100
AcDbLinetypeTableRecord
  2
CENTERX2
 70
     0
  3
________  __  ________  __  ________  __
 72
    65
 73
     4
 40
4.0
 49
2.5
 74
     0
 49
-0.5
 74
     0
 49
0.5
 74
     0
 49
-0.5
 74
     0
  0
LTYPE
  5
3D
330
5
100
AcDbSymbolTableRecord
100
AcDbLinetypeTableRecord
  2
DASHDOT
 70
     0
  3
__ . __ . __ . __ . __ . __ . __ . __ . __ .
 72
    65
 73
     4
 40
1.0
 49
0.5
 74
     0
 49
-0.25
 74
     0
 49
0.0
 74
     0
 49
-0.25
 74
     0
  0
LTYPE
  5
3E
330
5
100
AcDbSymbolTableRecord
100
AcDbLinetypeTableRecord
  2
DASHDOT2
 70
     0
  3
_._._._._._._._._._._._._._._._._._._._._._._.
 72
    65
 73
     4
 40
0.5
 49
0.25
 74
     0
 49
-0.125
 74
     0
 49
0.0
 74
     0
 49
-0.125
 74
     0
  0
LTYPE
  5
3F
330
5
100
AcDbSymbolTableRecord
100
AcDbLinetypeTableRecord
  2
DASHDOTX2
 70
     0
  3
____  .  ____  .  ____  .  ____  .  ____  .
 72
    65
 73
     4
 40
2.0
 49
1.0
 74
     0
 49
-0.5
 74
     0
 49
0.0
 74
     0
 49
-0.5
 74
     0
  0
LTYPE
  5
40
330
5
100
AcDbSymbolTableRecord
100
AcDbLinetypeTableRecord
  2
DASHED
 70
     0
  3
__ __ __ __ __ __ __ __ __ __ __ __ __ __ __
 72
    65
 73
     2
 40
0.75
 49
0.5
 74
     0
 49
-0.25
 74
     0
  0
LTYPE
  5
41
330
5
100
AcDbSymbolTableRecord
100
AcDbLinetypeTableRecord
  2
DASHED2
 70
     0
  3
_ _ _ _ _ _ _ _ _ _ _ _ _ _ _ _ _ _ _ _ _ _ _
 72
    65
 73
     2
 40
0.375
 49
0.25
 74
     0
 49
-0.125
 74
     0
  0
LTYPE
  5
42
330
5
100
AcDbSymbolTableRecord
100
AcDbLinetypeTableRecord
  2
DASHEDX2
 70
     0
  3
____  ____  ____  ____  ____  ____  ____  ____
 72
    65
 73
     2
 40
1.5
 49
1.0
 74
     0
 49
-0.5
 74
     0
  0
LTYPE
  5
43
330
5
100
AcDbSymbolTableRecord
100
AcDbLinetypeTableRecord
  2
DIVIDE
 70
     0
  3
____ . . ____ . . ____ . . ____ . . ____ . .
 72
    65
 73
     6
 40
1.25
 49
0.5
 74
     0
 49
-0.25
 74
     0
 49
0.0
 74
     0
 49
-0.25
 74
     0
 49
0.0
 74
     0
 49
-0.25
 74
     0
  0
LTYPE
  5
44
330
5
100
AcDbSymbolTableRecord
100
AcDbLinetypeTableRecord
  2
DIVIDE2
 70
     0
  3
__..__..__..__..__..__..__..__..__..__..__..__
 72
    65
 73
     6
 40
0.625
 49
0.25
 74
     0
 49
-0.125
 74
     0
 49
0.0
 74
     0
 49
-0.125
 74
     0
 49
0.0
 74
     0
 49
-0.125
 74
     0
  0
LTYPE
  5
45
330
5
100
AcDbSymbolTableRecord
100
AcDbLinetypeTableRecord
  2
DIVIDEX2
 70
     0
  3
________  .  .  ________  .  .  ________  .  .
 72
    65
 73
     6
 40
2.5
 49
1.0
 74
     0
 49
-0.5
 74
     0
 49
0.0
 74
     0
 49
-0.5
 74
     0
 49
0.0
 74
     0
 49
-0.5
 74
     0
  0
LTYPE
  5
46
330
5
100
AcDbSymbolTableRecord
100
AcDbLinetypeTableRecord
  2
DOT
 70
     0
  3
. . . . . . . . . . . . . . . . . . . . . . .
 72
    65
 73
     2
 40
0.25
 49
0.0
 74
     0
 49
-0.25
 74
     0
  0
LTYPE
  5
47
330
5
100
AcDbSymbolTableRecord
100
AcDbLinetypeTableRecord
  2
DOT2
 70
     0
  3
..............................................
 72
    65
 73
     2
 40
0.125
 49
0.0
 74
     0
 49
-0.125
 74
     0
  0
LTYPE
  5
48
330
5
100
AcDbSymbolTableRecord
100
AcDbLinetypeTableRecord
  2
DOTX2
 70
     0
  3
.  .  .  .  .  .  .  .  .  .  .  .  .  .  .  .
 72
    65
 73
     2
 40
0.5
 49
0.0
 74
     0
 49
-0.5
 74
     0
  0
LTYPE
  5
49
330
5
100
AcDbSymbolTableRecord
100
AcDbLinetypeTableRecord
  2
HIDDEN
 70
     0
  3
__ __ __ __ __ __ __ __ __ __ __ __ __ __ __
 72
    65
 73
     2
 40
0.375
 49
0.25
 74
     0
 49
-0.125
 74
     0
  0
LTYPE
  5
4A
330
5
100
AcDbSymbolTableRecord
100
AcDbLinetypeTableRecord
  2
HIDDEN2
 70
     0
  3
_ _ _ _ _ _ _ _ _ _ _ _ _ _ _ _ _ _ _ _ _ _ _
 72
    65
 73
     2
 40
0.1875
 49
0.125
 74
     0
 49
-0.0625
 74
     0
  0
LTYPE
  5
4B
330
5
100
AcDbSymbolTableRecord
100
AcDbLinetypeTableRecord
  2
HIDDENX2
 70
     0
  3
____ ____ ____ ____ ____ ____ ____ ____ ____
 72
    65
 73
     2
 40
0.75
 49
0.5
 74
     0
 49
-0.25
 74
     0
  0
LTYPE
  5
4C
330
5
100
AcDbSymbolTableRecord
100
AcDbLinetypeTableRecord
  2
PHANTOM
 70
     0
  3
______  __  __  ______  __  __  ______  __
 72
    65
 73
     6
 40
2.5
 49
1.25
 74
     0
 49
-0.25
 74
     0
 49
0.25
 74
     0
 49
-0.25
 74
     0
 49
0.25
 74
     0
 49
-0.25
 74
     0
  0
LTYPE
  5
4D
330
5
100
AcDbSymbolTableRecord
100
AcDbLinetypeTableRecord
  2
PHANTOM2
 70
     0
  3
___ _ _ ___ _ _ ___ _ _ ___ _ _ ___ _ _ ___ _
 72
    65
 73
     6
 40
1.25
 49
0.625
 74
     0
 49
-0.125
 74
     0
 49
0.125
 74
     0
 49
-0.125
 74
     0
 49
0.125
 74
     0
 49
-0.125
 74
     0
  0
LTYPE
  5
4E
330
5
100
AcDbSymbolTableRecord
100
AcDbLinetypeTableRecord
  2
PHANTOMX2
 70
     0
  3
____________    ____    ____    ____________
 72
    65
 73
     6
 40
5.0
 49
2.5
 74
     0
 49
-0.5
 74
     0
 49
0.5
 74
     0
 49
-0.5
 74
     0
 49
0.5
 74
     0
 49
-0.5
 74
     0
  0
LTYPE
  5
4F
330
5
100
AcDbSymbolTableRecord
100
AcDbLinetypeTableRecord
  2
CONTINUOUS2
 70
     0
  3
Solid line
 72
    65
 73
     0
 40
0.0
  0
ENDTAB
  0
TABLE
  2
LAYER
  5
2
330
0
100
AcDbSymbolTable
 70
   258
  0
LAYER
  5
10
330
2
100
AcDbSymbolTableRecord
100
AcDbLayerTableRecord
  2
0
 70
     0
 62
     7
  6
Continuous
370
    -3
390
F
  0
LAYER
  5
50
330
2
100
AcDbSymbolTableRecord
100
AcDbLayerTableRecord
  2
LAYER-001
 70
     0
 62
     7
  6
Continuous
370
    -3
390
F
  0
LAYER
  5
51
330
2
100
AcDbSymbolTableRecord
100
AcDbLayerTableRecord
  2
LAYER-002
 70
     0
 62
     7
  6
Continuous
370
    -3
390
F
  0
LAYER
  5
52
330
2
100
AcDbSymbolTableRecord
100
AcDbLayerTableRecord
  2
LAYER-003
 70
     0
 62
     7
  6
Continuous
370
    -3
390
F
  0
LAYER
  5
53
330
2
100
AcDbSymbolTableRecord
100
AcDbLayerTableRecord
  2
LAYER-004
 70
     0
 62
     7
  6
Continuous
370
    -3
390
F
  0
LAYER
  5
54
330
2
100
AcDbSymbolTableRecord
100
AcDbLayerTableRecord
  2
LAYER-005
 70
     0
 62
     7
  6
Continuous
370
    -3
390
F
  0
LAYER
  5
55
330
2
100
AcDbSymbolTableRecord
100
AcDbLayerTableRecord
  2
LAYER-006
 70
     0
 62
     7
  6
Continuous
370
    -3
390
F
  0
LAYER
  5
56
330
2
100
AcDbSymbolTableRecord
100
AcDbLayerTableRecord
  2
LAYER-007
 70
     0
 62
     7
  6
Continuous
370
    -3
390
F
  0
LAYER
  5
57
330
2
100
AcDbSymbolTableRecord
100
AcDbLayerTableRecord
  2
LAYER-008
 70
     0
 62
     7
  6
Continuous
370
    -3
390
F
  0
LAYER
  5
58
330
2
100
AcDbSymbolTableRecord
100
AcDbLayerTableRecord
  2
LAYER-009
 70
     0
 62
     7
  6
Continuous
370
    -3
390
F
  0
LAYER
  5
59
330
2
100
AcDbSymbolTableRecord
100
AcDbLayerTableRecord
  2
LAYER-010
 70
     0
 62
     7
  6
Continuous
370
    -3
390
F
  0
LAYER
  5
5A
330
2
100
AcDbSymbolTableRecord
100
AcDbLayerTableRecord
  2
LAYER-011
 70
     0
 62
     7
  6
Continuous
370
    -3
390
F
  0
LAYER
  5
5B
330
2
100
AcDbSymbolTableRecord
100
AcDbLayerTableRecord
  2
LAYER-012
 70
     0
 62
     7
  6
Continuous
370
    -3
390
F
  0
LAYER
  5
5C
330
2
100
AcDbSymbolTableRecord
100
AcDbLayerTableRecord
  2
LAYER-013
 70
     0
 62
     7
  6
Continuous
370
    -3
390
F
  0
LAYER
  5
5D
330
2
100
AcDbSymbolTableRecord
100
AcDbLayerTableRecord
  2
LAYER-014
 70
     0
 62
     7
  6
Continuous
370
    -3
390
F
  0
LAYER
  5
5E
330
2
100
AcDbSymbolTableRecord
100
AcDbLayerTableRecord
  2
LAYER-015
 70
     0
 62
    -7
  6
Continuous
370
    -3
390
F
  0
LAYER
  5
5F
330
2
100
AcDbSymbolTableRecord
100
AcDbLayerTableRecord
  2
LAYER-016
 70
     0
 62
     4
  6
Continuous
370
    -3
390
F
  0
LAYER
  5
60
330
2
100
AcDbSymbolTableRecord
100
AcDbLayerTableRecord
  2
LAYER-017
 70
     0
 62
     7
  6
Continuous
370
    -3
390
F
  0
LAYER
  5
61
330
2
100
AcDbSymbolTableRecord
100
AcDbLayerTableRecord
  2
LAYER-018
 70
     0
 62
     2
  6
Continuous
370
    -3
390
F
  0
LAYER
  5
62
330
2
100
AcDbSymbolTableRecord
100
AcDbLayerTableRecord
  2
LAYER-019
 70
     0
 62
     3
  6
Continuous
370
    -3
390
F
  0
LAYER
  5
63
330
2
100
AcDbSymbolTableRecord
100
AcDbLayerTableRecord
  2
LAYER-020
 70
     0
 62
     2
  6
Continuous
370
    -3
390
F
  0
LAYER
  5
64
330
2
100
AcDbSymbolTableRecord
100
AcDbLayerTableRecord
  2
LAYER-021
 70
     0
 62
     7
  6
Continuous
370
    -3
390
F
  0
LAYER
  5
65
330
2
100
AcDbSymbolTableRecord
100
AcDbLayerTableRecord
  2
LAYER-022
 70
     0
 62
     4
  6
Continuous
370
    -3
390
F
  0
LAYER
  5
66
330
2
100
AcDbSymbolTableRecord
100
AcDbLayerTableRecord
  2
LAYER-023
 70
     0
 62
     4
  6
Continuous
370
    -3
390
F
  0
LAYER
  5
67
330
2
100
AcDbSymbolTableRecord
100
AcDbLayerTableRecord
  2
LAYER-024
 70
     0
 62
     7
  6
Continuous
370
    -3
390
F
  0
LAYER
  5
68
330
2
100
AcDbSymbolTableRecord
100
AcDbLayerTableRecord
  2
LAYER-025
 70
     0
 62
     7
  6
Continuous
370
    -3
390
F
  0
LAYER
  5
69
330
2
100
AcDbSymbolTableRecord
100
AcDbLayerTableRecord
  2
LAYER-026
 70
     0
 62
    -7
  6
Continuous
370
    -3
390
F
  0
LAYER
  5
6A
330
2
100
AcDbSymbolTableRecord
100
AcDbLayerTableRecord
  2
LAYER-027
 70
     0
 62
     7
  6
Continuous
370
    -3
390
F
  0
LAYER
  5
6B
330
2
100
AcDbSymbolTableRecord
100
AcDbLayerTableRecord
  2
LAYER-028
 70
     0
 62
     7
  6
Continuous
370
    -3
390
F
  0
LAYER
  5
6C
330
2
100
AcDbSymbolTableRecord
100
AcDbLayerTableRecord
  2
LAYER-029
 70
     0
 62
     7
  6
Continuous
370
    -3
390
F
  0
LAYER
  5
6D
330
2
100
AcDbSymbolTableRecord
100
AcDbLayerTableRecord
  2
LAYER-030
 70
     0
 62
     2
  6
Continuous
370
    -3
390
F
  0
LAYER
  5
6E
330
2
100
AcDbSymbolTableRecord
100
AcDbLayerTableRecord
  2
LAYER-031
 70
     0
 62
     7
  6
Continuous
370
    -3
390
F
  0
LAYER
  5
6F
330
2
100
AcDbSymbolTableRecord
100
AcDbLayerTableRecord
  2
LAYER-032
 70
     0
 62
     2
  6
Continuous
370
    -3
390
F
  0
LAYER
  5
70
330
2
100
AcDbSymbolTableRecord
100
AcDbLayerTableRecord
  2
LAYER-033
 70
     0
 62
     7
  6
Continuous
370
    -3
390
F
  0
LAYER
  5
71
330
2
100
AcDbSymbolTableRecord
100
AcDbLayerTableRecord
  2
LAYER-034
 70
     0
 62
     7
  6
Continuous
370
    -3
390
F
  0
LAYER
  5
72
330
2
100
AcDbSymbolTableRecord
100
AcDbLayerTableRecord
  2
LAYER-035
 70
     0
 62
     3
  6
Continuous
370
    -3
390
F
  0
LAYER
  5
73
330
2
100
AcDbSymbolTableRecord
100
AcDbLayerTableRecord
  2
LAYER-036
 70
     0
 62
     2
  6
Continuous
370
    -3
390
F
  0
LAYER
  5
74
330
2
100
AcDbSymbolTableRecord
100
AcDbLayerTableRecord
  2
LAYER-037
 70
     0
 62
     7
  6
Continuous
370
    -3
390
F
  0
LAYER
  5
75
330
2
100
AcDbSymbolTableRecord
100
AcDbLayerTableRecord
  2
LAYER-038
 70
     0
 62
     7
  6
Continuous
370
    -3
390
F
  0
LAYER
  5
76
330
2
100
AcDbSymbolTableRecord
100
AcDbLayerTableRecord
  2
LAYER-039
 70
     0
 62
     7
  6
Continuous
370
    -3
390
F
  0
LAYER
  5
77
330
2
100
AcDbSymbolTableRecord
100
AcDbLayerTableRecord
  2
LAYER-040
 70
     0
 62
     7
  6
Continuous
370
    -3
390
F
  0
LAYER
  5
78
330
2
100
AcDbSymbolTableRecord
100
AcDbLayerTableRecord
  2
LAYER-041
 70
     0
 62
     7
  6
Continuous
370
    -3
390
F
  0
LAYER
  5
79
330
2
100
AcDbSymbolTableRecord
100
AcDbLayerTableRecord
  2
LAYER-042
 70
     0
 62
     7
  6
Continuous
370
    -3
390
F
  0
LAYER
  5
7A
330
2
100
AcDbSymbolTableRecord
100
AcDbLayerTableRecord
  2
LAYER-043
 70
     0
 62
     7
  6
Continuous
370
    -3
390
F
  0
LAYER
  5
7B
330
2
100
AcDbSymbolTableRecord
100
AcDbLayerTableRecord
  2
LAYER-044
 70
     0
 62
     7
  6
Continuous
370
    -3
390
F
  0
LAYER
  5
7C
330
2
100
AcDbSymbolTableRecord
100
AcDbLayerTableRecord
  2
LAYER-045
 70
     0
 62
     7
  6
Continuous
370
    -3
390
F
  0
LAYER
  5
7D
330
2
100
AcDbSymbolTableRecord
100
AcDbLayerTableRecord
  2
LAYER-046
 70
     0
 62
     7
  6
Continuous
370
    -3
390
F
  0
LAYER
  5
7E
330
2
100
AcDbSymbolTableRecord
100
AcDbLayerTableRecord
  2
LAYER-047
 70
     0
 62
     7
  6
Continuous
370
    -3
390
F
  0
LAYER
  5
7F
330
2
100
AcDbSymbolTableRecord
100
AcDbLayerTableRecord
  2
LAYER-048
 70
     0
 62
     2
  6
Continuous
370
    -3
390
F
  0
LAYER
  5
80
330
2
100
AcDbSymbolTableRecord
100
AcDbLayerTableRecord
  2
LAYER-049
 70
     0
 62
     3
  6
Continuous
370
    -3
390
F
  0
LAYER
  5
81
330
2
100
AcDbSymbolTableRecord
100
AcDbLayerTableRecord
  2
LAYER-050
 70
     0
 62
     7
  6
Continuous
370
    -3
390
F
  0
LAYER
  5
82
330
2
100
AcDbSymbolTableRecord
100
AcDbLayerTableRecord
  2
LAYER-051
 70
     0
 62
     2
  6
Continuous
370
    -3
390
F
  0
LAYER
  5
83
330
2
100
AcDbSymbolTableRecord
100
AcDbLayerTableRecord
  2
LAYER-052
 70
     0
 62
     7
  6
Continuous
370
    -3
390
F
  0
LAYER
  5
84
330
2
100
AcDbSymbolTableRecord
100
AcDbLayerTableRecord
  2
LAYER-053
 70
     0
 62
     7
  6
Continuous
370
    -3
390
F
  0
LAYER
  5
85
330
2
100
AcDbSymbolTableRecord
100
AcDbLayerTableRecord
  2
LAYER-054
 70
     0
 62
     7
  6
Continuous
370
    -3
390
F
  0
LAYER
  5
86
330
2
100
AcDbSymbolTableRecord
100
AcDbLayerTableRecord
  2
LAYER-055
 70
     0
 62
     7
  6
Continuous
370
    -3
390
F
  0
LAYER
  5
87
330
2
100
AcDbSymbolTableRecord
100
AcDbLayerTableRecord
  2
LAYER-056
 70
     0
 62
     7
  6
Continuous
370
    -3
390
F
  0
LAYER
  5
88
330
2
100
AcDbSymbolTableRecord
100
AcDbLayerTableRecord
  2
LAYER-057
 70
     0
 62
     7
  6
Continuous
370
    -3
390
F
  0
LAYER
  5
89
330
2
100
AcDbSymbolTableRecord
100
AcDbLayerTableRecord
  2
LAYER-058
 70
     0
 62
     7
  6
Continuous
370
    -3
390
F
  0
LAYER
  5
8A
330
2
100
AcDbSymbolTableRecord
100
AcDbLayerTableRecord
  2
LAYER-059
 70
     0
 62
     7
  6
Continuous
370
    -3
390
F
  0
LAYER
  5
8B
330
2
100
AcDbSymbolTableRecord
100
AcDbLayerTableRecord
  2
LAYER-060
 70
     0
 62
     7
  6
Continuous
370
    -3
390
F
  0
LAYER
  5
8C
330
2
100
AcDbSymbolTableRecord
100
AcDbLayerTableRecord
  2
LAYER-061
 70
     0
 62
     7
  6
Continuous
370
    -3
390
F
  0
LAYER
  5
8D
330
2
100
AcDbSymbolTableRecord
100
AcDbLayerTableRecord
  2
LAYER-062
 70
     0
 62
     7
  6
Continuous
370
    -3
390
F
  0
LAYER
  5
8E
330
2
100
AcDbSymbolTableRecord
100
AcDbLayerTableRecord
  2
LAYER-063
 70
     0
 62
     7
  6
Continuous
370
    -3
390
F
  0
LAYER
  5
8F
330
2
100
AcDbSymbolTableRecord
100
AcDbLayerTableRecord
  2
LAYER-064
 70
     0
 62
     2
  6
Continuous
370
    -3
390
F
  0
LAYER
  5
90
330
2
100
AcDbSymbolTableRecord
100
AcDbLayerTableRecord
  2
LAYER-065
 70
     0
 62
     7
  6
Continuous
370
    -3
390
F
  0
LAYER
  5
91
330
2
100
AcDbSymbolTableRecord
100
AcDbLayerTableRecord
  2
LAYER-066
 70
     0
 62
     2
  6
Continuous
370
    -3
390
F
  0
LAYER
  5
92
330
2
100
AcDbSymbolTableRecord
100
AcDbLayerTableRecord
  2
LAYER-067
 70
     0
 62
     2
  6
Continuous
370
    -3
390
F
  0
LAYER
  5
93
330
2
100
AcDbSymbolTableRecord
100
AcDbLayerTableRecord
  2
LAYER-068
 70
     0
 62
     7
  6
Continuous
370
    -3
390
F
  0
LAYER
  5
94
330
2
100
AcDbSymbolTableRecord
100
AcDbLayerTableRecord
  2
LAYER-069
 70
     0
 62
     7
  6
Continuous
370
    -3
390
F
  0
LAYER
  5
95
330
2
100
AcDbSymbolTableRecord
100
AcDbLayerTableRecord
  2
LAYER-070
 70
     0
 62
     7
  6
Continuous
370
    -3
390
F
  0
LAYER
  5
96
330
2
100
AcDbSymbolTableRecord
100
AcDbLayerTableRecord
  2
LAYER-071
 70
     0
 62
     7
  6
Continuous
370
    -3
390
F
  0
LAYER
  5
97
330
2
100
AcDbSymbolTableRecord
100
AcDbLayerTableRecord
  2
LAYER-072
 70
     0
 62
     7
  6
Continuous
370
    -3
390
F
  0
LAYER
  5
98
330
2
100
AcDbSymbolTableRecord
100
AcDbLayerTableRecord
  2
LAYER-073
 70
     0
 62
     7
  6
Continuous
370
    -3
390
F
  0
LAYER
  5
99
330
2
100
AcDbSymbolTableRecord
100
AcDbLayerTableRecord
  2
LAYER-074
 70
     0
 62
     7
  6
Continuous
370
    -3
390
F
  0
LAYER
  5
9A
330
2
100
AcDbSymbolTableRecord
100
AcDbLayerTableRecord
  2
LAYER-075
 70
     0
 62
     7
  6
Continuous
370
    -3
390
F
  0
LAYER
  5
9B
330
2
100
AcDbSymbolTableRecord
100
AcDbLayerTableRecord
  2
LAYER-076
 70
     0
 62
     7
  6
Continuous
370
    -3
390
F
  0
LAYER
  5
9C
330
2
100
AcDbSymbolTableRecord
100
AcDbLayerTableRecord
  2
LAYER-077
 70
     0
 62
     7
  6
Continuous
370
    -3
390
F
  0
LAYER
  5
9D
330
2
100
AcDbSymbolTableRecord
100
AcDbLayerTableRecord
  2
LAYER-078
 70
     0
 62
     7
  6
Continuous
370
    -3
390
F
  0
LAYER
  5
9E
330
2
100
AcDbSymbolTableRecord
100
AcDbLayerTableRecord
  2
LAYER-079
 70
     0
 62
     7
  6
Continuous
370
    -3
390
F
  0
LAYER
  5
9F
330
2
100
AcDbSymbolTableRecord
100
AcDbLayerTableRecord
  2
LAYER-080
 70
     0
 62
     2
  6
Continuous
370
    -3
390
F
  0
LAYER
  5
A0
330
2
100
AcDbSymbolTableRecord
100
AcDbLayerTableRecord
  2
LAYER-081
 70
     0
 62
     7
  6
Continuous
370
    -3
390
F
  0
LAYER
  5
A1
330
2
100
AcDbSymbolTableRecord
100
AcDbLayerTableRecord
  2
LAYER-082
 70
     0
 62
     7
  6
Continuous
370
    -3
390
F
  0
LAYER
  5
A2
330
2
100
AcDbSymbolTableRecord
100
AcDbLayerTableRecord
  2
LAYER-083
 70
     0
 62
     7
  6
Continuous
370
    -3
390
F
  0
LAYER
  5
A3
330
2
100
AcDbSymbolTableRecord
100
AcDbLayerTableRecord
  2
LAYER-084
 70
     0
 62
     7
  6
Continuous
370
    -3
390
F
  0
LAYER
  5
A4
330
2
100
AcDbSymbolTableRecord
100
AcDbLayerTableRecord
  2
LAYER-085
 70
     0
 62
     7
  6
Continuous
370
    -3
390
F
  0
LAYER
  5
A5
330
2
100
AcDbSymbolTableRecord
100
AcDbLayerTableRecord
  2
LAYER-086
 70
     0
 62
     7
  6
Continuous
370
    -3
390
F
  0
LAYER
  5
A6
330
2
100
AcDbSymbolTableRecord
100
AcDbLayerTableRecord
  2
LAYER-087
 70
     0
 62
     7
  6
Continuous
370
    -3
390
F
  0
LAYER
  5
A7
330
2
100
AcDbSymbolTableRecord
100
AcDbLayerTableRecord
  2
LAYER-088
 70
     0
 62
     7
  6
Continuous
370
    -3
390
F
  0
LAYER
  5
A8
330
2
100
AcDbSymbolTableRecord
100
AcDbLayerTableRecord
  2
LAYER-089
 70
     0
 62
     7
  6
Continuous
370
    -3
390
F
  0
LAYER
  5
A9
330
2
100
AcDbSymbolTableRecord
100
AcDbLayerTableRecord
  2
LAYER-090
 70
     0
 62
     7
  6
Continuous
370
    -3
390
F
  0
LAYER
  5
AA
330
2
100
AcDbSymbolTableRecord
100
AcDbLayerTableRecord
  2
LAYER-091
 70
     0
 62
     7
  6
Continuous
370
    -3
390
F
  0
LAYER
  5
AB
330
2
100
AcDbSymbolTableRecord
100
AcDbLayerTableRecord
  2
LAYER-092
 70
     0
 62
     7
  6
Continuous
370
    -3
390
F
  0
LAYER
  5
AC
330
2
100
AcDbSymbolTableRecord
100
AcDbLayerTableRecord
  2
LAYER-093
 70
     0
 62
     7
  6
Continuous
370
    -3
390
F
  0
LAYER
  5
AD
330
2
100
AcDbSymbolTableRecord
100
AcDbLayerTableRecord
  2
LAYER-094
 70
     0
 62
     7
  6
Continuous
370
    -3
390
F
  0
LAYER
  5
AE
330
2
100
AcDbSymbolTableRecord
100
AcDbLayerTableRecord
  2
LAYER-095
 70
     0
 62
     7
  6
Continuous
370
    -3
390
F
  0
LAYER
  5
AF
330
2
100
AcDbSymbolTableRecord
100
AcDbLayerTableRecord
  2
LAYER-096
 70
     0
 62
     7
  6
Continuous
370
    -3
390
F
  0
LAYER
  5
B0
330
2
100
AcDbSymbolTableRecord
100
AcDbLayerTableRecord
  2
LAYER-097
 70
     0
 62
     7
  6
Continuous
370
    -3
390
F
  0
LAYER
  5
B1
330
2
100
AcDbSymbolTableRecord
100
AcDbLayerTableRecord
  2
LAYER-098
 70
     0
 62
     7
  6
Continuous
370
    -3
390
F
  0
LAYER
  5
B2
330
2
100
AcDbSymbolTableRecord
100
AcDbLayerTableRecord
  2
LAYER-099
 70
     0
 62
     7
  6
Continuous
370
    -3
390
F
  0
LAYER
  5
B3
330
2
100
AcDbSymbolTableRecord
100
AcDbLayerTableRecord
  2
LAYER-100
 70
     0
 62
     7
  6
Continuous
370
    -3
390
F
  0
LAYER
  5
B4
330
2
100
AcDbSymbolTableRecord
100
AcDbLayerTableRecord
  2
LAYER-101
 70
     0
 62
     7
  6
Continuous
370
    -3
390
F
  0
LAYER
  5
B5
330
2
100
AcDbSymbolTableRecord
100
AcDbLayerTableRecord
  2
LAYER-102
 70
     0
 62
     7
  6
Continuous
370
    -3
390
F
  0
LAYER
  5
B6
330
2
100
AcDbSymbolTableRecord
100
AcDbLayerTableRecord
  2
LAYER-103
 70
     0
 62
     7
  6
Continuous
370
    -3
390
F
  0
LAYER
  5
B7
330
2
100
AcDbSymbolTableRecord
100
AcDbLayerTableRecord
  2
LAYER-104
 70
     0
 62
     7
  6
Continuous
370
    -3
390
F
  0
LAYER
  5
B8
330
2
100
AcDbSymbolTableRecord
100
AcDbLayerTableRecord
  2
LAYER-105
 70
     0
 62
     7
  6
Continuous
370
    -3
390
F
  0
LAYER
  5
B9
330
2
100
AcDbSymbolTableRecord
100
AcDbLayerTableRecord
  2
LAYER-106
 70
     0
 62
     7
  6
Continuous
370
    -3
390
F
  0
LAYER
  5
BA
330
2
100
AcDbSymbolTableRecord
100
AcDbLayerTableRecord
  2
LAYER-107
 70
     0
 62
     7
  6
Continuous
370
    -3
390
F
  0
LAYER
  5
BB
330
2
100
AcDbSymbolTableRecord
100
AcDbLayerTableRecord
  2
LAYER-108
 70
     0
 62
     7
  6
Continuous
370
    -3
390
F
  0
LAYER
  5
BC
330
2
100
AcDbSymbolTableRecord
100
AcDbLayerTableRecord
  2
LAYER-109
 70
     0
 62
     7
  6
Continuous
370
    -3
390
F
  0
LAYER
  5
BD
330
2
100
AcDbSymbolTableRecord
100
AcDbLayerTableRecord
  2
LAYER-110
 70
     0
 62
     7
  6
Continuous
370
    -3
390
F
  0
LAYER
  5
BE
330
2
100
AcDbSymbolTableRecord
100
AcDbLayerTableRecord
  2
LAYER-111
 70
     0
 62
     7
  6
Continuous
370
    -3
390
F
  0
LAYER
  5
BF
330
2
100
AcDbSymbolTableRecord
100
AcDbLayerTableRecord
  2
LAYER-112
 70
     0
 62
     7
  6
Continuous
370
    -3
390
F
  0
LAYER
  5
C0
330
2
100
AcDbSymbolTableRecord
100
AcDbLayerTableRecord
  2
LAYER-113
 70
     0
 62
     7
  6
Continuous
370
    -3
390
F
  0
LAYER
  5
C1
330
2
100
AcDbSymbolTableRecord
100
AcDbLayerTableRecord
  2
LAYER-114
 70
     0
 62
     7
  6
Continuous
370
    -3
390
F
  0
LAYER
  5
C2
330
2
100
AcDbSymbolTableRecord
100
AcDbLayerTableRecord
  2
LAYER-115
 70
     0
 62
     7
  6
Continuous
370
    -3
390
F
  0
LAYER
  5
C3
330
2
100
AcDbSymbolTableRecord
100
AcDbLayerTableRecord
  2
LAYER-116
 70
     0
 62
     7
  6
Continuous
370
    -3
390
F
  0
LAYER
  5
C4
330
2
100
AcDbSymbolTableRecord
100
AcDbLayerTableRecord
  2
LAYER-117
 70
     0
 62
     7
  6
Continuous
370
    -3
390
F
  0
LAYER
  5
C5
330
2
100
AcDbSymbolTableRecord
100
AcDbLayerTableRecord
  2
LAYER-118
 70
     0
 62
     7
  6
Continuous
370
    -3
390
F
  0
LAYER
  5
C6
330
2
100
AcDbSymbolTableRecord
100
AcDbLayerTableRecord
  2
LAYER-119
 70
     0
 62
     7
  6
Continuous
370
    -3
390
F
  0
LAYER
  5
C7
330
2
100
AcDbSymbolTableRecord
100
AcDbLayerTableRecord
  2
LAYER-120
 70
     0
 62
     7
  6
Continuous
370
    -3
390
F
  0
LAYER
  5
C8
330
2
100
AcDbSymbolTableRecord
100
AcDbLayerTableRecord
  2
LAYER-121
 70
     0
 62
     7
  6
Continuous
370
    -3
390
F
  0
LAYER
  5
C9
330
2
100
AcDbSymbolTableRecord
100
AcDbLayerTableRecord
  2
LAYER-122
 70
     0
 62
     7
  6
Continuous
370
    -3
390
F
  0
LAYER
  5
CA
330
2
100
AcDbSymbolTableRecord
100
AcDbLayerTableRecord
  2
LAYER-123
 70
     0
 62
     7
  6
Continuous
370
    -3
390
F
  0
LAYER
  5
CB
330
2
100
AcDbSymbolTableRecord
100
AcDbLayerTableRecord
  2
LAYER-124
 70
     0
 62
     7
  6
Continuous
370
    -3
390
F
  0
LAYER
  5
CC
330
2
100
AcDbSymbolTableRecord
100
AcDbLayerTableRecord
  2
LAYER-125
 70
     0
 62
     7
  6
Continuous
370
    -3
390
F
  0
LAYER
  5
CD
330
2
100
AcDbSymbolTableRecord
100
AcDbLayerTableRecord
  2
LAYER-126
 70
     0
 62
     7
  6
Continuous
370
    -3
390
F
  0
LAYER
  5
CE
330
2
100
AcDbSymbolTableRecord
100
AcDbLayerTableRecord
  2
LAYER-127
 70
     0
 62
     7
  6
Continuous
370
    -3
390
F
  0
LAYER
  5
CF
330
2
100
AcDbSymbolTableRecord
100
AcDbLayerTableRecord
  2
LAYER-128
 70
     0
 62
     7
  6
Continuous
370
    -3
390
F
  0
LAYER
  5
D0
330
2
100
AcDbSymbolTableRecord
100
AcDbLayerTableRecord
  2
LAYER-129
 70
     0
 62
     7
  6
Continuous
370
    -3
390
F
  0
LAYER
  5
D1
330
2
100
AcDbSymbolTableRecord
100
AcDbLayerTableRecord
  2
LAYER-130
 70
     0
 62
     7
  6
Continuous
370
    -3
390
F
  0
LAYER
  5
D2
330
2
100
AcDbSymbolTableRecord
100
AcDbLayerTableRecord
  2
LAYER-131
 70
     0
 62
     7
  6
Continuous
370
    -3
390
F
  0
LAYER
  5
D3
330
2
100
AcDbSymbolTableRecord
100
AcDbLayerTableRecord
  2
LAYER-132
 70
     0
 62
     7
  6
Continuous
370
    -3
390
F
  0
LAYER
  5
D4
330
2
100
AcDbSymbolTableRecord
100
AcDbLayerTableRecord
  2
LAYER-133
 70
     0
 62
     7
  6
Continuous
370
    -3
390
F
  0
LAYER
  5
D5
330
2
100
AcDbSymbolTableRecord
100
AcDbLayerTableRecord
  2
LAYER-134
 70
     0
 62
     7
  6
Continuous
370
    -3
390
F
  0
LAYER
  5
D6
330
2
100
AcDbSymbolTableRecord
100
AcDbLayerTableRecord
  2
LAYER-135
 70
     0
 62
    -4
  6
Continuous
370
    -3
390
F
  0
LAYER
  5
D7
330
2
100
AcDbSymbolTableRecord
100
AcDbLayerTableRecord
  2
LAYER-136
 70
     0
 62
    -3
  6
Continuous
370
    -3
390
F
  0
LAYER
  5
D8
330
2
100
AcDbSymbolTableRecord
100
AcDbLayerTableRecord
  2
LAYER-137
 70
     0
 62
    -1
  6
Continuous
370
    -3
390
F
  0
LAYER
  5
D9
330
2
100
AcDbSymbolTableRecord
100
AcDbLayerTableRecord
  2
LAYER-138
 70
     0
 62
     7
  6
Continuous
370
    -3
390
F
  0
LAYER
  5
DA
330
2
100
AcDbSymbolTableRecord
100
AcDbLayerTableRecord
  2
LAYER-139
 70
     0
 62
     7
  6
Continuous
370
    -3
390
F
  0
LAYER
  5
DB
330
2
100
AcDbSymbolTableRecord
100
AcDbLayerTableRecord
  2
LAYER-140
 70
     0
 62
     7
  6
Continuous
370
    -3
390
F
  0
LAYER
  5
DC
330
2
100
AcDbSymbolTableRecord
100
AcDbLayerTableRecord
  2
LAYER-141
 70
     0
 62
     7
  6
Continuous
370
    -3
390
F
  0
LAYER
  5
DD
330
2
100
AcDbSymbolTableRecord
100
AcDbLayerTableRecord
  2
LAYER-142
 70
     0
 62
     3
  6
Continuous
370
    -3
390
F
  0
LAYER
  5
DE
330
2
100
AcDbSymbolTableRecord
100
AcDbLayerTableRecord
  2
LAYER-143
 70
     0
 62
     7
  6
Continuous
370
    -3
390
F
  0
LAYER
  5
DF
330
2
100
AcDbSymbolTableRecord
100
AcDbLayerTableRecord
  2
LAYER-144
 70
     0
 62
     7
  6
Continuous
370
    -3
390
F
  0
LAYER
  5
E0
330
2
100
AcDbSymbolTableRecord
100
AcDbLayerTableRecord
  2
LAYER-145
 70
     0
 62
     3
  6
Continuous
370
    -3
390
F
  0
LAYER
  5
E1
330
2
100
AcDbSymbolTableRecord
100
AcDbLayerTableRecord
  2
LAYER-146
 70
     0
 62
     7
  6
Continuous
370
    -3
390
F
  0
LAYER
  5
E2
330
2
100
AcDbSymbolTableRecord
100
AcDbLayerTableRecord
  2
LAYER-147
 70
     0
 62
     7
  6
Continuous
370
    -3
390
F
  0
LAYER
  5
E3
330
2
100
AcDbSymbolTableRecord
100
AcDbLayerTableRecord
  2
LAYER-148
 70
     0
 62
     7
  6
Continuous
370
    -3
390
F
  0
LAYER
  5
E4
330
2
100
AcDbSymbolTableRecord
100
AcDbLayerTableRecord
  2
LAYER-149
 70
     0
 62
     7
  6
Continuous
370
    -3
390
F
  0
LAYER
  5
E5
330
2
100
AcDbSymbolTableRecord
100
AcDbLayerTableRecord
  2
LAYER-150
 70
     0
 62
     7
  6
Continuous
370
    -3
390
F
  0
LAYER
  5
E6
330
2
100
AcDbSymbolTableRecord
100
AcDbLayerTableRecord
  2
LAYER-151
 70
     0
 62
     7
  6
Continuous
370
    -3
390
F
  0
LAYER
  5
E7
330
2
100
AcDbSymbolTableRecord
100
AcDbLayerTableRecord
  2
LAYER-152
 70
     0
 62
     7
  6
Continuous
370
    -3
390
F
  0
LAYER
  5
E8
330
2
100
AcDbSymbolTableRecord
100
AcDbLayerTableRecord
  2
LAYER-153
 70
     0
 62
     7
  6
Continuous
370
    -3
390
F
  0
LAYER
  5
E9
330
2
100
AcDbSymbolTableRecord
100
AcDbLayerTableRecord
  2
LAYER-154
 70
     0
 62
     7
  6
Continuous
370
    -3
390
F
  0
LAYER
  5
EA
330
2
100
AcDbSymbolTableRecord
100
AcDbLayerTableRecord
  2
LAYER-155
 70
     0
 62
     7
  6
Continuous
370
    -3
390
F
  0
LAYER
  5
EB
330
2
100
AcDbSymbolTableRecord
100
AcDbLayerTableRecord
  2
LAYER-156
 70
     0
 62
     7
  6
Continuous
370
    -3
390
F
  0
LAYER
  5
EC
330
2
100
AcDbSymbolTableRecord
100
AcDbLayerTableRecord
  2
LAYER-157
 70
     0
 62
     7
  6
Continuous
370
    -3
390
F
  0
LAYER
  5
ED
330
2
100
AcDbSymbolTableRecord
100
AcDbLayerTableRecord
  2
LAYER-158
 70
     0
 62
     7
  6
Continuous
370
    -3
390
F
  0
LAYER
  5
EE
330
2
100
AcDbSymbolTableRecord
100
AcDbLayerTableRecord
  2
LAYER-159
 70
     0
 62
     7
  6
Continuous
370
    -3
390
F
  0
LAYER
  5
EF
330
2
100
AcDbSymbolTableRecord
100
AcDbLayerTableRecord
  2
LAYER-160
 70
     0
 62
     7
  6
Continuous
370
    -3
390
F
  0
LAYER
  5
F0
330
2
100
AcDbSymbolTableRecord
100
AcDbLayerTableRecord
  2
LAYER-161
 70
     0
 62
     7
  6
Continuous
370
    -3
390
F
  0
LAYER
  5
F1
330
2
100
AcDbSymbolTableRecord
100
AcDbLayerTableRecord
  2
LAYER-162
 70
     0
 62
     7
  6
Continuous
370
    -3
390
F
  0
LAYER
  5
F2
330
2
100
AcDbSymbolTableRecord
100
AcDbLayerTableRecord
  2
LAYER-163
 70
     0
 62
     7
  6
Continuous
370
    -3
390
F
  0
LAYER
  5
F3
330
2
100
AcDbSymbolTableRecord
100
AcDbLayerTableRecord
  2
LAYER-164
 70
     0
 62
     7
  6
Continuous
370
    -3
390
F
  0
LAYER
  5
F4
330
2
100
AcDbSymbolTableRecord
100
AcDbLayerTableRecord
  2
LAYER-165
 70
     0
 62
     7
  6
Continuous
370
    -3
390
F
  0
LAYER
  5
F5
330
2
100
AcDbSymbolTableRecord
100
AcDbLayerTableRecord
  2
LAYER-166
 70
     0
 62
     7
  6
Continuous
370
    -3
390
F
  0
LAYER
  5
F6
330
2
100
AcDbSymbolTableRecord
100
AcDbLayerTableRecord
  2
LAYER-167
 70
     0
 62
     7
  6
Continuous
370
    -3
390
F
  0
LAYER
  5
F7
330
2
100
AcDbSymbolTableRecord
100
AcDbLayerTableRecord
  2
LAYER-168
 70
     0
 62
     7
  6
Continuous
370
    -3
390
F
  0
LAYER
  5
F8
330
2
100
AcDbSymbolTableRecord
100
AcDbLayerTableRecord
  2
LAYER-169
 70
     0
 62
     7
  6
Continuous
370
    -3
390
F
  0
LAYER
  5
F9
330
2
100
AcDbSymbolTableRecord
100
AcDbLayerTableRecord
  2
LAYER-170
 70
     0
 62
     7
  6
Continuous
370
    -3
390
F
  0
LAYER
  5
FA
330
2
100
AcDbSymbolTableRecord
100
AcDbLayerTableRecord
  2
LAYER-171
 70
     0
 62
     7
  6
Continuous
370
    -3
390
F
  0
LAYER
  5
FB
330
2
100
AcDbSymbolTableRecord
100
AcDbLayerTableRecord
  2
LAYER-172
 70
     0
 62
     7
  6
Continuous
370
    -3
390
F
  0
LAYER
  5
FC
330
2
100
AcDbSymbolTableRecord
100
AcDbLayerTableRecord
  2
LAYER-173
 70
     0
 62
     7
  6
Continuous
370
    -3
390
F
  0
LAYER
  5
FD
330
2
100
AcDbSymbolTableRecord
100
AcDbLayerTableRecord
  2
LAYER-174
 70
     0
 62
     7
  6
Continuous
370
    -3
390
F
  0
LAYER
  5
FE
330
2
100
AcDbSymbolTableRecord
100
AcDbLayerTableRecord
  2
LAYER-175
 70
     0
 62
     7
  6
Continuous
370
    -3
390
F
  0
LAYER
  5
FF
330
2
100
AcDbSymbolTableRecord
100
AcDbLayerTableRecord
  2
LAYER-176
 70
     0
 62
     7
  6
Continuous
370
    -3
390
F
  0
LAYER
  5
100
330
2
100
AcDbSymbolTableRecord
100
AcDbLayerTableRecord
  2
LAYER-177
 70
     0
 62
     7
  6
Continuous
370
    -3
390
F
  0
LAYER
  5
101
330
2
100
AcDbSymbolTableRecord
100
AcDbLayerTableRecord
  2
LAYER-178
 70
     0
 62
     7
  6
Continuous
370
    -3
390
F
  0
LAYER
  5
102
330
2
100
AcDbSymbolTableRecord
100
AcDbLayerTableRecord
  2
LAYER-179
 70
     0
 62
     7
  6
Continuous
370
    -3
390
F
  0
LAYER
  5
103
330
2
100
AcDbSymbolTableRecord
100
AcDbLayerTableRecord
  2
LAYER-180
 70
     0
 62
     7
  6
Continuous
370
    -3
390
F
  0
LAYER
  5
104
330
2
100
AcDbSymbolTableRecord
100
AcDbLayerTableRecord
  2
LAYER-181
 70
     0
 62
     7
  6
Continuous
370
    -3
390
F
  0
LAYER
  5
105
330
2
100
AcDbSymbolTableRecord
100
AcDbLayerTableRecord
  2
LAYER-182
 70
     0
 62
     7
  6
Continuous
370
    -3
390
F
  0
LAYER
  5
106
330
2
100
AcDbSymbolTableRecord
100
AcDbLayerTableRecord
  2
LAYER-183
 70
     0
 62
     7
  6
Continuous
370
    -3
390
F
  0
LAYER
  5
107
330
2
100
AcDbSymbolTableRecord
100
AcDbLayerTableRecord
  2
LAYER-184
 70
     0
 62
     7
  6
Continuous
370
    -3
390
F
  0
LAYER
  5
108
330
2
100
AcDbSymbolTableRecord
100
AcDbLayerTableRecord
  2
LAYER-185
 70
     0
 62
     7
  6
Continuous
370
    -3
390
F
  0
LAYER
  5
109
330
2
100
AcDbSymbolTableRecord
100
AcDbLayerTableRecord
  2
LAYER-186
 70
     0
 62
     7
  6
Continuous
370
    -3
390
F
  0
LAYER
  5
10A
330
2
100
AcDbSymbolTableRecord
100
AcDbLayerTableRecord
  2
LAYER-187
 70
     0
 62
     7
  6
Continuous
370
    -3
390
F
  0
LAYER
  5
10B
330
2
100
AcDbSymbolTableRecord
100
AcDbLayerTableRecord
  2
LAYER-188
 70
     0
 62
     7
  6
Continuous
370
    -3
390
F
  0
LAYER
  5
10C
330
2
100
AcDbSymbolTableRecord
100
AcDbLayerTableRecord
  2
LAYER-189
 70
     0
 62
     7
  6
Continuous
370
    -3
390
F
  0
LAYER
  5
10D
330
2
100
AcDbSymbolTableRecord
100
AcDbLayerTableRecord
  2
LAYER-190
 70
     0
 62
     7
  6
Continuous
370
    -3
390
F
  0
LAYER
  5
10E
330
2
100
AcDbSymbolTableRecord
100
AcDbLayerTableRecord
  2
LAYER-191
 70
     0
 62
     7
  6
Continuous
370
    -3
390
F
  0
LAYER
  5
10F
330
2
100
AcDbSymbolTableRecord
100
AcDbLayerTableRecord
  2
LAYER-192
 70
     0
 62
     7
  6
Continuous
370
    -3
390
F
  0
LAYER
  5
110
330
2
100
AcDbSymbolTableRecord
100
AcDbLayerTableRecord
  2
LAYER-193
 70
     0
 62
     7
  6
Continuous
370
    -3
390
F
  0
LAYER
  5
111
330
2
100
AcDbSymbolTableRecord
100
AcDbLayerTableRecord
  2
LAYER-194
 70
     0
 62
     2
  6
Continuous
370
    -3
390
F
  0
LAYER
  5
112
330
2
100
AcDbSymbolTableRecord
100
AcDbLayerTableRecord
  2
LAYER-195
 70
     0
 62
     2
  6
Continuous
370
    -3
390
F
  0
LAYER
  5
113
330
2
100
AcDbSymbolTableRecord
100
AcDbLayerTableRecord
  2
LAYER-196
 70
     0
 62
     2
  6
Continuous
370
    -3
390
F
  0
LAYER
  5
114
330
2
100
AcDbSymbolTableRecord
100
AcDbLayerTableRecord
  2
LAYER-197
 70
     0
 62
     7
  6
Continuous
370
    -3
390
F
  0
LAYER
  5
115
330
2
100
AcDbSymbolTableRecord
100
AcDbLayerTableRecord
  2
LAYER-198
 70
     0
 62
     7
  6
Continuous
370
    -3
390
F
  0
LAYER
  5
116
330
2
100
AcDbSymbolTableRecord
100
AcDbLayerTableRecord
  2
LAYER-199
 70
     0
 62
     4
  6
Continuous
370
    -3
390
F
  0
LAYER
  5
117
330
2
100
AcDbSymbolTableRecord
100
AcDbLayerTableRecord
  2
LAYER-200
 70
     0
 62
     1
  6
Continuous
370
    -3
390
F
  0
LAYER
  5
118
330
2
100
AcDbSymbolTableRecord
100
AcDbLayerTableRecord
  2
LAYER-201
 70
     0
 62
     1
  6
Continuous
370
    -3
390
F
  0
LAYER
  5
119
330
2
100
AcDbSymbolTableRecord
100
AcDbLayerTableRecord
  2
LAYER-202
 70
     0
 62
     2
  6
Continuous
370
    -3
390
F
  0
LAYER
  5
11A
330
2
100
AcDbSymbolTableRecord
100
AcDbLayerTableRecord
  2
LAYER-203
 70
     0
 62
     2
  6
Continuous
370
    -3
390
F
  0
LAYER
  5
11B
330
2
100
AcDbSymbolTableRecord
100
AcDbLayerTableRecord
  2
LAYER-204
 70
     0
 62
     7
  6
Continuous
370
    -3
390
F
  0
LAYER
  5
11C
330
2
100
AcDbSymbolTableRecord
100
AcDbLayerTableRecord
  2
LAYER-205
 70
     0
 62
     7
  6
Continuous
370
    -3
390
F
  0
LAYER
  5
11D
330
2
100
AcDbSymbolTableRecord
100
AcDbLayerTableRecord
  2
LAYER-206
 70
     0
 62
     7
  6
Continuous
370
    -3
390
F
  0
LAYER
  5
11E
330
2
100
AcDbSymbolTableRecord
100
AcDbLayerTableRecord
  2
LAYER-207
 70
     0
 62
    -7
  6
Continuous
370
    -3
390
F
  0
LAYER
  5
11F
330
2
100
AcDbSymbolTableRecord
100
AcDbLayerTableRecord
  2
LAYER-208
 70
     0
 62
     2
  6
Continuous
370
    -3
390
F
  0
LAYER
  5
120
330
2
100
AcDbSymbolTableRecord
100
AcDbLayerTableRecord
  2
LAYER-209
 70
     0
 62
     7
  6
Continuous
370
    -3
390
F
  0
LAYER
  5
121
330
2
100
AcDbSymbolTableRecord
100
AcDbLayerTableRecord
  2
LAYER-210
 70
     0
 62
     2
  6
Continuous
290
     0
370
    -3
390
F
  0
LAYER
  5
122
330
2
100
AcDbSymbolTableRecord
100
AcDbLayerTableRecord
  2
LAYER-211
 70
     0
 62
     7
  6
Continuous
370
    -3
390
F
  0
LAYER
  5
123
330
2
100
AcDbSymbolTableRecord
100
AcDbLayerTableRecord
  2
LAYER-212
 70
     0
 62
     7
  6
Continuous
370
    -3
390
F
  0
LAYER
  5
124
330
2
100
AcDbSymbolTableRecord
100
AcDbLayerTableRecord
  2
LAYER-213
 70
     0
 62
     2
  6
Continuous
370
    -3
390
F
  0
LAYER
  5
125
330
2
100
AcDbSymbolTableRecord
100
AcDbLayerTableRecord
  2
LAYER-214
 70
     0
 62
     7
  6
Continuous
370
    -3
390
F
  0
LAYER
  5
126
330
2
100
AcDbSymbolTableRecord
100
AcDbLayerTableRecord
  2
LAYER-215
 70
     0
 62
     7
  6
Continuous
370
    -3
390
F
  0
LAYER
  5
127
330
2
100
AcDbSymbolTableRecord
100
AcDbLayerTableRecord
  2
LAYER-216
 70
     0
 62
     4
  6
Continuous
370
    -3
390
F
  0
LAYER
  5
128
330
2
100
AcDbSymbolTableRecord
100
AcDbLayerTableRecord
  2
LAYER-217
 70
     0
 62
     7
  6
Continuous
370
    -3
390
F
  0
LAYER
  5
129
330
2
100
AcDbSymbolTableRecord
100
AcDbLayerTableRecord
  2
LAYER-218
 70
     0
 62
     7
  6
Continuous
370
    -3
390
F
  0
LAYER
  5
12A
330
2
100
AcDbSymbolTableRecord
100
AcDbLayerTableRecord
  2
LAYER-219
 70
     0
 62
     7
  6
Continuous
370
    -3
390
F
  0
LAYER
  5
12B
330
2
100
AcDbSymbolTableRecord
100
AcDbLayerTableRecord
  2
LAYER-220
 70
     0
 62
     4
  6
Continuous
370
    -3
390
F
  0
LAYER
  5
12C
330
2
100
AcDbSymbolTableRecord
100
AcDbLayerTableRecord
  2
LAYER-221
 70
     0
 62
    -7
  6
Continuous
290
     0
370
    -3
390
F
  0
LAYER
  5
12D
330
2
100
AcDbSymbolTableRecord
100
AcDbLayerTableRecord
  2
LAYER-222
 70
     0
 62
    -4
  6
Continuous
290
     0
370
    -3
390
F
  0
LAYER
  5
12E
330
2
100
AcDbSymbolTableRecord
100
AcDbLayerTableRecord
  2
LAYER-223
 70
     0
 62
    -1
  6
Continuous
290
     0
370
    -3
390
F
  0
LAYER
  5
12F
330
2
100
AcDbSymbolTableRecord
100
AcDbLayerTableRecord
  2
LAYER-224
 70
     0
 62
    -1
  6
Continuous
290
     0
370
    -3
390
F
  0
LAYER
  5
130
330
2
100
AcDbSymbolTableRecord
100
AcDbLayerTableRecord
  2
LAYER-225
 70
     0
 62
     7
  6
Continuous
370
    -3
390
F
  0
LAYER
  5
131
330
2
100
AcDbSymbolTableRecord
100
AcDbLayerTableRecord
  2
LAYER-226
 70
     0
 62
     2
  6
Continuous
370
    -3
390
F
  0
LAYER
  5
132
330
2
100
AcDbSymbolTableRecord
100
AcDbLayerTableRecord
  2
LAYER-227
 70
     0
 62
     7
  6
Continuous
370
    -3
390
F
  0
LAYER
  5
133
330
2
100
AcDbSymbolTableRecord
100
AcDbLayerTableRecord
  2
LAYER-228
 70
     0
 62
     7
  6
Continuous
370
    -3
390
F
  0
LAYER
  5
134
330
2
100
AcDbSymbolTableRecord
100
AcDbLayerTableRecord
  2
LAYER-229
 70
     0
 62
     7
  6
Continuous
370
    -3
390
F
  0
LAYER
  5
135
330
2
100
AcDbSymbolTableRecord
100
AcDbLayerTableRecord
  2
LAYER-230
 70
     0
 62
     7
  6
Continuous
370
    -3
390
F
  0
LAYER
  5
136
330
2
100
AcDbSymbolTableRecord
100
AcDbLayerTableRecord
  2
LAYER-231
 70
     0
 62
     7
  6
Continuous
370
    -3
390
F
  0
LAYER
  5
137
330
2
100
AcDbSymbolTableRecord
100
AcDbLayerTableRecord
  2
LAYER-232
 70
     0
 62
     7
  6
Continuous
370
    -3
390
F
  0
LAYER
  5
138
330
2
100
AcDbSymbolTableRecord
100
AcDbLayerTableRecord
  2
LAYER-233
 70
     0
 62
     7
  6
Continuous
370
    -3
390
F
  0
LAYER
  5
139
330
2
100
AcDbSymbolTableRecord
100
AcDbLayerTableRecord
  2
LAYER-234
 70
     0
 62
     7
  6
Continuous
370
    -3
390
F
  0
LAYER
  5
13A
330
2
100
AcDbSymbolTableRecord
100
AcDbLayerTableRecord
  2
LAYER-235
 70
     0
 62
     7
  6
Continuous
370
    -3
390
F
  0
LAYER
  5
13B
330
2
100
AcDbSymbolTableRecord
100
AcDbLayerTableRecord
  2
LAYER-236
 70
     0
 62
     7
  6
Continuous
370
    -3
390
F
  0
LAYER
  5
13C
330
2
100
AcDbSymbolTableRecord
100
AcDbLayerTableRecord
  2
LAYER-237
 70
     0
 62
     7
  6
Continuous
370
    -3
390
F
  0
LAYER
  5
13D
330
2
100
AcDbSymbolTableRecord
100
AcDbLayerTableRecord
  2
LAYER-238
 70
     0
 62
     7
  6
Continuous
370
    -3
390
F
  0
LAYER
  5
13E
330
2
100
AcDbSymbolTableRecord
100
AcDbLayerTableRecord
  2
LAYER-239
 70
     0
 62
     7
  6
Continuous
370
    -3
390
F
  0
LAYER
  5
13F
330
2
100
AcDbSymbolTableRecord
100
AcDbLayerTableRecord
  2
LAYER-240
 70
     0
 62
     7
  6
Continuous
370
    -3
390
F
  0
LAYER
  5
140
330
2
100
AcDbSymbolTableRecord
100
AcDbLayerTableRecord
  2
LAYER-241
 70
     0
 62
     7
  6
Continuous
370
    -3
390
F
  0
LAYER
  5
141
330
2
100
AcDbSymbolTableRecord
100
AcDbLayerTableRecord
  2
LAYER-242
 70
     0
 62
     7
  6
Continuous
370
    -3
390
F
  0
LAYER
  5
142
330
2
100
AcDbSymbolTableRecord
100
AcDbLayerTableRecord
  2
LAYER-243
 70
     0
 62
     7
  6
Continuous
370
    -3
390
F
  0
LAYER
  5
143
330
2
100
AcDbSymbolTableRecord
100
AcDbLayerTableRecord
  2
LAYER-244
 70
     0
 62
     7
  6
Continuous
370
    -3
390
F
  0
LAYER
  5
144
330
2
100
AcDbSymbolTableRecord
100
AcDbLayerTableRecord
  2
LAYER-245
 70
     0
 62
     7
  6
Continuous
370
    -3
390
F
  0
LAYER
  5
145
330
2
100
AcDbSymbolTableRecord
100
AcDbLayerTableRecord
  2
LAYER-246
 70
     0
 62
     7
  6
Continuous
370
    -3
390
F
  0
LAYER
  5
146
330
2
100
AcDbSymbolTableRecord
100
AcDbLayerTableRecord
  2
LAYER-247
 70
     0
 62
     7
  6
Continuous
370
    -3
390
F
  0
LAYER
  5
147
330
2
100
AcDbSymbolTableRecord
100
AcDbLayerTableRecord
  2
LAYER-248
 70
     0
 62
     7
  6
Continuous
370
    -3
390
F
  0
LAYER
  5
148
330
2
100
AcDbSymbolTableRecord
100
AcDbLayerTableRecord
  2
LAYER-249
 70
     0
 62
     7
  6
Continuous
370
    -3
390
F
  0
LAYER
  5
149
330
2
100
AcDbSymbolTableRecord
100
AcDbLayerTableRecord
  2
LAYER-250
 70
     0
 62
     7
  6
Continuous
370
    -3
390
F
  0
LAYER
  5
14A
330
2
100
AcDbSymbolTableRecord
100
AcDbLayerTableRecord
  2
LAYER-251
 70
     0
 62
     7
  6
Continuous
370
    -3
390
F
  0
LAYER
  5
14B
330
2
100
AcDbSymbolTableRecord
100
AcDbLayerTableRecord
  2
LAYER-252
 70
     0
 62
     7
  6
Continuous
370
    -3
390
F
  0
LAYER
  5
14C
330
2
100
AcDbSymbolTableRecord
100
AcDbLayerTableRecord
  2
LAYER-253
 70
     0
 62
     7
  6
Continuous
370
    -3
390
F
  0
LAYER
  5
14D
330
2
100
AcDbSymbolTableRecord
100
AcDbLayerTableRecord
  2
LAYER-254
 70
     0
 62
     7
  6
Continuous
370
    -3
390
F
  0
LAYER
  5
14E
330
2
100
AcDbSymbolTableRecord
100
AcDbLayerTableRecord
  2
LAYER-255
 70
     0
 62
     7
  6
Continuous
370
    -3
390
F
  0
LAYER
  5
14F
330
2
100
AcDbSymbolTableRecord
100
AcDbLayerTableRecord
  2
LAYER-256
 70
     0
 62
     7
  6
Continuous
370
    -3
390
F
  0
LAYER
  5
150
330
2
100
AcDbSymbolTableRecord
100
AcDbLayerTableRecord
  2
SUPLINE
 70
     0
 62
    -7
  6
Continuous
290
     0
370
    -3
390
F
  0
ENDTAB
  0
TABLE
  2
STYLE
  5
3
330
0
100
AcDbSymbolTable
 70
     7
  0
STYLE
  5
11
330
3
100
AcDbSymbolTableRecord
100
AcDbTextStyleTableRecord
  2
Standard
 70
     0
 40
0.0
 41
1.0
 50
0.0
 71
     0
 42
2.5
  3
txt
  4

  0
STYLE
  5
31
330
3
100
AcDbSymbolTableRecord
100
AcDbTextStyleTableRecord
  2
STANDARD2
 70
     0
 40
0.0
 41
1.0
 50
0.0
 71
     0
 42
4.0
  3
txt.shx
  4
bigfont.shx
  0
STYLE
  5
32
330
3
100
AcDbSymbolTableRecord
100
AcDbTextStyleTableRecord
  2
STRING_H
 70
     0
 40
0.0
 41
1.0
 50
0.0
 71
     0
 42
4.0
  3
txt.shx
  4
bigfont.shx
  0
STYLE
  5
33
330
3
100
AcDbSymbolTableRecord
100
AcDbTextStyleTableRecord
  2
STRING_H_ITALIC
 70
     0
 40
0.0
 41
1.0
 50
15.0
 71
     0
 42
4.0
  3
txt.shx
  4
bigfont.shx
  0
STYLE
  5
34
330
3
100
AcDbSymbolTableRecord
100
AcDbTextStyleTableRecord
  2
STRING_V
 70
     4
 40
0.0
 41
1.0
 50
0.0
 71
     0
 42
4.0
  3
txt.shx
  4
bigfont.shx
  0
STYLE
  5
35
330
3
100
AcDbSymbolTableRecord
100
AcDbTextStyleTableRecord
  2
STRING_V_ITALIC
 70
     4
 40
0.0
 41
1.0
 50
15.0
 71
     0
 42
4.0
  3
txt.shx
  4
bigfont.shx
  0
STYLE
  5
36
330
3
100
AcDbSymbolTableRecord
100
AcDbTextStyleTableRecord
  2

 70
     1
 40
0.0
 41
1.0
 50
0.0
 71
     0
 42
0.2
  3
ltypeshp.shx
  4

  0
ENDTAB
  0
TABLE
  2
VIEW
  5
6
330
0
100
AcDbSymbolTable
 70
     0
  0
ENDTAB
  0
TABLE
  2
UCS
  5
7
330
0
100
AcDbSymbolTable
 70
     0
  0
ENDTAB
  0
TABLE
  2
APPID
  5
9
330
0
100
AcDbSymbolTable
 70
     1
  0
APPID
  5
12
330
9
100
AcDbSymbolTableRecord
100
AcDbRegAppTableRecord
  2
ACAD
 70
     0
  0
ENDTAB
  0
TABLE
  2
DIMSTYLE
  5
A
330
0
100
AcDbSymbolTable
 70
     2
100
AcDbDimStyleTable
  0
DIMSTYLE
105
27
330
A
100
AcDbSymbolTableRecord
100
AcDbDimStyleTableRecord
  2
ISO-25
 70
     0
 41
2.5
 42
0.625
 43
3.75
 44
1.25
 73
     0
 74
     0
 77
     1
 78
     8
140
2.5
141
2.5
143
0.03937007874016
147
0.625
171
     3
172
     1
271
     2
272
     2
274
     3
283
     0
284
     8
340
11
  0
DIMSTYLE
105
151
102
{ACAD_REACTORS
330
3A5
330
3AF
330
3B9
330
3C5
330
3CF
330
3D9
330
3E3
330
3ED
330
3F7
102
}
330
A
100
AcDbSymbolTableRecord
100
AcDbDimStyleTableRecord
  2
DIO_DIMSTYLE
 70
     0
 41
4.0
 42
1.0
 43
3.75
 44
1.0
 45
0.1
 73
     0
 74
     0
 77
     1
 78
     8
 79
     2
140
3.0
141
2.5
143
0.03937007874016
147
0.5
171
     3
172
     1
173
     1
179
     1
271
     1
272
     1
274
     3
283
     0
284
     8
288
     1
289
     0
340
31
  0
ENDTAB
  0
TABLE
  2
BLOCK_RECORD
  5
1
330
0
100
AcDbSymbolTable
 70
    11
  0
BLOCK_RECORD
  5
1F
330
1
100
AcDbSymbolTableRecord
100
AcDbBlockTableRecord
  2
*Model_Space
340
22
  0
BLOCK_RECORD
  5
1B
330
1
100
AcDbSymbolTableRecord
100
AcDbBlockTableRecord
  2
*Paper_Space
340
1E
  0
BLOCK_RECORD
  5
23
330
1
100
AcDbSymbolTableRecord
100
AcDbBlockTableRecord
  2
*Paper_Space0
340
26
  0
BLOCK_RECORD
  5
396
330
1
100
AcDbSymbolTableRecord
100
AcDbBlockTableRecord
  2
_OPEN
340
0
102
{BLKREFS
331
39F
331
3A0
331
3A9
331
3AA
331
3B3
331
3B4
331
3BD
331
3BE
331
3C9
331
3CA
331
3D3
331
3D4
331
3DD
331
3DE
331
3E7
331
3E8
331
3F1
331
3F2
102
}
  0
BLOCK_RECORD
  5
39C
330
1
100
AcDbSymbolTableRecord
100
AcDbBlockTableRecord
  2
*D02
340
0
  0
BLOCK_RECORD
  5
3A6
330
1
100
AcDbSymbolTableRecord
100
AcDbBlockTableRecord
  2
*D13
340
0
  0
BLOCK_RECORD
  5
3B0
330
1
100
AcDbSymbolTableRecord
100
AcDbBlockTableRecord
  2
*D24
340
0
  0
BLOCK_RECORD
  5
3BA
330
1
100
AcDbSymbolTableRecord
100
AcDbBlockTableRecord
  2
*D35
340
0
  0
BLOCK_RECORD
  5
3C6
330
1
100
AcDbSymbolTableRecord
100
AcDbBlockTableRecord
  2
*D46
340
0
  0
BLOCK_RECORD
  5
3D0
330
1
100
AcDbSymbolTableRecord
100
AcDbBlockTableRecord
  2
*D57
340
0
  0
BLOCK_RECORD
  5
3DA
330
1
100
AcDbSymbolTableRecord
100
AcDbBlockTableRecord
  2
*D68
340
0
  0
BLOCK_RECORD
  5
3E4
330
1
100
AcDbSymbolTableRecord
100
AcDbBlockTableRecord
  2
*D79
340
0
  0
BLOCK_RECORD
  5
3EE
330
1
100
AcDbSymbolTableRecord
100
AcDbBlockTableRecord
  2
*D810
340
0
  0
ENDTAB
  0
ENDSEC
  0
SECTION
  2
BLOCKS
  0
BLOCK
  5
20
330
1F
100
AcDbEntity
  8
0
100
AcDbBlockBegin
  2
*Model_Space
 70
     0
 71
     0
 10
0.0
 20
0.0
 30
0.0
  3
*Model_Space
  1

  0
ENDBLK
  5
21
330
1F
100
AcDbEntity
  8
0
100
AcDbBlockEnd
  0
BLOCK
  5
1C
330
1B
100
AcDbEntity
 67
     1
  8
0
100
AcDbBlockBegin
  2
*Paper_Space
 70
     0
 71
     0
 10
0.0
 20
0.0
 30
0.0
  3
*Paper_Space
  1

  0
ENDBLK
  5
1D
330
1B
100
AcDbEntity
 67
     1
  8
0
100
AcDbBlockEnd
  0
BLOCK
  5
24
330
23
100
AcDbEntity
  8
0
100
AcDbBlockBegin
  2
*Paper_Space0
 70
     0
 71
     0
 10
0.0
 20
0.0
 30
0.0
  3
*Paper_Space0
  1

  0
ENDBLK
  5
25
330
23
100
AcDbEntity
  8
0
100
AcDbBlockEnd
  0
BLOCK
  5
397
330
396
100
AcDbEntity
  8
0
100
AcDbBlockBegin
  2
_OPEN
 70
     0
 71
     0
 10
0.0
 20
0.0
 30
0.0
  3
_OPEN
  1

  0
LINE
  5
399
330
396
100
AcDbEntity
  8
LAYER-035
  6
Continuous
 62
     0
100
AcDbLine
 10
0.0
 20
0.0
 30
0.0
 11
-1.0
 21
0.0
 31
0.0
  0
LINE
  5
39A
330
396
100
AcDbEntity
  8
LAYER-035
  6
Continuous
 62
     0
100
AcDbLine
 10
0.0
 20
0.0
 30
0.0
 11
-1.0
 21
0.1666250109338451
 31
0.0
  0
LINE
  5
39B
330
396
100
AcDbEntity
  8
LAYER-035
  6
Continuous
 62
     0
100
AcDbLine
 10
0.0
 20
0.0
 30
0.0
 11
-1.0
 21
-0.1666250109338451
 31
0.0
  0
ENDBLK
  5
398
330
396
100
AcDbEntity
  8
0
100
AcDbBlockEnd
  0
BLOCK
  5
39D
330
39C
100
AcDbEntity
  8
0
100
AcDbBlockBegin
  2
*D02
 70
     1
 71
     0
 10
0.0
 20
0.0
 30
0.0
  3
*D02
  1

  0
INSERT
  5
39F
330
39C
100
AcDbEntity
  8
LAYER-035
  6
Continuous
 62
     5
100
AcDbBlockReference
  2
_OPEN
 10
-390.909626600208
 20
-494.6642602700668
 30
0.0
 41
4.0
 42
4.0
 43
4.0
 50
180.0
  0
INSERT
  5
3A0
330
39C
100
AcDbEntity
  8
LAYER-035
  6
Continuous
 62
     5
100
AcDbBlockReference
  2
_OPEN
 10
9.090373399791986
 20
-494.6642602700668
 30
0.0
 41
4.0
 42
4.0
 43
4.0
  0
LINE
  5
3A1
330
39C
100
AcDbEntity
  8
LAYER-035
  6
Continuous
 62
     5
100
AcDbLine
 10
-390.909626600208
 20
-432.3157974773602
 30
0.0
 11
-390.909626600208
 21
-495.6642602700668
 31
0.0
  0
LINE
  5
3A2
330
39C
100
AcDbEntity
  8
LAYER-035
  6
Continuous
 62
     5
100
AcDbLine
 10
9.090373399791986
 20
-432.3157974773602
 30
0.0
 11
9.090373399791986
 21
-495.6642602700668
 31
0.0
  0
LINE
  5
3A3
330
39C
100
AcDbEntity
  8
LAYER-035
  6
Continuous
 62
     5
100
AcDbLine
 10
-390.909626600208
 20
-494.6642602700668
 30
0.0
 11
9.090373399791986
 21
-494.6642602700668
 31
0.0
  0
MTEXT
  5
3A4
330
39C
100
AcDbEntity
  8
LAYER-036
  6
Continuous
 62
     5
100
AcDbMText
 10
-190.909626600208
 20
-494.1642602700668
 30
0.0
 40
10.0
 41
0.0
 71
     8
 72
     1
  1
400
  7
STRING_H
 73
     1
 44
1.0
  0
ENDBLK
  5
39E
330
39C
100
AcDbEntity
  8
0
100
AcDbBlockEnd
  0
BLOCK
  5
3A7
330
3A6
100
AcDbEntity
  8
0
100
AcDbBlockBegin
  2
*D13
 70
     1
 71
     0
 10
0.0
 20
0.0
 30
0.0
  3
*D13
  1

  0
INSERT
  5
3A9
330
3A6
100
AcDbEntity
  8
LAYER-035
  6
Continuous
 62
     5
100
AcDbBlockReference
  2
_OPEN
 10
-350.909626600208
 20
-469.0017956444202
 30
0.0
 41
4.0
 42
4.0
 43
4.0
 50
180.0
  0
INSERT
  5
3AA
330
3A6
100
AcDbEntity
  8
LAYER-035
  6
Continuous
 62
     5
100
AcDbBlockReference
  2
_OPEN
 10
-30.90962660020807
 20
-469.0017956444202
 30
0.0
 41
4.0
 42
4.0
 43
4.0
  0
LINE
  5
3AB
330
3A6
100
AcDbEntity
  8
LAYER-035
  6
Continuous
 62
     5
100
AcDbLine
 10
-350.909626600208
 20
-439.8608596539461
 30
0.0
 11
-350.909626600208
 21
-470.0017956444202
 31
0.0
  0
LINE
  5
3AC
330
3A6
100
AcDbEntity
  8
LAYER-035
  6
Continuous
 62
     5
100
AcDbLine
 10
-30.90962660020801
 20
-439.8608596539461
 30
0.0
 11
-30.90962660020807
 21
-470.0017956444202
 31
0.0
  0
LINE
  5
3AD
330
3A6
100
AcDbEntity
  8
LAYER-035
  6
Continuous
 62
     5
100
AcDbLine
 10
-350.909626600208
 20
-469.0017956444202
 30
0.0
 11
-30.90962660020807
 21
-469.0017956444202
 31
0.0
  0
MTEXT
  5
3AE
330
3A6
100
AcDbEntity
  8
LAYER-036
  6
Continuous
 62
     5
100
AcDbMText
 10
-190.909626600208
 20
-468.5017956444202
 30
0.0
 40
10.0
 41
0.0
 71
     8
 72
     1
  1
320
  7
STRING_H
 73
     1
 44
1.0
  0
ENDBLK
  5
3A8
330
3A6
100
AcDbEntity
  8
0
100
AcDbBlockEnd
  0
BLOCK
  5
3B1
330
3B0
100
AcDbEntity
  8
0
100
AcDbBlockBegin
  2
*D24
 70
     1
 71
     0
 10
0.0
 20
0.0
 30
0.0
  3
*D24
  1

  0
INSERT
  5
3B3
330
3B0
100
AcDbEntity
  8
LAYER-035
  6
Continuous
 62
     5
100
AcDbBlockReference
  2
_OPEN
 10
67.2778386633172
 20
-111.3157974773602
 30
0.0
 41
4.0
 42
4.0
 43
4.0
 50
90.0
  0
INSERT
  5
3B4
330
3B0
100
AcDbEntity
  8
LAYER-035
  6
Continuous
 62
     5
100
AcDbBlockReference
  2
_OPEN
 10
67.2778386633172
 20
-431.3157974773602
 30
0.0
 41
4.0
 42
4.0
 43
4.0
 50
-90.0
  0
LINE
  5
3B5
330
3B0
100
AcDbEntity
  8
LAYER-035
  6
Continuous
 62
     5
100
AcDbLine
 10
-55.65722363713189
 20
-111.3157974773602
 30
0.0
 11
68.2778386633172
 21
-111.3157974773602
 31
0.0
  0
LINE
  5
3B6
330
3B0
100
AcDbEntity
  8
LAYER-035
  6
Continuous
 62
     5
100
AcDbLine
 10
10.09037339979199
 20
-431.3157974773602
 30
0.0
 11
68.2778386633172
 21
-431.3157974773602
 31
0.0
  0
LINE
  5
3B7
330
3B0
100
AcDbEntity
  8
LAYER-035
  6
Continuous
 62
     5
100
AcDbLine
 10
67.2778386633172
 20
-111.3157974773602
 30
0.0
 11
67.2778386633172
 21
-431.3157974773602
 31
0.0
  0
MTEXT
  5
3B8
330
3B0
100
AcDbEntity
  8
LAYER-036
  6
Continuous
 62
     5
100
AcDbMText
 10
66.7778386633172
 20
-271.3157974773602
 30
0.0
 40
10.0
 41
0.0
 71
     8
 72
     1
  1
320
  7
STRING_H
 11
6.123031769111886E-17
 21
1.0
 31
0.0
 73
     1
 44
1.0
  0
ENDBLK
  5
3B2
330
3B0
100
AcDbEntity
  8
0
100
AcDbBlockEnd
  0
BLOCK
  5
3BB
330
3BA
100
AcDbEntity
  8
0
100
AcDbBlockBegin
  2
*D35
 70
     1
 71
     0
 10
0.0
 20
0.0
 30
0.0
  3
*D35
  1

  0
INSERT
  5
3BD
330
3BA
100
AcDbEntity
  8
LAYER-035
  6
Continuous
 62
     5
100
AcDbBlockReference
  2
_OPEN
 10
67.2778386633172
 20
-86.31579747736021
 30
0.0
 41
4.0
 42
4.0
 43
4.0
 50
90.0
  0
INSERT
  5
3BE
330
3BA
100
AcDbEntity
  8
LAYER-035
  6
Continuous
 62
     5
100
AcDbBlockReference
  2
_OPEN
 10
67.2778386633172
 20
-111.3157974773602
 30
0.0
 41
4.0
 42
4.0
 43
4.0
 50
-90.0
  0
LINE
  5
3BF
330
3BA
100
AcDbEntity
  8
LAYER-035
  6
Continuous
 62
     5
100
AcDbLine
 10
3.49738675531961
 20
-86.31579747736021
 30
0.0
 11
68.2778386633172
 21
-86.31579747736021
 31
0.0
  0
LINE
  5
3C0
330
3BA
100
AcDbEntity
  8
LAYER-035
  6
Continuous
 62
     5
100
AcDbLine
 10
-55.65722363713189
 20
-111.3157974773602
 30
0.0
 11
68.2778386633172
 21
-111.3157974773602
 31
0.0
  0
LINE
  5
3C1
330
3BA
100
AcDbEntity
  8
LAYER-035
  6
Continuous
 62
     5
100
AcDbLine
 10
67.2778386633172
 20
-86.31579747736021
 30
0.0
 11
67.2778386633172
 21
-111.3157974773602
 31
0.0
  0
LINE
  5
3C2
330
3BA
100
AcDbEntity
  8
LAYER-035
  6
Continuous
 62
     5
100
AcDbLine
 10
67.2778386633172
 20
-86.31579747736021
 30
0.0
 11
67.2778386633172
 21
-41.31579747736021
 31
0.0
  0
LINE
  5
3C3
330
3BA
100
AcDbEntity
  8
LAYER-035
  6
Continuous
 62
     5
100
AcDbLine
 10
67.2778386633172
 20
-111.3157974773602
 30
0.0
 11
67.2778386633172
 21
-119.3157974773602
 31
0.0
  0
MTEXT
  5
3C4
330
3BA
100
AcDbEntity
  8
LAYER-036
  6
Continuous
 62
     5
100
AcDbMText
 10
66.7778386633172
 20
-86.31579747736021
 30
0.0
 40
10.0
 41
0.0
 71
     7
 72
     1
  1
25±5
  7
STRING_H
 11
6.123031769111886E-17
 21
1.0
 31
0.0
 73
     1
 44
1.0
  0
ENDBLK
  5
3BC
330
3BA
100
AcDbEntity
  8
0
100
AcDbBlockEnd
  0
BLOCK
  5
3C7
330
3C6
100
AcDbEntity
  8
0
100
AcDbBlockBegin
  2
*D46
 70
     1
 71
     0
 10
0.0
 20
0.0
 30
0.0
  3
*D46
  1

  0
INSERT
  5
3C9
330
3C6
100
AcDbEntity
  8
LAYER-035
  6
Continuous
 62
     5
100
AcDbBlockReference
  2
_OPEN
 10
189.0331993721536
 20
-494.6642602700668
 30
0.0
 41
4.0
 42
4.0
 43
4.0
 50
180.0
  0
INSERT
  5
3CA
330
3C6
100
AcDbEntity
  8
LAYER-035
  6
Continuous
 62
     5
100
AcDbBlockReference
  2
_OPEN
 10
439.0331993721535
 20
-494.6642602700668
 30
0.0
 41
4.0
 42
4.0
 43
4.0
  0
LINE
  5
3CB
330
3C6
100
AcDbEntity
  8
LAYER-035
  6
Continuous
 62
     5
100
AcDbLine
 10
189.0331993721535
 20
-432.3157974773602
 30
0.0
 11
189.0331993721536
 21
-495.6642602700668
 31
0.0
  0
LINE
  5
3CC
330
3C6
100
AcDbEntity
  8
LAYER-035
  6
Continuous
 62
     5
100
AcDbLine
 10
439.0331993721535
 20
-432.3157974773602
 30
0.0
 11
439.0331993721535
 21
-495.6642602700668
 31
0.0
  0
LINE
  5
3CD
330
3C6
100
AcDbEntity
  8
LAYER-035
  6
Continuous
 62
     5
100
AcDbLine
 10
189.0331993721536
 20
-494.6642602700668
 30
0.0
 11
439.0331993721535
 21
-494.6642602700668
 31
0.0
  0
MTEXT
  5
3CE
330
3C6
100
AcDbEntity
  8
LAYER-036
  6
Continuous
 62
     5
100
AcDbMText
 10
314.0331993721536
 20
-494.1642602700668
 30
0.0
 40
10.0
 41
0.0
 71
     8
 72
     1
  1
250
  7
STRING_H
 73
     1
 44
1.0
  0
ENDBLK
  5
3C8
330
3C6
100
AcDbEntity
  8
0
100
AcDbBlockEnd
  0
BLOCK
  5
3D1
330
3D0
100
AcDbEntity
  8
0
100
AcDbBlockBegin
  2
*D57
 70
     1
 71
     0
 10
0.0
 20
0.0
 30
0.0
  3
*D57
  1

  0
INSERT
  5
3D3
330
3D0
100
AcDbEntity
  8
LAYER-035
  6
Continuous
 62
     5
100
AcDbBlockReference
  2
_OPEN
 10
209.0331993721535
 20
-469.0017956444202
 30
0.0
 41
4.0
 42
4.0
 43
4.0
 50
180.0
  0
INSERT
  5
3D4
330
3D0
100
AcDbEntity
  8
LAYER-035
  6
Continuous
 62
     5
100
AcDbBlockReference
  2
_OPEN
 10
419.0331993721535
 20
-469.0017956444202
 30
0.0
 41
4.0
 42
4.0
 43
4.0
  0
LINE
  5
3D5
330
3D0
100
AcDbEntity
  8
LAYER-035
  6
Continuous
 62
     5
100
AcDbLine
 10
209.0331993721535
 20
-439.0741112886718
 30
0.0
 11
209.0331993721535
 21
-470.0017956444202
 31
0.0
  0
LINE
  5
3D6
330
3D0
100
AcDbEntity
  8
LAYER-035
  6
Continuous
 62
     5
100
AcDbLine
 10
419.0331993721535
 20
-439.0741112886718
 30
0.0
 11
419.0331993721535
 21
-470.0017956444202
 31
0.0
  0
LINE
  5
3D7
330
3D0
100
AcDbEntity
  8
LAYER-035
  6
Continuous
 62
     5
100
AcDbLine
 10
209.0331993721535
 20
-469.0017956444202
 30
0.0
 11
419.0331993721535
 21
-469.0017956444202
 31
0.0
  0
MTEXT
  5
3D8
330
3D0
100
AcDbEntity
  8
LAYER-036
  6
Continuous
 62
     5
100
AcDbMText
 10
314.0331993721535
 20
-468.5017956444202
 30
0.0
 40
10.0
 41
0.0
 71
     8
 72
     1
  1
210
  7
STRING_H
 73
     1
 44
1.0
  0
ENDBLK
  5
3D2
330
3D0
100
AcDbEntity
  8
0
100
AcDbBlockEnd
  0
BLOCK
  5
3DB
330
3DA
100
AcDbEntity
  8
0
100
AcDbBlockBegin
  2
*D68
 70
     1
 71
     0
 10
0.0
 20
0.0
 30
0.0
  3
*D68
  1

  0
INSERT
  5
3DD
330
3DA
100
AcDbEntity
  8
LAYER-035
  6
Continuous
 62
     5
100
AcDbBlockReference
  2
_OPEN
 10
469.0331993721535
 20
-349.1916716032343
 30
0.0
 41
4.0
 42
4.0
 43
4.0
  0
INSERT
  5
3DE
330
3DA
100
AcDbEntity
  8
LAYER-035
  6
Continuous
 62
     5
100
AcDbBlockReference
  2
_OPEN
 10
419.0331993721535
 20
-349.1916716032343
 30
0.0
 41
4.0
 42
4.0
 43
4.0
 50
180.0
  0
LINE
  5
3DF
330
3DA
100
AcDbEntity
  8
LAYER-035
  6
Continuous
 62
     5
100
AcDbLine
 10
469.0331993721535
 20
-164.8418406734662
 30
0.0
 11
469.0331993721535
 21
-350.1916716032343
 31
0.0
  0
LINE
  5
3E0
330
3DA
100
AcDbEntity
  8
LAYER-035
  6
Continuous
 62
     5
100
AcDbLine
 10
419.0331993721535
 20
-254.0371136107181
 30
0.0
 11
419.0331993721535
 21
-350.1916716032343
 31
0.0
  0
LINE
  5
3E1
330
3DA
100
AcDbEntity
  8
LAYER-035
  6
Continuous
 62
     5
100
AcDbLine
 10
469.0331993721535
 20
-349.1916716032343
 30
0.0
 11
419.0331993721535
 21
-349.1916716032343
 31
0.0
  0
MTEXT
  5
3E2
330
3DA
100
AcDbEntity
  8
LAYER-036
  6
Continuous
 62
     5
100
AcDbMText
 10
444.0331993721535
 20
-348.6916716032343
 30
0.0
 40
10.0
 41
0.0
 71
     8
 72
     1
  1
(50)
  7
STRING_H
 73
     1
 44
1.0
  0
ENDBLK
  5
3DC
330
3DA
100
AcDbEntity
  8
0
100
AcDbBlockEnd
  0
BLOCK
  5
3E5
330
3E4
100
AcDbEntity
  8
0
100
AcDbBlockBegin
  2
*D79
 70
     1
 71
     0
 10
0.0
 20
0.0
 30
0.0
  3
*D79
  1

  0
INSERT
  5
3E7
330
3E4
100
AcDbEntity
  8
LAYER-035
  6
Continuous
 62
     5
100
AcDbBlockReference
  2
_OPEN
 10
159.0331993721535
 20
-349.1916716032343
 30
0.0
 41
4.0
 42
4.0
 43
4.0
 50
180.0
  0
INSERT
  5
3E8
330
3E4
100
AcDbEntity
  8
LAYER-035
  6
Continuous
 62
     5
100
AcDbBlockReference
  2
_OPEN
 10
209.0331993721535
 20
-349.1916716032343
 30
0.0
 41
4.0
 42
4.0
 43
4.0
  0
LINE
  5
3E9
330
3E4
100
AcDbEntity
  8
LAYER-035
  6
Continuous
 62
     5
100
AcDbLine
 10
159.0331993721535
 20
-164.8418406734662
 30
0.0
 11
159.0331993721535
 21
-350.1916716032343
 31
0.0
  0
LINE
  5
3EA
330
3E4
100
AcDbEntity
  8
LAYER-035
  6
Continuous
 62
     5
100
AcDbLine
 10
209.0331993721535
 20
-254.0371136107181
 30
0.0
 11
209.0331993721535
 21
-350.1916716032343
 31
0.0
  0
LINE
  5
3EB
330
3E4
100
AcDbEntity
  8
LAYER-035
  6
Continuous
 62
     5
100
AcDbLine
 10
159.0331993721535
 20
-349.1916716032343
 30
0.0
 11
209.0331993721535
 21
-349.1916716032343
 31
0.0
  0
MTEXT
  5
3EC
330
3E4
100
AcDbEntity
  8
LAYER-036
  6
Continuous
 62
     5
100
AcDbMText
 10
184.0331993721535
 20
-348.6916716032343
 30
0.0
 40
10.0
 41
0.0
 71
     8
 72
     1
  1
(50)
  7
STRING_H
 73
     1
 44
1.0
  0
ENDBLK
  5
3E6
330
3E4
100
AcDbEntity
  8
0
100
AcDbBlockEnd
  0
BLOCK
  5
3EF
330
3EE
100
AcDbEntity
  8
0
100
AcDbBlockBegin
  2
*D810
 70
     1
 71
     0
 10
0.0
 20
0.0
 30
0.0
  3
*D810
  1

  0
INSERT
  5
3F1
330
3EE
100
AcDbEntity
  8
LAYER-035
  6
Continuous
 62
     5
100
AcDbBlockReference
  2
_OPEN
 10
209.0331993721535
 20
-349.1916716032343
 30
0.0
 41
4.0
 42
4.0
 43
4.0
 50
180.0
  0
INSERT
  5
3F2
330
3EE
100
AcDbEntity
  8
LAYER-035
  6
Continuous
 62
     5
100
AcDbBlockReference
  2
_OPEN
 10
419.0331993721535
 20
-349.1916716032343
 30
0.0
 41
4.0
 42
4.0
 43
4.0
  0
LINE
  5
3F3
330
3EE
100
AcDbEntity
  8
LAYER-035
  6
Continuous
 62
     5
100
AcDbLine
 10
209.0331993721535
 20
-254.0371136107181
 30
0.0
 11
209.0331993721535
 21
-350.1916716032343
 31
0.0
  0
LINE
  5
3F4
330
3EE
100
AcDbEntity
  8
LAYER-035
  6
Continuous
 62
     5
100
AcDbLine
 10
419.0331993721535
 20
-254.0371136107181
 30
0.0
 11
419.0331993721535
 21
-350.1916716032343
 31
0.0
  0
LINE
  5
3F5
330
3EE
100
AcDbEntity
  8
LAYER-035
  6
Continuous
 62
     5
100
AcDbLine
 10
209.0331993721535
 20
-349.1916716032343
 30
0.0
 11
419.0331993721535
 21
-349.1916716032343
 31
0.0
  0
MTEXT
  5
3F6
330
3EE
100
AcDbEntity
  8
LAYER-036
  6
Continuous
 62
     5
100
AcDbMText
 10
296.321344006493
 20
-348.6916716032343
 30
0.0
 40
10.0
 41
0.0
 71
     8
 72
     1
  1
210
  7
STRING_H
 73
     1
 44
1.0
  0
ENDBLK
  5
3F0
330
3EE
100
AcDbEntity
  8
0
100
AcDbBlockEnd
  0
ENDSEC
  0
SECTION
  2
ENTITIES
  0
LINE
  5
152
330
1F
100
AcDbEntity
  8
LAYER-033
  6
Continuous
 62
     1
100
AcDbLine
 10
-189.9718281110802
 20
-588.6095046642289
 30
0.0
 11
-21.22182811108016
 21
-588.6095046642289
 31
0.0
  0
LINE
  5
153
330
1F
100
AcDbEntity
  8
LAYER-033
  6
Continuous
 62
     1
100
AcDbLine
 10
-189.9718281110802
 20
-608.6095046642289
 30
0.0
 11
260.0281718889198
 21
-608.6095046642289
 31
0.0
  0
LINE
  5
154
330
1F
100
AcDbEntity
  8
LAYER-033
  6
Continuous
 62
     1
100
AcDbLine
 10
-189.9718281110802
 20
-628.6095046642289
 30
0.0
 11
-4.971828111080157
 21
-628.6095046642289
 31
0.0
  0
LINE
  5
155
330
1F
100
AcDbEntity
  8
LAYER-006
  6
Continuous
 62
     1
100
AcDbLine
 10
-385.6447706789883
 20
-86.31579747736021
 30
0.0
 11
-385.6447706789883
 21
-92.10665389588905
 31
0.0
  0
LINE
  5
156
330
1F
100
AcDbEntity
  8
LAYER-006
  6
Continuous
 62
     1
100
AcDbLine
 10
-375.7552962064337
 20
-86.31579747736021
 30
0.0
 11
-385.6447706789883
 21
-86.31579747736021
 31
0.0
  0
LINE
  5
157
330
1F
100
AcDbEntity
  8
LAYER-006
  6
Continuous
 62
     1
100
AcDbLine
 10
-375.7552962064337
 20
-86.31579747736021
 30
0.0
 11
-375.7552962064337
 21
-92.10665389588905
 31
0.0
  0
LINE
  5
158
330
1F
100
AcDbEntity
  8
LAYER-006
  6
Continuous
 62
     1
100
AcDbLine
 10
-7.392087717234801
 20
-86.31579747736021
 30
0.0
 11
-7.392087717234801
 21
-92.10665389588905
 31
0.0
  0
LINE
  5
159
330
1F
100
AcDbEntity
  8
LAYER-006
  6
Continuous
 62
     1
100
AcDbLine
 10
-7.392087717234801
 20
-86.31579747736021
 30
0.0
 11
2.49738675531961
 21
-86.31579747736021
 31
0.0
  0
LINE
  5
15A
330
1F
100
AcDbEntity
  8
LAYER-006
  6
Continuous
 62
     1
100
AcDbLine
 10
2.49738675531961
 20
-86.31579747736021
 30
0.0
 11
2.49738675531961
 21
-92.10665389588905
 31
0.0
  0
LINE
  5
15B
330
1F
100
AcDbEntity
  8
LAYER-006
  6
Continuous
 62
     1
100
AcDbLine
 10
260.6293706293707
 20
-86.31579747736021
 30
0.0
 11
260.6293706293707
 21
-92.10665389588905
 31
0.0
  0
LINE
  5
15C
330
1F
100
AcDbEntity
  8
LAYER-006
  6
Continuous
 62
     1
100
AcDbLine
 10
267.9311088322802
 20
-86.31579747736021
 30
0.0
 11
260.6293706293707
 21
-86.31579747736021
 31
0.0
  0
LINE
  5
15D
330
1F
100
AcDbEntity
  8
LAYER-006
  6
Continuous
 62
     1
100
AcDbLine
 10
270.518845101925
 20
-86.31579747736021
 30
0.0
 11
270.518845101925
 21
-92.10665389588905
 31
0.0
  0
LINE
  5
15E
330
1F
100
AcDbEntity
  8
LAYER-006
  6
Continuous
 62
     1
100
AcDbLine
 10
270.518845101925
 20
-86.31579747736021
 30
0.0
 11
260.6293706293707
 21
-86.31579747736021
 31
0.0
  0
LINE
  5
15F
330
1F
100
AcDbEntity
  8
LAYER-006
  6
Continuous
 62
     1
100
AcDbLine
 10
357.547553642382
 20
-86.31579747736021
 30
0.0
 11
357.547553642382
 21
-92.10665389588905
 31
0.0
  0
LINE
  5
160
330
1F
100
AcDbEntity
  8
LAYER-006
  6
Continuous
 62
     1
100
AcDbLine
 10
357.547553642382
 20
-86.31579747736021
 30
0.0
 11
367.4370281149369
 21
-86.31579747736021
 31
0.0
  0
LINE
  5
161
330
1F
100
AcDbEntity
  8
LAYER-006
  6
Continuous
 62
     1
100
AcDbLine
 10
360.1352899120268
 20
-86.31579747736021
 30
0.0
 11
367.4370281149369
 21
-86.31579747736021
 31
0.0
  0
LINE
  5
162
330
1F
100
AcDbEntity
  8
LAYER-006
  6
Continuous
 62
     1
100
AcDbLine
 10
367.4370281149369
 20
-86.31579747736021
 30
0.0
 11
367.4370281149369
 21
-92.10665389588905
 31
0.0
  0
LINE
  5
163
330
1F
100
AcDbEntity
  8
LAYER-006
  6
Continuous
 62
     1
100
AcDbLine
 10
-391.6883417697546
 20
-92.10665389588905
 30
0.0
 11
8.540957844729121
 21
-92.10665389588905
 31
0.0
  0
LINE
  5
164
330
1F
100
AcDbEntity
  8
LAYER-006
  6
Continuous
 62
     1
100
AcDbLine
 10
-391.6883417697546
 20
-92.10665389588905
 30
0.0
 11
-391.6883417697546
 21
-94.85373166441963
 31
0.0
  0
LINE
  5
165
330
1F
100
AcDbEntity
  8
LAYER-006
  6
Continuous
 62
     1
100
AcDbLine
 10
8.540957844729121
 20
-92.10665389588905
 30
0.0
 11
8.540957844729121
 21
-94.85373166441963
 31
0.0
  0
LINE
  5
166
330
1F
100
AcDbEntity
  8
LAYER-006
  6
Continuous
 62
     1
100
AcDbLine
 10
225.6411856663498
 20
-92.10665389588905
 30
0.0
 11
402.4252130779572
 21
-92.10665389588905
 31
0.0
  0
LINE
  5
167
330
1F
100
AcDbEntity
  8
LAYER-006
  6
Continuous
 62
     1
100
AcDbLine
 10
225.6411856663498
 20
-92.10665389588905
 30
0.0
 11
225.6411856663498
 21
-94.85373166432345
 31
0.0
  0
LINE
  5
168
330
1F
100
AcDbEntity
  8
LAYER-006
  6
Continuous
 62
     1
100
AcDbLine
 10
402.4252130779572
 20
-92.10665389588905
 30
0.0
 11
402.4252130779572
 21
-94.85373166432345
 31
0.0
  0
LINE
  5
169
330
1F
100
AcDbEntity
  8
LAYER-006
  6
Continuous
 62
     1
100
AcDbLine
 10
8.540957844729121
 20
-94.85373166441963
 30
0.0
 11
-391.6883417697546
 21
-94.85373166441963
 31
0.0
  0
LINE
  5
16A
330
1F
100
AcDbEntity
  8
LAYER-006
  6
Continuous
 62
     1
100
AcDbLine
 10
402.4252130779572
 20
-94.85373166432345
 30
0.0
 11
225.6411856663498
 21
-94.85373166432345
 31
0.0
  0
LINE
  5
16B
330
1F
100
AcDbEntity
  8
LAYER-007
  6
CENTER
 62
     4
100
AcDbLine
 10
-320.76669963948
 20
-104.5816308200953
 30
0.0
 11
-320.76669963948
 21
-177.8085824557768
 31
0.0
  0
LINE
  5
16C
330
1F
100
AcDbEntity
  8
LAYER-007
  6
CENTER
 62
     4
100
AcDbLine
 10
-59.95371695936871
 20
-104.5816308200953
 30
0.0
 11
-59.95371695936871
 21
-177.8085824557768
 31
0.0
  0
LINE
  5
16D
330
1F
100
AcDbEntity
  8
LAYER-006
  6
Continuous
 62
     1
100
AcDbLine
 10
-324.6126030212672
 20
-111.3157974773602
 30
0.0
 11
-324.6126030212672
 21
-131.0947519166246
 31
0.0
  0
LINE
  5
16E
330
1F
100
AcDbEntity
  8
LAYER-006
  6
Continuous
 62
     1
100
AcDbLine
 10
-324.6126030212672
 20
-111.3157974773602
 30
0.0
 11
-317.4702063172432
 21
-111.3157974773602
 31
0.0
  0
LINE
  5
16F
330
1F
100
AcDbEntity
  8
LAYER-006
  6
Continuous
 62
     1
100
AcDbLine
 10
-317.4702063172432
 20
-111.3157974773602
 30
0.0
 11
-317.4702063172432
 21
-131.0947519166246
 31
0.0
  0
LINE
  5
170
330
1F
100
AcDbEntity
  8
LAYER-006
  6
Continuous
 62
     1
100
AcDbLine
 10
-194.2061144282891
 20
-111.3157974773602
 30
0.0
 11
-194.2061144282891
 21
-131.0947519166246
 31
0.0
  0
LINE
  5
171
330
1F
100
AcDbEntity
  8
LAYER-006
  6
Continuous
 62
     1
100
AcDbLine
 10
-194.2061144282891
 20
-111.3157974773602
 30
0.0
 11
-187.0637177242651
 21
-111.3157974773602
 31
0.0
  0
LINE
  5
172
330
1F
100
AcDbEntity
  8
LAYER-006
  6
Continuous
 62
     1
100
AcDbLine
 10
-187.0637177242651
 20
-111.3157974773602
 30
0.0
 11
-187.0637177242651
 21
-131.0947519166246
 31
0.0
  0
LINE
  5
173
330
1F
100
AcDbEntity
  8
LAYER-006
  6
Continuous
 62
     1
100
AcDbLine
 10
-63.7996203411559
 20
-111.3157974773602
 30
0.0
 11
-63.7996203411559
 21
-131.0947519166246
 31
0.0
  0
LINE
  5
174
330
1F
100
AcDbEntity
  8
LAYER-006
  6
Continuous
 62
     1
100
AcDbLine
 10
-63.7996203411559
 20
-111.3157974773602
 30
0.0
 11
-56.65722363713189
 21
-111.3157974773602
 31
0.0
  0
LINE
  5
175
330
1F
100
AcDbEntity
  8
LAYER-006
  6
Continuous
 62
     1
100
AcDbLine
 10
-56.65722363713189
 20
-111.3157974773602
 30
0.0
 11
-56.65722363713189
 21
-131.0947519166246
 31
0.0
  0
LINE
  5
176
330
1F
100
AcDbEntity
  8
LAYER-001
  6
Continuous
 62
     1
100
AcDbLine
 10
-364.3545817948864
 20
-112.0669913926129
 30
0.0
 11
-375.7552962064337
 21
-112.0669913926129
 31
0.0
  0
LINE
  5
177
330
1F
100
AcDbEntity
  8
LAYER-001
  6
Continuous
 62
     1
100
AcDbLine
 10
-364.3545817948864
 20
-112.0669913926129
 30
0.0
 11
-359.7761371631611
 21
-116.6454360316561
 31
0.0
  0
LINE
  5
178
330
1F
100
AcDbEntity
  8
LAYER-033
  6
Continuous
 62
     1
100
AcDbLine
 10
-375.7552962064337
 20
-134.9592145609481
 30
0.0
 11
-358.235429628024
 21
-134.9592145609481
 31
0.0
  0
LINE
  5
179
330
1F
100
AcDbEntity
  8
LAYER-001
  6
Continuous
 62
     1
100
AcDbLine
 10
-359.7761371631611
 20
-116.6454360316561
 30
0.0
 11
-359.7761371631611
 21
-145.9289773608454
 31
0.0
  0
LINE
  5
17A
330
1F
100
AcDbEntity
  8
LAYER-001
  6
Continuous
 62
     1
100
AcDbLine
 10
-385.6447706789883
 20
-113.2120238901298
 30
0.0
 11
-389.0781828148878
 21
-116.6454360316561
 31
0.0
  0
LINE
  5
17B
330
1F
100
AcDbEntity
  8
LAYER-001
  6
Continuous
 62
     1
100
AcDbLine
 10
-389.0781828148878
 20
-116.6454360316561
 30
0.0
 11
-389.0781828148878
 21
-145.9289773608454
 31
0.0
  0
LINE
  5
17C
330
1F
100
AcDbEntity
  8
LAYER-001
  6
Continuous
 62
     1
100
AcDbLine
 10
-389.0781828148878
 20
-159.6643662034982
 30
0.0
 11
-389.0781828148878
 21
-191.3157974773602
 31
0.0
  0
LINE
  5
17D
330
1F
100
AcDbEntity
  8
LAYER-001
  6
Continuous
 62
     1
100
AcDbLine
 10
-359.7761371631611
 20
-159.6643662034982
 30
0.0
 11
-359.7761371631611
 21
-191.3157974773602
 31
0.0
  0
ARC
  5
17E
330
1F
100
AcDbEntity
  8
LAYER-033
  6
Continuous
 62
     1
100
AcDbCircle
 10
-374.4271599890245
 20
-134.9592145609481
 30
0.0
 40
8.699044804028386
100
AcDbArc
 50
266.3790214822288
 51
273.6209785072467
  0
ARC
  5
17F
330
1F
100
AcDbEntity
  8
LAYER-033
  6
Continuous
 62
     1
100
AcDbCircle
 10
-374.4271599890245
 20
-134.9592145609481
 30
0.0
 40
8.699044804028386
100
AcDbArc
 50
261.2179576541959
 51
98.7820423458044
  0
ARC
  5
180
330
1F
100
AcDbEntity
  8
LAYER-033
  6
Continuous
 62
     1
100
AcDbCircle
 10
-374.4271599890245
 20
-134.9592145609481
 30
0.0
 40
8.699044804028386
100
AcDbArc
 50
90.0
 51
90.00003618695909
  0
LINE
  5
181
330
1F
100
AcDbEntity
  8
LAYER-001
  6
Continuous
 62
     1
100
AcDbLine
 10
-17.46467140552943
 20
-112.0669913926129
 30
0.0
 11
-22.04311603725466
 21
-116.6454360316561
 31
0.0
  0
LINE
  5
182
330
1F
100
AcDbEntity
  8
LAYER-033
  6
Continuous
 62
     1
100
AcDbLine
 10
-7.392087717234801
 20
-134.9592145609481
 30
0.0
 11
-23.58382357239179
 21
-134.9592145609481
 31
0.0
  0
LINE
  5
183
330
1F
100
AcDbEntity
  8
LAYER-001
  6
Continuous
 62
     1
100
AcDbLine
 10
2.680484982746862
 20
-112.0669913926129
 30
0.0
 11
7.258929614472095
 21
-116.6454360316561
 31
0.0
  0
LINE
  5
184
330
1F
100
AcDbEntity
  8
LAYER-001
  6
Continuous
 62
     1
100
AcDbLine
 10
-22.04311603725466
 20
-116.6454360316561
 30
0.0
 11
-22.04311603725466
 21
-145.9289773608454
 31
0.0
  0
LINE
  5
185
330
1F
100
AcDbEntity
  8
LAYER-001
  6
Continuous
 62
     1
100
AcDbLine
 10
7.258929614472095
 20
-116.6454360316561
 30
0.0
 11
7.258929614472095
 21
-145.9289773608454
 31
0.0
  0
LINE
  5
186
330
1F
100
AcDbEntity
  8
LAYER-001
  6
Continuous
 62
     1
100
AcDbLine
 10
7.258929614472095
 20
-159.6643662034982
 30
0.0
 11
7.258929614472095
 21
-191.3157974773602
 31
0.0
  0
LINE
  5
187
330
1F
100
AcDbEntity
  8
LAYER-001
  6
Continuous
 62
     1
100
AcDbLine
 10
-22.04311603725466
 20
-159.6643662034982
 30
0.0
 11
-22.04311603725466
 21
-191.3157974773602
 31
0.0
  0
ARC
  5
188
330
1F
100
AcDbEntity
  8
LAYER-033
  6
Continuous
 62
     1
100
AcDbCircle
 10
-7.392093211391398
 20
-134.9592145609481
 30
0.0
 40
8.699044804028386
100
AcDbArc
 50
90.0
 51
273.6209785072477
  0
ARC
  5
189
330
1F
100
AcDbEntity
  8
LAYER-033
  6
Continuous
 62
     1
100
AcDbCircle
 10
-7.392093211391398
 20
-134.9592145609481
 30
0.0
 40
8.699044804028386
100
AcDbArc
 50
266.3790214822299
 51
273.6209785072477
  0
LINE
  5
18A
330
1F
100
AcDbEntity
  8
LAYER-033
  6
Continuous
 62
     1
100
AcDbLine
 10
-7.392093211391398
 20
-145.9289773608454
 30
0.0
 11
-7.392093211391398
 21
-121.9851123847845
 31
0.0
  0
ARC
  5
18B
330
1F
100
AcDbEntity
  8
LAYER-033
  6
Continuous
 62
     1
100
AcDbCircle
 10
-7.392093211391398
 20
-134.9592145609481
 30
0.0
 40
8.699044804028386
100
AcDbArc
 50
89.99996381304017
 51
90.0
  0
LINE
  5
18C
330
1F
100
AcDbEntity
  8
LAYER-001
  6
Continuous
 62
     1
100
AcDbLine
 10
-17.46467140552943
 20
-112.0669913926129
 30
0.0
 11
-7.392087717234801
 21
-112.0669913926129
 31
0.0
  0
LINE
  5
18D
330
1F
100
AcDbEntity
  8
LAYER-001
  6
Continuous
 62
     1
100
AcDbLine
 10
2.49738675531961
 20
-112.0669913926129
 30
0.0
 11
2.680484982746862
 21
-112.0669913926129
 31
0.0
  0
LINE
  5
18E
330
1F
100
AcDbEntity
  8
LAYER-001
  6
Continuous
 62
     1
100
AcDbLine
 10
313.6834200558811
 20
-112.0669913926129
 30
0.0
 11
309.5628198853838
 21
-112.0669913926129
 31
0.0
  0
LINE
  5
18F
330
1F
100
AcDbEntity
  8
LAYER-033
  6
HIDDEN
 62
     1
100
AcDbLine
 10
313.6834200558811
 20
-126.2601697569197
 30
0.0
 11
309.5628198853838
 21
-126.2601697569197
 31
0.0
  0
LINE
  5
190
330
1F
100
AcDbEntity
  8
LAYER-033
  6
HIDDEN
 62
     1
100
AcDbLine
 10
313.6834200558811
 20
-143.6408932109266
 30
0.0
 11
309.5628198853838
 21
-143.6408932109266
 31
0.0
  0
LINE
  5
191
330
1F
100
AcDbEntity
  8
LAYER-001
  6
Continuous
 62
     1
100
AcDbLine
 10
309.5628198853838
 20
-193.1951973076858
 30
0.0
 11
309.5628198853838
 21
-112.0669913926129
 31
0.0
  0
ARC
  5
192
330
1F
100
AcDbEntity
  8
LAYER-001
  6
Continuous
 62
     1
100
AcDbCircle
 10
305.4422197167622
 20
-193.1951973076858
 30
0.0
 40
4.120600170329235
100
AcDbArc
 50
270.0
 51
0.0
  0
LINE
  5
193
330
1F
100
AcDbEntity
  8
LAYER-001
  6
Continuous
 62
     1
100
AcDbLine
 10
313.6834200558811
 20
-193.1951973076858
 30
0.0
 11
313.6834200558811
 21
-112.0669913926129
 31
0.0
  0
LINE
  5
194
330
1F
100
AcDbEntity
  8
LAYER-001
  6
Continuous
 62
     1
100
AcDbLine
 10
305.4422197167622
 20
-197.3157974773602
 30
0.0
 11
259.107996777922
 21
-197.3157974773602
 31
0.0
  0
LINE
  5
195
330
1F
100
AcDbEntity
  8
LAYER-001
  6
Continuous
 62
     1
100
AcDbLine
 10
259.107996777922
 20
-201.4363976476895
 30
0.0
 11
259.107996777922
 21
-197.3157974773602
 31
0.0
  0
LINE
  5
196
330
1F
100
AcDbEntity
  8
LAYER-001
  6
Continuous
 62
     1
100
AcDbLine
 10
305.4422197167622
 20
-201.4363976476895
 30
0.0
 11
259.107996777922
 21
-201.4363976476895
 31
0.0
  0
ARC
  5
197
330
1F
100
AcDbEntity
  8
LAYER-001
  6
Continuous
 62
     1
100
AcDbCircle
 10
305.4422197167622
 20
-193.1951973076858
 30
0.0
 40
8.24120034065847
100
AcDbArc
 50
270.0
 51
0.0
  0
LINE
  5
198
330
1F
100
AcDbEntity
  8
LAYER-006
  6
Continuous
 62
     1
100
AcDbLine
 10
-328.4585173913656
 20
-121.2052774440703
 30
0.0
 11
-313.6242919471448
 21
-121.2052774440703
 31
0.0
  0
LINE
  5
199
330
1F
100
AcDbEntity
  8
LAYER-006
  6
Continuous
 62
     1
100
AcDbLine
 10
-328.4585173913656
 20
-121.2052774440703
 30
0.0
 11
-328.4585173913656
 21
-131.0947519166246
 31
0.0
  0
LINE
  5
19A
330
1F
100
AcDbEntity
  8
LAYER-006
  6
Continuous
 62
     1
100
AcDbLine
 10
-313.6242919471448
 20
-121.2052774440703
 30
0.0
 11
-313.6242919471448
 21
-131.0947519166246
 31
0.0
  0
LINE
  5
19B
330
1F
100
AcDbEntity
  8
LAYER-006
  6
Continuous
 62
     1
100
AcDbLine
 10
-198.0520287983875
 20
-121.2052774440703
 30
0.0
 11
-183.2178033541667
 21
-121.2052774440703
 31
0.0
  0
LINE
  5
19C
330
1F
100
AcDbEntity
  8
LAYER-006
  6
Continuous
 62
     1
100
AcDbLine
 10
-198.0520287983875
 20
-121.2052774440703
 30
0.0
 11
-198.0520287983875
 21
-131.0947519166246
 31
0.0
  0
LINE
  5
19D
330
1F
100
AcDbEntity
  8
LAYER-006
  6
Continuous
 62
     1
100
AcDbLine
 10
-183.2178033541667
 20
-121.2052774440703
 30
0.0
 11
-183.2178033541667
 21
-131.0947519166246
 31
0.0
  0
LINE
  5
19E
330
1F
100
AcDbEntity
  8
LAYER-006
  6
Continuous
 62
     1
100
AcDbLine
 10
-67.6455347112543
 20
-121.2052774440703
 30
0.0
 11
-52.81130926703349
 21
-121.2052774440703
 31
0.0
  0
LINE
  5
19F
330
1F
100
AcDbEntity
  8
LAYER-006
  6
Continuous
 62
     1
100
AcDbLine
 10
-67.6455347112543
 20
-121.2052774440703
 30
0.0
 11
-67.6455347112543
 21
-131.0947519166246
 31
0.0
  0
LINE
  5
1A0
330
1F
100
AcDbEntity
  8
LAYER-006
  6
Continuous
 62
     1
100
AcDbLine
 10
-52.81130926703349
 20
-121.2052774440703
 30
0.0
 11
-52.81130926703349
 21
-131.0947519166246
 31
0.0
  0
LINE
  5
1A1
330
1F
100
AcDbEntity
  8
LAYER-006
  6
Continuous
 62
     1
100
AcDbLine
 10
257.8822928608407
 20
-121.2052774440703
 30
0.0
 11
257.8822928608407
 21
-131.0947519166246
 31
0.0
  0
LINE
  5
1A2
330
1F
100
AcDbEntity
  8
LAYER-006
  6
Continuous
 62
     1
100
AcDbLine
 10
257.8822928608407
 20
-121.2052774440703
 30
0.0
 11
260.6293706293707
 21
-121.2052774440703
 31
0.0
  0
LINE
  5
1A3
330
1F
100
AcDbEntity
  8
LAYER-006
  6
Continuous
 62
     1
100
AcDbLine
 10
270.518845101925
 20
-121.2052774440703
 30
0.0
 11
272.716518305061
 21
-121.2052774440703
 31
0.0
  0
LINE
  5
1A4
330
1F
100
AcDbEntity
  8
LAYER-006
  6
Continuous
 62
     1
100
AcDbLine
 10
272.716518305061
 20
-121.2052774440703
 30
0.0
 11
272.716518305061
 21
-131.0947519166246
 31
0.0
  0
LINE
  5
1A5
330
1F
100
AcDbEntity
  8
LAYER-006
  6
Continuous
 62
     1
100
AcDbLine
 10
355.3498804392467
 20
-121.2052774440703
 30
0.0
 11
355.3498804392467
 21
-131.0947519166246
 31
0.0
  0
LINE
  5
1A6
330
1F
100
AcDbEntity
  8
LAYER-006
  6
Continuous
 62
     1
100
AcDbLine
 10
357.547553642382
 20
-121.2052774440703
 30
0.0
 11
355.3498804392467
 21
-121.2052774440703
 31
0.0
  0
LINE
  5
1A7
330
1F
100
AcDbEntity
  8
LAYER-006
  6
Continuous
 62
     1
100
AcDbLine
 10
370.1841058834668
 20
-121.2052774440703
 30
0.0
 11
370.1841058834668
 21
-131.0947519166246
 31
0.0
  0
LINE
  5
1A8
330
1F
100
AcDbEntity
  8
LAYER-006
  6
Continuous
 62
     1
100
AcDbLine
 10
370.1841058834668
 20
-121.2052774440703
 30
0.0
 11
367.4370281149369
 21
-121.2052774440703
 31
0.0
  0
LINE
  5
1A9
330
1F
100
AcDbEntity
  8
LAYER-006
  6
HIDDEN
 62
     4
100
AcDbLine
 10
237.0044963280863
 20
-125.6005963795637
 30
0.0
 11
249.0916440015423
 21
-125.6005963795637
 31
0.0
  0
LINE
  5
1AA
330
1F
100
AcDbEntity
  8
LAYER-006
  6
HIDDEN
 62
     4
100
AcDbLine
 10
237.0044963280863
 20
-125.6005963795637
 30
0.0
 11
237.0044963280863
 21
-133.8418406734662
 31
0.0
  0
LINE
  5
1AB
330
1F
100
AcDbEntity
  8
LAYER-006
  6
HIDDEN
 62
     4
100
AcDbLine
 10
249.0916440015423
 20
-125.6005963795637
 30
0.0
 11
254.585799538604
 21
-131.0947519166246
 31
0.0
  0
LINE
  5
1AC
330
1F
100
AcDbEntity
  8
LAYER-006
  6
HIDDEN
 62
     4
100
AcDbLine
 10
378.9747547428681
 20
-125.6005963795637
 30
0.0
 11
373.4805992057037
 21
-131.0947519166246
 31
0.0
  0
LINE
  5
1AD
330
1F
100
AcDbEntity
  8
LAYER-006
  6
HIDDEN
 62
     4
100
AcDbLine
 10
391.0619024162214
 20
-125.6005963795637
 30
0.0
 11
378.9747547428681
 21
-125.6005963795637
 31
0.0
  0
LINE
  5
1AE
330
1F
100
AcDbEntity
  8
LAYER-006
  6
HIDDEN
 62
     4
100
AcDbLine
 10
391.0619024162214
 20
-125.6005963795637
 30
0.0
 11
391.0619024162214
 21
-133.8418406734662
 31
0.0
  0
LINE
  5
1AF
330
1F
100
AcDbEntity
  8
LAYER-006
  6
Continuous
 62
     1
100
AcDbLine
 10
-330.6561741120344
 20
-131.0947519166246
 30
0.0
 11
-311.4266297323208
 21
-131.0947519166246
 31
0.0
  0
LINE
  5
1B0
330
1F
100
AcDbEntity
  8
LAYER-006
  6
Continuous
 62
     1
100
AcDbLine
 10
-330.6561741120344
 20
-131.0947519166246
 30
0.0
 11
-330.6561741120344
 21
-136.0394918999798
 31
0.0
  0
LINE
  5
1B1
330
1F
100
AcDbEntity
  8
LAYER-006
  6
Continuous
 62
     1
100
AcDbLine
 10
-311.4266297323208
 20
-131.0947519166246
 30
0.0
 11
-311.4266297323208
 21
-136.0394918999798
 31
0.0
  0
LINE
  5
1B2
330
1F
100
AcDbEntity
  8
LAYER-006
  6
Continuous
 62
     1
100
AcDbLine
 10
-200.2496855190335
 20
-131.0947519166246
 30
0.0
 11
-181.0201411393427
 21
-131.0947519166246
 31
0.0
  0
LINE
  5
1B3
330
1F
100
AcDbEntity
  8
LAYER-006
  6
Continuous
 62
     1
100
AcDbLine
 10
-200.2496855190335
 20
-131.0947519166246
 30
0.0
 11
-200.2496855190335
 21
-136.0394918999798
 31
0.0
  0
LINE
  5
1B4
330
1F
100
AcDbEntity
  8
LAYER-006
  6
Continuous
 62
     1
100
AcDbLine
 10
-181.0201411393427
 20
-131.0947519166246
 30
0.0
 11
-181.0201411393427
 21
-136.0394918999798
 31
0.0
  0
LINE
  5
1B5
330
1F
100
AcDbEntity
  8
LAYER-006
  6
Continuous
 62
     1
100
AcDbLine
 10
-69.84319143192312
 20
-131.0947519166246
 30
0.0
 11
-50.61364705220944
 21
-131.0947519166246
 31
0.0
  0
LINE
  5
1B6
330
1F
100
AcDbEntity
  8
LAYER-006
  6
Continuous
 62
     1
100
AcDbLine
 10
-69.84319143192312
 20
-131.0947519166246
 30
0.0
 11
-69.84319143192312
 21
-136.0394918999798
 31
0.0
  0
LINE
  5
1B7
330
1F
100
AcDbEntity
  8
LAYER-006
  6
Continuous
 62
     1
100
AcDbLine
 10
-50.61364705220944
 20
-131.0947519166246
 30
0.0
 11
-50.61364705220944
 21
-136.0394918999798
 31
0.0
  0
LINE
  5
1B8
330
1F
100
AcDbEntity
  8
LAYER-006
  6
HIDDEN
 62
     4
100
AcDbLine
 10
254.585799538604
 20
-131.0947519166246
 30
0.0
 11
260.6293706293707
 21
-131.0947519166246
 31
0.0
  0
LINE
  5
1B9
330
1F
100
AcDbEntity
  8
LAYER-006
  6
HIDDEN
 62
     4
100
AcDbLine
 10
270.518845101925
 20
-131.0947519166246
 30
0.0
 11
276.0130061331422
 21
-131.0947519166246
 31
0.0
  0
LINE
  5
1BA
330
1F
100
AcDbEntity
  8
LAYER-006
  6
HIDDEN
 62
     4
100
AcDbLine
 10
276.0130061331422
 20
-131.0947519166246
 30
0.0
 11
276.0130061331422
 21
-133.8418406734662
 31
0.0
  0
LINE
  5
1BB
330
1F
100
AcDbEntity
  8
LAYER-006
  6
HIDDEN
 62
     4
100
AcDbLine
 10
352.0533926111648
 20
-131.0947519166246
 30
0.0
 11
352.0533926111648
 21
-133.8418406734662
 31
0.0
  0
LINE
  5
1BC
330
1F
100
AcDbEntity
  8
LAYER-006
  6
HIDDEN
 62
     4
100
AcDbLine
 10
357.547553642382
 20
-131.0947519166246
 30
0.0
 11
352.0533926111648
 21
-131.0947519166246
 31
0.0
  0
LINE
  5
1BD
330
1F
100
AcDbEntity
  8
LAYER-006
  6
HIDDEN
 62
     4
100
AcDbLine
 10
373.4805992057037
 20
-131.0947519166246
 30
0.0
 11
367.4370281149369
 21
-131.0947519166246
 31
0.0
  0
LINE
  5
1BE
330
1F
100
AcDbEntity
  8
LAYER-006
  6
Continuous
 62
     1
100
AcDbLine
 10
-330.6561741120344
 20
-133.8418406734662
 30
0.0
 11
-311.4266297323208
 21
-133.8418406734662
 31
0.0
  0
LINE
  5
1BF
330
1F
100
AcDbEntity
  8
LAYER-006
  6
Continuous
 62
     1
100
AcDbLine
 10
-200.2496855190335
 20
-133.8418406734662
 30
0.0
 11
-181.0201411393427
 21
-133.8418406734662
 31
0.0
  0
LINE
  5
1C0
330
1F
100
AcDbEntity
  8
LAYER-006
  6
Continuous
 62
     1
100
AcDbLine
 10
-69.84319143192312
 20
-133.8418406734662
 30
0.0
 11
-50.61364705220944
 21
-133.8418406734662
 31
0.0
  0
LINE
  5
1C1
330
1F
100
AcDbEntity
  8
LAYER-006
  6
Continuous
 62
     1
100
AcDbLine
 10
237.0044963280863
 20
-133.8418406734662
 30
0.0
 11
237.0044963280863
 21
-141.5336474370406
 31
0.0
  0
LINE
  5
1C2
330
1F
100
AcDbEntity
  8
LAYER-006
  6
Continuous
 62
     1
100
AcDbLine
 10
237.0044963280863
 20
-133.8418406734662
 30
0.0
 11
260.6293706293707
 21
-133.8418406734662
 31
0.0
  0
LINE
  5
1C3
330
1F
100
AcDbEntity
  8
LAYER-006
  6
Continuous
 62
     1
100
AcDbLine
 10
270.518845101925
 20
-133.8418406734662
 30
0.0
 11
276.0130061331422
 21
-133.8418406734662
 31
0.0
  0
LINE
  5
1C4
330
1F
100
AcDbEntity
  8
LAYER-006
  6
Continuous
 62
     1
100
AcDbLine
 10
276.0130061331422
 20
-133.8418406734662
 30
0.0
 11
276.0130061331422
 21
-136.0394918999798
 31
0.0
  0
LINE
  5
1C5
330
1F
100
AcDbEntity
  8
LAYER-006
  6
Continuous
 62
     1
100
AcDbLine
 10
352.0533926111648
 20
-133.8418406734662
 30
0.0
 11
352.0533926111648
 21
-136.0394918999798
 31
0.0
  0
LINE
  5
1C6
330
1F
100
AcDbEntity
  8
LAYER-006
  6
Continuous
 62
     1
100
AcDbLine
 10
357.547553642382
 20
-133.8418406734662
 30
0.0
 11
352.0533926111648
 21
-133.8418406734662
 31
0.0
  0
LINE
  5
1C7
330
1F
100
AcDbEntity
  8
LAYER-006
  6
Continuous
 62
     1
100
AcDbLine
 10
391.0619024162214
 20
-133.8418406734662
 30
0.0
 11
391.0619024162214
 21
-141.5336474370406
 31
0.0
  0
LINE
  5
1C8
330
1F
100
AcDbEntity
  8
LAYER-006
  6
Continuous
 62
     1
100
AcDbLine
 10
391.0619024162214
 20
-133.8418406734662
 30
0.0
 11
367.4370281149369
 21
-133.8418406734662
 31
0.0
  0
LINE
  5
1C9
330
1F
100
AcDbEntity
  8
LAYER-006
  6
Continuous
 62
     1
100
AcDbLine
 10
-330.6561741120344
 20
-136.0394918999798
 30
0.0
 11
-311.4266297323208
 21
-136.0394918999798
 31
0.0
  0
LINE
  5
1CA
330
1F
100
AcDbEntity
  8
LAYER-006
  6
Continuous
 62
     1
100
AcDbLine
 10
-328.4585173913656
 20
-136.0394918999798
 30
0.0
 11
-328.4585173913656
 21
-145.9289773608454
 31
0.0
  0
LINE
  5
1CB
330
1F
100
AcDbEntity
  8
LAYER-006
  6
Continuous
 62
     1
100
AcDbLine
 10
-324.6126030212672
 20
-136.0394918999798
 30
0.0
 11
-324.6126030212672
 21
-145.9289773608454
 31
0.0
  0
LINE
  5
1CC
330
1F
100
AcDbEntity
  8
LAYER-006
  6
Continuous
 62
     1
100
AcDbLine
 10
-317.4702063172432
 20
-136.0394918999798
 30
0.0
 11
-317.4702063172432
 21
-145.9289773608454
 31
0.0
  0
LINE
  5
1CD
330
1F
100
AcDbEntity
  8
LAYER-006
  6
Continuous
 62
     1
100
AcDbLine
 10
-313.6242919471448
 20
-136.0394918999798
 30
0.0
 11
-313.6242919471448
 21
-145.9289773608454
 31
0.0
  0
LINE
  5
1CE
330
1F
100
AcDbEntity
  8
LAYER-006
  6
Continuous
 62
     1
100
AcDbLine
 10
-200.2496855190335
 20
-136.0394918999798
 30
0.0
 11
-181.0201411393427
 21
-136.0394918999798
 31
0.0
  0
LINE
  5
1CF
330
1F
100
AcDbEntity
  8
LAYER-006
  6
Continuous
 62
     1
100
AcDbLine
 10
-198.0520287983875
 20
-136.0394918999798
 30
0.0
 11
-198.0520287983875
 21
-145.9289773608454
 31
0.0
  0
LINE
  5
1D0
330
1F
100
AcDbEntity
  8
LAYER-006
  6
Continuous
 62
     1
100
AcDbLine
 10
-194.2061144282891
 20
-136.0394918999798
 30
0.0
 11
-194.2061144282891
 21
-145.9289773608454
 31
0.0
  0
LINE
  5
1D1
330
1F
100
AcDbEntity
  8
LAYER-006
  6
Continuous
 62
     1
100
AcDbLine
 10
-187.0637177242651
 20
-136.0394918999798
 30
0.0
 11
-187.0637177242651
 21
-145.9289773608454
 31
0.0
  0
LINE
  5
1D2
330
1F
100
AcDbEntity
  8
LAYER-006
  6
Continuous
 62
     1
100
AcDbLine
 10
-183.2178033541667
 20
-136.0394918999798
 30
0.0
 11
-183.2178033541667
 21
-145.9289773608454
 31
0.0
  0
LINE
  5
1D3
330
1F
100
AcDbEntity
  8
LAYER-006
  6
Continuous
 62
     1
100
AcDbLine
 10
-69.84319143192312
 20
-136.0394918999798
 30
0.0
 11
-50.61364705220944
 21
-136.0394918999798
 31
0.0
  0
LINE
  5
1D4
330
1F
100
AcDbEntity
  8
LAYER-006
  6
Continuous
 62
     1
100
AcDbLine
 10
-67.6455347112543
 20
-136.0394918999798
 30
0.0
 11
-67.6455347112543
 21
-145.9289773608454
 31
0.0
  0
LINE
  5
1D5
330
1F
100
AcDbEntity
  8
LAYER-006
  6
Continuous
 62
     1
100
AcDbLine
 10
-63.7996203411559
 20
-136.0394918999798
 30
0.0
 11
-63.7996203411559
 21
-145.9289773608454
 31
0.0
  0
LINE
  5
1D6
330
1F
100
AcDbEntity
  8
LAYER-006
  6
Continuous
 62
     1
100
AcDbLine
 10
-56.65722363713189
 20
-136.0394918999798
 30
0.0
 11
-56.65722363713189
 21
-145.9289773608454
 31
0.0
  0
LINE
  5
1D7
330
1F
100
AcDbEntity
  8
LAYER-006
  6
Continuous
 62
     1
100
AcDbLine
 10
-52.81130926703349
 20
-136.0394918999798
 30
0.0
 11
-52.81130926703349
 21
-145.9289773608454
 31
0.0
  0
LINE
  5
1D8
330
1F
100
AcDbEntity
  8
LAYER-006
  6
Continuous
 62
     1
100
AcDbLine
 10
254.585799538604
 20
-136.0394918999798
 30
0.0
 11
249.0916440015423
 21
-141.5336474370406
 31
0.0
  0
LINE
  5
1D9
330
1F
100
AcDbEntity
  8
LAYER-006
  6
Continuous
 62
     1
100
AcDbLine
 10
254.585799538604
 20
-136.0394918999798
 30
0.0
 11
260.6293706293707
 21
-136.0394918999798
 31
0.0
  0
LINE
  5
1DA
330
1F
100
AcDbEntity
  8
LAYER-006
  6
Continuous
 62
     1
100
AcDbLine
 10
257.8822928608407
 20
-136.0394918999798
 30
0.0
 11
257.8822928608407
 21
-145.9289773608454
 31
0.0
  0
LINE
  5
1DB
330
1F
100
AcDbEntity
  8
LAYER-006
  6
Continuous
 62
     1
100
AcDbLine
 10
270.518845101925
 20
-136.0394918999798
 30
0.0
 11
276.0130061331422
 21
-136.0394918999798
 31
0.0
  0
LINE
  5
1DC
330
1F
100
AcDbEntity
  8
LAYER-006
  6
Continuous
 62
     1
100
AcDbLine
 10
272.716518305061
 20
-136.0394918999798
 30
0.0
 11
272.716518305061
 21
-145.9289773608454
 31
0.0
  0
LINE
  5
1DD
330
1F
100
AcDbEntity
  8
LAYER-006
  6
Continuous
 62
     1
100
AcDbLine
 10
355.3498804392467
 20
-136.0394918999798
 30
0.0
 11
355.3498804392467
 21
-145.9289773608454
 31
0.0
  0
LINE
  5
1DE
330
1F
100
AcDbEntity
  8
LAYER-006
  6
Continuous
 62
     1
100
AcDbLine
 10
357.547553642382
 20
-136.0394918999798
 30
0.0
 11
352.0533926111648
 21
-136.0394918999798
 31
0.0
  0
LINE
  5
1DF
330
1F
100
AcDbEntity
  8
LAYER-006
  6
Continuous
 62
     1
100
AcDbLine
 10
370.1841058834668
 20
-136.0394918999798
 30
0.0
 11
370.1841058834668
 21
-145.9289773608454
 31
0.0
  0
LINE
  5
1E0
330
1F
100
AcDbEntity
  8
LAYER-006
  6
Continuous
 62
     1
100
AcDbLine
 10
373.4805992057037
 20
-136.0394918999798
 30
0.0
 11
378.9747547428681
 21
-141.5336474370406
 31
0.0
  0
LINE
  5
1E1
330
1F
100
AcDbEntity
  8
LAYER-006
  6
Continuous
 62
     1
100
AcDbLine
 10
373.4805992057037
 20
-136.0394918999798
 30
0.0
 11
367.4370281149369
 21
-136.0394918999798
 31
0.0
  0
LINE
  5
1E2
330
1F
100
AcDbEntity
  8
LAYER-006
  6
Continuous
 62
     1
100
AcDbLine
 10
237.0044963280863
 20
-141.5336474370406
 30
0.0
 11
249.0916440015423
 21
-141.5336474370406
 31
0.0
  0
LINE
  5
1E3
330
1F
100
AcDbEntity
  8
LAYER-006
  6
Continuous
 62
     1
100
AcDbLine
 10
391.0619024162214
 20
-141.5336474370406
 30
0.0
 11
378.9747547428681
 21
-141.5336474370406
 31
0.0
  0
LINE
  5
1E4
330
1F
100
AcDbEntity
  8
LAYER-006
  6
Continuous
 62
     1
100
AcDbLine
 10
-390.909626600208
 20
-145.9289773608454
 30
0.0
 11
9.090373399791986
 21
-145.9289773608454
 31
0.0
  0
LINE
  5
1E5
330
1F
100
AcDbEntity
  8
LAYER-006
  6
Continuous
 62
     1
100
AcDbLine
 10
9.090373399791986
 20
-145.9289773608454
 30
0.0
 11
9.090373399791986
 21
-159.6643662034982
 31
0.0
  0
LINE
  5
1E6
330
1F
100
AcDbEntity
  8
LAYER-006
  6
Continuous
 62
     1
100
AcDbLine
 10
249.0916440015423
 20
-145.9289773608454
 30
0.0
 11
282.0565772239096
 21
-145.9289773608454
 31
0.0
  0
LINE
  5
1E7
330
1F
100
AcDbEntity
  8
LAYER-006
  6
Continuous
 62
     1
100
AcDbLine
 10
282.0565772239096
 20
-145.9289773608454
 30
0.0
 11
282.0565772239096
 21
-159.6643662034982
 31
0.0
  0
LINE
  5
1E8
330
1F
100
AcDbEntity
  8
LAYER-006
  6
Continuous
 62
     1
100
AcDbLine
 10
346.009821520398
 20
-145.9289773608454
 30
0.0
 11
346.009821520398
 21
-159.6643662034982
 31
0.0
  0
LINE
  5
1E9
330
1F
100
AcDbEntity
  8
LAYER-006
  6
Continuous
 62
     1
100
AcDbLine
 10
378.9747547428681
 20
-145.9289773608454
 30
0.0
 11
346.009821520398
 21
-145.9289773608454
 31
0.0
  0
LINE
  5
1EA
330
1F
100
AcDbEntity
  8
LAYER-006
  6
Continuous
 62
     1
100
AcDbLine
 10
-390.909626600208
 20
-159.6643662034982
 30
0.0
 11
-390.909626600208
 21
-145.9289773608454
 31
0.0
  0
LINE
  5
1EB
330
1F
100
AcDbEntity
  8
LAYER-006
  6
Continuous
 62
     1
100
AcDbLine
 10
-330.6561741120344
 20
-159.6643662034982
 30
0.0
 11
-330.6561741120344
 21
-162.4114439720288
 31
0.0
  0
LINE
  5
1EC
330
1F
100
AcDbEntity
  8
LAYER-006
  6
Continuous
 62
     1
100
AcDbLine
 10
-311.4266297323209
 20
-159.6643662034982
 30
0.0
 11
-311.4266297323209
 21
-162.4114439720288
 31
0.0
  0
LINE
  5
1ED
330
1F
100
AcDbEntity
  8
LAYER-006
  6
Continuous
 62
     1
100
AcDbLine
 10
-200.2496855190335
 20
-159.6643662034982
 30
0.0
 11
-200.2496855190335
 21
-162.4114439720288
 31
0.0
  0
LINE
  5
1EE
330
1F
100
AcDbEntity
  8
LAYER-006
  6
Continuous
 62
     1
100
AcDbLine
 10
-181.0201411393428
 20
-159.6643662034982
 30
0.0
 11
-181.0201411393428
 21
-162.4114439720288
 31
0.0
  0
LINE
  5
1EF
330
1F
100
AcDbEntity
  8
LAYER-006
  6
Continuous
 62
     1
100
AcDbLine
 10
-69.84319143192312
 20
-159.6643662034982
 30
0.0
 11
-69.84319143192312
 21
-162.4114439720288
 31
0.0
  0
LINE
  5
1F0
330
1F
100
AcDbEntity
  8
LAYER-006
  6
Continuous
 62
     1
100
AcDbLine
 10
-50.61364705220956
 20
-159.6643662034982
 30
0.0
 11
-50.61364705220956
 21
-162.4114439720288
 31
0.0
  0
LINE
  5
1F1
330
1F
100
AcDbEntity
  8
LAYER-006
  6
Continuous
 62
     1
100
AcDbLine
 10
9.090373399791986
 20
-159.6643662034982
 30
0.0
 11
-390.909626600208
 21
-159.6643662034982
 31
0.0
  0
LINE
  5
1F2
330
1F
100
AcDbEntity
  8
LAYER-006
  6
Continuous
 62
     1
100
AcDbLine
 10
249.0916440015423
 20
-159.6643662034982
 30
0.0
 11
249.0916440015423
 21
-145.9289773608454
 31
0.0
  0
LINE
  5
1F3
330
1F
100
AcDbEntity
  8
LAYER-006
  6
Continuous
 62
     1
100
AcDbLine
 10
255.5716107378959
 20
-159.6643662034982
 30
0.0
 11
255.5716107378959
 21
-162.2278489723439
 31
0.0
  0
LINE
  5
1F4
330
1F
100
AcDbEntity
  8
LAYER-006
  6
Continuous
 62
     1
100
AcDbLine
 10
274.8011551170246
 20
-159.6643662034982
 30
0.0
 11
274.8011551170246
 21
-162.2278489723439
 31
0.0
  0
LINE
  5
1F5
330
1F
100
AcDbEntity
  8
LAYER-006
  6
Continuous
 62
     1
100
AcDbLine
 10
282.0565772239096
 20
-159.6643662034982
 30
0.0
 11
249.0916440015423
 21
-159.6643662034982
 31
0.0
  0
LINE
  5
1F6
330
1F
100
AcDbEntity
  8
LAYER-006
  6
Continuous
 62
     1
100
AcDbLine
 10
346.009821520398
 20
-159.6643662034982
 30
0.0
 11
378.9747547428681
 21
-159.6643662034982
 31
0.0
  0
LINE
  5
1F7
330
1F
100
AcDbEntity
  8
LAYER-006
  6
Continuous
 62
     1
100
AcDbLine
 10
353.2652436272824
 20
-159.6643662034982
 30
0.0
 11
353.2652436272824
 21
-162.2278489723439
 31
0.0
  0
LINE
  5
1F8
330
1F
100
AcDbEntity
  8
LAYER-006
  6
Continuous
 62
     1
100
AcDbLine
 10
372.4947880064117
 20
-159.6643662034982
 30
0.0
 11
372.4947880064117
 21
-162.2278489723439
 31
0.0
  0
LINE
  5
1F9
330
1F
100
AcDbEntity
  8
LAYER-006
  6
Continuous
 62
     1
100
AcDbLine
 10
378.9747547428681
 20
-159.6643662034982
 30
0.0
 11
378.9747547428681
 21
-145.9289773608454
 31
0.0
  0
LINE
  5
1FA
330
1F
100
AcDbEntity
  8
LAYER-006
  6
Continuous
 62
     1
100
AcDbLine
 10
-330.6561741120344
 20
-162.4114439720288
 30
0.0
 11
-311.4266297323209
 21
-162.4114439720288
 31
0.0
  0
LINE
  5
1FB
330
1F
100
AcDbEntity
  8
LAYER-006
  6
Continuous
 62
     1
100
AcDbLine
 10
-200.2496855190335
 20
-162.4114439720288
 30
0.0
 11
-181.0201411393428
 21
-162.4114439720288
 31
0.0
  0
LINE
  5
1FC
330
1F
100
AcDbEntity
  8
LAYER-006
  6
Continuous
 62
     1
100
AcDbLine
 10
-69.84319143192312
 20
-162.4114439720288
 30
0.0
 11
-50.61364705220956
 21
-162.4114439720288
 31
0.0
  0
LINE
  5
1FD
330
1F
100
AcDbEntity
  8
LAYER-006
  6
Continuous
 62
     1
100
AcDbLine
 10
260.0799550756651
 20
-162.2278489723439
 30
0.0
 11
255.5716107378959
 21
-162.2278489723439
 31
0.0
  0
LINE
  5
1FE
330
1F
100
AcDbEntity
  8
LAYER-006
  6
Continuous
 62
     1
100
AcDbLine
 10
274.8011551170246
 20
-162.2278489723439
 30
0.0
 11
271.0682661497873
 21
-162.2278489723439
 31
0.0
  0
LINE
  5
1FF
330
1F
100
AcDbEntity
  8
LAYER-006
  6
Continuous
 62
     1
100
AcDbLine
 10
353.2652436272824
 20
-162.2278489723439
 30
0.0
 11
356.9981325945203
 21
-162.2278489723439
 31
0.0
  0
LINE
  5
200
330
1F
100
AcDbEntity
  8
LAYER-006
  6
Continuous
 62
     1
100
AcDbLine
 10
367.9864436686426
 20
-162.2278489723439
 30
0.0
 11
372.4947880064117
 21
-162.2278489723439
 31
0.0
  0
LINE
  5
201
330
1F
100
AcDbEntity
  8
LAYER-006
  6
Continuous
 62
     1
100
AcDbLine
 10
-328.4585173913656
 20
-170.9526255350008
 30
0.0
 11
-328.4585173913656
 21
-162.4114439720288
 31
0.0
  0
LINE
  5
202
330
1F
100
AcDbEntity
  8
LAYER-006
  6
Continuous
 62
     1
100
AcDbLine
 10
-328.4585173913656
 20
-170.9526255350008
 30
0.0
 11
-313.6242919471448
 21
-170.9526255350008
 31
0.0
  0
LINE
  5
203
330
1F
100
AcDbEntity
  8
LAYER-006
  6
Continuous
 62
     1
100
AcDbLine
 10
-324.6126030212672
 20
-170.9526255350008
 30
0.0
 11
-324.6126030212672
 21
-162.4114439720288
 31
0.0
  0
LINE
  5
204
330
1F
100
AcDbEntity
  8
LAYER-006
  6
Continuous
 62
     1
100
AcDbLine
 10
-317.4702063172432
 20
-170.9526255350008
 30
0.0
 11
-317.4702063172432
 21
-162.4114439720288
 31
0.0
  0
LINE
  5
205
330
1F
100
AcDbEntity
  8
LAYER-006
  6
Continuous
 62
     1
100
AcDbLine
 10
-313.6242919471448
 20
-170.9526255350008
 30
0.0
 11
-313.6242919471448
 21
-162.4114439720288
 31
0.0
  0
LINE
  5
206
330
1F
100
AcDbEntity
  8
LAYER-006
  6
Continuous
 62
     1
100
AcDbLine
 10
-198.0520287983875
 20
-170.9526255350008
 30
0.0
 11
-198.0520287983875
 21
-162.4114439720288
 31
0.0
  0
LINE
  5
207
330
1F
100
AcDbEntity
  8
LAYER-006
  6
Continuous
 62
     1
100
AcDbLine
 10
-198.0520287983875
 20
-170.9526255350008
 30
0.0
 11
-183.2178033541667
 21
-170.9526255350008
 31
0.0
  0
LINE
  5
208
330
1F
100
AcDbEntity
  8
LAYER-006
  6
Continuous
 62
     1
100
AcDbLine
 10
-194.2061144282891
 20
-170.9526255350008
 30
0.0
 11
-194.2061144282891
 21
-162.4114439720288
 31
0.0
  0
LINE
  5
209
330
1F
100
AcDbEntity
  8
LAYER-006
  6
Continuous
 62
     1
100
AcDbLine
 10
-187.0637177242651
 20
-170.9526255350008
 30
0.0
 11
-187.0637177242651
 21
-162.4114439720288
 31
0.0
  0
LINE
  5
20A
330
1F
100
AcDbEntity
  8
LAYER-006
  6
Continuous
 62
     1
100
AcDbLine
 10
-183.2178033541667
 20
-170.9526255350008
 30
0.0
 11
-183.2178033541667
 21
-162.4114439720288
 31
0.0
  0
LINE
  5
20B
330
1F
100
AcDbEntity
  8
LAYER-006
  6
Continuous
 62
     1
100
AcDbLine
 10
-67.6455347112543
 20
-170.9526255350008
 30
0.0
 11
-67.6455347112543
 21
-162.4114439720288
 31
0.0
  0
LINE
  5
20C
330
1F
100
AcDbEntity
  8
LAYER-006
  6
Continuous
 62
     1
100
AcDbLine
 10
-67.6455347112543
 20
-170.9526255350008
 30
0.0
 11
-52.81130926703349
 21
-170.9526255350008
 31
0.0
  0
LINE
  5
20D
330
1F
100
AcDbEntity
  8
LAYER-006
  6
Continuous
 62
     1
100
AcDbLine
 10
-63.7996203411559
 20
-170.9526255350008
 30
0.0
 11
-63.7996203411559
 21
-162.4114439720288
 31
0.0
  0
LINE
  5
20E
330
1F
100
AcDbEntity
  8
LAYER-006
  6
Continuous
 62
     1
100
AcDbLine
 10
-56.65722363713189
 20
-170.9526255350008
 30
0.0
 11
-56.65722363713189
 21
-162.4114439720288
 31
0.0
  0
LINE
  5
20F
330
1F
100
AcDbEntity
  8
LAYER-006
  6
Continuous
 62
     1
100
AcDbLine
 10
-52.81130926703349
 20
-170.9526255350008
 30
0.0
 11
-52.81130926703349
 21
-162.4114439720288
 31
0.0
  0
LINE
  5
210
330
1F
100
AcDbEntity
  8
LAYER-006
  6
Continuous
 62
     1
100
AcDbLine
 10
257.7692729499701
 20
-170.7690305353159
 30
0.0
 11
257.7692729499701
 21
-162.2278489723439
 31
0.0
  0
LINE
  5
211
330
1F
100
AcDbEntity
  8
LAYER-006
  6
Continuous
 62
     1
100
AcDbLine
 10
260.0799550756651
 20
-170.7690305353159
 30
0.0
 11
257.7692729499701
 21
-170.7690305353159
 31
0.0
  0
LINE
  5
212
330
1F
100
AcDbEntity
  8
LAYER-006
  6
Continuous
 62
     1
100
AcDbLine
 10
272.6034983964976
 20
-170.7690305353159
 30
0.0
 11
272.6034983964976
 21
-162.2278489723439
 31
0.0
  0
LINE
  5
213
330
1F
100
AcDbEntity
  8
LAYER-006
  6
Continuous
 62
     1
100
AcDbLine
 10
272.6034983964976
 20
-170.7690305353159
 30
0.0
 11
271.0682661497873
 21
-170.7690305353159
 31
0.0
  0
LINE
  5
214
330
1F
100
AcDbEntity
  8
LAYER-006
  6
Continuous
 62
     1
100
AcDbLine
 10
355.4629003478101
 20
-170.7690305353159
 30
0.0
 11
355.4629003478101
 21
-162.2278489723439
 31
0.0
  0
LINE
  5
215
330
1F
100
AcDbEntity
  8
LAYER-006
  6
Continuous
 62
     1
100
AcDbLine
 10
355.4629003478101
 20
-170.7690305353159
 30
0.0
 11
356.9981325945203
 21
-170.7690305353159
 31
0.0
  0
LINE
  5
216
330
1F
100
AcDbEntity
  8
LAYER-006
  6
Continuous
 62
     1
100
AcDbLine
 10
367.9864436686426
 20
-170.7690305353159
 30
0.0
 11
370.2971257943376
 21
-170.7690305353159
 31
0.0
  0
LINE
  5
217
330
1F
100
AcDbEntity
  8
LAYER-006
  6
Continuous
 62
     1
100
AcDbLine
 10
370.2971257943376
 20
-170.7690305353159
 30
0.0
 11
370.2971257943376
 21
-162.2278489723439
 31
0.0
  0
LINE
  5
218
330
1F
100
AcDbEntity
  8
LAYER-006
  6
Continuous
 62
     1
100
AcDbLine
 10
-390.909626600208
 20
-191.3157974773602
 30
0.0
 11
9.090373399791986
 21
-191.3157974773602
 31
0.0
  0
LINE
  5
219
330
1F
100
AcDbEntity
  8
LAYER-006
  6
Continuous
 62
     1
100
AcDbLine
 10
9.090373399791986
 20
-191.3157974773602
 30
0.0
 11
9.090373399791986
 21
-431.3157974773602
 31
0.0
  0
LINE
  5
21A
330
1F
100
AcDbEntity
  8
LAYER-007
  6
HIDDEN
 62
     1
100
AcDbLine
 10
-390.909626600208
 20
-197.3157974773602
 30
0.0
 11
9.090373399791986
 21
-197.3157974773602
 31
0.0
  0
LINE
  5
21B
330
1F
100
AcDbEntity
  8
LAYER-007
  6
Continuous
 62
     4
100
AcDbLine
 10
-30.90962660020801
 20
-206.4263120164947
 30
0.0
 11
-30.90962660020801
 21
-225.655856396209
 31
0.0
  0
LINE
  5
21C
330
1F
100
AcDbEntity
  8
LAYER-007
  6
CENTER
 62
     4
100
AcDbLine
 10
-382.909626600208
 20
-207.5251431226689
 30
0.0
 11
-382.909626600208
 21
-225.655856396209
 31
0.0
  0
LINE
  5
21D
330
1F
100
AcDbEntity
  8
LAYER-007
  6
CENTER
 62
     4
100
AcDbLine
 10
1.090373399791986
 20
-207.5251431226689
 30
0.0
 11
1.090373399791986
 21
-225.655856396209
 31
0.0
  0
LINE
  5
21E
330
1F
100
AcDbEntity
  8
LAYER-007
  6
Continuous
 62
     4
100
AcDbLine
 10
-350.909626600208
 20
-208.0745641717685
 30
0.0
 11
-350.909626600208
 21
-225.1064408425024
 31
0.0
  0
LINE
  5
21F
330
1F
100
AcDbEntity
  8
LAYER-006
  6
Continuous
 62
     1
100
AcDbLine
 10
230.7919715616011
 20
-208.6239852196302
 30
0.0
 11
230.7919715616011
 21
-225.1064518308133
 31
0.0
  0
LINE
  5
220
330
1F
100
AcDbEntity
  8
LAYER-006
  6
Continuous
 62
     1
100
AcDbLine
 10
239.0331993721535
 20
-208.6239852196302
 30
0.0
 11
230.7919715616011
 21
-208.6239852196302
 31
0.0
  0
LINE
  5
221
330
1F
100
AcDbEntity
  8
LAYER-006
  6
Continuous
 62
     1
100
AcDbLine
 10
389.0331993721535
 20
-208.6239852196302
 30
0.0
 11
397.2744326777453
 21
-208.6239852196302
 31
0.0
  0
LINE
  5
222
330
1F
100
AcDbEntity
  8
LAYER-006
  6
Continuous
 62
     1
100
AcDbLine
 10
397.2744326777453
 20
-208.6239852196302
 30
0.0
 11
397.2744326777453
 21
-225.1064518308133
 31
0.0
  0
LINE
  5
223
330
1F
100
AcDbEntity
  8
LAYER-006
  6
Continuous
 62
     1
100
AcDbLine
 10
225.2978160245401
 20
-212.4698886013602
 30
0.0
 11
225.2978160245401
 21
-220.7111219070091
 31
0.0
  0
LINE
  5
224
330
1F
100
AcDbEntity
  8
LAYER-006
  6
Continuous
 62
     1
100
AcDbLine
 10
239.0331993721535
 20
-212.4698886013602
 30
0.0
 11
225.2978160245401
 21
-212.4698886013602
 31
0.0
  0
LINE
  5
225
330
1F
100
AcDbEntity
  8
LAYER-006
  6
Continuous
 62
     1
100
AcDbLine
 10
247.7802771398008
 20
-212.4698886013602
 30
0.0
 11
380.2861216036237
 21
-212.4698886013602
 31
0.0
  0
LINE
  5
226
330
1F
100
AcDbEntity
  8
LAYER-006
  6
Continuous
 62
     1
100
AcDbLine
 10
389.0331993721535
 20
-212.4698886013602
 30
0.0
 11
402.7685882148063
 21
-212.4698886013602
 31
0.0
  0
LINE
  5
227
330
1F
100
AcDbEntity
  8
LAYER-006
  6
Continuous
 62
     1
100
AcDbLine
 10
402.7685882148063
 20
-212.4698886013602
 30
0.0
 11
402.7685882148063
 21
-220.7111219070091
 31
0.0
  0
LINE
  5
228
330
1F
100
AcDbEntity
  8
LAYER-007
  6
CENTER
 62
     4
100
AcDbLine
 10
227.8606153624386
 20
-216.3157974773602
 30
0.0
 11
402.4594421341629
 21
-216.3157974773602
 31
0.0
  0
LINE
  5
229
330
1F
100
AcDbEntity
  8
LAYER-007
  6
CENTER
 62
     4
100
AcDbLine
 10
-388.403782137597
 20
-216.3157974773602
 30
0.0
 11
-377.4154710634753
 21
-216.3157974773602
 31
0.0
  0
LINE
  5
22A
330
1F
100
AcDbEntity
  8
LAYER-007
  6
CENTER
 62
     4
100
AcDbLine
 10
-358.052034292543
 20
-216.3157974773602
 30
0.0
 11
-343.2178088483221
 21
-216.3157974773602
 31
0.0
  0
CIRCLE
  5
22B
330
1F
100
AcDbEntity
  8
LAYER-006
  6
Continuous
 62
     5
100
AcDbCircle
 10
-350.909626600208
 20
-216.3157974773602
 30
0.0
 40
3.845903381787253
  0
LINE
  5
22C
330
1F
100
AcDbEntity
  8
LAYER-007
  6
CENTER
 62
     4
100
AcDbLine
 10
-38.05202879838726
 20
-216.3157974773602
 30
0.0
 11
-23.21780335416719
 21
-216.3157974773602
 31
0.0
  0
CIRCLE
  5
22D
330
1F
100
AcDbEntity
  8
LAYER-006
  6
Continuous
 62
     5
100
AcDbCircle
 10
-30.90962660020801
 20
-216.3157974773602
 30
0.0
 40
3.845903381787253
  0
LINE
  5
22E
330
1F
100
AcDbEntity
  8
LAYER-007
  6
CENTER
 62
     4
100
AcDbLine
 10
-4.403782137268877
 20
-216.3157974773602
 30
0.0
 11
6.584528936853531
 21
-216.3157974773602
 31
0.0
  0
LINE
  5
22F
330
1F
100
AcDbEntity
  8
LAYER-006
  6
Continuous
 62
     1
100
AcDbLine
 10
239.0331993721535
 20
-220.7111219070091
 30
0.0
 11
225.2978160245401
 21
-220.7111219070091
 31
0.0
  0
LINE
  5
230
330
1F
100
AcDbEntity
  8
LAYER-006
  6
Continuous
 62
     1
100
AcDbLine
 10
247.7802771398008
 20
-220.7111219070091
 30
0.0
 11
380.2861216036237
 21
-220.7111219070091
 31
0.0
  0
LINE
  5
231
330
1F
100
AcDbEntity
  8
LAYER-006
  6
Continuous
 62
     1
100
AcDbLine
 10
389.0331993721535
 20
-220.7111219070091
 30
0.0
 11
402.7685882148063
 21
-220.7111219070091
 31
0.0
  0
LINE
  5
232
330
1F
100
AcDbEntity
  8
LAYER-006
  6
Continuous
 62
     1
100
AcDbLine
 10
239.0331993721535
 20
-225.1064518308133
 30
0.0
 11
230.7919715616011
 21
-225.1064518308133
 31
0.0
  0
LINE
  5
233
330
1F
100
AcDbEntity
  8
LAYER-006
  6
Continuous
 62
     1
100
AcDbLine
 10
389.0331993721535
 20
-225.1064518308133
 30
0.0
 11
397.2744326777453
 21
-225.1064518308133
 31
0.0
  0
LINE
  5
234
330
1F
100
AcDbEntity
  8
LAYER-006
  6
Continuous
 62
     1
100
AcDbLine
 10
-390.909626600208
 20
-241.3157974773602
 30
0.0
 11
9.090373399791986
 21
-241.3157974773602
 31
0.0
  0
LINE
  5
235
330
1F
100
AcDbEntity
  8
LAYER-006
  6
Continuous
 62
     1
100
AcDbLine
 10
-320.909626600208
 20
-241.3157974773602
 30
0.0
 11
-320.909626600208
 21
-253.0371136107181
 31
0.0
  0
LINE
  5
236
330
1F
100
AcDbEntity
  8
LAYER-006
  6
Continuous
 62
     1
100
AcDbLine
 10
-60.90962660020801
 20
-241.3157974773602
 30
0.0
 11
-60.90962660020801
 21
-253.0371136107181
 31
0.0
  0
LINE
  5
237
330
1F
100
AcDbEntity
  8
LAYER-033
  6
Continuous
 62
     5
100
AcDbLine
 10
-6.909626600208014
 20
-342.8567087179324
 30
0.0
 11
9.090373399791986
 21
-342.8567087179324
 31
0.0
  0
LINE
  5
238
330
1F
100
AcDbEntity
  8
LAYER-033
  6
CENTER
 62
     5
100
AcDbLine
 10
1.090373399791986
 20
-344.9642652834464
 30
0.0
 11
1.090373399791986
 21
-354.4845409950711
 31
0.0
  0
LINE
  5
239
330
1F
100
AcDbEntity
  8
LAYER-033
  6
HIDDEN
 62
     5
100
AcDbLine
 10
245.0331993721535
 20
-342.8567087179324
 30
0.0
 11
247.7802771398008
 21
-342.8567087179324
 31
0.0
  0
LINE
  5
23A
330
1F
100
AcDbEntity
  8
LAYER-033
  6
CENTER
 62
     5
100
AcDbLine
 10
-3.669764456020346
 20
-349.7244031392588
 30
0.0
 11
5.850511255604317
 21
-349.7244031392588
 31
0.0
  0
CIRCLE
  5
23B
330
1F
100
AcDbEntity
  8
LAYER-033
  6
Continuous
 62
     5
100
AcDbCircle
 10
1.090373399791986
 20
-349.7244031392588
 30
0.0
 40
2.670456138506594
  0
LINE
  5
23C
330
1F
100
AcDbEntity
  8
LAYER-033
  6
HIDDEN
 62
     5
100
AcDbLine
 10
245.0331993721535
 20
-356.5920975605852
 30
0.0
 11
247.7802771398008
 21
-356.5920975605852
 31
0.0
  0
LINE
  5
23D
330
1F
100
AcDbEntity
  8
LAYER-033
  6
Continuous
 62
     5
100
AcDbLine
 10
-6.909626600208014
 20
-356.5920975605852
 30
0.0
 11
9.090373399791986
 21
-356.5920975605852
 31
0.0
  0
LINE
  5
23E
330
1F
100
AcDbEntity
  8
LAYER-006
  6
Continuous
 62
     1
100
AcDbLine
 10
-320.909626600208
 20
-370.3274918973798
 30
0.0
 11
-320.909626600208
 21
-381.3157974773602
 31
0.0
  0
LINE
  5
23F
330
1F
100
AcDbEntity
  8
LAYER-006
  6
Continuous
 62
     1
100
AcDbLine
 10
-60.90962660020801
 20
-370.3274918973798
 30
0.0
 11
-60.90962660020801
 21
-381.3157974773602
 31
0.0
  0
LINE
  5
240
330
1F
100
AcDbEntity
  8
LAYER-006
  6
Continuous
 62
     1
100
AcDbLine
 10
-390.909626600208
 20
-381.3157974773602
 30
0.0
 11
9.090373399791986
 21
-381.3157974773602
 31
0.0
  0
LINE
  5
241
330
1F
100
AcDbEntity
  8
LAYER-006
  6
Continuous
 62
     1
100
AcDbLine
 10
-361.8979376743302
 20
-381.3157974773602
 30
0.0
 11
-361.8979376743302
 21
-431.3157974773602
 31
0.0
  0
LINE
  5
242
330
1F
100
AcDbEntity
  8
LAYER-006
  6
Continuous
 62
     1
100
AcDbLine
 10
-339.9213155260857
 20
-381.3157974773602
 30
0.0
 11
-339.9213155260857
 21
-431.3157974773602
 31
0.0
  0
LINE
  5
243
330
1F
100
AcDbEntity
  8
LAYER-006
  6
Continuous
 62
     1
100
AcDbLine
 10
-41.89793767433048
 20
-381.3157974773602
 30
0.0
 11
-41.89793767433048
 21
-431.3157974773602
 31
0.0
  0
LINE
  5
244
330
1F
100
AcDbEntity
  8
LAYER-006
  6
Continuous
 62
     1
100
AcDbLine
 10
-19.92131552608578
 20
-381.3157974773602
 30
0.0
 11
-19.92131552608578
 21
-431.3157974773602
 31
0.0
  0
LINE
  5
245
330
1F
100
AcDbEntity
  8
LAYER-007
  6
CENTER
 62
     4
100
AcDbLine
 10
-382.909626600208
 20
-397.5251541122178
 30
0.0
 11
-382.909626600208
 21
-415.6558673845552
 31
0.0
  0
LINE
  5
246
330
1F
100
AcDbEntity
  8
LAYER-007
  6
CENTER
 62
     4
100
AcDbLine
 10
1.090373399791986
 20
-397.5251541122178
 30
0.0
 11
1.090373399791986
 21
-415.6558673845552
 31
0.0
  0
LINE
  5
247
330
1F
100
AcDbEntity
  8
LAYER-007
  6
CENTER
 62
     4
100
AcDbLine
 10
-30.90962660020801
 20
-398.6239797253602
 30
0.0
 11
-30.90962660020801
 21
-415.1064518308133
 31
0.0
  0
LINE
  5
248
330
1F
100
AcDbEntity
  8
LAYER-006
  6
Continuous
 62
     1
100
AcDbLine
 10
224.7919715607173
 20
-398.6239797254744
 30
0.0
 11
224.7919715607173
 21
-415.1064518308133
 31
0.0
  0
LINE
  5
249
330
1F
100
AcDbEntity
  8
LAYER-006
  6
Continuous
 62
     1
100
AcDbLine
 10
233.0331993721535
 20
-398.6239797254744
 30
0.0
 11
224.7919715607173
 21
-398.6239797254744
 31
0.0
  0
LINE
  5
24A
330
1F
100
AcDbEntity
  8
LAYER-006
  6
Continuous
 62
     1
100
AcDbLine
 10
395.0331993721535
 20
-398.6239797254744
 30
0.0
 11
403.2744326777445
 21
-398.6239797254744
 31
0.0
  0
LINE
  5
24B
330
1F
100
AcDbEntity
  8
LAYER-006
  6
Continuous
 62
     1
100
AcDbLine
 10
403.2744326777445
 20
-398.6239797254744
 30
0.0
 11
403.2744326777445
 21
-415.1064518308133
 31
0.0
  0
LINE
  5
24C
330
1F
100
AcDbEntity
  8
LAYER-007
  6
CENTER
 62
     4
100
AcDbLine
 10
-350.909626600208
 20
-399.7228163270421
 30
0.0
 11
-350.909626600208
 21
-414.0076152293602
 31
0.0
  0
LINE
  5
24D
330
1F
100
AcDbEntity
  8
LAYER-006
  6
Continuous
 62
     1
100
AcDbLine
 10
219.2978160236562
 20
-402.4698940955723
 30
0.0
 11
219.2978160236562
 21
-410.7111274011647
 31
0.0
  0
LINE
  5
24E
330
1F
100
AcDbEntity
  8
LAYER-006
  6
Continuous
 62
     1
100
AcDbLine
 10
233.0331993721535
 20
-402.4698940955723
 30
0.0
 11
219.2978160236562
 21
-402.4698940955723
 31
0.0
  0
LINE
  5
24F
330
1F
100
AcDbEntity
  8
LAYER-006
  6
Continuous
 62
     1
100
AcDbLine
 10
247.7802771398008
 20
-402.4698940955723
 30
0.0
 11
380.2861216036237
 21
-402.4698940955723
 31
0.0
  0
LINE
  5
250
330
1F
100
AcDbEntity
  8
LAYER-006
  6
Continuous
 62
     1
100
AcDbLine
 10
395.0331993721535
 20
-402.4698940955723
 30
0.0
 11
408.7685882148063
 21
-402.4698940955723
 31
0.0
  0
LINE
  5
251
330
1F
100
AcDbEntity
  8
LAYER-006
  6
Continuous
 62
     1
100
AcDbLine
 10
408.7685882148063
 20
-402.4698940955723
 30
0.0
 11
408.7685882148063
 21
-410.7111274011647
 31
0.0
  0
LINE
  5
252
330
1F
100
AcDbEntity
  8
LAYER-007
  6
CENTER
 62
     4
100
AcDbLine
 10
-388.403782137597
 20
-406.3157974773602
 30
0.0
 11
-377.4154710634754
 21
-406.3157974773602
 31
0.0
  0
LINE
  5
253
330
1F
100
AcDbEntity
  8
LAYER-007
  6
CENTER
 62
     4
100
AcDbLine
 10
-358.052034292543
 20
-406.3157974773602
 30
0.0
 11
-343.2178088483221
 21
-406.3157974773602
 31
0.0
  0
CIRCLE
  5
254
330
1F
100
AcDbEntity
  8
LAYER-006
  6
Continuous
 62
     5
100
AcDbCircle
 10
-350.909626600208
 20
-406.3157974773602
 30
0.0
 40
3.845903381787253
  0
LINE
  5
255
330
1F
100
AcDbEntity
  8
LAYER-007
  6
CENTER
 62
     4
100
AcDbLine
 10
-38.05202879838726
 20
-406.3157974773602
 30
0.0
 11
-23.21780335416719
 21
-406.3157974773602
 31
0.0
  0
CIRCLE
  5
256
330
1F
100
AcDbEntity
  8
LAYER-006
  6
Continuous
 62
     5
100
AcDbCircle
 10
-30.90962660020801
 20
-406.3157974773602
 30
0.0
 40
3.845903381787253
  0
LINE
  5
257
330
1F
100
AcDbEntity
  8
LAYER-007
  6
CENTER
 62
     4
100
AcDbLine
 10
-4.403782137268877
 20
-406.3157974773602
 30
0.0
 11
6.584528936853531
 21
-406.3157974773602
 31
0.0
  0
LINE
  5
258
330
1F
100
AcDbEntity
  8
LAYER-007
  6
CENTER
 62
     4
100
AcDbLine
 10
212.8302174569386
 20
-406.3157974773602
 30
0.0
 11
414.6867712278176
 21
-406.3157974773602
 31
0.0
  0
LINE
  5
259
330
1F
100
AcDbEntity
  8
LAYER-006
  6
Continuous
 62
     1
100
AcDbLine
 10
233.0331993721535
 20
-410.7111274011647
 30
0.0
 11
219.2978160236562
 21
-410.7111274011647
 31
0.0
  0
LINE
  5
25A
330
1F
100
AcDbEntity
  8
LAYER-006
  6
Continuous
 62
     1
100
AcDbLine
 10
247.7802771398008
 20
-410.7111274011647
 30
0.0
 11
380.2861216036237
 21
-410.7111274011647
 31
0.0
  0
LINE
  5
25B
330
1F
100
AcDbEntity
  8
LAYER-006
  6
Continuous
 62
     1
100
AcDbLine
 10
395.0331993721535
 20
-410.7111274011647
 30
0.0
 11
408.7685882148063
 21
-410.7111274011647
 31
0.0
  0
LINE
  5
25C
330
1F
100
AcDbEntity
  8
LAYER-006
  6
Continuous
 62
     1
100
AcDbLine
 10
233.0331993721535
 20
-415.1064518308133
 30
0.0
 11
224.7919715607173
 21
-415.1064518308133
 31
0.0
  0
LINE
  5
25D
330
1F
100
AcDbEntity
  8
LAYER-006
  6
Continuous
 62
     1
100
AcDbLine
 10
395.0331993721535
 20
-415.1064518308133
 30
0.0
 11
403.2744326777445
 21
-415.1064518308133
 31
0.0
  0
LINE
  5
25E
330
1F
100
AcDbEntity
  8
LAYER-007
  6
HIDDEN
 62
     1
100
AcDbLine
 10
-390.909626600208
 20
-425.3157974773602
 30
0.0
 11
9.090373399791986
 21
-425.3157974773602
 31
0.0
  0
LINE
  5
25F
330
1F
100
AcDbEntity
  8
LAYER-007
  6
HIDDEN
 62
     1
100
AcDbLine
 10
-356.9055409703062
 20
-425.3157974773602
 30
0.0
 11
-356.9055409703062
 21
-431.3157974773602
 31
0.0
  0
LINE
  5
260
330
1F
100
AcDbEntity
  8
LAYER-007
  6
HIDDEN
 62
     1
100
AcDbLine
 10
-344.9137232184214
 20
-425.3157974773602
 30
0.0
 11
-344.9137232184214
 21
-431.3157974773602
 31
0.0
  0
LINE
  5
261
330
1F
100
AcDbEntity
  8
LAYER-007
  6
HIDDEN
 62
     1
100
AcDbLine
 10
-36.90552998199519
 20
-425.3157974773602
 30
0.0
 11
-36.90552998199519
 21
-431.3157974773602
 31
0.0
  0
LINE
  5
262
330
1F
100
AcDbEntity
  8
LAYER-007
  6
HIDDEN
 62
     1
100
AcDbLine
 10
-24.91371772426487
 20
-425.3157974773602
 30
0.0
 11
-24.91371772426487
 21
-431.3157974773602
 31
0.0
  0
LINE
  5
263
330
1F
100
AcDbEntity
  8
LAYER-006
  6
Continuous
 62
     1
100
AcDbLine
 10
-390.909626600208
 20
-431.3157974773602
 30
0.0
 11
-390.909626600208
 21
-191.3157974773602
 31
0.0
  0
LINE
  5
264
330
1F
100
AcDbEntity
  8
LAYER-006
  6
Continuous
 62
     1
100
AcDbLine
 10
9.090373399791986
 20
-431.3157974773602
 30
0.0
 11
-390.909626600208
 21
-431.3157974773602
 31
0.0
  0
LINE
  5
265
330
1F
100
AcDbEntity
  8
LAYER-007
  6
CENTER
 62
     4
100
AcDbLine
 10
-190.909626600208
 20
-103.3655686884042
 30
0.0
 11
-190.909626600208
 21
-430.16360373349
 31
0.0
  0
LINE
  5
266
330
1F
100
AcDbEntity
  8
LAYER-006
  6
Continuous
 62
     1
100
AcDbLine
 10
2.49738675531961
 20
-94.85373166441963
 30
0.0
 11
2.49738675531961
 21
-145.9289773608454
 31
0.0
  0
LINE
  5
267
330
1F
100
AcDbEntity
  8
LAYER-006
  6
Continuous
 62
     1
100
AcDbLine
 10
-7.392087717234801
 20
-94.85373166441963
 30
0.0
 11
-7.392087717234801
 21
-145.9289773608454
 31
0.0
  0
LINE
  5
268
330
1F
100
AcDbEntity
  8
LAYER-006
  6
Continuous
 62
     1
100
AcDbLine
 10
-375.7552962064337
 20
-94.85373166441963
 30
0.0
 11
-375.7552962064337
 21
-145.9289773608454
 31
0.0
  0
LINE
  5
269
330
1F
100
AcDbEntity
  8
LAYER-006
  6
Continuous
 62
     1
100
AcDbLine
 10
-385.6447706789883
 20
-94.85373166441963
 30
0.0
 11
-385.6447706789883
 21
-145.9289773608454
 31
0.0
  0
LINE
  5
26A
330
1F
100
AcDbEntity
  8
LAYER-006
  6
Continuous
 62
     1
100
AcDbLine
 10
-374.4271599890246
 20
-159.6643662034982
 30
0.0
 11
-374.4271599890246
 21
-191.3157974773602
 31
0.0
  0
LINE
  5
26B
330
1F
100
AcDbEntity
  8
LAYER-006
  6
Continuous
 62
     1
100
AcDbLine
 10
-385.4154710631468
 20
-159.6643662034982
 30
0.0
 11
-385.4154710631468
 21
-191.3157974773602
 31
0.0
  0
LINE
  5
26C
330
1F
100
AcDbEntity
  8
LAYER-006
  6
Continuous
 62
     1
100
AcDbLine
 10
3.596217862730839
 20
-159.6643662034982
 30
0.0
 11
3.596217862730839
 21
-191.3157974773602
 31
0.0
  0
LINE
  5
26D
330
1F
100
AcDbEntity
  8
LAYER-006
  6
Continuous
 62
     1
100
AcDbLine
 10
-7.392093211391398
 20
-159.6643662034982
 30
0.0
 11
-7.392093211391398
 21
-191.3157974773602
 31
0.0
  0
LINE
  5
26E
330
1F
100
AcDbEntity
  8
LAYER-006
  6
Continuous
 62
     1
100
AcDbLine
 10
-6.909626600208014
 20
-241.3157974773602
 30
0.0
 11
-6.909626600208014
 21
-381.3157974773602
 31
0.0
  0
LINE
  5
26F
330
1F
100
AcDbEntity
  8
LAYER-006
  6
Continuous
 62
     1
100
AcDbLine
 10
-45.90962660020801
 20
-253.0371136107181
 30
0.0
 11
-45.90962660020801
 21
-370.3274918973938
 31
0.0
  0
LINE
  5
270
330
1F
100
AcDbEntity
  8
LAYER-006
  6
Continuous
 62
     1
100
AcDbLine
 10
-139.239626600208
 20
-253.0371136107181
 30
0.0
 11
-139.239626600208
 21
-370.3274918973938
 31
0.0
  0
LINE
  5
271
330
1F
100
AcDbEntity
  8
LAYER-006
  6
Continuous
 62
     1
100
AcDbLine
 10
-144.239626600208
 20
-253.0371136107181
 30
0.0
 11
-144.239626600208
 21
-370.3274918973938
 31
0.0
  0
LINE
  5
272
330
1F
100
AcDbEntity
  8
LAYER-006
  6
Continuous
 62
     1
100
AcDbLine
 10
-237.579626600208
 20
-253.0371136107181
 30
0.0
 11
-237.579626600208
 21
-370.3274918973938
 31
0.0
  0
LINE
  5
273
330
1F
100
AcDbEntity
  8
LAYER-006
  6
Continuous
 62
     1
100
AcDbLine
 10
-242.579626600208
 20
-253.0371136107181
 30
0.0
 11
-242.579626600208
 21
-370.3274918973938
 31
0.0
  0
LINE
  5
274
330
1F
100
AcDbEntity
  8
LAYER-006
  6
Continuous
 62
     1
100
AcDbLine
 10
-335.909626600208
 20
-370.3274918973938
 30
0.0
 11
-335.909626600208
 21
-253.0371136107181
 31
0.0
  0
LINE
  5
275
330
1F
100
AcDbEntity
  8
LAYER-006
  6
Continuous
 62
     1
100
AcDbLine
 10
-374.909626600208
 20
-241.3157974773602
 30
0.0
 11
-374.909626600208
 21
-381.3157974773602
 31
0.0
  0
LINE
  5
276
330
1F
100
AcDbEntity
  8
LAYER-033
  6
CENTER
 62
     4
100
AcDbLine
 10
-30.90962660020801
 20
-419.9845982770416
 30
0.0
 11
-30.90962660020801
 21
-438.8608596539461
 31
0.0
  0
LINE
  5
277
330
1F
100
AcDbEntity
  8
LAYER-033
  6
CENTER
 62
     4
100
AcDbLine
 10
-350.909626600208
 20
-419.9845982770416
 30
0.0
 11
-350.909626600208
 21
-438.8608596539461
 31
0.0
  0
LINE
  5
278
330
1F
100
AcDbEntity
  8
LAYER-007
  6
CENTER
 62
     4
100
AcDbLine
 10
314.0331993721535
 20
-173.0873026227436
 30
0.0
 11
314.0331993721535
 21
-431.3157974773602
 31
0.0
  0
LINE
  5
279
330
1F
100
AcDbEntity
  8
LAYER-033
  6
Continuous
 62
     1
100
AcDbLine
 10
239.0331993721535
 20
-381.3157974773602
 30
0.0
 11
239.0331993721535
 21
-431.3157974773602
 31
0.0
  0
LINE
  5
27A
330
1F
100
AcDbEntity
  8
LAYER-033
  6
Continuous
 62
     1
100
AcDbLine
 10
239.0331993721535
 20
-431.3157974773602
 30
0.0
 11
189.0331993721535
 21
-431.3157974773602
 31
0.0
  0
LINE
  5
27B
330
1F
100
AcDbEntity
  8
LAYER-033
  6
Continuous
 62
     1
100
AcDbLine
 10
239.0331993721535
 20
-381.3157974773602
 30
0.0
 11
233.0331993721535
 21
-381.3157974773602
 31
0.0
  0
LINE
  5
27C
330
1F
100
AcDbEntity
  8
LAYER-033
  6
Continuous
 62
     1
100
AcDbLine
 10
189.0331993721535
 20
-425.3157974773602
 30
0.0
 11
189.0331993721535
 21
-431.3157974773602
 31
0.0
  0
LINE
  5
27D
330
1F
100
AcDbEntity
  8
LAYER-033
  6
Continuous
 62
     1
100
AcDbLine
 10
233.0331993721535
 20
-425.3157974773602
 30
0.0
 11
189.0331993721535
 21
-425.3157974773602
 31
0.0
  0
LINE
  5
27E
330
1F
100
AcDbEntity
  8
LAYER-033
  6
Continuous
 62
     1
100
AcDbLine
 10
233.0331993721535
 20
-381.3157974773602
 30
0.0
 11
233.0331993721535
 21
-425.3157974773602
 31
0.0
  0
LINE
  5
27F
330
1F
100
AcDbEntity
  8
LAYER-033
  6
HIDDEN
 62
     4
100
AcDbLine
 10
199.0331993721535
 20
-425.3157974773602
 30
0.0
 11
199.0331993721535
 21
-431.3157974773602
 31
0.0
  0
LINE
  5
280
330
1F
100
AcDbEntity
  8
LAYER-033
  6
HIDDEN
 62
     4
100
AcDbLine
 10
219.0331993721535
 20
-425.3157974773602
 30
0.0
 11
219.0331993721535
 21
-431.3157974773602
 31
0.0
  0
LINE
  5
281
330
1F
100
AcDbEntity
  8
LAYER-033
  6
CENTER
 62
     4
100
AcDbLine
 10
209.0331993721535
 20
-420.6032877977814
 30
0.0
 11
209.0331993721535
 21
-438.0741112886718
 31
0.0
  0
LINE
  5
282
330
1F
100
AcDbEntity
  8
LAYER-033
  6
Continuous
 62
     1
100
AcDbLine
 10
239.0331993721535
 20
-381.3157974773602
 30
0.0
 11
239.0331993721535
 21
-431.3157974773602
 31
0.0
  0
LINE
  5
283
330
1F
100
AcDbEntity
  8
LAYER-033
  6
Continuous
 62
     1
100
AcDbLine
 10
239.0331993721535
 20
-431.3157974773602
 30
0.0
 11
289.0331993721535
 21
-431.3157974773602
 31
0.0
  0
LINE
  5
284
330
1F
100
AcDbEntity
  8
LAYER-033
  6
Continuous
 62
     1
100
AcDbLine
 10
289.0331993721535
 20
-425.3157974773602
 30
0.0
 11
289.0331993721535
 21
-431.3157974773602
 31
0.0
  0
LINE
  5
285
330
1F
100
AcDbEntity
  8
LAYER-033
  6
Continuous
 62
     1
100
AcDbLine
 10
239.0331993721535
 20
-381.3157974773602
 30
0.0
 11
245.0331993721535
 21
-381.3157974773602
 31
0.0
  0
LINE
  5
286
330
1F
100
AcDbEntity
  8
LAYER-033
  6
Continuous
 62
     1
100
AcDbLine
 10
245.0331993721535
 20
-381.3157974773602
 30
0.0
 11
245.0331993721535
 21
-425.3157974773602
 31
0.0
  0
LINE
  5
287
330
1F
100
AcDbEntity
  8
LAYER-033
  6
Continuous
 62
     1
100
AcDbLine
 10
245.0331993721535
 20
-425.3157974773602
 30
0.0
 11
289.0331993721535
 21
-425.3157974773602
 31
0.0
  0
LINE
  5
288
330
1F
100
AcDbEntity
  8
LAYER-033
  6
Continuous
 62
     1
100
AcDbLine
 10
383.0331993721535
 20
-425.3157974773602
 30
0.0
 11
339.0331993721535
 21
-425.3157974773602
 31
0.0
  0
LINE
  5
289
330
1F
100
AcDbEntity
  8
LAYER-033
  6
Continuous
 62
     1
100
AcDbLine
 10
389.0331993721535
 20
-431.3157974773602
 30
0.0
 11
339.0331993721535
 21
-431.3157974773602
 31
0.0
  0
LINE
  5
28A
330
1F
100
AcDbEntity
  8
LAYER-033
  6
Continuous
 62
     1
100
AcDbLine
 10
339.0331993721535
 20
-425.3157974773602
 30
0.0
 11
339.0331993721535
 21
-431.3157974773602
 31
0.0
  0
LINE
  5
28B
330
1F
100
AcDbEntity
  8
LAYER-033
  6
Continuous
 62
     1
100
AcDbLine
 10
383.0331993721535
 20
-381.3157974773602
 30
0.0
 11
383.0331993721535
 21
-425.3157974773602
 31
0.0
  0
LINE
  5
28C
330
1F
100
AcDbEntity
  8
LAYER-033
  6
Continuous
 62
     1
100
AcDbLine
 10
389.0331993721535
 20
-381.3157974773602
 30
0.0
 11
389.0331993721535
 21
-431.3157974773602
 31
0.0
  0
LINE
  5
28D
330
1F
100
AcDbEntity
  8
LAYER-033
  6
Continuous
 62
     1
100
AcDbLine
 10
389.0331993721535
 20
-381.3157974773602
 30
0.0
 11
383.0331993721535
 21
-381.3157974773602
 31
0.0
  0
LINE
  5
28E
330
1F
100
AcDbEntity
  8
LAYER-033
  6
Continuous
 62
     1
100
AcDbLine
 10
389.0331993721535
 20
-431.3157974773602
 30
0.0
 11
439.0331993721535
 21
-431.3157974773602
 31
0.0
  0
LINE
  5
28F
330
1F
100
AcDbEntity
  8
LAYER-033
  6
HIDDEN
 62
     4
100
AcDbLine
 10
409.0331993721535
 20
-425.3157974773602
 30
0.0
 11
409.0331993721535
 21
-431.3157974773602
 31
0.0
  0
LINE
  5
290
330
1F
100
AcDbEntity
  8
LAYER-033
  6
CENTER
 62
     4
100
AcDbLine
 10
419.0331993721535
 20
-420.6032877977814
 30
0.0
 11
419.0331993721535
 21
-438.0741112886718
 31
0.0
  0
LINE
  5
291
330
1F
100
AcDbEntity
  8
LAYER-033
  6
HIDDEN
 62
     4
100
AcDbLine
 10
429.0331993721535
 20
-425.3157974773602
 30
0.0
 11
429.0331993721535
 21
-431.3157974773602
 31
0.0
  0
LINE
  5
292
330
1F
100
AcDbEntity
  8
LAYER-033
  6
Continuous
 62
     1
100
AcDbLine
 10
439.0331993721535
 20
-425.3157974773602
 30
0.0
 11
439.0331993721535
 21
-431.3157974773602
 31
0.0
  0
LINE
  5
293
330
1F
100
AcDbEntity
  8
LAYER-033
  6
Continuous
 62
     1
100
AcDbLine
 10
389.0331993721535
 20
-381.3157974773602
 30
0.0
 11
389.0331993721535
 21
-431.3157974773602
 31
0.0
  0
LINE
  5
294
330
1F
100
AcDbEntity
  8
LAYER-033
  6
Continuous
 62
     1
100
AcDbLine
 10
395.0331993721535
 20
-381.3157974773602
 30
0.0
 11
395.0331993721535
 21
-425.3157974773602
 31
0.0
  0
LINE
  5
295
330
1F
100
AcDbEntity
  8
LAYER-033
  6
Continuous
 62
     1
100
AcDbLine
 10
389.0331993721535
 20
-381.3157974773602
 30
0.0
 11
395.0331993721535
 21
-381.3157974773602
 31
0.0
  0
LINE
  5
296
330
1F
100
AcDbEntity
  8
LAYER-033
  6
Continuous
 62
     1
100
AcDbLine
 10
395.0331993721535
 20
-425.3157974773602
 30
0.0
 11
439.0331993721535
 21
-425.3157974773602
 31
0.0
  0
LINE
  5
297
330
1F
100
AcDbEntity
  8
LAYER-006
  6
Continuous
 62
     1
100
AcDbLine
 10
419.0331993721535
 20
-253.0371136107181
 30
0.0
 11
419.0331993721535
 21
-370.3274918973938
 31
0.0
  0
LINE
  5
298
330
1F
100
AcDbEntity
  8
LAYER-006
  6
Continuous
 62
     1
100
AcDbLine
 10
209.0331993721535
 20
-370.3274918973938
 30
0.0
 11
209.0331993721535
 21
-253.0371136107181
 31
0.0
  0
LINE
  5
299
330
1F
100
AcDbEntity
  8
LAYER-033
  6
Continuous
 62
     1
100
AcDbLine
 10
389.0331993721535
 20
-191.3157974773602
 30
0.0
 11
339.0331993721535
 21
-191.3157974773602
 31
0.0
  0
LINE
  5
29A
330
1F
100
AcDbEntity
  8
LAYER-033
  6
Continuous
 62
     1
100
AcDbLine
 10
339.0331993721535
 20
-197.3157974773602
 30
0.0
 11
339.0331993721535
 21
-191.3157974773602
 31
0.0
  0
LINE
  5
29B
330
1F
100
AcDbEntity
  8
LAYER-033
  6
Continuous
 62
     1
100
AcDbLine
 10
383.0331993721535
 20
-241.3157974773602
 30
0.0
 11
383.0331993721535
 21
-197.3157974773602
 31
0.0
  0
LINE
  5
29C
330
1F
100
AcDbEntity
  8
LAYER-033
  6
Continuous
 62
     1
100
AcDbLine
 10
389.0331993721535
 20
-241.3157974773602
 30
0.0
 11
389.0331993721535
 21
-191.3157974773602
 31
0.0
  0
LINE
  5
29D
330
1F
100
AcDbEntity
  8
LAYER-033
  6
Continuous
 62
     1
100
AcDbLine
 10
389.0331993721535
 20
-241.3157974773602
 30
0.0
 11
383.0331993721535
 21
-241.3157974773602
 31
0.0
  0
LINE
  5
29E
330
1F
100
AcDbEntity
  8
LAYER-033
  6
Continuous
 62
     1
100
AcDbLine
 10
383.0331993721535
 20
-197.3157974773602
 30
0.0
 11
339.0331993721535
 21
-197.3157974773602
 31
0.0
  0
LINE
  5
29F
330
1F
100
AcDbEntity
  8
LAYER-033
  6
Continuous
 62
     1
100
AcDbLine
 10
239.0331993721535
 20
-191.3157974773602
 30
0.0
 11
289.0331993721535
 21
-191.3157974773602
 31
0.0
  0
LINE
  5
2A0
330
1F
100
AcDbEntity
  8
LAYER-033
  6
Continuous
 62
     1
100
AcDbLine
 10
289.0331993721535
 20
-197.3157974773602
 30
0.0
 11
289.0331993721535
 21
-191.3157974773602
 31
0.0
  0
LINE
  5
2A1
330
1F
100
AcDbEntity
  8
LAYER-033
  6
Continuous
 62
     1
100
AcDbLine
 10
245.0331993721535
 20
-241.3157974773602
 30
0.0
 11
245.0331993721535
 21
-197.3157974773602
 31
0.0
  0
LINE
  5
2A2
330
1F
100
AcDbEntity
  8
LAYER-033
  6
Continuous
 62
     1
100
AcDbLine
 10
239.0331993721535
 20
-241.3157974773602
 30
0.0
 11
239.0331993721535
 21
-191.3157974773602
 31
0.0
  0
LINE
  5
2A3
330
1F
100
AcDbEntity
  8
LAYER-033
  6
Continuous
 62
     1
100
AcDbLine
 10
239.0331993721535
 20
-241.3157974773602
 30
0.0
 11
245.0331993721535
 21
-241.3157974773602
 31
0.0
  0
LINE
  5
2A4
330
1F
100
AcDbEntity
  8
LAYER-033
  6
Continuous
 62
     1
100
AcDbLine
 10
245.0331993721535
 20
-197.3157974773602
 30
0.0
 11
289.0331993721535
 21
-197.3157974773602
 31
0.0
  0
LINE
  5
2A5
330
1F
100
AcDbEntity
  8
LAYER-006
  6
Continuous
 62
     1
100
AcDbLine
 10
247.7802771398008
 20
-197.3157974773602
 30
0.0
 11
247.7802771398008
 21
-425.3157974773602
 31
0.0
  0
LINE
  5
2A6
330
1F
100
AcDbEntity
  8
LAYER-006
  6
Continuous
 62
     1
100
AcDbLine
 10
245.0331993721535
 20
-197.3157974773602
 30
0.0
 11
245.0331993721535
 21
-425.3157974773602
 31
0.0
  0
LINE
  5
2A7
330
1F
100
AcDbEntity
  8
LAYER-006
  6
Continuous
 62
     1
100
AcDbLine
 10
383.0331993721535
 20
-197.3157974773602
 30
0.0
 11
383.0331993721535
 21
-425.3157974773602
 31
0.0
  0
LINE
  5
2A8
330
1F
100
AcDbEntity
  8
LAYER-006
  6
Continuous
 62
     1
100
AcDbLine
 10
380.2861216036237
 20
-425.3157974773602
 30
0.0
 11
380.2861216036237
 21
-197.3157974773602
 31
0.0
  0
LINE
  5
2A9
330
1F
100
AcDbEntity
  8
LAYER-006
  6
Continuous
 62
     1
100
AcDbLine
 10
367.4370281149369
 20
-94.85373166432345
 30
0.0
 11
367.4370281149369
 21
-145.9289773608454
 31
0.0
  0
LINE
  5
2AA
330
1F
100
AcDbEntity
  8
LAYER-006
  6
Continuous
 62
     1
100
AcDbLine
 10
357.547553642382
 20
-94.85373166432345
 30
0.0
 11
357.547553642382
 21
-145.9289773608454
 31
0.0
  0
LINE
  5
2AB
330
1F
100
AcDbEntity
  8
LAYER-006
  6
Continuous
 62
     1
100
AcDbLine
 10
270.518845101925
 20
-94.85373166432345
 30
0.0
 11
270.518845101925
 21
-145.9289773608454
 31
0.0
  0
LINE
  5
2AC
330
1F
100
AcDbEntity
  8
LAYER-006
  6
Continuous
 62
     1
100
AcDbLine
 10
260.6293706293707
 20
-94.85373166432345
 30
0.0
 11
260.6293706293707
 21
-145.9289773608454
 31
0.0
  0
LINE
  5
2AD
330
1F
100
AcDbEntity
  8
LAYER-006
  6
Continuous
 62
     1
100
AcDbLine
 10
367.9864436686426
 20
-159.6643662034982
 30
0.0
 11
367.9864436686426
 21
-191.3157974773602
 31
0.0
  0
LINE
  5
2AE
330
1F
100
AcDbEntity
  8
LAYER-006
  6
Continuous
 62
     1
100
AcDbLine
 10
356.9981325945203
 20
-159.6643662034982
 30
0.0
 11
356.9981325945203
 21
-191.3157974773602
 31
0.0
  0
LINE
  5
2AF
330
1F
100
AcDbEntity
  8
LAYER-006
  6
Continuous
 62
     1
100
AcDbLine
 10
271.0682661497873
 20
-159.6643662034982
 30
0.0
 11
271.0682661497873
 21
-191.3157974773602
 31
0.0
  0
LINE
  5
2B0
330
1F
100
AcDbEntity
  8
LAYER-006
  6
Continuous
 62
     1
100
AcDbLine
 10
260.0799550756651
 20
-159.6643662034982
 30
0.0
 11
260.0799550756651
 21
-191.3157974773602
 31
0.0
  0
LINE
  5
2B1
330
1F
100
AcDbEntity
  8
LAYER-033
  6
Continuous
 62
     1
100
AcDbLine
 10
339.0331993721535
 20
-425.3157974773602
 30
0.0
 11
289.0331993721535
 21
-425.3157974773602
 31
0.0
  0
LINE
  5
2B2
330
1F
100
AcDbEntity
  8
LAYER-033
  6
CENTER
 62
     4
100
AcDbLine
 10
289.0331993721535
 20
-431.3157974773602
 30
0.0
 11
339.0331993721535
 21
-431.3157974773602
 31
0.0
  0
LINE
  5
2B3
330
1F
100
AcDbEntity
  8
LAYER-033
  6
Continuous
 62
     1
100
AcDbLine
 10
339.0331993721535
 20
-197.3157974773602
 30
0.0
 11
312.5793085698275
 21
-197.3157974773602
 31
0.0
  0
ARC
  5
2B4
330
1F
100
AcDbEntity
  8
LAYER-006
  6
Continuous
 62
     1
100
AcDbCircle
 10
439.0331993721535
 20
-163.8418406734662
 30
0.0
 40
30.0
100
AcDbArc
 50
332.0593372072309
 51
90.0
  0
ARC
  5
2B5
330
1F
100
AcDbEntity
  8
LAYER-033
  6
Continuous
 62
     1
100
AcDbCircle
 10
439.0331993721535
 20
-163.8418406734662
 30
0.0
 40
22.30819323642561
100
AcDbArc
 50
332.0593372072311
 51
90.0
  0
LINE
  5
2B6
330
1F
100
AcDbEntity
  8
LAYER-033
  6
Continuous
 62
     1
100
AcDbLine
 10
459.141300961935
 20
-173.6867155675334
 30
0.0
 11
406.8792371276006
 21
-253.0371136107181
 31
0.0
  0
LINE
  5
2B7
330
1F
100
AcDbEntity
  8
LAYER-033
  6
Continuous
 62
     1
100
AcDbLine
 10
465.5361989104132
 20
-177.8985478083185
 30
0.0
 11
416.0481481983271
 21
-253.0371136107181
 31
0.0
  0
ARC
  5
2B8
330
1F
100
AcDbEntity
  8
LAYER-033
  6
Continuous
 62
     1
100
AcDbCircle
 10
189.0331993721535
 20
-163.8418406734662
 30
0.0
 40
22.30819323642561
100
AcDbArc
 50
90.0
 51
207.9406627927691
  0
ARC
  5
2B9
330
1F
100
AcDbEntity
  8
LAYER-006
  6
Continuous
 62
     1
100
AcDbCircle
 10
189.0331993721535
 20
-163.8418406734662
 30
0.0
 40
30.0
100
AcDbArc
 50
90.0
 51
207.9406627927691
  0
LINE
  5
2BA
330
1F
100
AcDbEntity
  8
LAYER-033
  6
Continuous
 62
     1
100
AcDbLine
 10
162.5301998338938
 20
-177.8985478083185
 30
0.0
 11
212.018250546
 21
-253.0371136107181
 31
0.0
  0
LINE
  5
2BB
330
1F
100
AcDbEntity
  8
LAYER-033
  6
Continuous
 62
     1
100
AcDbLine
 10
168.925097782372
 20
-173.6867155675334
 30
0.0
 11
221.1871616167064
 21
-253.0371136107181
 31
0.0
  0
LINE
  5
2BC
330
1F
100
AcDbEntity
  8
LAYER-006
  6
Continuous
 62
     1
100
AcDbLine
 10
-335.909626600208
 20
-253.0371136107181
 30
0.0
 11
-45.90962660020801
 21
-253.0371136107181
 31
0.0
  0
LINE
  5
2BD
330
1F
100
AcDbEntity
  8
LAYER-006
  6
Continuous
 62
     1
100
AcDbLine
 10
-45.90962660020807
 20
-370.3274918973938
 30
0.0
 11
-335.909626600208
 21
-370.3274918973938
 31
0.0
  0
LINE
  5
2BE
330
1F
100
AcDbEntity
  8
LAYER-033
  6
Continuous
 62
     1
100
AcDbLine
 10
320.296542178922
 20
-134.9592145609481
 30
0.0
 11
300.7114908546022
 21
-134.9592145609481
 31
0.0
  0
LINE
  5
2BF
330
1F
100
AcDbEntity
  8
LAYER-006
  6
Continuous
 62
     1
100
AcDbLine
 10
209.0331993721535
 20
-253.0371136107181
 30
0.0
 11
419.0331993721535
 21
-253.0371136107181
 31
0.0
  0
LINE
  5
2C0
330
1F
100
AcDbEntity
  8
LAYER-006
  6
Continuous
 62
     1
100
AcDbLine
 10
419.0331993721535
 20
-370.3274918973938
 30
0.0
 11
209.0331993721535
 21
-370.3274918973938
 31
0.0
  0
LINE
  5
2C1
330
1F
100
AcDbEntity
  8
LAYER-006
  6
Continuous
 62
     1
100
AcDbLine
 10
439.0331993721535
 20
-133.8418406734662
 30
0.0
 11
391.0619024162214
 21
-133.8418406734662
 31
0.0
  0
LINE
  5
2C2
330
1F
100
AcDbEntity
  8
LAYER-033
  6
Continuous
 62
     1
100
AcDbLine
 10
439.0331993721535
 20
-141.5336474370406
 30
0.0
 11
391.0619024162214
 21
-141.5336474370406
 31
0.0
  0
LINE
  5
2C3
330
1F
100
AcDbEntity
  8
LAYER-006
  6
Continuous
 62
     1
100
AcDbLine
 10
189.0331993721535
 20
-133.8418406734662
 30
0.0
 11
237.0044963280856
 21
-133.8418406734662
 31
0.0
  0
LINE
  5
2C4
330
1F
100
AcDbEntity
  8
LAYER-033
  6
Continuous
 62
     1
100
AcDbLine
 10
189.0331993721535
 20
-141.5336474370406
 30
0.0
 11
237.0044963280856
 21
-141.5336474370406
 31
0.0
  0
LINE
  5
2C5
330
1F
100
AcDbEntity
  8
LAYER-033
  6
Continuous
 62
     4
100
AcDbLine
 10
391.0619024162214
 20
-137.377374579399
 30
0.0
 11
394.5974363221542
 21
-133.8418406734662
 31
0.0
  0
LINE
  5
2C6
330
1F
100
AcDbEntity
  8
LAYER-033
  6
Continuous
 62
     4
100
AcDbLine
 10
391.0619024162214
 20
-140.9129084853317
 30
0.0
 11
398.1329702280869
 21
-133.8418406734662
 31
0.0
  0
LINE
  5
2C7
330
1F
100
AcDbEntity
  8
LAYER-033
  6
Continuous
 62
     4
100
AcDbLine
 10
393.97669737
 20
-141.5336474370406
 30
0.0
 11
401.6685041340196
 21
-133.8418406734662
 31
0.0
  0
LINE
  5
2C8
330
1F
100
AcDbEntity
  8
LAYER-033
  6
Continuous
 62
     4
100
AcDbLine
 10
397.5122312761535
 20
-141.5336474370406
 30
0.0
 11
405.2040380399524
 21
-133.8418406734662
 31
0.0
  0
LINE
  5
2C9
330
1F
100
AcDbEntity
  8
LAYER-033
  6
Continuous
 62
     4
100
AcDbLine
 10
401.0477651823107
 20
-141.5336474370406
 30
0.0
 11
408.7395719458851
 21
-133.8418406734662
 31
0.0
  0
LINE
  5
2CA
330
1F
100
AcDbEntity
  8
LAYER-033
  6
Continuous
 62
     4
100
AcDbLine
 10
404.5832990882435
 20
-141.5336474370406
 30
0.0
 11
412.2751058518178
 21
-133.8418406734662
 31
0.0
  0
LINE
  5
2CB
330
1F
100
AcDbEntity
  8
LAYER-033
  6
Continuous
 62
     4
100
AcDbLine
 10
408.1188329765697
 20
-141.5336474370406
 30
0.0
 11
415.8106397577506
 21
-133.8418406734662
 31
0.0
  0
LINE
  5
2CC
330
1F
100
AcDbEntity
  8
LAYER-033
  6
Continuous
 62
     4
100
AcDbLine
 10
411.6543669001089
 20
-141.5336474370406
 30
0.0
 11
419.3461736636833
 21
-133.8418406734662
 31
0.0
  0
LINE
  5
2CD
330
1F
100
AcDbEntity
  8
LAYER-033
  6
Continuous
 62
     4
100
AcDbLine
 10
415.1899008060417
 20
-141.5336474370406
 30
0.0
 11
422.8817075696161
 21
-133.8418406734662
 31
0.0
  0
LINE
  5
2CE
330
1F
100
AcDbEntity
  8
LAYER-033
  6
Continuous
 62
     4
100
AcDbLine
 10
418.7254347119744
 20
-141.5336474370406
 30
0.0
 11
426.4172414755488
 21
-133.8418406734662
 31
0.0
  0
LINE
  5
2CF
330
1F
100
AcDbEntity
  8
LAYER-033
  6
Continuous
 62
     4
100
AcDbLine
 10
422.260968617918
 20
-141.5336474370406
 30
0.0
 11
429.9527753814816
 21
-133.8418406734662
 31
0.0
  0
LINE
  5
2D0
330
1F
100
AcDbEntity
  8
LAYER-033
  6
Continuous
 62
     4
100
AcDbLine
 10
425.7965025238399
 20
-141.5336474370406
 30
0.0
 11
433.4883092874143
 21
-133.8418406734662
 31
0.0
  0
LINE
  5
2D1
330
1F
100
AcDbEntity
  8
LAYER-033
  6
Continuous
 62
     4
100
AcDbLine
 10
429.3320364297726
 20
-141.5336474370406
 30
0.0
 11
437.023843193347
 21
-133.8418406734662
 31
0.0
  0
LINE
  5
2D2
330
1F
100
AcDbEntity
  8
LAYER-033
  6
Continuous
 62
     4
100
AcDbLine
 10
432.8675703357054
 20
-141.5336474370406
 30
0.0
 11
440.5223926895602
 21
-133.8788250831858
 31
0.0
  0
LINE
  5
2D3
330
1F
100
AcDbEntity
  8
LAYER-033
  6
Continuous
 62
     4
100
AcDbLine
 10
436.4031042416381
 20
-141.5336474370406
 30
0.0
 11
443.7256531134633
 21
-134.2110985652154
 31
0.0
  0
LINE
  5
2D4
330
1F
100
AcDbEntity
  8
LAYER-033
  6
Continuous
 62
     4
100
AcDbLine
 10
439.9209665495554
 20
-141.551319035056
 30
0.0
 11
446.6479496081868
 21
-134.8243359764246
 31
0.0
  0
LINE
  5
2D5
330
1F
100
AcDbEntity
  8
LAYER-033
  6
Continuous
 62
     4
100
AcDbLine
 10
443.1002948503016
 20
-141.9075246402426
 30
0.0
 11
449.3399271220276
 21
-135.6678923685166
 31
0.0
  0
LINE
  5
2D6
330
1F
100
AcDbEntity
  8
LAYER-033
  6
Continuous
 62
     4
100
AcDbLine
 10
445.9200580007493
 20
-142.6232953957276
 30
0.0
 11
451.8335947882086
 21
-136.7097586082683
 31
0.0
  0
LINE
  5
2D7
330
1F
100
AcDbEntity
  8
LAYER-033
  6
Continuous
 62
     4
100
AcDbLine
 10
448.457016072055
 20
-143.6218712303547
 30
0.0
 11
454.150014457398
 21
-137.9288728450116
 31
0.0
  0
LINE
  5
2D8
330
1F
100
AcDbEntity
  8
LAYER-033
  6
Continuous
 62
     4
100
AcDbLine
 10
450.7537399710805
 20
-144.8606812372619
 30
0.0
 11
456.3031496056087
 21
-139.3112716027337
 31
0.0
  0
LINE
  5
2D9
330
1F
100
AcDbEntity
  8
LAYER-033
  6
Continuous
 62
     4
100
AcDbLine
 10
452.8345861166258
 20
-146.3153689976494
 30
0.0
 11
458.3019355134081
 21
-140.848019600867
 31
0.0
  0
LINE
  5
2DA
330
1F
100
AcDbEntity
  8
LAYER-033
  6
Continuous
 62
     4
100
AcDbLine
 10
454.7124138537085
 20
-147.9730751664994
 30
0.0
 11
460.1514155768407
 21
-142.5340734433671
 31
0.0
  0
LINE
  5
2DB
330
1F
100
AcDbEntity
  8
LAYER-033
  6
Continuous
 62
     4
100
AcDbLine
 10
456.3914973882405
 20
-149.8295255379001
 30
0.0
 11
461.8533206328131
 21
-144.3677022933275
 31
0.0
  0
LINE
  5
2DC
330
1F
100
AcDbEntity
  8
LAYER-033
  6
Continuous
 62
     4
100
AcDbLine
 10
457.8684023612822
 20
-151.8881544707912
 30
0.0
 11
463.4062577269096
 21
-146.3502991051637
 31
0.0
  0
LINE
  5
2DD
330
1F
100
AcDbEntity
  8
LAYER-033
  6
Continuous
 62
     4
100
AcDbLine
 10
459.1312850360631
 20
-154.160805701943
 30
0.0
 11
464.8055585952789
 21
-148.4865321427272
 31
0.0
  0
LINE
  5
2DE
330
1F
100
AcDbEntity
  8
LAYER-033
  6
Continuous
 62
     4
100
AcDbLine
 10
460.1572508046013
 20
-156.6703738393376
 30
0.0
 11
466.0427476662003
 21
-150.7848769777385
 31
0.0
  0
LINE
  5
2DF
330
1F
100
AcDbEntity
  8
LAYER-033
  6
Continuous
 62
     4
100
AcDbLine
 10
460.9062026234045
 20
-159.456955926467
 30
0.0
 11
467.1044784914851
 21
-153.2586800583864
 31
0.0
  0
LINE
  5
2E0
330
1F
100
AcDbEntity
  8
LAYER-033
  6
Continuous
 62
     4
100
AcDbLine
 10
461.3063712728194
 20
-162.5923211829849
 30
0.0
 11
467.9705923211463
 21
-155.9281001346579
 31
0.0
  0
LINE
  5
2E1
330
1F
100
AcDbEntity
  8
LAYER-033
  6
Continuous
 62
     4
100
AcDbLine
 10
461.2142739653011
 20
-166.2199523964359
 30
0.0
 11
468.6105262509213
 21
-158.8237001108157
 31
0.0
  0
LINE
  5
2E2
330
1F
100
AcDbEntity
  8
LAYER-033
  6
Continuous
 62
     4
100
AcDbLine
 10
460.2568688862098
 20
-170.7128913814599
 30
0.0
 11
468.9762090109953
 21
-161.9935512566744
 31
0.0
  0
LINE
  5
2E3
330
1F
100
AcDbEntity
  8
LAYER-033
  6
Continuous
 62
     4
100
AcDbLine
 10
455.9052957269951
 20
-178.5999984466073
 30
0.0
 11
468.9862808832991
 21
-165.5190132903034
 31
0.0
  0
LINE
  5
2E4
330
1F
100
AcDbEntity
  8
LAYER-033
  6
Continuous
 62
     4
100
AcDbLine
 10
449.0841195979757
 20
-188.9567084815596
 30
0.0
 11
468.483773785402
 21
-169.5570542941332
 31
0.0
  0
LINE
  5
2E5
330
1F
100
AcDbEntity
  8
LAYER-033
  6
Continuous
 62
     4
100
AcDbLine
 10
442.2629434689562
 20
-199.3134185165117
 30
0.0
 11
467.0759210887659
 21
-174.5004408967021
 31
0.0
  0
LINE
  5
2E6
330
1F
100
AcDbEntity
  8
LAYER-033
  6
Continuous
 62
     4
100
AcDbLine
 10
435.4417673399368
 20
-209.6701285514639
 30
0.0
 11
462.3004415380351
 21
-182.8114543533657
 31
0.0
  0
LINE
  5
2E7
330
1F
100
AcDbEntity
  8
LAYER-033
  6
Continuous
 62
     4
100
AcDbLine
 10
428.6205912109173
 20
-220.0268385864161
 30
0.0
 11
455.4792654090156
 21
-193.1681643883179
 31
0.0
  0
LINE
  5
2E8
330
1F
100
AcDbEntity
  8
LAYER-033
  6
Continuous
 62
     4
100
AcDbLine
 10
421.7994150818979
 20
-230.3835486213683
 30
0.0
 11
448.6580892799962
 21
-203.52487442327
 31
0.0
  0
LINE
  5
2E9
330
1F
100
AcDbEntity
  8
LAYER-033
  6
Continuous
 62
     4
100
AcDbLine
 10
414.9782389528785
 20
-240.7402586563205
 30
0.0
 11
441.8369131509767
 21
-213.8815844582222
 31
0.0
  0
LINE
  5
2EA
330
1F
100
AcDbEntity
  8
LAYER-033
  6
Continuous
 62
     4
100
AcDbLine
 10
408.157062823859
 20
-251.0969686912727
 30
0.0
 11
435.0157370219573
 21
-224.2382944931744
 31
0.0
  0
LINE
  5
2EB
330
1F
100
AcDbEntity
  8
LAYER-033
  6
Continuous
 62
     4
100
AcDbLine
 10
409.7524518103463
 20
-253.0371136107181
 30
0.0
 11
428.1945608929253
 21
-234.5950045281456
 31
0.0
  0
LINE
  5
2EC
330
1F
100
AcDbEntity
  8
LAYER-033
  6
Continuous
 62
     4
100
AcDbLine
 10
413.2879857162791
 20
-253.0371136107181
 30
0.0
 11
421.3733847639184
 21
-244.9517145630788
 31
0.0
  0
LINE
  5
2ED
330
1F
100
AcDbEntity
  8
LAYER-033
  6
Continuous
 62
     4
100
AcDbLine
 10
407.6179584890846
 20
-251.9155001539175
 30
0.0
 11
408.7395719458851
 21
-253.0371136107181
 31
0.0
  0
LINE
  5
2EE
330
1F
100
AcDbEntity
  8
LAYER-033
  6
Continuous
 62
     4
100
AcDbLine
 10
409.0218855644117
 20
-249.7838933233119
 30
0.0
 11
412.2751058518178
 21
-253.0371136107181
 31
0.0
  0
LINE
  5
2EF
330
1F
100
AcDbEntity
  8
LAYER-033
  6
Continuous
 62
     4
100
AcDbLine
 10
410.4258126397389
 20
-247.6522864927063
 30
0.0
 11
415.8106397577506
 21
-253.0371136107181
 31
0.0
  0
LINE
  5
2F0
330
1F
100
AcDbEntity
  8
LAYER-033
  6
Continuous
 62
     4
100
AcDbLine
 10
411.829739715066
 20
-245.5206796621008
 30
0.0
 11
417.3577629182319
 21
-251.0487028652666
 31
0.0
  0
LINE
  5
2F1
330
1F
100
AcDbEntity
  8
LAYER-033
  6
Continuous
 62
     4
100
AcDbLine
 10
413.2336667903932
 20
-243.3890728314951
 30
0.0
 11
418.761689993559
 21
-248.917096034661
 31
0.0
  0
LINE
  5
2F2
330
1F
100
AcDbEntity
  8
LAYER-033
  6
Continuous
 62
     4
100
AcDbLine
 10
414.6375938657203
 20
-241.2574660008895
 30
0.0
 11
420.1656170688862
 21
-246.7854892043185
 31
0.0
  0
LINE
  5
2F3
330
1F
100
AcDbEntity
  8
LAYER-033
  6
Continuous
 62
     4
100
AcDbLine
 10
416.0415209410475
 20
-239.125859170284
 30
0.0
 11
421.5695441442133
 21
-244.6538823734498
 31
0.0
  0
LINE
  5
2F4
330
1F
100
AcDbEntity
  8
LAYER-033
  6
Continuous
 62
     4
100
AcDbLine
 10
417.4454480164229
 20
-236.9942523396049
 30
0.0
 11
422.9734712195888
 21
-242.5222755427708
 31
0.0
  0
LINE
  5
2F5
330
1F
100
AcDbEntity
  8
LAYER-033
  6
Continuous
 62
     4
100
AcDbLine
 10
418.8493750917501
 20
-234.862645509
 30
0.0
 11
424.377398294916
 21
-240.3906687121652
 31
0.0
  0
LINE
  5
2F6
330
1F
100
AcDbEntity
  8
LAYER-033
  6
Continuous
 62
     4
100
AcDbLine
 10
420.2533021670772
 20
-232.7310386783937
 30
0.0
 11
425.7813253702431
 21
-238.2590618815596
 31
0.0
  0
LINE
  5
2F7
330
1F
100
AcDbEntity
  8
LAYER-033
  6
Continuous
 62
     4
100
AcDbLine
 10
421.6572292424044
 20
-230.5994318477881
 30
0.0
 11
427.1852524455702
 21
-236.127455050954
 31
0.0
  0
LINE
  5
2F8
330
1F
100
AcDbEntity
  8
LAYER-033
  6
Continuous
 62
     4
100
AcDbLine
 10
423.0611563177315
 20
-228.4678250171826
 30
0.0
 11
428.5891795208974
 21
-233.9958482203484
 31
0.0
  0
LINE
  5
2F9
330
1F
100
AcDbEntity
  8
LAYER-033
  6
Continuous
 62
     4
100
AcDbLine
 10
424.4650833930587
 20
-226.336218186577
 30
0.0
 11
429.9931065962245
 21
-231.8642413897428
 31
0.0
  0
LINE
  5
2FA
330
1F
100
AcDbEntity
  8
LAYER-033
  6
Continuous
 62
     4
100
AcDbLine
 10
425.8690104683858
 20
-224.2046113559714
 30
0.0
 11
431.3970336715516
 21
-229.7326345591372
 31
0.0
  0
LINE
  5
2FB
330
1F
100
AcDbEntity
  8
LAYER-033
  6
Continuous
 62
     4
100
AcDbLine
 10
427.2729375437129
 20
-222.0730045253658
 30
0.0
 11
432.8009607468115
 21
-227.6010277286338
 31
0.0
  0
LINE
  5
2FC
330
1F
100
AcDbEntity
  8
LAYER-033
  6
Continuous
 62
     4
100
AcDbLine
 10
428.6768646190401
 20
-219.9413976947602
 30
0.0
 11
434.2048878222059
 21
-225.469420897926
 31
0.0
  0
LINE
  5
2FD
330
1F
100
AcDbEntity
  8
LAYER-033
  6
Continuous
 62
     4
100
AcDbLine
 10
430.080791694401
 20
-217.8097908641032
 30
0.0
 11
435.6088148975331
 21
-223.3378140673204
 31
0.0
  0
LINE
  5
2FE
330
1F
100
AcDbEntity
  8
LAYER-033
  6
Continuous
 62
     4
100
AcDbLine
 10
431.4847187696944
 20
-215.678184033549
 30
0.0
 11
437.0127419728602
 21
-221.2062072367149
 31
0.0
  0
LINE
  5
2FF
330
1F
100
AcDbEntity
  8
LAYER-033
  6
Continuous
 62
     4
100
AcDbLine
 10
432.8886458450215
 20
-213.5465772029434
 30
0.0
 11
438.4166690481874
 21
-219.0746004061093
 31
0.0
  0
LINE
  5
300
330
1F
100
AcDbEntity
  8
LAYER-033
  6
Continuous
 62
     4
100
AcDbLine
 10
434.2925729203486
 20
-211.4149703723378
 30
0.0
 11
439.8205961235145
 21
-216.9429935755036
 31
0.0
  0
LINE
  5
301
330
1F
100
AcDbEntity
  8
LAYER-033
  6
Continuous
 62
     4
100
AcDbLine
 10
435.6964999956758
 20
-209.283363542
 30
0.0
 11
441.2245231988417
 21
-214.8113867448981
 31
0.0
  0
LINE
  5
302
330
1F
100
AcDbEntity
  8
LAYER-033
  6
Continuous
 62
     4
100
AcDbLine
 10
437.1004270710029
 20
-207.1517567111266
 30
0.0
 11
442.6284502741688
 21
-212.6797799142925
 31
0.0
  0
LINE
  5
303
330
1F
100
AcDbEntity
  8
LAYER-033
  6
Continuous
 62
     4
100
AcDbLine
 10
438.5043541463301
 20
-205.020149880521
 30
0.0
 11
444.032377349496
 21
-210.5481730836869
 31
0.0
  0
LINE
  5
304
330
1F
100
AcDbEntity
  8
LAYER-033
  6
Continuous
 62
     4
100
AcDbLine
 10
439.9082812216572
 20
-202.8885430499154
 30
0.0
 11
445.4363044248231
 21
-208.4165662530813
 31
0.0
  0
LINE
  5
305
330
1F
100
AcDbEntity
  8
LAYER-033
  6
Continuous
 62
     4
100
AcDbLine
 10
441.3122082969844
 20
-200.7569362193098
 30
0.0
 11
446.8402315001502
 21
-206.284959422
 31
0.0
  0
LINE
  5
306
330
1F
100
AcDbEntity
  8
LAYER-033
  6
Continuous
 62
     4
100
AcDbLine
 10
442.7161353723115
 20
-198.6253293887042
 30
0.0
 11
448.2441585754773
 21
-204.1533525918701
 31
0.0
  0
LINE
  5
307
330
1F
100
AcDbEntity
  8
LAYER-033
  6
Continuous
 62
     4
100
AcDbLine
 10
444.120062448
 20
-196.4937225580986
 30
0.0
 11
449.6480856508045
 21
-202.0217457612645
 31
0.0
  0
LINE
  5
308
330
1F
100
AcDbEntity
  8
LAYER-033
  6
Continuous
 62
     4
100
AcDbLine
 10
391.0619024162214
 20
-139.9000286207487
 30
0.0
 11
392.695521233
 21
-141.5336474370406
 31
0.0
  0
LINE
  5
309
330
1F
100
AcDbEntity
  8
LAYER-033
  6
Continuous
 62
     4
100
AcDbLine
 10
445.5239895229658
 20
-194.362115727493
 30
0.0
 11
451.0520127261316
 21
-199.8901389306589
 31
0.0
  0
LINE
  5
30A
330
1F
100
AcDbEntity
  8
LAYER-033
  6
Continuous
 62
     4
100
AcDbLine
 10
391.0619024162214
 20
-136.3644947148159
 30
0.0
 11
396.2310551384461
 21
-141.5336474370406
 31
0.0
  0
LINE
  5
30B
330
1F
100
AcDbEntity
  8
LAYER-033
  6
Continuous
 62
     4
100
AcDbLine
 10
446.9279165982929
 20
-192.2305088968874
 30
0.0
 11
452.4559398014588
 21
-197.7585321000533
 31
0.0
  0
LINE
  5
30C
330
1F
100
AcDbEntity
  8
LAYER-033
  6
Continuous
 62
     4
100
AcDbLine
 10
392.0747822808044
 20
-133.8418406734662
 30
0.0
 11
399.7665890443788
 21
-141.5336474370406
 31
0.0
  0
LINE
  5
30D
330
1F
100
AcDbEntity
  8
LAYER-033
  6
Continuous
 62
     4
100
AcDbLine
 10
448.3318436736201
 20
-190.0989020662818
 30
0.0
 11
453.8598668767859
 21
-195.6269252694477
 31
0.0
  0
LINE
  5
30E
330
1F
100
AcDbEntity
  8
LAYER-033
  6
Continuous
 62
     4
100
AcDbLine
 10
395.6103161867372
 20
-133.8418406734662
 30
0.0
 11
403.3021229503116
 21
-141.5336474370406
 31
0.0
  0
LINE
  5
30F
330
1F
100
AcDbEntity
  8
LAYER-033
  6
Continuous
 62
     4
100
AcDbLine
 10
449.7357707489472
 20
-187.9672952356762
 30
0.0
 11
455.2637939521131
 21
-193.4953184388421
 31
0.0
  0
LINE
  5
310
330
1F
100
AcDbEntity
  8
LAYER-033
  6
Continuous
 62
     4
100
AcDbLine
 10
399.1458500926699
 20
-133.8418406734662
 30
0.0
 11
406.8376568562443
 21
-141.5336474370406
 31
0.0
  0
LINE
  5
311
330
1F
100
AcDbEntity
  8
LAYER-033
  6
Continuous
 62
     4
100
AcDbLine
 10
451.1396978242743
 20
-185.8356884050706
 30
0.0
 11
456.6677210274402
 21
-191.3637116082365
 31
0.0
  0
LINE
  5
312
330
1F
100
AcDbEntity
  8
LAYER-033
  6
Continuous
 62
     4
100
AcDbLine
 10
402.6813839986027
 20
-133.8418406734662
 30
0.0
 11
410.3731907621771
 21
-141.5336474370406
 31
0.0
  0
LINE
  5
313
330
1F
100
AcDbEntity
  8
LAYER-033
  6
Continuous
 62
     4
100
AcDbLine
 10
452.5436248996015
 20
-183.7040815744651
 30
0.0
 11
458.0716481027674
 21
-189.2321047776309
 31
0.0
  0
LINE
  5
314
330
1F
100
AcDbEntity
  8
LAYER-033
  6
Continuous
 62
     4
100
AcDbLine
 10
406.2169179045354
 20
-133.8418406734662
 30
0.0
 11
413.9087246681098
 21
-141.5336474370406
 31
0.0
  0
LINE
  5
315
330
1F
100
AcDbEntity
  8
LAYER-033
  6
Continuous
 62
     4
100
AcDbLine
 10
453.9475519749286
 20
-181.5724747438595
 30
0.0
 11
459.4755751780945
 21
-187.1004979470253
 31
0.0
  0
LINE
  5
316
330
1F
100
AcDbEntity
  8
LAYER-033
  6
Continuous
 62
     4
100
AcDbLine
 10
409.7524518104681
 20
-133.8418406734662
 30
0.0
 11
417.4442585740425
 21
-141.5336474370406
 31
0.0
  0
LINE
  5
317
330
1F
100
AcDbEntity
  8
LAYER-033
  6
Continuous
 62
     4
100
AcDbLine
 10
455.3514790502558
 20
-179.4408679132539
 30
0.0
 11
460.8795022534217
 21
-184.9688911164197
 31
0.0
  0
LINE
  5
318
330
1F
100
AcDbEntity
  8
LAYER-033
  6
Continuous
 62
     4
100
AcDbLine
 10
413.2879857164008
 20
-133.8418406734662
 30
0.0
 11
420.9797924799752
 21
-141.5336474370406
 31
0.0
  0
LINE
  5
319
330
1F
100
AcDbEntity
  8
LAYER-033
  6
Continuous
 62
     4
100
AcDbLine
 10
456.7554061255829
 20
-177.3092610826483
 30
0.0
 11
462.2834293287488
 21
-182.8372842858141
 31
0.0
  0
LINE
  5
31A
330
1F
100
AcDbEntity
  8
LAYER-033
  6
Continuous
 62
     4
100
AcDbLine
 10
416.8235196223336
 20
-133.8418406734662
 30
0.0
 11
424.515326385908
 21
-141.5336474370406
 31
0.0
  0
LINE
  5
31B
330
1F
100
AcDbEntity
  8
LAYER-033
  6
Continuous
 62
     4
100
AcDbLine
 10
458.1593332009101
 20
-175.1776542520427
 30
0.0
 11
463.687356404076
 21
-180.7056774552085
 31
0.0
  0
LINE
  5
31C
330
1F
100
AcDbEntity
  8
LAYER-033
  6
Continuous
 62
     4
100
AcDbLine
 10
420.3590535282663
 20
-133.8418406734662
 30
0.0
 11
428.0508602918407
 21
-141.5336474370406
 31
0.0
  0
LINE
  5
31D
330
1F
100
AcDbEntity
  8
LAYER-033
  6
Continuous
 62
     4
100
AcDbLine
 10
459.4188639553571
 20
-172.901651100557
 30
0.0
 11
465.0912834794031
 21
-178.5740706246029
 31
0.0
  0
LINE
  5
31E
330
1F
100
AcDbEntity
  8
LAYER-033
  6
Continuous
 62
     4
100
AcDbLine
 10
423.8945874341991
 20
-133.8418406734662
 30
0.0
 11
431.5863941977735
 21
-141.5336474370406
 31
0.0
  0
LINE
  5
31F
330
1F
100
AcDbEntity
  8
LAYER-033
  6
Continuous
 62
     4
100
AcDbLine
 10
460.378365328
 20
-170.3256185675355
 30
0.0
 11
466.3330852895445
 21
-176.2803385288117
 31
0.0
  0
LINE
  5
320
330
1F
100
AcDbEntity
  8
LAYER-033
  6
Continuous
 62
     4
100
AcDbLine
 10
427.43012134
 20
-133.8418406734662
 30
0.0
 11
435.1219281037062
 21
-141.5336474370406
 31
0.0
  0
LINE
  5
321
330
1F
100
AcDbEntity
  8
LAYER-033
  6
Continuous
 62
     4
100
AcDbLine
 10
461.0463417124173
 20
-167.4580610457517
 30
0.0
 11
467.3467935109496
 21
-173.758512844284
 31
0.0
  0
LINE
  5
322
330
1F
100
AcDbEntity
  8
LAYER-033
  6
Continuous
 62
     4
100
AcDbLine
 10
430.9656552460646
 20
-133.8418406734662
 30
0.0
 11
438.657462009639
 21
-141.5336474370406
 31
0.0
  0
LINE
  5
323
330
1F
100
AcDbEntity
  8
LAYER-033
  6
Continuous
 62
     4
100
AcDbLine
 10
461.3382803186329
 20
-164.2144657460345
 30
0.0
 11
468.1582225564468
 21
-171.0344079838484
 31
0.0
  0
LINE
  5
324
330
1F
100
AcDbEntity
  8
LAYER-033
  6
Continuous
 62
     4
100
AcDbLine
 10
434.5011891519973
 20
-133.8418406734662
 30
0.0
 11
442.4573544739644
 21
-141.7980059954333
 31
0.0
  0
LINE
  5
325
330
1F
100
AcDbEntity
  8
LAYER-033
  6
Continuous
 62
     4
100
AcDbLine
 10
461.0770340501865
 20
-160.4176855716553
 30
0.0
 11
468.7332006909155
 21
-168.0738522123844
 31
0.0
  0
LINE
  5
326
330
1F
100
AcDbEntity
  8
LAYER-033
  6
Continuous
 62
     4
100
AcDbLine
 10
438.03672305793
 20
-133.8418406734662
 30
0.0
 11
447.3279775523436
 21
-143.1330951678798
 31
0.0
  0
LINE
  5
327
330
1F
100
AcDbEntity
  8
LAYER-033
  6
Continuous
 62
     4
100
AcDbLine
 10
459.74194487774
 20
-155.5470624932761
 30
0.0
 11
469.0171737007348
 21
-164.822291316271
 31
0.0
  0
LINE
  5
328
330
1F
100
AcDbEntity
  8
LAYER-033
  6
Continuous
 62
     4
100
AcDbLine
 10
441.690144549868
 20
-133.9597282594715
 30
0.0
 11
468.9153117861483
 21
-161.1848954957517
 31
0.0
  0
LINE
  5
329
330
1F
100
AcDbEntity
  8
LAYER-033
  6
Continuous
 62
     4
100
AcDbLine
 10
445.9055516786832
 20
-134.6396014823539
 30
0.0
 11
468.2354385632658
 21
-156.9694883669365
 31
0.0
  0
LINE
  5
32A
330
1F
100
AcDbEntity
  8
LAYER-033
  6
Continuous
 62
     4
100
AcDbLine
 10
451.2382955359705
 20
-136.4368114337084
 30
0.0
 11
466.4382286119113
 21
-151.6367445096492
 31
0.0
  0
LINE
  5
32B
330
1F
100
AcDbEntity
  8
LAYER-033
  6
Continuous
 62
     4
100
AcDbLine
 10
166.3870809761379
 20
-144.1656285991454
 30
0.0
 11
169.3569872978328
 21
-141.1957222774506
 31
0.0
  0
LINE
  5
32C
330
1F
100
AcDbEntity
  8
LAYER-033
  6
Continuous
 62
     4
100
AcDbLine
 10
161.0435168305817
 20
-153.0447266506344
 30
0.0
 11
178.2360853493218
 21
-135.8521581318943
 31
0.0
  0
LINE
  5
32D
330
1F
100
AcDbEntity
  8
LAYER-033
  6
Continuous
 62
     4
100
AcDbLine
 10
159.6034534956141
 20
-158.0203238915347
 30
0.0
 11
183.2116825902222
 21
-134.4120947969267
 31
0.0
  0
LINE
  5
32E
330
1F
100
AcDbEntity
  8
LAYER-033
  6
Continuous
 62
     4
100
AcDbLine
 10
159.0853336678556
 20
-162.073977625226
 30
0.0
 11
187.2653363239134
 21
-133.8939749691681
 31
0.0
  0
LINE
  5
32F
330
1F
100
AcDbEntity
  8
LAYER-033
  6
Continuous
 62
     4
100
AcDbLine
 10
159.0853229555038
 20
-165.6095222435105
 30
0.0
 11
167.8510713976835
 21
-156.8437738013307
 31
0.0
  0
LINE
  5
330
330
1F
100
AcDbEntity
  8
LAYER-033
  6
Continuous
 62
     4
100
AcDbLine
 10
182.0351325000182
 20
-142.6597126989961
 30
0.0
 11
190.8530045255481
 21
-133.8418406734662
 31
0.0
  0
LINE
  5
331
330
1F
100
AcDbEntity
  8
LAYER-033
  6
Continuous
 62
     4
100
AcDbLine
 10
159.4435537723647
 20
-168.7868253325823
 30
0.0
 11
166.8626246665907
 21
-161.3677544383563
 31
0.0
  0
LINE
  5
332
330
1F
100
AcDbEntity
  8
LAYER-033
  6
Continuous
 62
     4
100
AcDbLine
 10
186.5591131370438
 20
-141.6712659679032
 30
0.0
 11
194.3885384314808
 21
-133.8418406734662
 31
0.0
  0
LINE
  5
333
330
1F
100
AcDbEntity
  8
LAYER-033
  6
Continuous
 62
     4
100
AcDbLine
 10
160.0775166236661
 20
-171.6883963872136
 30
0.0
 11
166.7556272096169
 21
-165.0102858012629
 31
0.0
  0
LINE
  5
334
330
1F
100
AcDbEntity
  8
LAYER-033
  6
Continuous
 62
     4
100
AcDbLine
 10
190.2322655738392
 20
-141.5336474370406
 30
0.0
 11
197.9240723374136
 21
-133.8418406734662
 31
0.0
  0
LINE
  5
335
330
1F
100
AcDbEntity
  8
LAYER-033
  6
Continuous
 62
     4
100
AcDbLine
 10
160.9385752205826
 20
-174.3628716962299
 30
0.0
 11
167.1460230852902
 21
-168.1554238315223
 31
0.0
  0
LINE
  5
336
330
1F
100
AcDbEntity
  8
LAYER-033
  6
Continuous
 62
     4
100
AcDbLine
 10
193.7677994797743
 20
-141.5336474370406
 30
0.0
 11
201.4596062433463
 21
-133.8418406734662
 31
0.0
  0
LINE
  5
337
330
1F
100
AcDbEntity
  8
LAYER-033
  6
Continuous
 62
     4
100
AcDbLine
 10
161.9958475704328
 20
-176.8411332523124
 30
0.0
 11
167.8875648589414
 21
-170.9494159638038
 31
0.0
  0
LINE
  5
338
330
1F
100
AcDbEntity
  8
LAYER-033
  6
Continuous
 62
     4
100
AcDbLine
 10
197.3033333857046
 20
-141.5336474370406
 30
0.0
 11
204.995140149279
 21
-133.8418406734662
 31
0.0
  0
LINE
  5
339
330
1F
100
AcDbEntity
  8
LAYER-033
  6
Continuous
 62
     4
100
AcDbLine
 10
163.3020513599788
 20
-179.0704633686991
 30
0.0
 11
168.9073952676885
 21
-173.4651194609895
 31
0.0
  0
LINE
  5
33A
330
1F
100
AcDbEntity
  8
LAYER-033
  6
Continuous
 62
     4
100
AcDbLine
 10
200.8388672916374
 20
-141.5336474370406
 30
0.0
 11
208.5306740552118
 21
-133.8418406734662
 31
0.0
  0
LINE
  5
33B
330
1F
100
AcDbEntity
  8
LAYER-033
  6
Continuous
 62
     4
100
AcDbLine
 10
164.7059784353063
 20
-181.2020701993044
 30
0.0
 11
170.2340016384717
 21
-175.6740469961391
 31
0.0
  0
LINE
  5
33C
330
1F
100
AcDbEntity
  8
LAYER-033
  6
Continuous
 62
     4
100
AcDbLine
 10
204.3744011975701
 20
-141.5336474370406
 30
0.0
 11
212.0662079611445
 21
-133.8418406734662
 31
0.0
  0
LINE
  5
33D
330
1F
100
AcDbEntity
  8
LAYER-033
  6
Continuous
 62
     4
100
AcDbLine
 10
166.1099055106338
 20
-183.3336770299096
 30
0.0
 11
171.6379287137988
 21
-177.8056538267447
 31
0.0
  0
LINE
  5
33E
330
1F
100
AcDbEntity
  8
LAYER-033
  6
Continuous
 62
     4
100
AcDbLine
 10
207.9099351035029
 20
-141.5336474370406
 30
0.0
 11
215.6017418670772
 21
-133.8418406734662
 31
0.0
  0
LINE
  5
33F
330
1F
100
AcDbEntity
  8
LAYER-033
  6
Continuous
 62
     4
100
AcDbLine
 10
167.5138325859613
 20
-185.4652838605149
 30
0.0
 11
173.041855789126
 21
-179.9372606573502
 31
0.0
  0
LINE
  5
340
330
1F
100
AcDbEntity
  8
LAYER-033
  6
Continuous
 62
     4
100
AcDbLine
 10
211.4454690094356
 20
-141.5336474370406
 30
0.0
 11
219.13727577301
 21
-133.8418406734662
 31
0.0
  0
LINE
  5
341
330
1F
100
AcDbEntity
  8
LAYER-033
  6
Continuous
 62
     4
100
AcDbLine
 10
168.9177596612888
 20
-187.5968906911201
 30
0.0
 11
174.4457828644531
 21
-182.0688674879558
 31
0.0
  0
LINE
  5
342
330
1F
100
AcDbEntity
  8
LAYER-033
  6
Continuous
 62
     4
100
AcDbLine
 10
214.9810029153683
 20
-141.5336474370406
 30
0.0
 11
222.6728096789427
 21
-133.8418406734662
 31
0.0
  0
LINE
  5
343
330
1F
100
AcDbEntity
  8
LAYER-033
  6
Continuous
 62
     4
100
AcDbLine
 10
170.3216867366162
 20
-189.7284975217254
 30
0.0
 11
175.8497099397802
 21
-184.2004743185614
 31
0.0
  0
LINE
  5
344
330
1F
100
AcDbEntity
  8
LAYER-033
  6
Continuous
 62
     4
100
AcDbLine
 10
218.5165368213011
 20
-141.5336474370406
 30
0.0
 11
226.2083435848755
 21
-133.8418406734662
 31
0.0
  0
LINE
  5
345
330
1F
100
AcDbEntity
  8
LAYER-033
  6
Continuous
 62
     4
100
AcDbLine
 10
171.7256138119437
 20
-191.8601043523307
 30
0.0
 11
177.2536370151074
 21
-186.332081149167
 31
0.0
  0
LINE
  5
346
330
1F
100
AcDbEntity
  8
LAYER-033
  6
Continuous
 62
     4
100
AcDbLine
 10
222.0520707272338
 20
-141.5336474370406
 30
0.0
 11
229.7438774908082
 21
-133.8418406734662
 31
0.0
  0
LINE
  5
347
330
1F
100
AcDbEntity
  8
LAYER-033
  6
Continuous
 62
     4
100
AcDbLine
 10
173.1295408872712
 20
-193.9917111829359
 30
0.0
 11
178.6575640904345
 21
-188.4636879797726
 31
0.0
  0
LINE
  5
348
330
1F
100
AcDbEntity
  8
LAYER-033
  6
Continuous
 62
     4
100
AcDbLine
 10
225.5876046331665
 20
-141.5336474370406
 30
0.0
 11
233.2794113967409
 21
-133.8418406734662
 31
0.0
  0
LINE
  5
349
330
1F
100
AcDbEntity
  8
LAYER-033
  6
Continuous
 62
     4
100
AcDbLine
 10
174.5334679625987
 20
-196.1233180135412
 30
0.0
 11
180.0614911657617
 21
-190.5952948103782
 31
0.0
  0
LINE
  5
34A
330
1F
100
AcDbEntity
  8
LAYER-033
  6
Continuous
 62
     4
100
AcDbLine
 10
229.1231385390993
 20
-141.5336474370406
 30
0.0
 11
236.8149453026737
 21
-133.8418406734662
 31
0.0
  0
LINE
  5
34B
330
1F
100
AcDbEntity
  8
LAYER-033
  6
Continuous
 62
     4
100
AcDbLine
 10
175.9373950379262
 20
-198.2549248441464
 30
0.0
 11
181.4654182410888
 21
-192.7269016409838
 31
0.0
  0
LINE
  5
34C
330
1F
100
AcDbEntity
  8
LAYER-033
  6
Continuous
 62
     4
100
AcDbLine
 10
232.658672445032
 20
-141.5336474370406
 30
0.0
 11
237.0044963280863
 21
-137.1878235539864
 31
0.0
  0
LINE
  5
34D
330
1F
100
AcDbEntity
  8
LAYER-033
  6
Continuous
 62
     4
100
AcDbLine
 10
177.3413221132537
 20
-200.3865316747517
 30
0.0
 11
182.8693453164159
 21
-194.8585084715894
 31
0.0
  0
LINE
  5
34E
330
1F
100
AcDbEntity
  8
LAYER-033
  6
Continuous
 62
     4
100
AcDbLine
 10
236.1942063509648
 20
-141.5336474370406
 30
0.0
 11
237.0044963280863
 21
-140.7233574599191
 31
0.0
  0
LINE
  5
34F
330
1F
100
AcDbEntity
  8
LAYER-033
  6
Continuous
 62
     4
100
AcDbLine
 10
178.7452491885812
 20
-202.5181385053569
 30
0.0
 11
184.2732723917431
 21
-196.990115302195
 31
0.0
  0
LINE
  5
350
330
1F
100
AcDbEntity
  8
LAYER-033
  6
Continuous
 62
     4
100
AcDbLine
 10
180.1491762639087
 20
-204.6497453359622
 30
0.0
 11
185.6771994670702
 21
-199.1217221328006
 31
0.0
  0
LINE
  5
351
330
1F
100
AcDbEntity
  8
LAYER-033
  6
Continuous
 62
     4
100
AcDbLine
 10
181.5531033392362
 20
-206.7813521665674
 30
0.0
 11
187.0811265423974
 21
-201.2533289634062
 31
0.0
  0
LINE
  5
352
330
1F
100
AcDbEntity
  8
LAYER-033
  6
Continuous
 62
     4
100
AcDbLine
 10
182.9570304145636
 20
-208.9129589971727
 30
0.0
 11
188.4850536177245
 21
-203.3849357940118
 31
0.0
  0
LINE
  5
353
330
1F
100
AcDbEntity
  8
LAYER-033
  6
Continuous
 62
     4
100
AcDbLine
 10
184.3609574898926
 20
-211.0445658277802
 30
0.0
 11
189.8889806930517
 21
-205.5165426246174
 31
0.0
  0
LINE
  5
354
330
1F
100
AcDbEntity
  8
LAYER-033
  6
Continuous
 62
     4
100
AcDbLine
 10
185.7648845652186
 20
-213.1761726583832
 30
0.0
 11
191.2929077683788
 21
-207.648149455223
 31
0.0
  0
LINE
  5
355
330
1F
100
AcDbEntity
  8
LAYER-033
  6
Continuous
 62
     4
100
AcDbLine
 10
187.1688116405461
 20
-215.3077794889884
 30
0.0
 11
192.6968348437059
 21
-209.7797562858286
 31
0.0
  0
LINE
  5
356
330
1F
100
AcDbEntity
  8
LAYER-033
  6
Continuous
 62
     4
100
AcDbLine
 10
188.5727387158736
 20
-217.4393863195937
 30
0.0
 11
194.1007619190331
 21
-211.9113631164342
 31
0.0
  0
LINE
  5
357
330
1F
100
AcDbEntity
  8
LAYER-033
  6
Continuous
 62
     4
100
AcDbLine
 10
189.9766657912011
 20
-219.5709931501989
 30
0.0
 11
195.5046889943602
 21
-214.0429699470398
 31
0.0
  0
LINE
  5
358
330
1F
100
AcDbEntity
  8
LAYER-033
  6
Continuous
 62
     4
100
AcDbLine
 10
191.3805928665285
 20
-221.7025999808042
 30
0.0
 11
196.9086160696874
 21
-216.1745767776454
 31
0.0
  0
LINE
  5
359
330
1F
100
AcDbEntity
  8
LAYER-033
  6
Continuous
 62
     4
100
AcDbLine
 10
192.784519941856
 20
-223.8342068114094
 30
0.0
 11
198.3125431450145
 21
-218.306183608251
 31
0.0
  0
LINE
  5
35A
330
1F
100
AcDbEntity
  8
LAYER-033
  6
Continuous
 62
     4
100
AcDbLine
 10
194.1884470171835
 20
-225.9658136420147
 30
0.0
 11
199.7164702203416
 21
-220.4377904388566
 31
0.0
  0
LINE
  5
35B
330
1F
100
AcDbEntity
  8
LAYER-033
  6
Continuous
 62
     4
100
AcDbLine
 10
195.592374092511
 20
-228.0974204726199
 30
0.0
 11
201.1203972956688
 21
-222.5693972694622
 31
0.0
  0
LINE
  5
35C
330
1F
100
AcDbEntity
  8
LAYER-033
  6
Continuous
 62
     4
100
AcDbLine
 10
196.9963011678385
 20
-230.2290273032252
 30
0.0
 11
202.5243243709959
 21
-224.7010041000678
 31
0.0
  0
LINE
  5
35D
330
1F
100
AcDbEntity
  8
LAYER-033
  6
Continuous
 62
     4
100
AcDbLine
 10
198.400228243166
 20
-232.3606341338304
 30
0.0
 11
203.9282514463231
 21
-226.8326109306734
 31
0.0
  0
LINE
  5
35E
330
1F
100
AcDbEntity
  8
LAYER-033
  6
Continuous
 62
     4
100
AcDbLine
 10
199.8041553184935
 20
-234.4922409644357
 30
0.0
 11
205.3321785216502
 21
-228.964217761279
 31
0.0
  0
LINE
  5
35F
330
1F
100
AcDbEntity
  8
LAYER-033
  6
Continuous
 62
     4
100
AcDbLine
 10
201.2080823938209
 20
-236.6238477950409
 30
0.0
 11
206.7361055969773
 21
-231.0958245918845
 31
0.0
  0
LINE
  5
360
330
1F
100
AcDbEntity
  8
LAYER-033
  6
Continuous
 62
     4
100
AcDbLine
 10
202.6120094691484
 20
-238.7554546256462
 30
0.0
 11
208.1400326723045
 21
-233.2274314224901
 31
0.0
  0
LINE
  5
361
330
1F
100
AcDbEntity
  8
LAYER-033
  6
Continuous
 62
     4
100
AcDbLine
 10
204.0159365444759
 20
-240.8870614562514
 30
0.0
 11
209.5439597476316
 21
-235.3590382530957
 31
0.0
  0
LINE
  5
362
330
1F
100
AcDbEntity
  8
LAYER-033
  6
Continuous
 62
     4
100
AcDbLine
 10
205.4198636198034
 20
-243.0186682868567
 30
0.0
 11
210.9478868229588
 21
-237.4906450837013
 31
0.0
  0
LINE
  5
363
330
1F
100
AcDbEntity
  8
LAYER-033
  6
Continuous
 62
     4
100
AcDbLine
 10
206.8237906951309
 20
-245.1502751174619
 30
0.0
 11
212.3518138982859
 21
-239.6222519143069
 31
0.0
  0
LINE
  5
364
330
1F
100
AcDbEntity
  8
LAYER-033
  6
Continuous
 62
     4
100
AcDbLine
 10
208.2277177704584
 20
-247.2818819480672
 30
0.0
 11
213.755740973613
 21
-241.7538587449125
 31
0.0
  0
LINE
  5
365
330
1F
100
AcDbEntity
  8
LAYER-033
  6
Continuous
 62
     4
100
AcDbLine
 10
209.6316448457858
 20
-249.4134887786725
 30
0.0
 11
215.1596680489402
 21
-243.8854655755181
 31
0.0
  0
LINE
  5
366
330
1F
100
AcDbEntity
  8
LAYER-033
  6
Continuous
 62
     4
100
AcDbLine
 10
211.0355719211133
 20
-251.5450956092777
 30
0.0
 11
216.5635951242673
 21
-246.0170724061237
 31
0.0
  0
LINE
  5
367
330
1F
100
AcDbEntity
  8
LAYER-033
  6
Continuous
 62
     4
100
AcDbLine
 10
213.0790878256057
 20
-253.0371136107181
 30
0.0
 11
217.9675221995945
 21
-248.1486792367293
 31
0.0
  0
LINE
  5
368
330
1F
100
AcDbEntity
  8
LAYER-033
  6
Continuous
 62
     4
100
AcDbLine
 10
216.6146217315385
 20
-253.0371136107181
 30
0.0
 11
219.3714492749216
 21
-250.2802860673349
 31
0.0
  0
LINE
  5
369
330
1F
100
AcDbEntity
  8
LAYER-033
  6
Continuous
 62
     4
100
AcDbLine
 10
220.1501556374712
 20
-253.0371136107181
 30
0.0
 11
220.7753763502487
 21
-252.4118928979405
 31
0.0
  0
LINE
  5
36A
330
1F
100
AcDbEntity
  8
LAYER-033
  6
Continuous
 62
     4
100
AcDbLine
 10
211.9257253475637
 20
-252.8966309970155
 30
0.0
 11
212.0662079612663
 21
-253.0371136107181
 31
0.0
  0
LINE
  5
36B
330
1F
100
AcDbEntity
  8
LAYER-033
  6
Continuous
 62
     4
100
AcDbLine
 10
205.1045492185362
 20
-242.5399209620552
 30
0.0
 11
215.601741867199
 21
-253.0371136107181
 31
0.0
  0
LINE
  5
36C
330
1F
100
AcDbEntity
  8
LAYER-033
  6
Continuous
 62
     4
100
AcDbLine
 10
198.2833730895086
 20
-232.1832109270949
 30
0.0
 11
219.1372757731318
 21
-253.0371136107181
 31
0.0
  0
LINE
  5
36D
330
1F
100
AcDbEntity
  8
LAYER-033
  6
Continuous
 62
     4
100
AcDbLine
 10
191.4621969604811
 20
-221.8265008921346
 30
0.0
 11
218.3208711585448
 21
-248.6851750901984
 31
0.0
  0
LINE
  5
36E
330
1F
100
AcDbEntity
  8
LAYER-033
  6
Continuous
 62
     4
100
AcDbLine
 10
184.6410208314535
 20
-211.4697908571743
 30
0.0
 11
211.4996950300069
 21
-238.3284650552462
 31
0.0
  0
LINE
  5
36F
330
1F
100
AcDbEntity
  8
LAYER-033
  6
Continuous
 62
     4
100
AcDbLine
 10
177.8198447024259
 20
-201.113080822214
 30
0.0
 11
204.678518900506
 21
-227.971755020294
 31
0.0
  0
LINE
  5
370
330
1F
100
AcDbEntity
  8
LAYER-033
  6
Continuous
 62
     4
100
AcDbLine
 10
170.9986685733984
 20
-190.7563707872537
 30
0.0
 11
197.8573427714865
 21
-217.6150449853419
 31
0.0
  0
LINE
  5
371
330
1F
100
AcDbEntity
  8
LAYER-033
  6
Continuous
 62
     4
100
AcDbLine
 10
164.1774924443708
 20
-180.3996607522935
 30
0.0
 11
191.0361666424671
 21
-207.2583349503897
 31
0.0
  0
LINE
  5
372
330
1F
100
AcDbEntity
  8
LAYER-033
  6
Continuous
 62
     4
100
AcDbLine
 10
160.5383454732426
 20
-173.2249798752324
 30
0.0
 11
184.2149905134477
 21
-196.9016249154376
 31
0.0
  0
LINE
  5
373
330
1F
100
AcDbEntity
  8
LAYER-033
  6
Continuous
 62
     4
100
AcDbLine
 10
159.4060926834509
 20
-168.557193179508
 30
0.0
 11
177.3938143993577
 21
-186.544914903153
 31
0.0
  0
LINE
  5
374
330
1F
100
AcDbEntity
  8
LAYER-033
  6
Continuous
 62
     4
100
AcDbLine
 10
159.0443557398408
 20
-164.6599223299652
 30
0.0
 11
170.5726382554089
 21
-176.1882048455333
 31
0.0
  0
LINE
  5
375
330
1F
100
AcDbEntity
  8
LAYER-033
  6
Continuous
 62
     4
100
AcDbLine
 10
159.147340512
 20
-161.2273731961722
 30
0.0
 11
167.4668324766285
 21
-169.5468651608202
 31
0.0
  0
LINE
  5
376
330
1F
100
AcDbEntity
  8
LAYER-033
  6
Continuous
 62
     4
100
AcDbLine
 10
159.5825442393522
 20
-158.1270430176719
 30
0.0
 11
166.7739275927325
 21
-165.3184263710521
 31
0.0
  0
LINE
  5
377
330
1F
100
AcDbEntity
  8
LAYER-033
  6
Continuous
 62
     4
100
AcDbLine
 10
160.2786351060903
 20
-155.2875999784165
 30
0.0
 11
166.816335285961
 21
-161.8253001582872
 31
0.0
  0
LINE
  5
378
330
1F
100
AcDbEntity
  8
LAYER-033
  6
Continuous
 62
     4
100
AcDbLine
 10
161.1925704741049
 20
-152.6660014404984
 30
0.0
 11
167.3068156232556
 21
-158.7802465896491
 31
0.0
  0
LINE
  5
379
330
1F
100
AcDbEntity
  8
LAYER-033
  6
Continuous
 62
     4
100
AcDbLine
 10
162.2966687364506
 20
-150.2345657969113
 30
0.0
 11
168.1251617327082
 21
-156.0630587931689
 31
0.0
  0
LINE
  5
37A
330
1F
100
AcDbEntity
  8
LAYER-033
  6
Continuous
 62
     4
100
AcDbLine
 10
163.5725990634595
 20
-147.9749622179875
 30
0.0
 11
169.2091009087383
 21
-153.6114640632663
 31
0.0
  0
LINE
  5
37B
330
1F
100
AcDbEntity
  8
LAYER-033
  6
Continuous
 62
     4
100
AcDbLine
 10
165.0082822496368
 20
-145.8751114982321
 30
0.0
 11
170.5233970027151
 21
-151.3902262513104
 31
0.0
  0
LINE
  5
37C
330
1F
100
AcDbEntity
  8
LAYER-033
  6
Continuous
 62
     4
100
AcDbLine
 10
166.5962010717549
 20
-143.9274964144174
 30
0.0
 11
172.048106998238
 21
-149.3794023409005
 31
0.0
  0
LINE
  5
37D
330
1F
100
AcDbEntity
  8
LAYER-033
  6
Continuous
 62
     4
100
AcDbLine
 10
168.3324820551817
 20
-142.1282434919114
 30
0.0
 11
173.7734964238342
 21
-147.569257860564
 31
0.0
  0
LINE
  5
37E
330
1F
100
AcDbEntity
  8
LAYER-033
  6
Continuous
 62
     4
100
AcDbLine
 10
170.2164607346747
 20
-140.4766882654717
 30
0.0
 11
175.6979307447652
 21
-145.9581582755623
 31
0.0
  0
LINE
  5
37F
330
1F
100
AcDbEntity
  8
LAYER-033
  6
Continuous
 62
     4
100
AcDbLine
 10
172.2506096497382
 20
-138.9753032746025
 30
0.0
 11
177.8275442068912
 21
-144.5522378317555
 31
0.0
  0
LINE
  5
380
330
1F
100
AcDbEntity
  8
LAYER-033
  6
Continuous
 62
     4
100
AcDbLine
 10
174.4408100799636
 20
-137.6299697988952
 30
0.0
 11
180.177516382354
 21
-143.366676101
 31
0.0
  0
LINE
  5
381
330
1F
100
AcDbEntity
  8
LAYER-033
  6
Continuous
 62
     4
100
AcDbLine
 10
176.7970407118501
 20
-136.4506665248489
 30
0.0
 11
182.7756386624106
 21
-142.4292644754094
 31
0.0
  0
LINE
  5
382
330
1F
100
AcDbEntity
  8
LAYER-033
  6
Continuous
 62
     4
100
AcDbLine
 10
179.3346866089183
 20
-135.4527785159844
 30
0.0
 11
185.6704614956224
 21
-141.7885534026858
 31
0.0
  0
LINE
  5
383
330
1F
100
AcDbEntity
  8
LAYER-033
  6
Continuous
 62
     4
100
AcDbLine
 10
182.0769215750871
 20
-134.6594795762204
 30
0.0
 11
188.9512399940957
 21
-141.533797995229
 31
0.0
  0
LINE
  5
384
330
1F
100
AcDbEntity
  8
LAYER-033
  6
Continuous
 62
     4
100
AcDbLine
 10
185.0591935374534
 20
-134.106217632654
 30
0.0
 11
192.48662334184
 21
-141.5336474370406
 31
0.0
  0
LINE
  5
385
330
1F
100
AcDbEntity
  8
LAYER-033
  6
Continuous
 62
     4
100
AcDbLine
 10
188.3383973932424
 20
-133.8498875825102
 30
0.0
 11
196.0221572477728
 21
-141.5336474370406
 31
0.0
  0
LINE
  5
386
330
1F
100
AcDbEntity
  8
LAYER-033
  6
Continuous
 62
     4
100
AcDbLine
 10
191.8658843901311
 20
-133.8418406734662
 30
0.0
 11
199.5576911537055
 21
-141.5336474370406
 31
0.0
  0
LINE
  5
387
330
1F
100
AcDbEntity
  8
LAYER-033
  6
Continuous
 62
     4
100
AcDbLine
 10
195.4014182960638
 20
-133.8418406734662
 30
0.0
 11
203.0932250596382
 21
-141.5336474370406
 31
0.0
  0
LINE
  5
388
330
1F
100
AcDbEntity
  8
LAYER-033
  6
Continuous
 62
     4
100
AcDbLine
 10
198.9369522019966
 20
-133.8418406734662
 30
0.0
 11
206.628758965571
 21
-141.5336474370406
 31
0.0
  0
LINE
  5
389
330
1F
100
AcDbEntity
  8
LAYER-033
  6
Continuous
 62
     4
100
AcDbLine
 10
202.4724861079293
 20
-133.8418406734662
 30
0.0
 11
210.1642928715037
 21
-141.5336474370406
 31
0.0
  0
LINE
  5
38A
330
1F
100
AcDbEntity
  8
LAYER-033
  6
Continuous
 62
     4
100
AcDbLine
 10
206.0080200138621
 20
-133.8418406734662
 30
0.0
 11
213.6998267774364
 21
-141.5336474370406
 31
0.0
  0
LINE
  5
38B
330
1F
100
AcDbEntity
  8
LAYER-033
  6
Continuous
 62
     4
100
AcDbLine
 10
209.5435539197948
 20
-133.8418406734662
 30
0.0
 11
217.2353606833692
 21
-141.5336474370406
 31
0.0
  0
LINE
  5
38C
330
1F
100
AcDbEntity
  8
LAYER-033
  6
Continuous
 62
     4
100
AcDbLine
 10
213.0790878257275
 20
-133.8418406734662
 30
0.0
 11
220.7708945949132
 21
-141.5336474370406
 31
0.0
  0
LINE
  5
38D
330
1F
100
AcDbEntity
  8
LAYER-033
  6
Continuous
 62
     4
100
AcDbLine
 10
216.6146217316603
 20
-133.8418406734662
 30
0.0
 11
224.3064284952347
 21
-141.5336474370406
 31
0.0
  0
LINE
  5
38E
330
1F
100
AcDbEntity
  8
LAYER-033
  6
Continuous
 62
     4
100
AcDbLine
 10
220.150155637593
 20
-133.8418406734662
 30
0.0
 11
227.8419624011674
 21
-141.5336474370406
 31
0.0
  0
LINE
  5
38F
330
1F
100
AcDbEntity
  8
LAYER-033
  6
Continuous
 62
     4
100
AcDbLine
 10
223.6856895435257
 20
-133.8418406734662
 30
0.0
 11
231.3774963071001
 21
-141.5336474370406
 31
0.0
  0
LINE
  5
390
330
1F
100
AcDbEntity
  8
LAYER-033
  6
Continuous
 62
     4
100
AcDbLine
 10
227.2212234494585
 20
-133.8418406734662
 30
0.0
 11
234.9130302130329
 21
-141.5336474370406
 31
0.0
  0
LINE
  5
391
330
1F
100
AcDbEntity
  8
LAYER-033
  6
Continuous
 62
     4
100
AcDbLine
 10
230.7567573553912
 20
-133.8418406734662
 30
0.0
 11
237.0044963280863
 21
-140.0895796461612
 31
0.0
  0
LINE
  5
392
330
1F
100
AcDbEntity
  8
LAYER-033
  6
Continuous
 62
     4
100
AcDbLine
 10
234.292291261324
 20
-133.8418406734662
 30
0.0
 11
237.0044963280863
 21
-136.5540457402285
 31
0.0
  0
TEXT
  5
393
330
1F
100
AcDbEntity
  8
LAYER-033
  6
Continuous
 62
     7
100
AcDbText
 10
-189.9718281110802
 20
-608.6095046642289
 30
0.0
 40
15.0
  1
４００／４４０Ｖ　５０／６０Ｈｚ　４５～５５ｋＷ
  7
STRING_H
 11
-189.9718281110802
 21
-601.1095046642289
 31
0.0
100
AcDbText
 73
     2
  0
TEXT
  5
394
330
1F
100
AcDbEntity
  8
LAYER-033
  6
Continuous
 62
     7
100
AcDbText
 10
-189.9718281110802
 20
-628.6095046642289
 30
0.0
 40
15.0
  1
質　　量　　　７２㎏
  7
STRING_H
 11
-189.9718281110802
 21
-621.1095046642289
 31
0.0
100
AcDbText
 73
     2
  0
TEXT
  5
395
330
1F
100
AcDbEntity
  8
LAYER-033
  6
Continuous
 62
     7
100
AcDbText
 10
-189.9718281110802
 20
-588.6095046642289
 30
0.0
 40
15.0
  1
ＲＳ－１Ｐ(低　圧)
  7
STRING_H
 11
-189.9718281110802
 21
-581.1095046642289
 31
0.0
100
AcDbText
 73
     2
  0
DIMENSION
  5
3A5
330
1F
100
AcDbEntity
  8
LAYER-035
  6
Continuous
 62
     5
100
AcDbDimension
  2
*D02
 10
9.090373399791986
 20
-494.6642602700668
 30
0.0
 11
-190.909626600208
 21
-494.6642602700668
 31
0.0
 70
   129
  1
<>
 71
     0
 42
0.0
  3
DIO_DIMSTYLE
100
AcDbAlignedDimension
 13
-390.909626600208
 23
-431.3157974773602
 33
0.0
 14
9.090373399791986
 24
-431.3157974773602
 34
0.0
1001
ACAD
1000
DSTYLE
1002
{
1070
    41
1040
4.0
1070
    44
1040
1.0
1070
    42
1040
1.0
1070
     6
1000
_OPEN
1070
     7
1000
_OPEN
1070
   173
1070
     1
1070
   140
1040
10.0
1070
   178
1070
     5
1070
   147
1040
0.5
1002
}
  0
DIMENSION
  5
3AF
330
1F
100
AcDbEntity
  8
LAYER-035
  6
Continuous
 62
     5
100
AcDbDimension
  2
*D13
 10
-30.90962660020807
 20
-469.0017956444202
 30
0.0
 11
-190.909626600208
 21
-469.0017956444202
 31
0.0
 70
   128
  1
<>
 71
     0
 42
0.0
  3
DIO_DIMSTYLE
100
AcDbAlignedDimension
 13
-350.909626600208
 23
-438.8608596539461
 33
0.0
 14
-30.90962660020801
 24
-438.8608596539461
 34
0.0
 50
180.0
100
AcDbRotatedDimension
1001
ACAD
1000
DSTYLE
1002
{
1070
    41
1040
4.0
1070
    44
1040
1.0
1070
    42
1040
1.0
1070
     6
1000
_OPEN
1070
     7
1000
_OPEN
1070
   173
1070
     1
1070
   140
1040
10.0
1070
   178
1070
     5
1070
   147
1040
0.5
1002
}
  0
DIMENSION
  5
3B9
330
1F
100
AcDbEntity
  8
LAYER-035
  6
Continuous
 62
     5
100
AcDbDimension
  2
*D24
 10
67.2778386633172
 20
-431.3157974773602
 30
0.0
 11
67.2778386633172
 21
-271.3157974773602
 31
0.0
 70
   128
  1
<>
 71
     0
 42
0.0
  3
DIO_DIMSTYLE
100
AcDbAlignedDimension
 13
-56.65722363713189
 23
-111.3157974773602
 33
0.0
 14
9.090373399791986
 24
-431.3157974773602
 34
0.0
 50
90.0
100
AcDbRotatedDimension
1001
ACAD
1000
DSTYLE
1002
{
1070
    41
1040
4.0
1070
    44
1040
1.0
1070
    42
1040
1.0
1070
     6
1000
_OPEN
1070
     7
1000
_OPEN
1070
   173
1070
     1
1070
   140
1040
10.0
1070
   178
1070
     5
1070
   147
1040
0.5
1002
}
  0
DIMENSION
  5
3C5
330
1F
100
AcDbEntity
  8
LAYER-035
  6
Continuous
 62
     5
100
AcDbDimension
  2
*D35
 10
67.2778386633172
 20
-111.3157974773602
 30
0.0
 11
67.2778386633172
 21
-66.31579747736021
 31
0.0
 70
   128
  1
25±5
 71
     0
 42
0.0
  3
DIO_DIMSTYLE
100
AcDbAlignedDimension
 13
2.49738675531961
 23
-86.31579747736021
 33
0.0
 14
-56.65722363713189
 24
-111.3157974773602
 34
0.0
 50
90.0
100
AcDbRotatedDimension
1001
ACAD
1000
DSTYLE
1002
{
1070
    41
1040
4.0
1070
    44
1040
1.0
1070
    42
1040
1.0
1070
     6
1000
_OPEN
1070
     7
1000
_OPEN
1070
   173
1070
     1
1070
   140
1040
10.0
1070
   178
1070
     5
1070
   147
1040
0.5
1002
}
  0
DIMENSION
  5
3CF
330
1F
100
AcDbEntity
  8
LAYER-035
  6
Continuous
 62
     5
100
AcDbDimension
  2
*D46
 10
439.0331993721535
 20
-494.6642602700668
 30
0.0
 11
314.0331993721536
 21
-494.6642602700668
 31
0.0
 70
   128
  1
<>
 71
     0
 42
0.0
  3
DIO_DIMSTYLE
100
AcDbAlignedDimension
 13
189.0331993721535
 23
-431.3157974773602
 33
0.0
 14
439.0331993721535
 24
-431.3157974773602
 34
0.0
 50
180.0
100
AcDbRotatedDimension
1001
ACAD
1000
DSTYLE
1002
{
1070
    41
1040
4.0
1070
    44
1040
1.0
1070
    42
1040
1.0
1070
     6
1000
_OPEN
1070
     7
1000
_OPEN
1070
   173
1070
     1
1070
   140
1040
10.0
1070
   178
1070
     5
1070
   147
1040
0.5
1002
}
  0
DIMENSION
  5
3D9
330
1F
100
AcDbEntity
  8
LAYER-035
  6
Continuous
 62
     5
100
AcDbDimension
  2
*D57
 10
419.0331993721535
 20
-469.0017956444202
 30
0.0
 11
314.0331993721535
 21
-469.0017956444202
 31
0.0
 70
   129
  1
<>
 71
     0
 42
0.0
  3
DIO_DIMSTYLE
100
AcDbAlignedDimension
 13
209.0331993721535
 23
-438.0741112886718
 33
0.0
 14
419.0331993721535
 24
-438.0741112886718
 34
0.0
1001
ACAD
1000
DSTYLE
1002
{
1070
    41
1040
4.0
1070
    44
1040
1.0
1070
    42
1040
1.0
1070
     6
1000
_OPEN
1070
     7
1000
_OPEN
1070
   173
1070
     1
1070
   140
1040
10.0
1070
   178
1070
     5
1070
   147
1040
0.5
1002
}
  0
DIMENSION
  5
3E3
330
1F
100
AcDbEntity
  8
LAYER-035
  6
Continuous
 62
     5
100
AcDbDimension
  2
*D68
 10
419.0331993721535
 20
-349.1916716032343
 30
0.0
 11
444.0331993721535
 21
-349.1916716032343
 31
0.0
 70
   128
  1
(<>)
 71
     0
 42
0.0
  3
DIO_DIMSTYLE
100
AcDbAlignedDimension
 13
469.0331993721535
 23
-163.8418406734662
 33
0.0
 14
419.0331993721535
 24
-253.0371136107181
 34
0.0
100
AcDbRotatedDimension
1001
ACAD
1000
DSTYLE
1002
{
1070
    41
1040
4.0
1070
    44
1040
1.0
1070
    42
1040
1.0
1070
     6
1000
_OPEN
1070
     7
1000
_OPEN
1070
   173
1070
     1
1070
   140
1040
10.0
1070
   178
1070
     5
1070
   147
1040
0.5
1002
}
  0
DIMENSION
  5
3ED
330
1F
100
AcDbEntity
  8
LAYER-035
  6
Continuous
 62
     5
100
AcDbDimension
  2
*D79
 10
209.0331993721535
 20
-349.1916716032343
 30
0.0
 11
184.0331993721535
 21
-349.1916716032343
 31
0.0
 70
   128
  1
(<>)
 71
     0
 42
0.0
  3
DIO_DIMSTYLE
100
AcDbAlignedDimension
 13
159.0331993721535
 23
-163.8418406734662
 33
0.0
 14
209.0331993721535
 24
-253.0371136107181
 34
0.0
 50
180.0
100
AcDbRotatedDimension
1001
ACAD
1000
DSTYLE
1002
{
1070
    41
1040
4.0
1070
    44
1040
1.0
1070
    42
1040
1.0
1070
     6
1000
_OPEN
1070
     7
1000
_OPEN
1070
   173
1070
     1
1070
   140
1040
10.0
1070
   178
1070
     5
1070
   147
1040
0.5
1002
}
  0
DIMENSION
  5
3F7
330
1F
100
AcDbEntity
  8
LAYER-035
  6
Continuous
 62
     5
100
AcDbDimension
  2
*D810
 10
419.0331993721535
 20
-349.1916716032343
 30
0.0
 11
296.321344006493
 21
-349.1916716032343
 31
0.0
 70
   129
  1
<>
 71
     0
 42
0.0
  3
DIO_DIMSTYLE
100
AcDbAlignedDimension
 13
209.0331993721535
 23
-253.0371136107181
 33
0.0
 14
419.0331993721535
 24
-253.0371136107181
 34
0.0
1001
ACAD
1000
DSTYLE
1002
{
1070
    41
1040
4.0
1070
    44
1040
1.0
1070
    42
1040
1.0
1070
     6
1000
_OPEN
1070
     7
1000
_OPEN
1070
   173
1070
     1
1070
   140
1040
10.0
1070
   178
1070
     5
1070
   147
1040
0.5
1002
}
  0
ENDSEC
  0
SECTION
  2
OBJECTS
  0
DICTIONARY
  5
C
330
0
100
AcDbDictionary
281
     1
  3
ACAD_GROUP
350
D
  3
ACAD_LAYOUT
350
1A
  3
ACAD_MLINESTYLE
350
17
  3
ACAD_PLOTSETTINGS
350
19
  3
ACAD_PLOTSTYLENAME
350
E
  0
DICTIONARY
  5
D
102
{ACAD_REACTORS
330
C
102
}
330
C
100
AcDbDictionary
281
     1
  0
DICTIONARY
  5
1A
102
{ACAD_REACTORS
330
C
102
}
330
C
100
AcDbDictionary
281
     1
  3
Model
350
22
  3
ﾚｲｱｳﾄ1
350
1E
  3
ﾚｲｱｳﾄ2
350
26
  0
DICTIONARY
  5
17
102
{ACAD_REACTORS
330
C
102
}
330
C
100
AcDbDictionary
281
     1
  3
Standard
350
18
  0
DICTIONARY
  5
19
102
{ACAD_REACTORS
330
C
102
}
330
C
100
AcDbDictionary
281
     1
  0
ACDBDICTIONARYWDFLT
  5
E
102
{ACAD_REACTORS
330
C
102
}
330
C
100
AcDbDictionary
281
     1
  3
Normal
350
F
100
AcDbDictionaryWithDefault
340
F
  0
LAYOUT
  5
22
102
{ACAD_REACTORS
330
1A
102
}
330
1A
100
AcDbPlotSettings
  1

  2
DWF ePlot.pc3
  4
ANSI_A_(8.50_x_11.00_Inches)
  6

 40
5.793749809265137
 41
17.79375076293945
 42
5.793746948242188
 43
17.79376220703125
 44
215.8999938964844
 45
279.3999938964844
 46
0.0
 47
0.0
 48
0.0
 49
0.0
140
0.0
141
0.0
142
1.0
143
39.26051453979704
 70
 11952
 72
     0
 73
     1
 74
     0
  7
acad.ctb
 75
     0
147
0.0254708837039396
148
-1793.922354682663
149
1.490346453088415
100
AcDbLayout
  1
Model
 70
     1
 71
     0
 10
-1000.0
 20
-750.0
 11
1000.0
 21
750.0
 12
0.0
 22
0.0
 32
0.0
 14
-1000.0
 24
-750.0
 34
0.0
 15
1000.0
 25
750.0
 35
0.0
146
0.0
 13
0.0
 23
0.0
 33
0.0
 16
1.0
 26
0.0
 36
0.0
 17
0.0
 27
1.0
 37
0.0
 76
     0
330
1F
  0
LAYOUT
  5
1E
102
{ACAD_REACTORS
330
1A
102
}
330
1A
100
AcDbPlotSettings
  1

  2
RICOH IPSiO NX700
  4

  6

 40
0.0
 41
0.0
 42
0.0
 43
0.0
 44
0.0
 45
0.0
 46
0.0
 47
0.0
 48
0.0
 49
0.0
140
0.0
141
0.0
142
1.0
143
1.0
 70
   688
 72
     0
 73
     0
 74
     5
  7
acad.ctb
 75
    16
147
1.0
148
0.0
149
0.0
100
AcDbLayout
  1
ﾚｲｱｳﾄ1
 70
     1
 71
     1
 10
-1000.0
 20
-750.0
 11
1000.0
 21
750.0
 12
0.0
 22
0.0
 32
0.0
 14
-1000.0
 24
-750.0
 34
0.0
 15
1000.0
 25
750.0
 35
0.0
146
0.0
 13
0.0
 23
0.0
 33
0.0
 16
1.0
 26
0.0
 36
0.0
 17
0.0
 27
1.0
 37
0.0
 76
     0
330
1B
  0
LAYOUT
  5
26
102
{ACAD_REACTORS
330
1A
102
}
330
1A
100
AcDbPlotSettings
  1

  2
RICOH IPSiO NX700
  4

  6

 40
0.0
 41
0.0
 42
0.0
 43
0.0
 44
0.0
 45
0.0
 46
0.0
 47
0.0
 48
0.0
 49
0.0
140
0.0
141
0.0
142
1.0
143
1.0
 70
   688
 72
     0
 73
     0
 74
     5
  7
acad.ctb
 75
    16
147
1.0
148
0.0
149
0.0
100
AcDbLayout
  1
ﾚｲｱｳﾄ2
 70
     1
 71
     2
 10
0.0
 20
0.0
 11
12.0
 21
9.0
 12
0.0
 22
0.0
 32
0.0
 14
0.0
 24
0.0
 34
0.0
 15
0.0
 25
0.0
 35
0.0
146
0.0
 13
0.0
 23
0.0
 33
0.0
 16
1.0
 26
0.0
 36
0.0
 17
0.0
 27
1.0
 37
0.0
 76
     0
330
23
  0
MLINESTYLE
  5
18
102
{ACAD_REACTORS
330
17
102
}
330
17
100
AcDbMlineStyle
  2
STANDARD
 70
     0
  3

 62
   256
 51
90.0
 52
90.0
 71
     2
 49
0.5
 62
   256
  6
BYLAYER
 49
-0.5
 62
   256
  6
BYLAYER
  0
ACDBPLACEHOLDER
  5
F
102
{ACAD_REACTORS
330
E
102
}
330
E
  0
ENDSEC
  0
EOF
