  0
SECTION
  2
HEADER
  9
$ACADVER
  1
AC1015
  9
$ACADMAINTVER
 70
     6
  9
$DWGCODEPAGE
  3
ANSI_932
  9
$INSBASE
 10
0.0
 20
0.0
 30
0.0
  9
$EXTMIN
 10
-1000.0
 20
-750.0
 30
0.0
  9
$EXTMAX
 10
1000.0
 20
750.0
 30
0.0
  9
$LIMMIN
 10
-1000.0
 20
-750.0
  9
$LIMMAX
 10
1000.0
 20
750.0
  9
$ORTHOMODE
 70
     0
  9
$REGENMODE
 70
     1
  9
$FILLMODE
 70
     1
  9
$QTEXTMODE
 70
     0
  9
$MIRRTEXT
 70
     1
  9
$LTSCALE
 40
4.0
  9
$ATTMODE
 70
     1
  9
$TEXTSIZE
 40
2.5
  9
$TRACEWID
 40
1.0
  9
$TEXTSTYLE
  7
Standard
  9
$CLAYER
  8
0
  9
$CELTYPE
  6
ByLayer
  9
$CECOLOR
 62
   256
  9
$CELTSCALE
 40
1.0
  9
$DISPSILH
 70
     0
  9
$DIMSCALE
 40
1.0
  9
$DIMASZ
 40
4.0
  9
$DIMEXO
 40
1.0
  9
$DIMDLI
 40
3.75
  9
$DIMRND
 40
0.1
  9
$DIMDLE
 40
0.0
  9
$DIMEXE
 40
1.0
  9
$DIMTP
 40
0.0
  9
$DIMTM
 40
0.0
  9
$DIMTXT
 40
2.5
  9
$DIMCEN
 40
2.5
  9
$DIMTSZ
 40
0.0
  9
$DIMTOL
 70
     0
  9
$DIMLIM
 70
     0
  9
$DIMTIH
 70
     0
  9
$DIMTOH
 70
     0
  9
$DIMSE1
 70
     0
  9
$DIMSE2
 70
     0
  9
$DIMTAD
 70
     1
  9
$DIMZIN
 70
     8
  9
$DIMBLK
  1

  9
$DIMASO
 70
     1
  9
$DIMSHO
 70
     1
  9
$DIMPOST
  1

  9
$DIMAPOST
  1

  9
$DIMALT
 70
     0
  9
$DIMALTD
 70
     3
  9
$DIMALTF
 40
0.03937007874016
  9
$DIMLFAC
 40
1.0
  9
$DIMTOFL
 70
     1
  9
$DIMTVP
 40
0.0
  9
$DIMTIX
 70
     0
  9
$DIMSOXD
 70
     0
  9
$DIMSAH
 70
     1
  9
$DIMBLK1
  1

  9
$DIMBLK2
  1

  9
$DIMSTYLE
  2
ISO-25
  9
$DIMCLRD
 70
     0
  9
$DIMCLRE
 70
     0
  9
$DIMCLRT
 70
     0
  9
$DIMTFAC
 40
1.0
  9
$DIMGAP
 40
0.5
  9
$DIMJUST
 70
     0
  9
$DIMSD1
 70
     0
  9
$DIMSD2
 70
     0
  9
$DIMTOLJ
 70
     0
  9
$DIMTZIN
 70
     8
  9
$DIMALTZ
 70
     0
  9
$DIMALTTZ
 70
     0
  9
$DIMUPT
 70
     1
  9
$DIMDEC
 70
     1
  9
$DIMTDEC
 70
     2
  9
$DIMALTU
 70
     2
  9
$DIMALTTD
 70
     3
  9
$DIMTXSTY
  7
Standard
  9
$DIMAUNIT
 70
     0
  9
$DIMADEC
 70
     1
  9
$DIMALTRND
 40
0.0
  9
$DIMAZIN
 70
     2
  9
$DIMDSEP
 70
    46
  9
$DIMATFIT
 70
     0
  9
$DIMFRAC
 70
     0
  9
$DIMLDRBLK
  1

  9
$DIMLUNIT
 70
     2
  9
$DIMLWD
 70
    -2
  9
$DIMLWE
 70
    -2
  9
$DIMTMOVE
 70
     0
  9
$LUNITS
 70
     2
  9
$LUPREC
 70
     4
  9
$SKETCHINC
 40
1.0
  9
$FILLETRAD
 40
10.0
  9
$AUNITS
 70
     0
  9
$AUPREC
 70
     0
  9
$MENU
  1
.
  9
$ELEVATION
 40
0.0
  9
$PELEVATION
 40
0.0
  9
$THICKNESS
 40
0.0
  9
$LIMCHECK
 70
     0
  9
$CHAMFERA
 40
10.0
  9
$CHAMFERB
 40
10.0
  9
$CHAMFERC
 40
20.0
  9
$CHAMFERD
 40
0.0
  9
$SKPOLY
 70
     0
  9
$TDCREATE
 40
2455091.0
  9
$TDUCREATE
 40
2451562.87528772
  9
$TDUPDATE
 40
2455505.0
  9
$TDUUPDATE
 40
2452026.917654526
  9
$TDINDWG
 40
0.0010008681
  9
$TDUSRTIMER
 40
0.0009680671
  9
$USRTIMER
 70
     1
  9
$ANGBASE
 50
0.0
  9
$ANGDIR
 70
     0
  9
$PDMODE
 70
     0
  9
$PDSIZE
 40
0.0
  9
$PLINEWID
 40
0.0
  9
$SPLFRAME
 70
     0
  9
$SPLINETYPE
 70
     6
  9
$SPLINESEGS
 70
     8
  9
$HANDSEED
  5
410
  9
$SURFTAB1
 70
     6
  9
$SURFTAB2
 70
     6
  9
$SURFTYPE
 70
     6
  9
$SURFU
 70
     6
  9
$SURFV
 70
     6
  9
$UCSBASE
  2

  9
$UCSNAME
  2

  9
$UCSORG
 10
0.0
 20
0.0
 30
0.0
  9
$UCSXDIR
 10
1.0
 20
0.0
 30
0.0
  9
$UCSYDIR
 10
0.0
 20
1.0
 30
0.0
  9
$UCSORTHOREF
  2

  9
$UCSORTHOVIEW
 70
     0
  9
$UCSORGTOP
 10
0.0
 20
0.0
 30
0.0
  9
$UCSORGBOTTOM
 10
0.0
 20
0.0
 30
0.0
  9
$UCSORGLEFT
 10
0.0
 20
0.0
 30
0.0
  9
$UCSORGRIGHT
 10
0.0
 20
0.0
 30
0.0
  9
$UCSORGFRONT
 10
0.0
 20
0.0
 30
0.0
  9
$UCSORGBACK
 10
0.0
 20
0.0
 30
0.0
  9
$PUCSBASE
  2

  9
$PUCSNAME
  2

  9
$PUCSORG
 10
0.0
 20
0.0
 30
0.0
  9
$PUCSXDIR
 10
1.0
 20
0.0
 30
0.0
  9
$PUCSYDIR
 10
0.0
 20
1.0
 30
0.0
  9
$PUCSORTHOREF
  2

  9
$PUCSORTHOVIEW
 70
     0
  9
$PUCSORGTOP
 10
0.0
 20
0.0
 30
0.0
  9
$PUCSORGBOTTOM
 10
0.0
 20
0.0
 30
0.0
  9
$PUCSORGLEFT
 10
0.0
 20
0.0
 30
0.0
  9
$PUCSORGRIGHT
 10
0.0
 20
0.0
 30
0.0
  9
$PUCSORGFRONT
 10
0.0
 20
0.0
 30
0.0
  9
$PUCSORGBACK
 10
0.0
 20
0.0
 30
0.0
  9
$USERI1
 70
     0
  9
$USERI2
 70
     0
  9
$USERI3
 70
     0
  9
$USERI4
 70
     0
  9
$USERI5
 70
     0
  9
$USERR1
 40
0.0
  9
$USERR2
 40
0.0
  9
$USERR3
 40
0.0
  9
$USERR4
 40
0.0
  9
$USERR5
 40
0.0
  9
$WORLDVIEW
 70
     1
  9
$SHADEDGE
 70
     3
  9
$SHADEDIF
 70
    70
  9
$TILEMODE
 70
     1
  9
$MAXACTVP
 70
    64
  9
$PINSBASE
 10
0.0
 20
0.0
 30
0.0
  9
$PLIMCHECK
 70
     0
  9
$PEXTMIN
 10
-1000.0
 20
-750.0
 30
0.0
  9
$PEXTMAX
 10
1000.0
 20
750.0
 30
0.0
  9
$PLIMMIN
 10
-1000.0
 20
-750.0
  9
$PLIMMAX
 10
1000.0
 20
750.0
  9
$UNITMODE
 70
     0
  9
$VISRETAIN
 70
     1
  9
$PLINEGEN
 70
     0
  9
$PSLTSCALE
 70
     1
  9
$TREEDEPTH
 70
  3020
  9
$CMLSTYLE
  2
Standard
  9
$CMLJUST
 70
     0
  9
$CMLSCALE
 40
20.0
  9
$PROXYGRAPHICS
 70
     1
  9
$MEASUREMENT
 70
     1
  9
$CELWEIGHT
370
    -1
  9
$ENDCAPS
280
     0
  9
$JOINSTYLE
280
     0
  9
$LWDISPLAY
290
     0
  9
$INSUNITS
 70
     4
  9
$HYPERLINKBASE
  1

  9
$STYLESHEET
  1

  9
$XEDIT
290
     1
  9
$CEPSNTYPE
380
     0
  9
$PSTYLEMODE
290
     1
  9
$FINGERPRINTGUID
  2
{B6423330-CE35-11D3-AA43-00E0292263AD}
  9
$VERSIONGUID
  2
{EAA0F794-BAE8-4B09-85E0-65C527BE2B8E}
  9
$EXTNAMES
290
     1
  9
$PSVPSCALE
 40
0.0
  9
$OLESTARTUP
290
     0
  0
ENDSEC
  0
SECTION
  2
CLASSES
  0
CLASS
  1
ACDBDICTIONARYWDFLT
  2
AcDbDictionaryWithDefault
  3
ObjectDBX Classes
 90
        0
280
     0
281
     0
  0
CLASS
  1
ACDBPLACEHOLDER
  2
AcDbPlaceHolder
  3
ObjectDBX Classes
 90
        0
280
     0
281
     0
  0
CLASS
  1
LAYOUT
  2
AcDbLayout
  3
ObjectDBX Classes
 90
        0
280
     0
281
     0
  0
ENDSEC
  0
SECTION
  2
TABLES
  0
TABLE
  2
VPORT
  5
8
330
0
100
AcDbSymbolTable
 70
     3
  0
VPORT
  5
30
330
8
100
AcDbSymbolTableRecord
100
AcDbViewportTableRecord
  2
*Active
 70
     0
 10
0.0
 20
0.0
 11
1.0
 21
1.0
 12
259.0560661764706
 22
148.5
 13
0.0
 23
0.0
 14
10.0
 24
10.0
 15
10.0
 25
10.0
 16
0.0
 26
0.0
 36
1.0
 17
0.0
 27
0.0
 37
0.0
 40
297.1173501144164
 41
1.268382352941176
 42
50.0
 43
0.0
 44
0.0
 50
0.0
 51
0.0
 71
     0
 72
   100
 73
     1
 74
     3
 75
     0
 76
     0
 77
     0
 78
     0
281
     0
 65
     1
110
0.0
120
0.0
130
0.0
111
1.0
121
0.0
131
0.0
112
0.0
122
1.0
132
0.0
 79
     0
146
0.0
  0
ENDTAB
  0
TABLE
  2
LTYPE
  5
5
330
0
100
AcDbSymbolTable
 70
    26
  0
LTYPE
  5
14
330
5
100
AcDbSymbolTableRecord
100
AcDbLinetypeTableRecord
  2
ByBlock
 70
     0
  3

 72
    65
 73
     0
 40
0.0
  0
LTYPE
  5
15
330
5
100
AcDbSymbolTableRecord
100
AcDbLinetypeTableRecord
  2
ByLayer
 70
     0
  3

 72
    65
 73
     0
 40
0.0
  0
LTYPE
  5
16
330
5
100
AcDbSymbolTableRecord
100
AcDbLinetypeTableRecord
  2
Continuous
 70
     0
  3
Solid line
 72
    65
 73
     0
 40
0.0
  0
LTYPE
  5
37
330
5
100
AcDbSymbolTableRecord
100
AcDbLinetypeTableRecord
  2
BORDER
 70
     0
  3
 __ __ . __ __ . __ __ . __ __ . __ __ . __ __
 72
    65
 73
     6
 40
1.75
 49
0.5
 74
     0
 49
-0.25
 74
     0
 49
0.5
 74
     0
 49
-0.25
 74
     0
 49
0.0
 74
     0
 49
-0.25
 74
     0
  0
LTYPE
  5
38
330
5
100
AcDbSymbolTableRecord
100
AcDbLinetypeTableRecord
  2
BORDER2
 70
     0
  3
__.__.__.__.__.__.__.__.__.__.__.__.__.__.__
 72
    65
 73
     6
 40
0.875
 49
0.25
 74
     0
 49
-0.125
 74
     0
 49
0.25
 74
     0
 49
-0.125
 74
     0
 49
0.0
 74
     0
 49
-0.125
 74
     0
  0
LTYPE
  5
39
330
5
100
AcDbSymbolTableRecord
100
AcDbLinetypeTableRecord
  2
BORDERX2
 70
     0
  3
____  ____  .  ____  ____  .  ____  ____  .
 72
    65
 73
     6
 40
3.5
 49
1.0
 74
     0
 49
-0.5
 74
     0
 49
1.0
 74
     0
 49
-0.5
 74
     0
 49
0.0
 74
     0
 49
-0.5
 74
     0
  0
LTYPE
  5
3A
330
5
100
AcDbSymbolTableRecord
100
AcDbLinetypeTableRecord
  2
CENTER
 70
     0
  3
____ _ ____ _ ____ _ ____ _ ____ _ ____ _ ____
 72
    65
 73
     4
 40
2.0
 49
1.25
 74
     0
 49
-0.25
 74
     0
 49
0.25
 74
     0
 49
-0.25
 74
     0
  0
LTYPE
  5
3B
330
5
100
AcDbSymbolTableRecord
100
AcDbLinetypeTableRecord
  2
CENTER2
 70
     0
  3
___ _ ___ _ ___ _ ___ _ ___ _ ___ _ ___ _ ___ 
 72
    65
 73
     4
 40
1.125
 49
0.75
 74
     0
 49
-0.125
 74
     0
 49
0.125
 74
     0
 49
-0.125
 74
     0
  0
LTYPE
  5
3C
330
5
100
AcDbSymbolTableRecord
100
AcDbLinetypeTableRecord
  2
CENTERX2
 70
     0
  3
________  __  ________  __  ________  __
 72
    65
 73
     4
 40
4.0
 49
2.5
 74
     0
 49
-0.5
 74
     0
 49
0.5
 74
     0
 49
-0.5
 74
     0
  0
LTYPE
  5
3D
330
5
100
AcDbSymbolTableRecord
100
AcDbLinetypeTableRecord
  2
DASHDOT
 70
     0
  3
__ . __ . __ . __ . __ . __ . __ . __ . __ .
 72
    65
 73
     4
 40
1.0
 49
0.5
 74
     0
 49
-0.25
 74
     0
 49
0.0
 74
     0
 49
-0.25
 74
     0
  0
LTYPE
  5
3E
330
5
100
AcDbSymbolTableRecord
100
AcDbLinetypeTableRecord
  2
DASHDOT2
 70
     0
  3
_._._._._._._._._._._._._._._._._._._._._._._.
 72
    65
 73
     4
 40
0.5
 49
0.25
 74
     0
 49
-0.125
 74
     0
 49
0.0
 74
     0
 49
-0.125
 74
     0
  0
LTYPE
  5
3F
330
5
100
AcDbSymbolTableRecord
100
AcDbLinetypeTableRecord
  2
DASHDOTX2
 70
     0
  3
____  .  ____  .  ____  .  ____  .  ____  .
 72
    65
 73
     4
 40
2.0
 49
1.0
 74
     0
 49
-0.5
 74
     0
 49
0.0
 74
     0
 49
-0.5
 74
     0
  0
LTYPE
  5
40
330
5
100
AcDbSymbolTableRecord
100
AcDbLinetypeTableRecord
  2
DASHED
 70
     0
  3
__ __ __ __ __ __ __ __ __ __ __ __ __ __ __
 72
    65
 73
     2
 40
0.75
 49
0.5
 74
     0
 49
-0.25
 74
     0
  0
LTYPE
  5
41
330
5
100
AcDbSymbolTableRecord
100
AcDbLinetypeTableRecord
  2
DASHED2
 70
     0
  3
_ _ _ _ _ _ _ _ _ _ _ _ _ _ _ _ _ _ _ _ _ _ _
 72
    65
 73
     2
 40
0.375
 49
0.25
 74
     0
 49
-0.125
 74
     0
  0
LTYPE
  5
42
330
5
100
AcDbSymbolTableRecord
100
AcDbLinetypeTableRecord
  2
DASHEDX2
 70
     0
  3
____  ____  ____  ____  ____  ____  ____  ____
 72
    65
 73
     2
 40
1.5
 49
1.0
 74
     0
 49
-0.5
 74
     0
  0
LTYPE
  5
43
330
5
100
AcDbSymbolTableRecord
100
AcDbLinetypeTableRecord
  2
DIVIDE
 70
     0
  3
____ . . ____ . . ____ . . ____ . . ____ . .
 72
    65
 73
     6
 40
1.25
 49
0.5
 74
     0
 49
-0.25
 74
     0
 49
0.0
 74
     0
 49
-0.25
 74
     0
 49
0.0
 74
     0
 49
-0.25
 74
     0
  0
LTYPE
  5
44
330
5
100
AcDbSymbolTableRecord
100
AcDbLinetypeTableRecord
  2
DIVIDE2
 70
     0
  3
__..__..__..__..__..__..__..__..__..__..__..__
 72
    65
 73
     6
 40
0.625
 49
0.25
 74
     0
 49
-0.125
 74
     0
 49
0.0
 74
     0
 49
-0.125
 74
     0
 49
0.0
 74
     0
 49
-0.125
 74
     0
  0
LTYPE
  5
45
330
5
100
AcDbSymbolTableRecord
100
AcDbLinetypeTableRecord
  2
DIVIDEX2
 70
     0
  3
________  .  .  ________  .  .  ________  .  .
 72
    65
 73
     6
 40
2.5
 49
1.0
 74
     0
 49
-0.5
 74
     0
 49
0.0
 74
     0
 49
-0.5
 74
     0
 49
0.0
 74
     0
 49
-0.5
 74
     0
  0
LTYPE
  5
46
330
5
100
AcDbSymbolTableRecord
100
AcDbLinetypeTableRecord
  2
DOT
 70
     0
  3
. . . . . . . . . . . . . . . . . . . . . . .
 72
    65
 73
     2
 40
0.25
 49
0.0
 74
     0
 49
-0.25
 74
     0
  0
LTYPE
  5
47
330
5
100
AcDbSymbolTableRecord
100
AcDbLinetypeTableRecord
  2
DOT2
 70
     0
  3
..............................................
 72
    65
 73
     2
 40
0.125
 49
0.0
 74
     0
 49
-0.125
 74
     0
  0
LTYPE
  5
48
330
5
100
AcDbSymbolTableRecord
100
AcDbLinetypeTableRecord
  2
DOTX2
 70
     0
  3
.  .  .  .  .  .  .  .  .  .  .  .  .  .  .  .
 72
    65
 73
     2
 40
0.5
 49
0.0
 74
     0
 49
-0.5
 74
     0
  0
LTYPE
  5
49
330
5
100
AcDbSymbolTableRecord
100
AcDbLinetypeTableRecord
  2
HIDDEN
 70
     0
  3
__ __ __ __ __ __ __ __ __ __ __ __ __ __ __
 72
    65
 73
     2
 40
0.375
 49
0.25
 74
     0
 49
-0.125
 74
     0
  0
LTYPE
  5
4A
330
5
100
AcDbSymbolTableRecord
100
AcDbLinetypeTableRecord
  2
HIDDEN2
 70
     0
  3
_ _ _ _ _ _ _ _ _ _ _ _ _ _ _ _ _ _ _ _ _ _ _
 72
    65
 73
     2
 40
0.1875
 49
0.125
 74
     0
 49
-0.0625
 74
     0
  0
LTYPE
  5
4B
330
5
100
AcDbSymbolTableRecord
100
AcDbLinetypeTableRecord
  2
HIDDENX2
 70
     0
  3
____ ____ ____ ____ ____ ____ ____ ____ ____
 72
    65
 73
     2
 40
0.75
 49
0.5
 74
     0
 49
-0.25
 74
     0
  0
LTYPE
  5
4C
330
5
100
AcDbSymbolTableRecord
100
AcDbLinetypeTableRecord
  2
PHANTOM
 70
     0
  3
______  __  __  ______  __  __  ______  __
 72
    65
 73
     6
 40
2.5
 49
1.25
 74
     0
 49
-0.25
 74
     0
 49
0.25
 74
     0
 49
-0.25
 74
     0
 49
0.25
 74
     0
 49
-0.25
 74
     0
  0
LTYPE
  5
4D
330
5
100
AcDbSymbolTableRecord
100
AcDbLinetypeTableRecord
  2
PHANTOM2
 70
     0
  3
___ _ _ ___ _ _ ___ _ _ ___ _ _ ___ _ _ ___ _
 72
    65
 73
     6
 40
1.25
 49
0.625
 74
     0
 49
-0.125
 74
     0
 49
0.125
 74
     0
 49
-0.125
 74
     0
 49
0.125
 74
     0
 49
-0.125
 74
     0
  0
LTYPE
  5
4E
330
5
100
AcDbSymbolTableRecord
100
AcDbLinetypeTableRecord
  2
PHANTOMX2
 70
     0
  3
____________    ____    ____    ____________
 72
    65
 73
     6
 40
5.0
 49
2.5
 74
     0
 49
-0.5
 74
     0
 49
0.5
 74
     0
 49
-0.5
 74
     0
 49
0.5
 74
     0
 49
-0.5
 74
     0
  0
LTYPE
  5
4F
330
5
100
AcDbSymbolTableRecord
100
AcDbLinetypeTableRecord
  2
CONTINUOUS2
 70
     0
  3
Solid line
 72
    65
 73
     0
 40
0.0
  0
ENDTAB
  0
TABLE
  2
LAYER
  5
2
330
0
100
AcDbSymbolTable
 70
   258
  0
LAYER
  5
10
330
2
100
AcDbSymbolTableRecord
100
AcDbLayerTableRecord
  2
0
 70
     0
 62
     7
  6
Continuous
370
    -3
390
F
  0
LAYER
  5
50
330
2
100
AcDbSymbolTableRecord
100
AcDbLayerTableRecord
  2
LAYER-001
 70
     0
 62
     7
  6
Continuous
370
    -3
390
F
  0
LAYER
  5
51
330
2
100
AcDbSymbolTableRecord
100
AcDbLayerTableRecord
  2
LAYER-002
 70
     0
 62
     7
  6
Continuous
370
    -3
390
F
  0
LAYER
  5
52
330
2
100
AcDbSymbolTableRecord
100
AcDbLayerTableRecord
  2
LAYER-003
 70
     0
 62
     7
  6
Continuous
370
    -3
390
F
  0
LAYER
  5
53
330
2
100
AcDbSymbolTableRecord
100
AcDbLayerTableRecord
  2
LAYER-004
 70
     0
 62
     7
  6
Continuous
370
    -3
390
F
  0
LAYER
  5
54
330
2
100
AcDbSymbolTableRecord
100
AcDbLayerTableRecord
  2
LAYER-005
 70
     0
 62
     7
  6
Continuous
370
    -3
390
F
  0
LAYER
  5
55
330
2
100
AcDbSymbolTableRecord
100
AcDbLayerTableRecord
  2
LAYER-006
 70
     0
 62
     7
  6
Continuous
370
    -3
390
F
  0
LAYER
  5
56
330
2
100
AcDbSymbolTableRecord
100
AcDbLayerTableRecord
  2
LAYER-007
 70
     0
 62
     7
  6
Continuous
370
    -3
390
F
  0
LAYER
  5
57
330
2
100
AcDbSymbolTableRecord
100
AcDbLayerTableRecord
  2
LAYER-008
 70
     0
 62
     7
  6
Continuous
370
    -3
390
F
  0
LAYER
  5
58
330
2
100
AcDbSymbolTableRecord
100
AcDbLayerTableRecord
  2
LAYER-009
 70
     0
 62
     7
  6
Continuous
370
    -3
390
F
  0
LAYER
  5
59
330
2
100
AcDbSymbolTableRecord
100
AcDbLayerTableRecord
  2
LAYER-010
 70
     0
 62
     7
  6
Continuous
370
    -3
390
F
  0
LAYER
  5
5A
330
2
100
AcDbSymbolTableRecord
100
AcDbLayerTableRecord
  2
LAYER-011
 70
     0
 62
     7
  6
Continuous
370
    -3
390
F
  0
LAYER
  5
5B
330
2
100
AcDbSymbolTableRecord
100
AcDbLayerTableRecord
  2
LAYER-012
 70
     0
 62
     7
  6
Continuous
370
    -3
390
F
  0
LAYER
  5
5C
330
2
100
AcDbSymbolTableRecord
100
AcDbLayerTableRecord
  2
LAYER-013
 70
     0
 62
     7
  6
Continuous
370
    -3
390
F
  0
LAYER
  5
5D
330
2
100
AcDbSymbolTableRecord
100
AcDbLayerTableRecord
  2
LAYER-014
 70
     0
 62
     7
  6
Continuous
370
    -3
390
F
  0
LAYER
  5
5E
330
2
100
AcDbSymbolTableRecord
100
AcDbLayerTableRecord
  2
LAYER-015
 70
     0
 62
    -7
  6
Continuous
370
    -3
390
F
  0
LAYER
  5
5F
330
2
100
AcDbSymbolTableRecord
100
AcDbLayerTableRecord
  2
LAYER-016
 70
     0
 62
     4
  6
Continuous
370
    -3
390
F
  0
LAYER
  5
60
330
2
100
AcDbSymbolTableRecord
100
AcDbLayerTableRecord
  2
LAYER-017
 70
     0
 62
     7
  6
Continuous
370
    -3
390
F
  0
LAYER
  5
61
330
2
100
AcDbSymbolTableRecord
100
AcDbLayerTableRecord
  2
LAYER-018
 70
     0
 62
     2
  6
Continuous
370
    -3
390
F
  0
LAYER
  5
62
330
2
100
AcDbSymbolTableRecord
100
AcDbLayerTableRecord
  2
LAYER-019
 70
     0
 62
     3
  6
Continuous
370
    -3
390
F
  0
LAYER
  5
63
330
2
100
AcDbSymbolTableRecord
100
AcDbLayerTableRecord
  2
LAYER-020
 70
     0
 62
     2
  6
Continuous
370
    -3
390
F
  0
LAYER
  5
64
330
2
100
AcDbSymbolTableRecord
100
AcDbLayerTableRecord
  2
LAYER-021
 70
     0
 62
     7
  6
Continuous
370
    -3
390
F
  0
LAYER
  5
65
330
2
100
AcDbSymbolTableRecord
100
AcDbLayerTableRecord
  2
LAYER-022
 70
     0
 62
     4
  6
Continuous
370
    -3
390
F
  0
LAYER
  5
66
330
2
100
AcDbSymbolTableRecord
100
AcDbLayerTableRecord
  2
LAYER-023
 70
     0
 62
     4
  6
Continuous
370
    -3
390
F
  0
LAYER
  5
67
330
2
100
AcDbSymbolTableRecord
100
AcDbLayerTableRecord
  2
LAYER-024
 70
     0
 62
     7
  6
Continuous
370
    -3
390
F
  0
LAYER
  5
68
330
2
100
AcDbSymbolTableRecord
100
AcDbLayerTableRecord
  2
LAYER-025
 70
     0
 62
     7
  6
Continuous
370
    -3
390
F
  0
LAYER
  5
69
330
2
100
AcDbSymbolTableRecord
100
AcDbLayerTableRecord
  2
LAYER-026
 70
     0
 62
    -7
  6
Continuous
370
    -3
390
F
  0
LAYER
  5
6A
330
2
100
AcDbSymbolTableRecord
100
AcDbLayerTableRecord
  2
LAYER-027
 70
     0
 62
     7
  6
Continuous
370
    -3
390
F
  0
LAYER
  5
6B
330
2
100
AcDbSymbolTableRecord
100
AcDbLayerTableRecord
  2
LAYER-028
 70
     0
 62
     7
  6
Continuous
370
    -3
390
F
  0
LAYER
  5
6C
330
2
100
AcDbSymbolTableRecord
100
AcDbLayerTableRecord
  2
LAYER-029
 70
     0
 62
     7
  6
Continuous
370
    -3
390
F
  0
LAYER
  5
6D
330
2
100
AcDbSymbolTableRecord
100
AcDbLayerTableRecord
  2
LAYER-030
 70
     0
 62
     2
  6
Continuous
370
    -3
390
F
  0
LAYER
  5
6E
330
2
100
AcDbSymbolTableRecord
100
AcDbLayerTableRecord
  2
LAYER-031
 70
     0
 62
     7
  6
Continuous
370
    -3
390
F
  0
LAYER
  5
6F
330
2
100
AcDbSymbolTableRecord
100
AcDbLayerTableRecord
  2
LAYER-032
 70
     0
 62
     2
  6
Continuous
370
    -3
390
F
  0
LAYER
  5
70
330
2
100
AcDbSymbolTableRecord
100
AcDbLayerTableRecord
  2
LAYER-033
 70
     0
 62
     7
  6
Continuous
370
    -3
390
F
  0
LAYER
  5
71
330
2
100
AcDbSymbolTableRecord
100
AcDbLayerTableRecord
  2
LAYER-034
 70
     0
 62
     7
  6
Continuous
370
    -3
390
F
  0
LAYER
  5
72
330
2
100
AcDbSymbolTableRecord
100
AcDbLayerTableRecord
  2
LAYER-035
 70
     0
 62
     3
  6
Continuous
370
    -3
390
F
  0
LAYER
  5
73
330
2
100
AcDbSymbolTableRecord
100
AcDbLayerTableRecord
  2
LAYER-036
 70
     0
 62
     2
  6
Continuous
370
    -3
390
F
  0
LAYER
  5
74
330
2
100
AcDbSymbolTableRecord
100
AcDbLayerTableRecord
  2
LAYER-037
 70
     0
 62
     7
  6
Continuous
370
    -3
390
F
  0
LAYER
  5
75
330
2
100
AcDbSymbolTableRecord
100
AcDbLayerTableRecord
  2
LAYER-038
 70
     0
 62
     7
  6
Continuous
370
    -3
390
F
  0
LAYER
  5
76
330
2
100
AcDbSymbolTableRecord
100
AcDbLayerTableRecord
  2
LAYER-039
 70
     0
 62
     7
  6
Continuous
370
    -3
390
F
  0
LAYER
  5
77
330
2
100
AcDbSymbolTableRecord
100
AcDbLayerTableRecord
  2
LAYER-040
 70
     0
 62
     7
  6
Continuous
370
    -3
390
F
  0
LAYER
  5
78
330
2
100
AcDbSymbolTableRecord
100
AcDbLayerTableRecord
  2
LAYER-041
 70
     0
 62
     7
  6
Continuous
370
    -3
390
F
  0
LAYER
  5
79
330
2
100
AcDbSymbolTableRecord
100
AcDbLayerTableRecord
  2
LAYER-042
 70
     0
 62
     7
  6
Continuous
370
    -3
390
F
  0
LAYER
  5
7A
330
2
100
AcDbSymbolTableRecord
100
AcDbLayerTableRecord
  2
LAYER-043
 70
     0
 62
     7
  6
Continuous
370
    -3
390
F
  0
LAYER
  5
7B
330
2
100
AcDbSymbolTableRecord
100
AcDbLayerTableRecord
  2
LAYER-044
 70
     0
 62
     7
  6
Continuous
370
    -3
390
F
  0
LAYER
  5
7C
330
2
100
AcDbSymbolTableRecord
100
AcDbLayerTableRecord
  2
LAYER-045
 70
     0
 62
     7
  6
Continuous
370
    -3
390
F
  0
LAYER
  5
7D
330
2
100
AcDbSymbolTableRecord
100
AcDbLayerTableRecord
  2
LAYER-046
 70
     0
 62
     7
  6
Continuous
370
    -3
390
F
  0
LAYER
  5
7E
330
2
100
AcDbSymbolTableRecord
100
AcDbLayerTableRecord
  2
LAYER-047
 70
     0
 62
     7
  6
Continuous
370
    -3
390
F
  0
LAYER
  5
7F
330
2
100
AcDbSymbolTableRecord
100
AcDbLayerTableRecord
  2
LAYER-048
 70
     0
 62
     2
  6
Continuous
370
    -3
390
F
  0
LAYER
  5
80
330
2
100
AcDbSymbolTableRecord
100
AcDbLayerTableRecord
  2
LAYER-049
 70
     0
 62
     3
  6
Continuous
370
    -3
390
F
  0
LAYER
  5
81
330
2
100
AcDbSymbolTableRecord
100
AcDbLayerTableRecord
  2
LAYER-050
 70
     0
 62
     7
  6
Continuous
370
    -3
390
F
  0
LAYER
  5
82
330
2
100
AcDbSymbolTableRecord
100
AcDbLayerTableRecord
  2
LAYER-051
 70
     0
 62
     2
  6
Continuous
370
    -3
390
F
  0
LAYER
  5
83
330
2
100
AcDbSymbolTableRecord
100
AcDbLayerTableRecord
  2
LAYER-052
 70
     0
 62
     7
  6
Continuous
370
    -3
390
F
  0
LAYER
  5
84
330
2
100
AcDbSymbolTableRecord
100
AcDbLayerTableRecord
  2
LAYER-053
 70
     0
 62
     7
  6
Continuous
370
    -3
390
F
  0
LAYER
  5
85
330
2
100
AcDbSymbolTableRecord
100
AcDbLayerTableRecord
  2
LAYER-054
 70
     0
 62
     7
  6
Continuous
370
    -3
390
F
  0
LAYER
  5
86
330
2
100
AcDbSymbolTableRecord
100
AcDbLayerTableRecord
  2
LAYER-055
 70
     0
 62
     7
  6
Continuous
370
    -3
390
F
  0
LAYER
  5
87
330
2
100
AcDbSymbolTableRecord
100
AcDbLayerTableRecord
  2
LAYER-056
 70
     0
 62
     7
  6
Continuous
370
    -3
390
F
  0
LAYER
  5
88
330
2
100
AcDbSymbolTableRecord
100
AcDbLayerTableRecord
  2
LAYER-057
 70
     0
 62
     7
  6
Continuous
370
    -3
390
F
  0
LAYER
  5
89
330
2
100
AcDbSymbolTableRecord
100
AcDbLayerTableRecord
  2
LAYER-058
 70
     0
 62
     7
  6
Continuous
370
    -3
390
F
  0
LAYER
  5
8A
330
2
100
AcDbSymbolTableRecord
100
AcDbLayerTableRecord
  2
LAYER-059
 70
     0
 62
     7
  6
Continuous
370
    -3
390
F
  0
LAYER
  5
8B
330
2
100
AcDbSymbolTableRecord
100
AcDbLayerTableRecord
  2
LAYER-060
 70
     0
 62
     7
  6
Continuous
370
    -3
390
F
  0
LAYER
  5
8C
330
2
100
AcDbSymbolTableRecord
100
AcDbLayerTableRecord
  2
LAYER-061
 70
     0
 62
     7
  6
Continuous
370
    -3
390
F
  0
LAYER
  5
8D
330
2
100
AcDbSymbolTableRecord
100
AcDbLayerTableRecord
  2
LAYER-062
 70
     0
 62
     7
  6
Continuous
370
    -3
390
F
  0
LAYER
  5
8E
330
2
100
AcDbSymbolTableRecord
100
AcDbLayerTableRecord
  2
LAYER-063
 70
     0
 62
     7
  6
Continuous
370
    -3
390
F
  0
LAYER
  5
8F
330
2
100
AcDbSymbolTableRecord
100
AcDbLayerTableRecord
  2
LAYER-064
 70
     0
 62
     2
  6
Continuous
370
    -3
390
F
  0
LAYER
  5
90
330
2
100
AcDbSymbolTableRecord
100
AcDbLayerTableRecord
  2
LAYER-065
 70
     0
 62
     7
  6
Continuous
370
    -3
390
F
  0
LAYER
  5
91
330
2
100
AcDbSymbolTableRecord
100
AcDbLayerTableRecord
  2
LAYER-066
 70
     0
 62
     2
  6
Continuous
370
    -3
390
F
  0
LAYER
  5
92
330
2
100
AcDbSymbolTableRecord
100
AcDbLayerTableRecord
  2
LAYER-067
 70
     0
 62
     2
  6
Continuous
370
    -3
390
F
  0
LAYER
  5
93
330
2
100
AcDbSymbolTableRecord
100
AcDbLayerTableRecord
  2
LAYER-068
 70
     0
 62
     7
  6
Continuous
370
    -3
390
F
  0
LAYER
  5
94
330
2
100
AcDbSymbolTableRecord
100
AcDbLayerTableRecord
  2
LAYER-069
 70
     0
 62
     7
  6
Continuous
370
    -3
390
F
  0
LAYER
  5
95
330
2
100
AcDbSymbolTableRecord
100
AcDbLayerTableRecord
  2
LAYER-070
 70
     0
 62
     7
  6
Continuous
370
    -3
390
F
  0
LAYER
  5
96
330
2
100
AcDbSymbolTableRecord
100
AcDbLayerTableRecord
  2
LAYER-071
 70
     0
 62
     7
  6
Continuous
370
    -3
390
F
  0
LAYER
  5
97
330
2
100
AcDbSymbolTableRecord
100
AcDbLayerTableRecord
  2
LAYER-072
 70
     0
 62
     7
  6
Continuous
370
    -3
390
F
  0
LAYER
  5
98
330
2
100
AcDbSymbolTableRecord
100
AcDbLayerTableRecord
  2
LAYER-073
 70
     0
 62
     7
  6
Continuous
370
    -3
390
F
  0
LAYER
  5
99
330
2
100
AcDbSymbolTableRecord
100
AcDbLayerTableRecord
  2
LAYER-074
 70
     0
 62
     7
  6
Continuous
370
    -3
390
F
  0
LAYER
  5
9A
330
2
100
AcDbSymbolTableRecord
100
AcDbLayerTableRecord
  2
LAYER-075
 70
     0
 62
     7
  6
Continuous
370
    -3
390
F
  0
LAYER
  5
9B
330
2
100
AcDbSymbolTableRecord
100
AcDbLayerTableRecord
  2
LAYER-076
 70
     0
 62
     7
  6
Continuous
370
    -3
390
F
  0
LAYER
  5
9C
330
2
100
AcDbSymbolTableRecord
100
AcDbLayerTableRecord
  2
LAYER-077
 70
     0
 62
     7
  6
Continuous
370
    -3
390
F
  0
LAYER
  5
9D
330
2
100
AcDbSymbolTableRecord
100
AcDbLayerTableRecord
  2
LAYER-078
 70
     0
 62
     7
  6
Continuous
370
    -3
390
F
  0
LAYER
  5
9E
330
2
100
AcDbSymbolTableRecord
100
AcDbLayerTableRecord
  2
LAYER-079
 70
     0
 62
     7
  6
Continuous
370
    -3
390
F
  0
LAYER
  5
9F
330
2
100
AcDbSymbolTableRecord
100
AcDbLayerTableRecord
  2
LAYER-080
 70
     0
 62
     2
  6
Continuous
370
    -3
390
F
  0
LAYER
  5
A0
330
2
100
AcDbSymbolTableRecord
100
AcDbLayerTableRecord
  2
LAYER-081
 70
     0
 62
     7
  6
Continuous
370
    -3
390
F
  0
LAYER
  5
A1
330
2
100
AcDbSymbolTableRecord
100
AcDbLayerTableRecord
  2
LAYER-082
 70
     0
 62
     7
  6
Continuous
370
    -3
390
F
  0
LAYER
  5
A2
330
2
100
AcDbSymbolTableRecord
100
AcDbLayerTableRecord
  2
LAYER-083
 70
     0
 62
     7
  6
Continuous
370
    -3
390
F
  0
LAYER
  5
A3
330
2
100
AcDbSymbolTableRecord
100
AcDbLayerTableRecord
  2
LAYER-084
 70
     0
 62
     7
  6
Continuous
370
    -3
390
F
  0
LAYER
  5
A4
330
2
100
AcDbSymbolTableRecord
100
AcDbLayerTableRecord
  2
LAYER-085
 70
     0
 62
     7
  6
Continuous
370
    -3
390
F
  0
LAYER
  5
A5
330
2
100
AcDbSymbolTableRecord
100
AcDbLayerTableRecord
  2
LAYER-086
 70
     0
 62
     7
  6
Continuous
370
    -3
390
F
  0
LAYER
  5
A6
330
2
100
AcDbSymbolTableRecord
100
AcDbLayerTableRecord
  2
LAYER-087
 70
     0
 62
     7
  6
Continuous
370
    -3
390
F
  0
LAYER
  5
A7
330
2
100
AcDbSymbolTableRecord
100
AcDbLayerTableRecord
  2
LAYER-088
 70
     0
 62
     7
  6
Continuous
370
    -3
390
F
  0
LAYER
  5
A8
330
2
100
AcDbSymbolTableRecord
100
AcDbLayerTableRecord
  2
LAYER-089
 70
     0
 62
     7
  6
Continuous
370
    -3
390
F
  0
LAYER
  5
A9
330
2
100
AcDbSymbolTableRecord
100
AcDbLayerTableRecord
  2
LAYER-090
 70
     0
 62
     7
  6
Continuous
370
    -3
390
F
  0
LAYER
  5
AA
330
2
100
AcDbSymbolTableRecord
100
AcDbLayerTableRecord
  2
LAYER-091
 70
     0
 62
     7
  6
Continuous
370
    -3
390
F
  0
LAYER
  5
AB
330
2
100
AcDbSymbolTableRecord
100
AcDbLayerTableRecord
  2
LAYER-092
 70
     0
 62
     7
  6
Continuous
370
    -3
390
F
  0
LAYER
  5
AC
330
2
100
AcDbSymbolTableRecord
100
AcDbLayerTableRecord
  2
LAYER-093
 70
     0
 62
     7
  6
Continuous
370
    -3
390
F
  0
LAYER
  5
AD
330
2
100
AcDbSymbolTableRecord
100
AcDbLayerTableRecord
  2
LAYER-094
 70
     0
 62
     7
  6
Continuous
370
    -3
390
F
  0
LAYER
  5
AE
330
2
100
AcDbSymbolTableRecord
100
AcDbLayerTableRecord
  2
LAYER-095
 70
     0
 62
     7
  6
Continuous
370
    -3
390
F
  0
LAYER
  5
AF
330
2
100
AcDbSymbolTableRecord
100
AcDbLayerTableRecord
  2
LAYER-096
 70
     0
 62
     7
  6
Continuous
370
    -3
390
F
  0
LAYER
  5
B0
330
2
100
AcDbSymbolTableRecord
100
AcDbLayerTableRecord
  2
LAYER-097
 70
     0
 62
     7
  6
Continuous
370
    -3
390
F
  0
LAYER
  5
B1
330
2
100
AcDbSymbolTableRecord
100
AcDbLayerTableRecord
  2
LAYER-098
 70
     0
 62
     7
  6
Continuous
370
    -3
390
F
  0
LAYER
  5
B2
330
2
100
AcDbSymbolTableRecord
100
AcDbLayerTableRecord
  2
LAYER-099
 70
     0
 62
     7
  6
Continuous
370
    -3
390
F
  0
LAYER
  5
B3
330
2
100
AcDbSymbolTableRecord
100
AcDbLayerTableRecord
  2
LAYER-100
 70
     0
 62
     7
  6
Continuous
370
    -3
390
F
  0
LAYER
  5
B4
330
2
100
AcDbSymbolTableRecord
100
AcDbLayerTableRecord
  2
LAYER-101
 70
     0
 62
     7
  6
Continuous
370
    -3
390
F
  0
LAYER
  5
B5
330
2
100
AcDbSymbolTableRecord
100
AcDbLayerTableRecord
  2
LAYER-102
 70
     0
 62
     7
  6
Continuous
370
    -3
390
F
  0
LAYER
  5
B6
330
2
100
AcDbSymbolTableRecord
100
AcDbLayerTableRecord
  2
LAYER-103
 70
     0
 62
     7
  6
Continuous
370
    -3
390
F
  0
LAYER
  5
B7
330
2
100
AcDbSymbolTableRecord
100
AcDbLayerTableRecord
  2
LAYER-104
 70
     0
 62
     7
  6
Continuous
370
    -3
390
F
  0
LAYER
  5
B8
330
2
100
AcDbSymbolTableRecord
100
AcDbLayerTableRecord
  2
LAYER-105
 70
     0
 62
     7
  6
Continuous
370
    -3
390
F
  0
LAYER
  5
B9
330
2
100
AcDbSymbolTableRecord
100
AcDbLayerTableRecord
  2
LAYER-106
 70
     0
 62
     7
  6
Continuous
370
    -3
390
F
  0
LAYER
  5
BA
330
2
100
AcDbSymbolTableRecord
100
AcDbLayerTableRecord
  2
LAYER-107
 70
     0
 62
     7
  6
Continuous
370
    -3
390
F
  0
LAYER
  5
BB
330
2
100
AcDbSymbolTableRecord
100
AcDbLayerTableRecord
  2
LAYER-108
 70
     0
 62
     7
  6
Continuous
370
    -3
390
F
  0
LAYER
  5
BC
330
2
100
AcDbSymbolTableRecord
100
AcDbLayerTableRecord
  2
LAYER-109
 70
     0
 62
     7
  6
Continuous
370
    -3
390
F
  0
LAYER
  5
BD
330
2
100
AcDbSymbolTableRecord
100
AcDbLayerTableRecord
  2
LAYER-110
 70
     0
 62
     7
  6
Continuous
370
    -3
390
F
  0
LAYER
  5
BE
330
2
100
AcDbSymbolTableRecord
100
AcDbLayerTableRecord
  2
LAYER-111
 70
     0
 62
     7
  6
Continuous
370
    -3
390
F
  0
LAYER
  5
BF
330
2
100
AcDbSymbolTableRecord
100
AcDbLayerTableRecord
  2
LAYER-112
 70
     0
 62
     7
  6
Continuous
370
    -3
390
F
  0
LAYER
  5
C0
330
2
100
AcDbSymbolTableRecord
100
AcDbLayerTableRecord
  2
LAYER-113
 70
     0
 62
     7
  6
Continuous
370
    -3
390
F
  0
LAYER
  5
C1
330
2
100
AcDbSymbolTableRecord
100
AcDbLayerTableRecord
  2
LAYER-114
 70
     0
 62
     7
  6
Continuous
370
    -3
390
F
  0
LAYER
  5
C2
330
2
100
AcDbSymbolTableRecord
100
AcDbLayerTableRecord
  2
LAYER-115
 70
     0
 62
     7
  6
Continuous
370
    -3
390
F
  0
LAYER
  5
C3
330
2
100
AcDbSymbolTableRecord
100
AcDbLayerTableRecord
  2
LAYER-116
 70
     0
 62
     7
  6
Continuous
370
    -3
390
F
  0
LAYER
  5
C4
330
2
100
AcDbSymbolTableRecord
100
AcDbLayerTableRecord
  2
LAYER-117
 70
     0
 62
     7
  6
Continuous
370
    -3
390
F
  0
LAYER
  5
C5
330
2
100
AcDbSymbolTableRecord
100
AcDbLayerTableRecord
  2
LAYER-118
 70
     0
 62
     7
  6
Continuous
370
    -3
390
F
  0
LAYER
  5
C6
330
2
100
AcDbSymbolTableRecord
100
AcDbLayerTableRecord
  2
LAYER-119
 70
     0
 62
     7
  6
Continuous
370
    -3
390
F
  0
LAYER
  5
C7
330
2
100
AcDbSymbolTableRecord
100
AcDbLayerTableRecord
  2
LAYER-120
 70
     0
 62
     7
  6
Continuous
370
    -3
390
F
  0
LAYER
  5
C8
330
2
100
AcDbSymbolTableRecord
100
AcDbLayerTableRecord
  2
LAYER-121
 70
     0
 62
     7
  6
Continuous
370
    -3
390
F
  0
LAYER
  5
C9
330
2
100
AcDbSymbolTableRecord
100
AcDbLayerTableRecord
  2
LAYER-122
 70
     0
 62
     7
  6
Continuous
370
    -3
390
F
  0
LAYER
  5
CA
330
2
100
AcDbSymbolTableRecord
100
AcDbLayerTableRecord
  2
LAYER-123
 70
     0
 62
     7
  6
Continuous
370
    -3
390
F
  0
LAYER
  5
CB
330
2
100
AcDbSymbolTableRecord
100
AcDbLayerTableRecord
  2
LAYER-124
 70
     0
 62
     7
  6
Continuous
370
    -3
390
F
  0
LAYER
  5
CC
330
2
100
AcDbSymbolTableRecord
100
AcDbLayerTableRecord
  2
LAYER-125
 70
     0
 62
     7
  6
Continuous
370
    -3
390
F
  0
LAYER
  5
CD
330
2
100
AcDbSymbolTableRecord
100
AcDbLayerTableRecord
  2
LAYER-126
 70
     0
 62
     7
  6
Continuous
370
    -3
390
F
  0
LAYER
  5
CE
330
2
100
AcDbSymbolTableRecord
100
AcDbLayerTableRecord
  2
LAYER-127
 70
     0
 62
     7
  6
Continuous
370
    -3
390
F
  0
LAYER
  5
CF
330
2
100
AcDbSymbolTableRecord
100
AcDbLayerTableRecord
  2
LAYER-128
 70
     0
 62
     7
  6
Continuous
370
    -3
390
F
  0
LAYER
  5
D0
330
2
100
AcDbSymbolTableRecord
100
AcDbLayerTableRecord
  2
LAYER-129
 70
     0
 62
     7
  6
Continuous
370
    -3
390
F
  0
LAYER
  5
D1
330
2
100
AcDbSymbolTableRecord
100
AcDbLayerTableRecord
  2
LAYER-130
 70
     0
 62
     7
  6
Continuous
370
    -3
390
F
  0
LAYER
  5
D2
330
2
100
AcDbSymbolTableRecord
100
AcDbLayerTableRecord
  2
LAYER-131
 70
     0
 62
     7
  6
Continuous
370
    -3
390
F
  0
LAYER
  5
D3
330
2
100
AcDbSymbolTableRecord
100
AcDbLayerTableRecord
  2
LAYER-132
 70
     0
 62
     7
  6
Continuous
370
    -3
390
F
  0
LAYER
  5
D4
330
2
100
AcDbSymbolTableRecord
100
AcDbLayerTableRecord
  2
LAYER-133
 70
     0
 62
     7
  6
Continuous
370
    -3
390
F
  0
LAYER
  5
D5
330
2
100
AcDbSymbolTableRecord
100
AcDbLayerTableRecord
  2
LAYER-134
 70
     0
 62
     7
  6
Continuous
370
    -3
390
F
  0
LAYER
  5
D6
330
2
100
AcDbSymbolTableRecord
100
AcDbLayerTableRecord
  2
LAYER-135
 70
     0
 62
    -4
  6
Continuous
370
    -3
390
F
  0
LAYER
  5
D7
330
2
100
AcDbSymbolTableRecord
100
AcDbLayerTableRecord
  2
LAYER-136
 70
     0
 62
    -3
  6
Continuous
370
    -3
390
F
  0
LAYER
  5
D8
330
2
100
AcDbSymbolTableRecord
100
AcDbLayerTableRecord
  2
LAYER-137
 70
     0
 62
    -1
  6
Continuous
370
    -3
390
F
  0
LAYER
  5
D9
330
2
100
AcDbSymbolTableRecord
100
AcDbLayerTableRecord
  2
LAYER-138
 70
     0
 62
     7
  6
Continuous
370
    -3
390
F
  0
LAYER
  5
DA
330
2
100
AcDbSymbolTableRecord
100
AcDbLayerTableRecord
  2
LAYER-139
 70
     0
 62
     7
  6
Continuous
370
    -3
390
F
  0
LAYER
  5
DB
330
2
100
AcDbSymbolTableRecord
100
AcDbLayerTableRecord
  2
LAYER-140
 70
     0
 62
     7
  6
Continuous
370
    -3
390
F
  0
LAYER
  5
DC
330
2
100
AcDbSymbolTableRecord
100
AcDbLayerTableRecord
  2
LAYER-141
 70
     0
 62
     7
  6
Continuous
370
    -3
390
F
  0
LAYER
  5
DD
330
2
100
AcDbSymbolTableRecord
100
AcDbLayerTableRecord
  2
LAYER-142
 70
     0
 62
     3
  6
Continuous
370
    -3
390
F
  0
LAYER
  5
DE
330
2
100
AcDbSymbolTableRecord
100
AcDbLayerTableRecord
  2
LAYER-143
 70
     0
 62
     7
  6
Continuous
370
    -3
390
F
  0
LAYER
  5
DF
330
2
100
AcDbSymbolTableRecord
100
AcDbLayerTableRecord
  2
LAYER-144
 70
     0
 62
     7
  6
Continuous
370
    -3
390
F
  0
LAYER
  5
E0
330
2
100
AcDbSymbolTableRecord
100
AcDbLayerTableRecord
  2
LAYER-145
 70
     0
 62
     3
  6
Continuous
370
    -3
390
F
  0
LAYER
  5
E1
330
2
100
AcDbSymbolTableRecord
100
AcDbLayerTableRecord
  2
LAYER-146
 70
     0
 62
     7
  6
Continuous
370
    -3
390
F
  0
LAYER
  5
E2
330
2
100
AcDbSymbolTableRecord
100
AcDbLayerTableRecord
  2
LAYER-147
 70
     0
 62
     7
  6
Continuous
370
    -3
390
F
  0
LAYER
  5
E3
330
2
100
AcDbSymbolTableRecord
100
AcDbLayerTableRecord
  2
LAYER-148
 70
     0
 62
     7
  6
Continuous
370
    -3
390
F
  0
LAYER
  5
E4
330
2
100
AcDbSymbolTableRecord
100
AcDbLayerTableRecord
  2
LAYER-149
 70
     0
 62
     7
  6
Continuous
370
    -3
390
F
  0
LAYER
  5
E5
330
2
100
AcDbSymbolTableRecord
100
AcDbLayerTableRecord
  2
LAYER-150
 70
     0
 62
     7
  6
Continuous
370
    -3
390
F
  0
LAYER
  5
E6
330
2
100
AcDbSymbolTableRecord
100
AcDbLayerTableRecord
  2
LAYER-151
 70
     0
 62
     7
  6
Continuous
370
    -3
390
F
  0
LAYER
  5
E7
330
2
100
AcDbSymbolTableRecord
100
AcDbLayerTableRecord
  2
LAYER-152
 70
     0
 62
     7
  6
Continuous
370
    -3
390
F
  0
LAYER
  5
E8
330
2
100
AcDbSymbolTableRecord
100
AcDbLayerTableRecord
  2
LAYER-153
 70
     0
 62
     7
  6
Continuous
370
    -3
390
F
  0
LAYER
  5
E9
330
2
100
AcDbSymbolTableRecord
100
AcDbLayerTableRecord
  2
LAYER-154
 70
     0
 62
     7
  6
Continuous
370
    -3
390
F
  0
LAYER
  5
EA
330
2
100
AcDbSymbolTableRecord
100
AcDbLayerTableRecord
  2
LAYER-155
 70
     0
 62
     7
  6
Continuous
370
    -3
390
F
  0
LAYER
  5
EB
330
2
100
AcDbSymbolTableRecord
100
AcDbLayerTableRecord
  2
LAYER-156
 70
     0
 62
     7
  6
Continuous
370
    -3
390
F
  0
LAYER
  5
EC
330
2
100
AcDbSymbolTableRecord
100
AcDbLayerTableRecord
  2
LAYER-157
 70
     0
 62
     7
  6
Continuous
370
    -3
390
F
  0
LAYER
  5
ED
330
2
100
AcDbSymbolTableRecord
100
AcDbLayerTableRecord
  2
LAYER-158
 70
     0
 62
     7
  6
Continuous
370
    -3
390
F
  0
LAYER
  5
EE
330
2
100
AcDbSymbolTableRecord
100
AcDbLayerTableRecord
  2
LAYER-159
 70
     0
 62
     7
  6
Continuous
370
    -3
390
F
  0
LAYER
  5
EF
330
2
100
AcDbSymbolTableRecord
100
AcDbLayerTableRecord
  2
LAYER-160
 70
     0
 62
     7
  6
Continuous
370
    -3
390
F
  0
LAYER
  5
F0
330
2
100
AcDbSymbolTableRecord
100
AcDbLayerTableRecord
  2
LAYER-161
 70
     0
 62
     7
  6
Continuous
370
    -3
390
F
  0
LAYER
  5
F1
330
2
100
AcDbSymbolTableRecord
100
AcDbLayerTableRecord
  2
LAYER-162
 70
     0
 62
     7
  6
Continuous
370
    -3
390
F
  0
LAYER
  5
F2
330
2
100
AcDbSymbolTableRecord
100
AcDbLayerTableRecord
  2
LAYER-163
 70
     0
 62
     7
  6
Continuous
370
    -3
390
F
  0
LAYER
  5
F3
330
2
100
AcDbSymbolTableRecord
100
AcDbLayerTableRecord
  2
LAYER-164
 70
     0
 62
     7
  6
Continuous
370
    -3
390
F
  0
LAYER
  5
F4
330
2
100
AcDbSymbolTableRecord
100
AcDbLayerTableRecord
  2
LAYER-165
 70
     0
 62
     7
  6
Continuous
370
    -3
390
F
  0
LAYER
  5
F5
330
2
100
AcDbSymbolTableRecord
100
AcDbLayerTableRecord
  2
LAYER-166
 70
     0
 62
     7
  6
Continuous
370
    -3
390
F
  0
LAYER
  5
F6
330
2
100
AcDbSymbolTableRecord
100
AcDbLayerTableRecord
  2
LAYER-167
 70
     0
 62
     7
  6
Continuous
370
    -3
390
F
  0
LAYER
  5
F7
330
2
100
AcDbSymbolTableRecord
100
AcDbLayerTableRecord
  2
LAYER-168
 70
     0
 62
     7
  6
Continuous
370
    -3
390
F
  0
LAYER
  5
F8
330
2
100
AcDbSymbolTableRecord
100
AcDbLayerTableRecord
  2
LAYER-169
 70
     0
 62
     7
  6
Continuous
370
    -3
390
F
  0
LAYER
  5
F9
330
2
100
AcDbSymbolTableRecord
100
AcDbLayerTableRecord
  2
LAYER-170
 70
     0
 62
     7
  6
Continuous
370
    -3
390
F
  0
LAYER
  5
FA
330
2
100
AcDbSymbolTableRecord
100
AcDbLayerTableRecord
  2
LAYER-171
 70
     0
 62
     7
  6
Continuous
370
    -3
390
F
  0
LAYER
  5
FB
330
2
100
AcDbSymbolTableRecord
100
AcDbLayerTableRecord
  2
LAYER-172
 70
     0
 62
     7
  6
Continuous
370
    -3
390
F
  0
LAYER
  5
FC
330
2
100
AcDbSymbolTableRecord
100
AcDbLayerTableRecord
  2
LAYER-173
 70
     0
 62
     7
  6
Continuous
370
    -3
390
F
  0
LAYER
  5
FD
330
2
100
AcDbSymbolTableRecord
100
AcDbLayerTableRecord
  2
LAYER-174
 70
     0
 62
     7
  6
Continuous
370
    -3
390
F
  0
LAYER
  5
FE
330
2
100
AcDbSymbolTableRecord
100
AcDbLayerTableRecord
  2
LAYER-175
 70
     0
 62
     7
  6
Continuous
370
    -3
390
F
  0
LAYER
  5
FF
330
2
100
AcDbSymbolTableRecord
100
AcDbLayerTableRecord
  2
LAYER-176
 70
     0
 62
     7
  6
Continuous
370
    -3
390
F
  0
LAYER
  5
100
330
2
100
AcDbSymbolTableRecord
100
AcDbLayerTableRecord
  2
LAYER-177
 70
     0
 62
     7
  6
Continuous
370
    -3
390
F
  0
LAYER
  5
101
330
2
100
AcDbSymbolTableRecord
100
AcDbLayerTableRecord
  2
LAYER-178
 70
     0
 62
     7
  6
Continuous
370
    -3
390
F
  0
LAYER
  5
102
330
2
100
AcDbSymbolTableRecord
100
AcDbLayerTableRecord
  2
LAYER-179
 70
     0
 62
     7
  6
Continuous
370
    -3
390
F
  0
LAYER
  5
103
330
2
100
AcDbSymbolTableRecord
100
AcDbLayerTableRecord
  2
LAYER-180
 70
     0
 62
     7
  6
Continuous
370
    -3
390
F
  0
LAYER
  5
104
330
2
100
AcDbSymbolTableRecord
100
AcDbLayerTableRecord
  2
LAYER-181
 70
     0
 62
     7
  6
Continuous
370
    -3
390
F
  0
LAYER
  5
105
330
2
100
AcDbSymbolTableRecord
100
AcDbLayerTableRecord
  2
LAYER-182
 70
     0
 62
     7
  6
Continuous
370
    -3
390
F
  0
LAYER
  5
106
330
2
100
AcDbSymbolTableRecord
100
AcDbLayerTableRecord
  2
LAYER-183
 70
     0
 62
     7
  6
Continuous
370
    -3
390
F
  0
LAYER
  5
107
330
2
100
AcDbSymbolTableRecord
100
AcDbLayerTableRecord
  2
LAYER-184
 70
     0
 62
     7
  6
Continuous
370
    -3
390
F
  0
LAYER
  5
108
330
2
100
AcDbSymbolTableRecord
100
AcDbLayerTableRecord
  2
LAYER-185
 70
     0
 62
     7
  6
Continuous
370
    -3
390
F
  0
LAYER
  5
109
330
2
100
AcDbSymbolTableRecord
100
AcDbLayerTableRecord
  2
LAYER-186
 70
     0
 62
     7
  6
Continuous
370
    -3
390
F
  0
LAYER
  5
10A
330
2
100
AcDbSymbolTableRecord
100
AcDbLayerTableRecord
  2
LAYER-187
 70
     0
 62
     7
  6
Continuous
370
    -3
390
F
  0
LAYER
  5
10B
330
2
100
AcDbSymbolTableRecord
100
AcDbLayerTableRecord
  2
LAYER-188
 70
     0
 62
     7
  6
Continuous
370
    -3
390
F
  0
LAYER
  5
10C
330
2
100
AcDbSymbolTableRecord
100
AcDbLayerTableRecord
  2
LAYER-189
 70
     0
 62
     7
  6
Continuous
370
    -3
390
F
  0
LAYER
  5
10D
330
2
100
AcDbSymbolTableRecord
100
AcDbLayerTableRecord
  2
LAYER-190
 70
     0
 62
     7
  6
Continuous
370
    -3
390
F
  0
LAYER
  5
10E
330
2
100
AcDbSymbolTableRecord
100
AcDbLayerTableRecord
  2
LAYER-191
 70
     0
 62
     7
  6
Continuous
370
    -3
390
F
  0
LAYER
  5
10F
330
2
100
AcDbSymbolTableRecord
100
AcDbLayerTableRecord
  2
LAYER-192
 70
     0
 62
     7
  6
Continuous
370
    -3
390
F
  0
LAYER
  5
110
330
2
100
AcDbSymbolTableRecord
100
AcDbLayerTableRecord
  2
LAYER-193
 70
     0
 62
     7
  6
Continuous
370
    -3
390
F
  0
LAYER
  5
111
330
2
100
AcDbSymbolTableRecord
100
AcDbLayerTableRecord
  2
LAYER-194
 70
     0
 62
     2
  6
Continuous
370
    -3
390
F
  0
LAYER
  5
112
330
2
100
AcDbSymbolTableRecord
100
AcDbLayerTableRecord
  2
LAYER-195
 70
     0
 62
     2
  6
Continuous
370
    -3
390
F
  0
LAYER
  5
113
330
2
100
AcDbSymbolTableRecord
100
AcDbLayerTableRecord
  2
LAYER-196
 70
     0
 62
     2
  6
Continuous
370
    -3
390
F
  0
LAYER
  5
114
330
2
100
AcDbSymbolTableRecord
100
AcDbLayerTableRecord
  2
LAYER-197
 70
     0
 62
     7
  6
Continuous
370
    -3
390
F
  0
LAYER
  5
115
330
2
100
AcDbSymbolTableRecord
100
AcDbLayerTableRecord
  2
LAYER-198
 70
     0
 62
     7
  6
Continuous
370
    -3
390
F
  0
LAYER
  5
116
330
2
100
AcDbSymbolTableRecord
100
AcDbLayerTableRecord
  2
LAYER-199
 70
     0
 62
     4
  6
Continuous
370
    -3
390
F
  0
LAYER
  5
117
330
2
100
AcDbSymbolTableRecord
100
AcDbLayerTableRecord
  2
LAYER-200
 70
     0
 62
     1
  6
Continuous
370
    -3
390
F
  0
LAYER
  5
118
330
2
100
AcDbSymbolTableRecord
100
AcDbLayerTableRecord
  2
LAYER-201
 70
     0
 62
     1
  6
Continuous
370
    -3
390
F
  0
LAYER
  5
119
330
2
100
AcDbSymbolTableRecord
100
AcDbLayerTableRecord
  2
LAYER-202
 70
     0
 62
     2
  6
Continuous
370
    -3
390
F
  0
LAYER
  5
11A
330
2
100
AcDbSymbolTableRecord
100
AcDbLayerTableRecord
  2
LAYER-203
 70
     0
 62
     2
  6
Continuous
370
    -3
390
F
  0
LAYER
  5
11B
330
2
100
AcDbSymbolTableRecord
100
AcDbLayerTableRecord
  2
LAYER-204
 70
     0
 62
     7
  6
Continuous
370
    -3
390
F
  0
LAYER
  5
11C
330
2
100
AcDbSymbolTableRecord
100
AcDbLayerTableRecord
  2
LAYER-205
 70
     0
 62
     7
  6
Continuous
370
    -3
390
F
  0
LAYER
  5
11D
330
2
100
AcDbSymbolTableRecord
100
AcDbLayerTableRecord
  2
LAYER-206
 70
     0
 62
     7
  6
Continuous
370
    -3
390
F
  0
LAYER
  5
11E
330
2
100
AcDbSymbolTableRecord
100
AcDbLayerTableRecord
  2
LAYER-207
 70
     0
 62
    -7
  6
Continuous
370
    -3
390
F
  0
LAYER
  5
11F
330
2
100
AcDbSymbolTableRecord
100
AcDbLayerTableRecord
  2
LAYER-208
 70
     0
 62
     2
  6
Continuous
370
    -3
390
F
  0
LAYER
  5
120
330
2
100
AcDbSymbolTableRecord
100
AcDbLayerTableRecord
  2
LAYER-209
 70
     0
 62
     7
  6
Continuous
370
    -3
390
F
  0
LAYER
  5
121
330
2
100
AcDbSymbolTableRecord
100
AcDbLayerTableRecord
  2
LAYER-210
 70
     0
 62
     2
  6
Continuous
290
     0
370
    -3
390
F
  0
LAYER
  5
122
330
2
100
AcDbSymbolTableRecord
100
AcDbLayerTableRecord
  2
LAYER-211
 70
     0
 62
     7
  6
Continuous
370
    -3
390
F
  0
LAYER
  5
123
330
2
100
AcDbSymbolTableRecord
100
AcDbLayerTableRecord
  2
LAYER-212
 70
     0
 62
     7
  6
Continuous
370
    -3
390
F
  0
LAYER
  5
124
330
2
100
AcDbSymbolTableRecord
100
AcDbLayerTableRecord
  2
LAYER-213
 70
     0
 62
     2
  6
Continuous
370
    -3
390
F
  0
LAYER
  5
125
330
2
100
AcDbSymbolTableRecord
100
AcDbLayerTableRecord
  2
LAYER-214
 70
     0
 62
     7
  6
Continuous
370
    -3
390
F
  0
LAYER
  5
126
330
2
100
AcDbSymbolTableRecord
100
AcDbLayerTableRecord
  2
LAYER-215
 70
     0
 62
     7
  6
Continuous
370
    -3
390
F
  0
LAYER
  5
127
330
2
100
AcDbSymbolTableRecord
100
AcDbLayerTableRecord
  2
LAYER-216
 70
     0
 62
     4
  6
Continuous
370
    -3
390
F
  0
LAYER
  5
128
330
2
100
AcDbSymbolTableRecord
100
AcDbLayerTableRecord
  2
LAYER-217
 70
     0
 62
     7
  6
Continuous
370
    -3
390
F
  0
LAYER
  5
129
330
2
100
AcDbSymbolTableRecord
100
AcDbLayerTableRecord
  2
LAYER-218
 70
     0
 62
     7
  6
Continuous
370
    -3
390
F
  0
LAYER
  5
12A
330
2
100
AcDbSymbolTableRecord
100
AcDbLayerTableRecord
  2
LAYER-219
 70
     0
 62
     7
  6
Continuous
370
    -3
390
F
  0
LAYER
  5
12B
330
2
100
AcDbSymbolTableRecord
100
AcDbLayerTableRecord
  2
LAYER-220
 70
     0
 62
     4
  6
Continuous
370
    -3
390
F
  0
LAYER
  5
12C
330
2
100
AcDbSymbolTableRecord
100
AcDbLayerTableRecord
  2
LAYER-221
 70
     0
 62
    -7
  6
Continuous
290
     0
370
    -3
390
F
  0
LAYER
  5
12D
330
2
100
AcDbSymbolTableRecord
100
AcDbLayerTableRecord
  2
LAYER-222
 70
     0
 62
    -4
  6
Continuous
290
     0
370
    -3
390
F
  0
LAYER
  5
12E
330
2
100
AcDbSymbolTableRecord
100
AcDbLayerTableRecord
  2
LAYER-223
 70
     0
 62
    -1
  6
Continuous
290
     0
370
    -3
390
F
  0
LAYER
  5
12F
330
2
100
AcDbSymbolTableRecord
100
AcDbLayerTableRecord
  2
LAYER-224
 70
     0
 62
    -1
  6
Continuous
290
     0
370
    -3
390
F
  0
LAYER
  5
130
330
2
100
AcDbSymbolTableRecord
100
AcDbLayerTableRecord
  2
LAYER-225
 70
     0
 62
     7
  6
Continuous
370
    -3
390
F
  0
LAYER
  5
131
330
2
100
AcDbSymbolTableRecord
100
AcDbLayerTableRecord
  2
LAYER-226
 70
     0
 62
     2
  6
Continuous
370
    -3
390
F
  0
LAYER
  5
132
330
2
100
AcDbSymbolTableRecord
100
AcDbLayerTableRecord
  2
LAYER-227
 70
     0
 62
     7
  6
Continuous
370
    -3
390
F
  0
LAYER
  5
133
330
2
100
AcDbSymbolTableRecord
100
AcDbLayerTableRecord
  2
LAYER-228
 70
     0
 62
     7
  6
Continuous
370
    -3
390
F
  0
LAYER
  5
134
330
2
100
AcDbSymbolTableRecord
100
AcDbLayerTableRecord
  2
LAYER-229
 70
     0
 62
     7
  6
Continuous
370
    -3
390
F
  0
LAYER
  5
135
330
2
100
AcDbSymbolTableRecord
100
AcDbLayerTableRecord
  2
LAYER-230
 70
     0
 62
     7
  6
Continuous
370
    -3
390
F
  0
LAYER
  5
136
330
2
100
AcDbSymbolTableRecord
100
AcDbLayerTableRecord
  2
LAYER-231
 70
     0
 62
     7
  6
Continuous
370
    -3
390
F
  0
LAYER
  5
137
330
2
100
AcDbSymbolTableRecord
100
AcDbLayerTableRecord
  2
LAYER-232
 70
     0
 62
     7
  6
Continuous
370
    -3
390
F
  0
LAYER
  5
138
330
2
100
AcDbSymbolTableRecord
100
AcDbLayerTableRecord
  2
LAYER-233
 70
     0
 62
     7
  6
Continuous
370
    -3
390
F
  0
LAYER
  5
139
330
2
100
AcDbSymbolTableRecord
100
AcDbLayerTableRecord
  2
LAYER-234
 70
     0
 62
     7
  6
Continuous
370
    -3
390
F
  0
LAYER
  5
13A
330
2
100
AcDbSymbolTableRecord
100
AcDbLayerTableRecord
  2
LAYER-235
 70
     0
 62
     7
  6
Continuous
370
    -3
390
F
  0
LAYER
  5
13B
330
2
100
AcDbSymbolTableRecord
100
AcDbLayerTableRecord
  2
LAYER-236
 70
     0
 62
     7
  6
Continuous
370
    -3
390
F
  0
LAYER
  5
13C
330
2
100
AcDbSymbolTableRecord
100
AcDbLayerTableRecord
  2
LAYER-237
 70
     0
 62
     7
  6
Continuous
370
    -3
390
F
  0
LAYER
  5
13D
330
2
100
AcDbSymbolTableRecord
100
AcDbLayerTableRecord
  2
LAYER-238
 70
     0
 62
     7
  6
Continuous
370
    -3
390
F
  0
LAYER
  5
13E
330
2
100
AcDbSymbolTableRecord
100
AcDbLayerTableRecord
  2
LAYER-239
 70
     0
 62
     7
  6
Continuous
370
    -3
390
F
  0
LAYER
  5
13F
330
2
100
AcDbSymbolTableRecord
100
AcDbLayerTableRecord
  2
LAYER-240
 70
     0
 62
     7
  6
Continuous
370
    -3
390
F
  0
LAYER
  5
140
330
2
100
AcDbSymbolTableRecord
100
AcDbLayerTableRecord
  2
LAYER-241
 70
     0
 62
     7
  6
Continuous
370
    -3
390
F
  0
LAYER
  5
141
330
2
100
AcDbSymbolTableRecord
100
AcDbLayerTableRecord
  2
LAYER-242
 70
     0
 62
     7
  6
Continuous
370
    -3
390
F
  0
LAYER
  5
142
330
2
100
AcDbSymbolTableRecord
100
AcDbLayerTableRecord
  2
LAYER-243
 70
     0
 62
     7
  6
Continuous
370
    -3
390
F
  0
LAYER
  5
143
330
2
100
AcDbSymbolTableRecord
100
AcDbLayerTableRecord
  2
LAYER-244
 70
     0
 62
     7
  6
Continuous
370
    -3
390
F
  0
LAYER
  5
144
330
2
100
AcDbSymbolTableRecord
100
AcDbLayerTableRecord
  2
LAYER-245
 70
     0
 62
     7
  6
Continuous
370
    -3
390
F
  0
LAYER
  5
145
330
2
100
AcDbSymbolTableRecord
100
AcDbLayerTableRecord
  2
LAYER-246
 70
     0
 62
     7
  6
Continuous
370
    -3
390
F
  0
LAYER
  5
146
330
2
100
AcDbSymbolTableRecord
100
AcDbLayerTableRecord
  2
LAYER-247
 70
     0
 62
     7
  6
Continuous
370
    -3
390
F
  0
LAYER
  5
147
330
2
100
AcDbSymbolTableRecord
100
AcDbLayerTableRecord
  2
LAYER-248
 70
     0
 62
     7
  6
Continuous
370
    -3
390
F
  0
LAYER
  5
148
330
2
100
AcDbSymbolTableRecord
100
AcDbLayerTableRecord
  2
LAYER-249
 70
     0
 62
     7
  6
Continuous
370
    -3
390
F
  0
LAYER
  5
149
330
2
100
AcDbSymbolTableRecord
100
AcDbLayerTableRecord
  2
LAYER-250
 70
     0
 62
     7
  6
Continuous
370
    -3
390
F
  0
LAYER
  5
14A
330
2
100
AcDbSymbolTableRecord
100
AcDbLayerTableRecord
  2
LAYER-251
 70
     0
 62
     7
  6
Continuous
370
    -3
390
F
  0
LAYER
  5
14B
330
2
100
AcDbSymbolTableRecord
100
AcDbLayerTableRecord
  2
LAYER-252
 70
     0
 62
     7
  6
Continuous
370
    -3
390
F
  0
LAYER
  5
14C
330
2
100
AcDbSymbolTableRecord
100
AcDbLayerTableRecord
  2
LAYER-253
 70
     0
 62
     7
  6
Continuous
370
    -3
390
F
  0
LAYER
  5
14D
330
2
100
AcDbSymbolTableRecord
100
AcDbLayerTableRecord
  2
LAYER-254
 70
     0
 62
     7
  6
Continuous
370
    -3
390
F
  0
LAYER
  5
14E
330
2
100
AcDbSymbolTableRecord
100
AcDbLayerTableRecord
  2
LAYER-255
 70
     0
 62
     7
  6
Continuous
370
    -3
390
F
  0
LAYER
  5
14F
330
2
100
AcDbSymbolTableRecord
100
AcDbLayerTableRecord
  2
LAYER-256
 70
     0
 62
     7
  6
Continuous
370
    -3
390
F
  0
LAYER
  5
150
330
2
100
AcDbSymbolTableRecord
100
AcDbLayerTableRecord
  2
SUPLINE
 70
     0
 62
    -7
  6
Continuous
290
     0
370
    -3
390
F
  0
ENDTAB
  0
TABLE
  2
STYLE
  5
3
330
0
100
AcDbSymbolTable
 70
     7
  0
STYLE
  5
11
330
3
100
AcDbSymbolTableRecord
100
AcDbTextStyleTableRecord
  2
Standard
 70
     0
 40
0.0
 41
1.0
 50
0.0
 71
     0
 42
2.5
  3
txt
  4

  0
STYLE
  5
31
330
3
100
AcDbSymbolTableRecord
100
AcDbTextStyleTableRecord
  2
STANDARD2
 70
     0
 40
0.0
 41
1.0
 50
0.0
 71
     0
 42
4.0
  3
txt.shx
  4
bigfont.shx
  0
STYLE
  5
32
330
3
100
AcDbSymbolTableRecord
100
AcDbTextStyleTableRecord
  2
STRING_H
 70
     0
 40
0.0
 41
1.0
 50
0.0
 71
     0
 42
4.0
  3
txt.shx
  4
bigfont.shx
  0
STYLE
  5
33
330
3
100
AcDbSymbolTableRecord
100
AcDbTextStyleTableRecord
  2
STRING_H_ITALIC
 70
     0
 40
0.0
 41
1.0
 50
15.0
 71
     0
 42
4.0
  3
txt.shx
  4
bigfont.shx
  0
STYLE
  5
34
330
3
100
AcDbSymbolTableRecord
100
AcDbTextStyleTableRecord
  2
STRING_V
 70
     4
 40
0.0
 41
1.0
 50
0.0
 71
     0
 42
4.0
  3
txt.shx
  4
bigfont.shx
  0
STYLE
  5
35
330
3
100
AcDbSymbolTableRecord
100
AcDbTextStyleTableRecord
  2
STRING_V_ITALIC
 70
     4
 40
0.0
 41
1.0
 50
15.0
 71
     0
 42
4.0
  3
txt.shx
  4
bigfont.shx
  0
STYLE
  5
36
330
3
100
AcDbSymbolTableRecord
100
AcDbTextStyleTableRecord
  2

 70
     1
 40
0.0
 41
1.0
 50
0.0
 71
     0
 42
0.2
  3
ltypeshp.shx
  4

  0
ENDTAB
  0
TABLE
  2
VIEW
  5
6
330
0
100
AcDbSymbolTable
 70
     0
  0
ENDTAB
  0
TABLE
  2
UCS
  5
7
330
0
100
AcDbSymbolTable
 70
     0
  0
ENDTAB
  0
TABLE
  2
APPID
  5
9
330
0
100
AcDbSymbolTable
 70
     1
  0
APPID
  5
12
330
9
100
AcDbSymbolTableRecord
100
AcDbRegAppTableRecord
  2
ACAD
 70
     0
  0
ENDTAB
  0
TABLE
  2
DIMSTYLE
  5
A
330
0
100
AcDbSymbolTable
 70
     2
100
AcDbDimStyleTable
  0
DIMSTYLE
105
27
330
A
100
AcDbSymbolTableRecord
100
AcDbDimStyleTableRecord
  2
ISO-25
 70
     0
 41
2.5
 42
0.625
 43
3.75
 44
1.25
 73
     0
 74
     0
 77
     1
 78
     8
140
2.5
141
2.5
143
0.03937007874016
147
0.625
171
     3
172
     1
271
     2
272
     2
274
     3
283
     0
284
     8
340
11
  0
DIMSTYLE
105
151
102
{ACAD_REACTORS
330
3BD
330
3C7
330
3D1
330
3DB
330
3E5
330
3EF
330
3F9
330
403
330
40F
102
}
330
A
100
AcDbSymbolTableRecord
100
AcDbDimStyleTableRecord
  2
DIO_DIMSTYLE
 70
     0
 41
4.0
 42
1.0
 43
3.75
 44
1.0
 45
0.1
 73
     0
 74
     0
 77
     1
 78
     8
 79
     2
140
3.0
141
2.5
143
0.03937007874016
147
0.5
171
     3
172
     1
173
     1
179
     1
271
     1
272
     1
274
     3
283
     0
284
     8
288
     1
289
     0
340
31
  0
ENDTAB
  0
TABLE
  2
BLOCK_RECORD
  5
1
330
0
100
AcDbSymbolTable
 70
    11
  0
BLOCK_RECORD
  5
1F
330
1
100
AcDbSymbolTableRecord
100
AcDbBlockTableRecord
  2
*Model_Space
340
22
  0
BLOCK_RECORD
  5
1B
330
1
100
AcDbSymbolTableRecord
100
AcDbBlockTableRecord
  2
*Paper_Space
340
1E
  0
BLOCK_RECORD
  5
23
330
1
100
AcDbSymbolTableRecord
100
AcDbBlockTableRecord
  2
*Paper_Space0
340
26
  0
BLOCK_RECORD
  5
3AE
330
1
100
AcDbSymbolTableRecord
100
AcDbBlockTableRecord
  2
_OPEN
340
0
102
{BLKREFS
331
3B7
331
3B8
331
3C1
331
3C2
331
3CB
331
3CC
331
3D5
331
3D6
331
3DF
331
3E0
331
3E9
331
3EA
331
3F3
331
3F4
331
3FD
331
3FE
331
407
331
408
102
}
  0
BLOCK_RECORD
  5
3B4
330
1
100
AcDbSymbolTableRecord
100
AcDbBlockTableRecord
  2
*D02
340
0
  0
BLOCK_RECORD
  5
3BE
330
1
100
AcDbSymbolTableRecord
100
AcDbBlockTableRecord
  2
*D13
340
0
  0
BLOCK_RECORD
  5
3C8
330
1
100
AcDbSymbolTableRecord
100
AcDbBlockTableRecord
  2
*D24
340
0
  0
BLOCK_RECORD
  5
3D2
330
1
100
AcDbSymbolTableRecord
100
AcDbBlockTableRecord
  2
*D35
340
0
  0
BLOCK_RECORD
  5
3DC
330
1
100
AcDbSymbolTableRecord
100
AcDbBlockTableRecord
  2
*D46
340
0
  0
BLOCK_RECORD
  5
3E6
330
1
100
AcDbSymbolTableRecord
100
AcDbBlockTableRecord
  2
*D57
340
0
  0
BLOCK_RECORD
  5
3F0
330
1
100
AcDbSymbolTableRecord
100
AcDbBlockTableRecord
  2
*D68
340
0
  0
BLOCK_RECORD
  5
3FA
330
1
100
AcDbSymbolTableRecord
100
AcDbBlockTableRecord
  2
*D79
340
0
  0
BLOCK_RECORD
  5
404
330
1
100
AcDbSymbolTableRecord
100
AcDbBlockTableRecord
  2
*D810
340
0
  0
ENDTAB
  0
ENDSEC
  0
SECTION
  2
BLOCKS
  0
BLOCK
  5
20
330
1F
100
AcDbEntity
  8
0
100
AcDbBlockBegin
  2
*Model_Space
 70
     0
 71
     0
 10
0.0
 20
0.0
 30
0.0
  3
*Model_Space
  1

  0
ENDBLK
  5
21
330
1F
100
AcDbEntity
  8
0
100
AcDbBlockEnd
  0
BLOCK
  5
1C
330
1B
100
AcDbEntity
 67
     1
  8
0
100
AcDbBlockBegin
  2
*Paper_Space
 70
     0
 71
     0
 10
0.0
 20
0.0
 30
0.0
  3
*Paper_Space
  1

  0
ENDBLK
  5
1D
330
1B
100
AcDbEntity
 67
     1
  8
0
100
AcDbBlockEnd
  0
BLOCK
  5
24
330
23
100
AcDbEntity
  8
0
100
AcDbBlockBegin
  2
*Paper_Space0
 70
     0
 71
     0
 10
0.0
 20
0.0
 30
0.0
  3
*Paper_Space0
  1

  0
ENDBLK
  5
25
330
23
100
AcDbEntity
  8
0
100
AcDbBlockEnd
  0
BLOCK
  5
3AF
330
3AE
100
AcDbEntity
  8
0
100
AcDbBlockBegin
  2
_OPEN
 70
     0
 71
     0
 10
0.0
 20
0.0
 30
0.0
  3
_OPEN
  1

  0
LINE
  5
3B1
330
3AE
100
AcDbEntity
  8
LAYER-035
  6
Continuous
 62
     0
100
AcDbLine
 10
0.0
 20
0.0
 30
0.0
 11
-1.0
 21
0.0
 31
0.0
  0
LINE
  5
3B2
330
3AE
100
AcDbEntity
  8
LAYER-035
  6
Continuous
 62
     0
100
AcDbLine
 10
0.0
 20
0.0
 30
0.0
 11
-1.0
 21
0.1666250109338451
 31
0.0
  0
LINE
  5
3B3
330
3AE
100
AcDbEntity
  8
LAYER-035
  6
Continuous
 62
     0
100
AcDbLine
 10
0.0
 20
0.0
 30
0.0
 11
-1.0
 21
-0.1666250109338451
 31
0.0
  0
ENDBLK
  5
3B0
330
3AE
100
AcDbEntity
  8
0
100
AcDbBlockEnd
  0
BLOCK
  5
3B5
330
3B4
100
AcDbEntity
  8
0
100
AcDbBlockBegin
  2
*D02
 70
     1
 71
     0
 10
0.0
 20
0.0
 30
0.0
  3
*D02
  1

  0
INSERT
  5
3B7
330
3B4
100
AcDbEntity
  8
LAYER-035
  6
Continuous
 62
     5
100
AcDbBlockReference
  2
_OPEN
 10
-400.909626600208
 20
-469.0017956444202
 30
0.0
 41
4.0
 42
4.0
 43
4.0
 50
180.0
  0
INSERT
  5
3B8
330
3B4
100
AcDbEntity
  8
LAYER-035
  6
Continuous
 62
     5
100
AcDbBlockReference
  2
_OPEN
 10
-20.90962660020801
 20
-469.0017956444202
 30
0.0
 41
4.0
 42
4.0
 43
4.0
  0
LINE
  5
3B9
330
3B4
100
AcDbEntity
  8
LAYER-035
  6
Continuous
 62
     5
100
AcDbLine
 10
-400.909626600208
 20
-439.8608596539461
 30
0.0
 11
-400.909626600208
 21
-470.0017956444202
 31
0.0
  0
LINE
  5
3BA
330
3B4
100
AcDbEntity
  8
LAYER-035
  6
Continuous
 62
     5
100
AcDbLine
 10
-20.90962660020801
 20
-439.8608596539461
 30
0.0
 11
-20.90962660020801
 21
-470.0017956444202
 31
0.0
  0
LINE
  5
3BB
330
3B4
100
AcDbEntity
  8
LAYER-035
  6
Continuous
 62
     5
100
AcDbLine
 10
-400.909626600208
 20
-469.0017956444202
 30
0.0
 11
-20.90962660020801
 21
-469.0017956444202
 31
0.0
  0
MTEXT
  5
3BC
330
3B4
100
AcDbEntity
  8
LAYER-036
  6
Continuous
 62
     5
100
AcDbMText
 10
-210.909626600208
 20
-468.5017956444202
 30
0.0
 40
10.0
 41
0.0
 71
     8
 72
     1
  1
380
  7
STRING_H
 73
     1
 44
1.0
  0
ENDBLK
  5
3B6
330
3B4
100
AcDbEntity
  8
0
100
AcDbBlockEnd
  0
BLOCK
  5
3BF
330
3BE
100
AcDbEntity
  8
0
100
AcDbBlockBegin
  2
*D13
 70
     1
 71
     0
 10
0.0
 20
0.0
 30
0.0
  3
*D13
  1

  0
INSERT
  5
3C1
330
3BE
100
AcDbEntity
  8
LAYER-035
  6
Continuous
 62
     5
100
AcDbBlockReference
  2
_OPEN
 10
164.0331993721535
 20
-494.6642602700668
 30
0.0
 41
4.0
 42
4.0
 43
4.0
 50
180.0
  0
INSERT
  5
3C2
330
3BE
100
AcDbEntity
  8
LAYER-035
  6
Continuous
 62
     5
100
AcDbBlockReference
  2
_OPEN
 10
464.0331993721535
 20
-494.6642602700668
 30
0.0
 41
4.0
 42
4.0
 43
4.0
  0
LINE
  5
3C3
330
3BE
100
AcDbEntity
  8
LAYER-035
  6
Continuous
 62
     5
100
AcDbLine
 10
164.0331993721535
 20
-432.3157974773602
 30
0.0
 11
164.0331993721535
 21
-495.6642602700668
 31
0.0
  0
LINE
  5
3C4
330
3BE
100
AcDbEntity
  8
LAYER-035
  6
Continuous
 62
     5
100
AcDbLine
 10
464.0331993721535
 20
-432.3157974773602
 30
0.0
 11
464.0331993721535
 21
-495.6642602700668
 31
0.0
  0
LINE
  5
3C5
330
3BE
100
AcDbEntity
  8
LAYER-035
  6
Continuous
 62
     5
100
AcDbLine
 10
164.0331993721535
 20
-494.6642602700668
 30
0.0
 11
464.0331993721535
 21
-494.6642602700668
 31
0.0
  0
MTEXT
  5
3C6
330
3BE
100
AcDbEntity
  8
LAYER-036
  6
Continuous
 62
     5
100
AcDbMText
 10
314.0331993721535
 20
-494.1642602700668
 30
0.0
 40
10.0
 41
0.0
 71
     8
 72
     1
  1
300
  7
STRING_H
 73
     1
 44
1.0
  0
ENDBLK
  5
3C0
330
3BE
100
AcDbEntity
  8
0
100
AcDbBlockEnd
  0
BLOCK
  5
3C9
330
3C8
100
AcDbEntity
  8
0
100
AcDbBlockBegin
  2
*D24
 70
     1
 71
     0
 10
0.0
 20
0.0
 30
0.0
  3
*D24
  1

  0
INSERT
  5
3CB
330
3C8
100
AcDbEntity
  8
LAYER-035
  6
Continuous
 62
     5
100
AcDbBlockReference
  2
_OPEN
 10
184.0331993721535
 20
-469.0017956444202
 30
0.0
 41
4.0
 42
4.0
 43
4.0
 50
180.0
  0
INSERT
  5
3CC
330
3C8
100
AcDbEntity
  8
LAYER-035
  6
Continuous
 62
     5
100
AcDbBlockReference
  2
_OPEN
 10
444.0331993721535
 20
-469.0017956444202
 30
0.0
 41
4.0
 42
4.0
 43
4.0
  0
LINE
  5
3CD
330
3C8
100
AcDbEntity
  8
LAYER-035
  6
Continuous
 62
     5
100
AcDbLine
 10
184.0331993721535
 20
-439.0741112886718
 30
0.0
 11
184.0331993721535
 21
-470.0017956444202
 31
0.0
  0
LINE
  5
3CE
330
3C8
100
AcDbEntity
  8
LAYER-035
  6
Continuous
 62
     5
100
AcDbLine
 10
444.0331993721535
 20
-439.0741112886718
 30
0.0
 11
444.0331993721535
 21
-470.0017956444202
 31
0.0
  0
LINE
  5
3CF
330
3C8
100
AcDbEntity
  8
LAYER-035
  6
Continuous
 62
     5
100
AcDbLine
 10
184.0331993721535
 20
-469.0017956444202
 30
0.0
 11
444.0331993721535
 21
-469.0017956444202
 31
0.0
  0
MTEXT
  5
3D0
330
3C8
100
AcDbEntity
  8
LAYER-036
  6
Continuous
 62
     5
100
AcDbMText
 10
314.0331993721535
 20
-468.5017956444202
 30
0.0
 40
10.0
 41
0.0
 71
     8
 72
     1
  1
260
  7
STRING_H
 73
     1
 44
1.0
  0
ENDBLK
  5
3CA
330
3C8
100
AcDbEntity
  8
0
100
AcDbBlockEnd
  0
BLOCK
  5
3D3
330
3D2
100
AcDbEntity
  8
0
100
AcDbBlockBegin
  2
*D35
 70
     1
 71
     0
 10
0.0
 20
0.0
 30
0.0
  3
*D35
  1

  0
INSERT
  5
3D5
330
3D2
100
AcDbEntity
  8
LAYER-035
  6
Continuous
 62
     5
100
AcDbBlockReference
  2
_OPEN
 10
444.0331993721535
 20
-320.4116313674398
 30
0.0
 41
4.0
 42
4.0
 43
4.0
  0
INSERT
  5
3D6
330
3D2
100
AcDbEntity
  8
LAYER-035
  6
Continuous
 62
     5
100
AcDbBlockReference
  2
_OPEN
 10
184.0331993721535
 20
-320.4116313674398
 30
0.0
 41
4.0
 42
4.0
 43
4.0
 50
180.0
  0
LINE
  5
3D7
330
3D2
100
AcDbEntity
  8
LAYER-035
  6
Continuous
 62
     5
100
AcDbLine
 10
444.0331993721535
 20
-179.0371136107181
 30
0.0
 11
444.0331993721535
 21
-321.4116313674398
 31
0.0
  0
LINE
  5
3D8
330
3D2
100
AcDbEntity
  8
LAYER-035
  6
Continuous
 62
     5
100
AcDbLine
 10
184.0331993721535
 20
-179.0371136107181
 30
0.0
 11
184.0331993721535
 21
-321.4116313674398
 31
0.0
  0
LINE
  5
3D9
330
3D2
100
AcDbEntity
  8
LAYER-035
  6
Continuous
 62
     5
100
AcDbLine
 10
444.0331993721535
 20
-320.4116313674398
 30
0.0
 11
184.0331993721535
 21
-320.4116313674398
 31
0.0
  0
MTEXT
  5
3DA
330
3D2
100
AcDbEntity
  8
LAYER-036
  6
Continuous
 62
     5
100
AcDbMText
 10
295.4041205240893
 20
-319.9116313674398
 30
0.0
 40
10.0
 41
0.0
 71
     8
 72
     1
  1
260
  7
STRING_H
 73
     1
 44
1.0
  0
ENDBLK
  5
3D4
330
3D2
100
AcDbEntity
  8
0
100
AcDbBlockEnd
  0
BLOCK
  5
3DD
330
3DC
100
AcDbEntity
  8
0
100
AcDbBlockBegin
  2
*D46
 70
     1
 71
     0
 10
0.0
 20
0.0
 30
0.0
  3
*D46
  1

  0
INSERT
  5
3DF
330
3DC
100
AcDbEntity
  8
LAYER-035
  6
Continuous
 62
     5
100
AcDbBlockReference
  2
_OPEN
 10
494.0331993721535
 20
-320.4116313674398
 30
0.0
 41
4.0
 42
4.0
 43
4.0
  0
INSERT
  5
3E0
330
3DC
100
AcDbEntity
  8
LAYER-035
  6
Continuous
 62
     5
100
AcDbBlockReference
  2
_OPEN
 10
444.0331993721535
 20
-320.4116313674398
 30
0.0
 41
4.0
 42
4.0
 43
4.0
 50
180.0
  0
LINE
  5
3E1
330
3DC
100
AcDbEntity
  8
LAYER-035
  6
Continuous
 62
     5
100
AcDbLine
 10
494.0331993721535
 20
-74.84184067346621
 30
0.0
 11
494.0331993721535
 21
-321.4116313674398
 31
0.0
  0
LINE
  5
3E2
330
3DC
100
AcDbEntity
  8
LAYER-035
  6
Continuous
 62
     5
100
AcDbLine
 10
444.0331993721535
 20
-179.0371136107181
 30
0.0
 11
444.0331993721535
 21
-321.4116313674398
 31
0.0
  0
LINE
  5
3E3
330
3DC
100
AcDbEntity
  8
LAYER-035
  6
Continuous
 62
     5
100
AcDbLine
 10
494.0331993721535
 20
-320.4116313674398
 30
0.0
 11
444.0331993721535
 21
-320.4116313674398
 31
0.0
  0
MTEXT
  5
3E4
330
3DC
100
AcDbEntity
  8
LAYER-036
  6
Continuous
 62
     5
100
AcDbMText
 10
469.0331993721535
 20
-319.9116313674398
 30
0.0
 40
10.0
 41
0.0
 71
     8
 72
     1
  1
(50)
  7
STRING_H
 73
     1
 44
1.0
  0
ENDBLK
  5
3DE
330
3DC
100
AcDbEntity
  8
0
100
AcDbBlockEnd
  0
BLOCK
  5
3E7
330
3E6
100
AcDbEntity
  8
0
100
AcDbBlockBegin
  2
*D57
 70
     1
 71
     0
 10
0.0
 20
0.0
 30
0.0
  3
*D57
  1

  0
INSERT
  5
3E9
330
3E6
100
AcDbEntity
  8
LAYER-035
  6
Continuous
 62
     5
100
AcDbBlockReference
  2
_OPEN
 10
134.0331993721535
 20
-320.4116313674398
 30
0.0
 41
4.0
 42
4.0
 43
4.0
 50
180.0
  0
INSERT
  5
3EA
330
3E6
100
AcDbEntity
  8
LAYER-035
  6
Continuous
 62
     5
100
AcDbBlockReference
  2
_OPEN
 10
184.0331993721535
 20
-320.4116313674398
 30
0.0
 41
4.0
 42
4.0
 43
4.0
  0
LINE
  5
3EB
330
3E6
100
AcDbEntity
  8
LAYER-035
  6
Continuous
 62
     5
100
AcDbLine
 10
134.0331993721535
 20
-74.84184067346621
 30
0.0
 11
134.0331993721535
 21
-321.4116313674398
 31
0.0
  0
LINE
  5
3EC
330
3E6
100
AcDbEntity
  8
LAYER-035
  6
Continuous
 62
     5
100
AcDbLine
 10
184.0331993721535
 20
-179.0371136107181
 30
0.0
 11
184.0331993721535
 21
-321.4116313674398
 31
0.0
  0
LINE
  5
3ED
330
3E6
100
AcDbEntity
  8
LAYER-035
  6
Continuous
 62
     5
100
AcDbLine
 10
134.0331993721535
 20
-320.4116313674398
 30
0.0
 11
184.0331993721535
 21
-320.4116313674398
 31
0.0
  0
MTEXT
  5
3EE
330
3E6
100
AcDbEntity
  8
LAYER-036
  6
Continuous
 62
     5
100
AcDbMText
 10
159.0331993721535
 20
-319.9116313674398
 30
0.0
 40
10.0
 41
0.0
 71
     8
 72
     1
  1
(50)
  7
STRING_H
 73
     1
 44
1.0
  0
ENDBLK
  5
3E8
330
3E6
100
AcDbEntity
  8
0
100
AcDbBlockEnd
  0
BLOCK
  5
3F1
330
3F0
100
AcDbEntity
  8
0
100
AcDbBlockBegin
  2
*D68
 70
     1
 71
     0
 10
0.0
 20
0.0
 30
0.0
  3
*D68
  1

  0
INSERT
  5
3F3
330
3F0
100
AcDbEntity
  8
LAYER-035
  6
Continuous
 62
     5
100
AcDbBlockReference
  2
_OPEN
 10
21.59037339979199
 20
-494.6642602700668
 30
0.0
 41
4.0
 42
4.0
 43
4.0
  0
INSERT
  5
3F4
330
3F0
100
AcDbEntity
  8
LAYER-035
  6
Continuous
 62
     5
100
AcDbBlockReference
  2
_OPEN
 10
-443.409626600208
 20
-494.6642602700668
 30
0.0
 41
4.0
 42
4.0
 43
4.0
 50
180.0
  0
LINE
  5
3F5
330
3F0
100
AcDbEntity
  8
LAYER-035
  6
Continuous
 62
     5
100
AcDbLine
 10
21.59037339979199
 20
-432.3157974773602
 30
0.0
 11
21.59037339979199
 21
-495.6642602700668
 31
0.0
  0
LINE
  5
3F6
330
3F0
100
AcDbEntity
  8
LAYER-035
  6
Continuous
 62
     5
100
AcDbLine
 10
-443.409626600208
 20
-432.3157974773602
 30
0.0
 11
-443.409626600208
 21
-495.6642602700668
 31
0.0
  0
LINE
  5
3F7
330
3F0
100
AcDbEntity
  8
LAYER-035
  6
Continuous
 62
     5
100
AcDbLine
 10
21.59037339979199
 20
-494.6642602700668
 30
0.0
 11
-443.409626600208
 21
-494.6642602700668
 31
0.0
  0
MTEXT
  5
3F8
330
3F0
100
AcDbEntity
  8
LAYER-036
  6
Continuous
 62
     5
100
AcDbMText
 10
-210.909626600208
 20
-494.1642602700668
 30
0.0
 40
10.0
 41
0.0
 71
     8
 72
     1
  1
465
  7
STRING_H
 73
     1
 44
1.0
  0
ENDBLK
  5
3F2
330
3F0
100
AcDbEntity
  8
0
100
AcDbBlockEnd
  0
BLOCK
  5
3FB
330
3FA
100
AcDbEntity
  8
0
100
AcDbBlockBegin
  2
*D79
 70
     1
 71
     0
 10
0.0
 20
0.0
 30
0.0
  3
*D79
  1

  0
INSERT
  5
3FD
330
3FA
100
AcDbEntity
  8
LAYER-035
  6
Continuous
 62
     5
100
AcDbBlockReference
  2
_OPEN
 10
74.33827544862001
 20
-21.31579747736021
 30
0.0
 41
4.0
 42
4.0
 43
4.0
 50
90.0
  0
INSERT
  5
3FE
330
3FA
100
AcDbEntity
  8
LAYER-035
  6
Continuous
 62
     5
100
AcDbBlockReference
  2
_OPEN
 10
74.33827544862001
 20
-431.3157974773602
 30
0.0
 41
4.0
 42
4.0
 43
4.0
 50
-90.0
  0
LINE
  5
3FF
330
3FA
100
AcDbEntity
  8
LAYER-035
  6
Continuous
 62
     5
100
AcDbLine
 10
-43.15722363713189
 20
-21.31579747736021
 30
0.0
 11
75.33827544862001
 21
-21.31579747736021
 31
0.0
  0
LINE
  5
400
330
3FA
100
AcDbEntity
  8
LAYER-035
  6
Continuous
 62
     5
100
AcDbLine
 10
22.59037339979199
 20
-431.3157974773602
 30
0.0
 11
75.33827544862001
 21
-431.3157974773602
 31
0.0
  0
LINE
  5
401
330
3FA
100
AcDbEntity
  8
LAYER-035
  6
Continuous
 62
     5
100
AcDbLine
 10
74.33827544862001
 20
-21.31579747736021
 30
0.0
 11
74.33827544862001
 21
-431.3157974773602
 31
0.0
  0
MTEXT
  5
402
330
3FA
100
AcDbEntity
  8
LAYER-036
  6
Continuous
 62
     5
100
AcDbMText
 10
73.83827544862001
 20
-226.3157974773602
 30
0.0
 40
10.0
 41
0.0
 71
     8
 72
     1
  1
410
  7
STRING_H
 11
6.123031769111886E-17
 21
1.0
 31
0.0
 73
     1
 44
1.0
  0
ENDBLK
  5
3FC
330
3FA
100
AcDbEntity
  8
0
100
AcDbBlockEnd
  0
BLOCK
  5
405
330
404
100
AcDbEntity
  8
0
100
AcDbBlockBegin
  2
*D810
 70
     1
 71
     0
 10
0.0
 20
0.0
 30
0.0
  3
*D810
  1

  0
INSERT
  5
407
330
404
100
AcDbEntity
  8
LAYER-035
  6
Continuous
 62
     5
100
AcDbBlockReference
  2
_OPEN
 10
74.33827544862001
 20
3.684202522639794
 30
0.0
 41
4.0
 42
4.0
 43
4.0
 50
90.0
  0
INSERT
  5
408
330
404
100
AcDbEntity
  8
LAYER-035
  6
Continuous
 62
     5
100
AcDbBlockReference
  2
_OPEN
 10
74.33827544862001
 20
-21.31579747736021
 30
0.0
 41
4.0
 42
4.0
 43
4.0
 50
-90.0
  0
LINE
  5
409
330
404
100
AcDbEntity
  8
LAYER-035
  6
Continuous
 62
     5
100
AcDbLine
 10
15.99738675531961
 20
3.684202522639794
 30
0.0
 11
75.33827544862001
 21
3.684202522639794
 31
0.0
  0
LINE
  5
40A
330
404
100
AcDbEntity
  8
LAYER-035
  6
Continuous
 62
     5
100
AcDbLine
 10
-43.15722363713189
 20
-21.31579747736021
 30
0.0
 11
75.33827544862001
 21
-21.31579747736021
 31
0.0
  0
LINE
  5
40B
330
404
100
AcDbEntity
  8
LAYER-035
  6
Continuous
 62
     5
100
AcDbLine
 10
74.33827544862001
 20
3.684202522639794
 30
0.0
 11
74.33827544862001
 21
-21.31579747736021
 31
0.0
  0
LINE
  5
40C
330
404
100
AcDbEntity
  8
LAYER-035
  6
Continuous
 62
     5
100
AcDbLine
 10
74.33827544862001
 20
3.684202522639794
 30
0.0
 11
74.33827544862001
 21
48.68420252263979
 31
0.0
  0
LINE
  5
40D
330
404
100
AcDbEntity
  8
LAYER-035
  6
Continuous
 62
     5
100
AcDbLine
 10
74.33827544862001
 20
-21.31579747736021
 30
0.0
 11
74.33827544862001
 21
-29.31579747736021
 31
0.0
  0
MTEXT
  5
40E
330
404
100
AcDbEntity
  8
LAYER-036
  6
Continuous
 62
     5
100
AcDbMText
 10
73.83827544862001
 20
3.684202522639795
 30
0.0
 40
10.0
 41
0.0
 71
     7
 72
     1
  1
25±5
  7
STRING_H
 11
6.123031769111886E-17
 21
1.0
 31
0.0
 73
     1
 44
1.0
  0
ENDBLK
  5
406
330
404
100
AcDbEntity
  8
0
100
AcDbBlockEnd
  0
ENDSEC
  0
SECTION
  2
ENTITIES
  0
LINE
  5
152
330
1F
100
AcDbEntity
  8
LAYER-033
  6
Continuous
 62
     1
100
AcDbLine
 10
-189.9718281110802
 20
-588.6095046642289
 30
0.0
 11
-21.22182811108016
 21
-588.6095046642289
 31
0.0
  0
LINE
  5
153
330
1F
100
AcDbEntity
  8
LAYER-033
  6
Continuous
 62
     1
100
AcDbLine
 10
-189.9718281110802
 20
-608.6095046642289
 30
0.0
 11
260.0281718889198
 21
-608.6095046642289
 31
0.0
  0
LINE
  5
154
330
1F
100
AcDbEntity
  8
LAYER-033
  6
Continuous
 62
     1
100
AcDbLine
 10
-189.9718281110802
 20
-628.6095046642289
 30
0.0
 11
-4.971828111080157
 21
-628.6095046642289
 31
0.0
  0
LINE
  5
155
330
1F
100
AcDbEntity
  8
LAYER-006
  6
Continuous
 62
     1
100
AcDbLine
 10
-438.1447706789883
 20
3.684202522639794
 30
0.0
 11
-438.1447706789883
 21
-2.106653895889053
 31
0.0
  0
LINE
  5
156
330
1F
100
AcDbEntity
  8
LAYER-006
  6
Continuous
 62
     1
100
AcDbLine
 10
-428.2552962064337
 20
3.684202522639794
 30
0.0
 11
-438.1447706789883
 21
3.684202522639794
 31
0.0
  0
LINE
  5
157
330
1F
100
AcDbEntity
  8
LAYER-006
  6
Continuous
 62
     1
100
AcDbLine
 10
-428.2552962064337
 20
3.684202522639794
 30
0.0
 11
-428.2552962064337
 21
-2.106653895889053
 31
0.0
  0
LINE
  5
158
330
1F
100
AcDbEntity
  8
LAYER-006
  6
Continuous
 62
     1
100
AcDbLine
 10
5.107912282765199
 20
3.684202522639794
 30
0.0
 11
5.107912282765199
 21
-2.106653895889053
 31
0.0
  0
LINE
  5
159
330
1F
100
AcDbEntity
  8
LAYER-006
  6
Continuous
 62
     1
100
AcDbLine
 10
5.107912282765199
 20
3.684202522639794
 30
0.0
 11
14.99738675531961
 21
3.684202522639794
 31
0.0
  0
LINE
  5
15A
330
1F
100
AcDbEntity
  8
LAYER-006
  6
Continuous
 62
     1
100
AcDbLine
 10
14.99738675531961
 20
3.684202522639794
 30
0.0
 11
14.99738675531961
 21
-2.106653895889053
 31
0.0
  0
LINE
  5
15B
330
1F
100
AcDbEntity
  8
LAYER-006
  6
Continuous
 62
     1
100
AcDbLine
 10
240.6293706293707
 20
3.684202522639794
 30
0.0
 11
240.6293706293707
 21
-2.106653895889053
 31
0.0
  0
LINE
  5
15C
330
1F
100
AcDbEntity
  8
LAYER-006
  6
Continuous
 62
     1
100
AcDbLine
 10
247.9311088322802
 20
3.684202522639794
 30
0.0
 11
240.6293706293707
 21
3.684202522639794
 31
0.0
  0
LINE
  5
15D
330
1F
100
AcDbEntity
  8
LAYER-006
  6
Continuous
 62
     1
100
AcDbLine
 10
250.518845101925
 20
3.684202522639794
 30
0.0
 11
250.518845101925
 21
-2.106653895889053
 31
0.0
  0
LINE
  5
15E
330
1F
100
AcDbEntity
  8
LAYER-006
  6
Continuous
 62
     1
100
AcDbLine
 10
250.518845101925
 20
3.684202522639794
 30
0.0
 11
240.6293706293707
 21
3.684202522639794
 31
0.0
  0
LINE
  5
15F
330
1F
100
AcDbEntity
  8
LAYER-006
  6
Continuous
 62
     1
100
AcDbLine
 10
377.547553642382
 20
3.684202522639794
 30
0.0
 11
377.547553642382
 21
-2.106653895889053
 31
0.0
  0
LINE
  5
160
330
1F
100
AcDbEntity
  8
LAYER-006
  6
Continuous
 62
     1
100
AcDbLine
 10
377.547553642382
 20
3.684202522639794
 30
0.0
 11
387.4370281149369
 21
3.684202522639794
 31
0.0
  0
LINE
  5
161
330
1F
100
AcDbEntity
  8
LAYER-006
  6
Continuous
 62
     1
100
AcDbLine
 10
380.1352899120268
 20
3.684202522639794
 30
0.0
 11
387.4370281149369
 21
3.684202522639794
 31
0.0
  0
LINE
  5
162
330
1F
100
AcDbEntity
  8
LAYER-006
  6
Continuous
 62
     1
100
AcDbLine
 10
387.4370281149369
 20
3.684202522639794
 30
0.0
 11
387.4370281149369
 21
-2.106653895889053
 31
0.0
  0
LINE
  5
163
330
1F
100
AcDbEntity
  8
LAYER-006
  6
Continuous
 62
     1
100
AcDbLine
 10
-444.1883417697546
 20
-2.106653895889053
 30
0.0
 11
-444.1883417697546
 21
-4.853731664419627
 31
0.0
  0
LINE
  5
164
330
1F
100
AcDbEntity
  8
LAYER-006
  6
Continuous
 62
     1
100
AcDbLine
 10
21.04095784472912
 20
-2.106653895889053
 30
0.0
 11
21.04095784472912
 21
-4.853731664419627
 31
0.0
  0
LINE
  5
165
330
1F
100
AcDbEntity
  8
LAYER-006
  6
Continuous
 62
     1
100
AcDbLine
 10
205.6411856663498
 20
-2.106653895889053
 30
0.0
 11
422.4252130779572
 21
-2.106653895889053
 31
0.0
  0
LINE
  5
166
330
1F
100
AcDbEntity
  8
LAYER-006
  6
Continuous
 62
     1
100
AcDbLine
 10
205.6411856663498
 20
-2.106653895889053
 30
0.0
 11
205.6411856663498
 21
-4.853731664323448
 31
0.0
  0
LINE
  5
167
330
1F
100
AcDbEntity
  8
LAYER-006
  6
Continuous
 62
     1
100
AcDbLine
 10
422.4252130779572
 20
-2.106653895889053
 30
0.0
 11
422.4252130779572
 21
-4.853731664323448
 31
0.0
  0
LINE
  5
168
330
1F
100
AcDbEntity
  8
LAYER-006
  6
Continuous
 62
     1
100
AcDbLine
 10
422.4252130779572
 20
-4.853731664323448
 30
0.0
 11
205.6411856663498
 21
-4.853731664323448
 31
0.0
  0
LINE
  5
169
330
1F
100
AcDbEntity
  8
LAYER-007
  6
CENTER
 62
     4
100
AcDbLine
 10
-373.26669963948
 20
-14.58163082009526
 30
0.0
 11
-373.26669963948
 21
-87.80858245577679
 31
0.0
  0
LINE
  5
16A
330
1F
100
AcDbEntity
  8
LAYER-007
  6
CENTER
 62
     4
100
AcDbLine
 10
-47.45371695936871
 20
-14.58163082009526
 30
0.0
 11
-47.45371695936871
 21
-87.80858245577679
 31
0.0
  0
LINE
  5
16B
330
1F
100
AcDbEntity
  8
LAYER-006
  6
Continuous
 62
     1
100
AcDbLine
 10
-377.1126030212672
 20
-21.31579747736021
 30
0.0
 11
-377.1126030212672
 21
-41.09475191662455
 31
0.0
  0
LINE
  5
16C
330
1F
100
AcDbEntity
  8
LAYER-006
  6
Continuous
 62
     1
100
AcDbLine
 10
-377.1126030212672
 20
-21.31579747736021
 30
0.0
 11
-369.9702063172432
 21
-21.31579747736021
 31
0.0
  0
LINE
  5
16D
330
1F
100
AcDbEntity
  8
LAYER-006
  6
Continuous
 62
     1
100
AcDbLine
 10
-369.9702063172432
 20
-21.31579747736021
 30
0.0
 11
-369.9702063172432
 21
-41.09475191662455
 31
0.0
  0
LINE
  5
16E
330
1F
100
AcDbEntity
  8
LAYER-006
  6
Continuous
 62
     1
100
AcDbLine
 10
-214.2061144282891
 20
-21.31579747736021
 30
0.0
 11
-214.2061144282891
 21
-41.09475191662457
 31
0.0
  0
LINE
  5
16F
330
1F
100
AcDbEntity
  8
LAYER-006
  6
Continuous
 62
     1
100
AcDbLine
 10
-214.2061144282891
 20
-21.31579747736021
 30
0.0
 11
-207.0637177242651
 21
-21.31579747736021
 31
0.0
  0
LINE
  5
170
330
1F
100
AcDbEntity
  8
LAYER-006
  6
Continuous
 62
     1
100
AcDbLine
 10
-207.0637177242651
 20
-21.31579747736021
 30
0.0
 11
-207.0637177242651
 21
-41.09475191662457
 31
0.0
  0
LINE
  5
171
330
1F
100
AcDbEntity
  8
LAYER-006
  6
Continuous
 62
     1
100
AcDbLine
 10
-51.2996203411559
 20
-21.31579747736021
 30
0.0
 11
-51.2996203411559
 21
-41.09475191662455
 31
0.0
  0
LINE
  5
172
330
1F
100
AcDbEntity
  8
LAYER-006
  6
Continuous
 62
     1
100
AcDbLine
 10
-51.2996203411559
 20
-21.31579747736021
 30
0.0
 11
-44.15722363713189
 21
-21.31579747736021
 31
0.0
  0
LINE
  5
173
330
1F
100
AcDbEntity
  8
LAYER-006
  6
Continuous
 62
     1
100
AcDbLine
 10
-44.15722363713189
 20
-21.31579747736021
 30
0.0
 11
-44.15722363713189
 21
-41.09475191662455
 31
0.0
  0
LINE
  5
174
330
1F
100
AcDbEntity
  8
LAYER-001
  6
Continuous
 62
     1
100
AcDbLine
 10
-416.8545817948864
 20
-22.06699139261286
 30
0.0
 11
-428.2552962064337
 21
-22.06699139261286
 31
0.0
  0
LINE
  5
175
330
1F
100
AcDbEntity
  8
LAYER-001
  6
Continuous
 62
     1
100
AcDbLine
 10
-416.8545817948864
 20
-22.06699139261286
 30
0.0
 11
-412.2761371631611
 21
-26.64543603165612
 31
0.0
  0
LINE
  5
176
330
1F
100
AcDbEntity
  8
LAYER-033
  6
Continuous
 62
     1
100
AcDbLine
 10
-428.2552962064337
 20
-44.95921456094811
 30
0.0
 11
-410.735429628024
 21
-44.95921456094811
 31
0.0
  0
LINE
  5
177
330
1F
100
AcDbEntity
  8
LAYER-001
  6
Continuous
 62
     1
100
AcDbLine
 10
-412.2761371631611
 20
-26.64543603165612
 30
0.0
 11
-412.2761371631611
 21
-55.92897736084535
 31
0.0
  0
LINE
  5
178
330
1F
100
AcDbEntity
  8
LAYER-001
  6
Continuous
 62
     1
100
AcDbLine
 10
-438.1447706789883
 20
-23.21202389012979
 30
0.0
 11
-441.5781828148878
 21
-26.64543603165612
 31
0.0
  0
LINE
  5
179
330
1F
100
AcDbEntity
  8
LAYER-001
  6
Continuous
 62
     1
100
AcDbLine
 10
-441.5781828148878
 20
-26.64543603165612
 30
0.0
 11
-441.5781828148878
 21
-55.92897736084535
 31
0.0
  0
LINE
  5
17A
330
1F
100
AcDbEntity
  8
LAYER-001
  6
Continuous
 62
     1
100
AcDbLine
 10
-441.5781828148878
 20
-69.66436620349816
 30
0.0
 11
-441.5781828148878
 21
-101.3157974773602
 31
0.0
  0
LINE
  5
17B
330
1F
100
AcDbEntity
  8
LAYER-001
  6
Continuous
 62
     1
100
AcDbLine
 10
-412.2761371631611
 20
-69.66436620349816
 30
0.0
 11
-412.2761371631611
 21
-101.3157974773602
 31
0.0
  0
ARC
  5
17C
330
1F
100
AcDbEntity
  8
LAYER-033
  6
Continuous
 62
     1
100
AcDbCircle
 10
-426.9271599890245
 20
-44.95921456094811
 30
0.0
 40
8.699044804028386
100
AcDbArc
 50
266.3790214822288
 51
273.6209785072467
  0
ARC
  5
17D
330
1F
100
AcDbEntity
  8
LAYER-033
  6
Continuous
 62
     1
100
AcDbCircle
 10
-426.9271599890245
 20
-44.95921456094811
 30
0.0
 40
8.699044804028386
100
AcDbArc
 50
261.2179576541959
 51
98.78204234580439
  0
ARC
  5
17E
330
1F
100
AcDbEntity
  8
LAYER-033
  6
Continuous
 62
     1
100
AcDbCircle
 10
-426.9271599890245
 20
-44.95921456094811
 30
0.0
 40
8.699044804028386
100
AcDbArc
 50
90.0
 51
90.00003618695909
  0
LINE
  5
17F
330
1F
100
AcDbEntity
  8
LAYER-001
  6
Continuous
 62
     1
100
AcDbLine
 10
-4.96467140552943
 20
-22.06699139261286
 30
0.0
 11
-9.543116037254663
 21
-26.64543603165612
 31
0.0
  0
LINE
  5
180
330
1F
100
AcDbEntity
  8
LAYER-033
  6
Continuous
 62
     1
100
AcDbLine
 10
5.107912282765199
 20
-44.95921456094811
 30
0.0
 11
-11.08382357239179
 21
-44.95921456094811
 31
0.0
  0
LINE
  5
181
330
1F
100
AcDbEntity
  8
LAYER-001
  6
Continuous
 62
     1
100
AcDbLine
 10
15.18048498274686
 20
-22.06699139261286
 30
0.0
 11
19.7589296144721
 21
-26.64543603165612
 31
0.0
  0
LINE
  5
182
330
1F
100
AcDbEntity
  8
LAYER-001
  6
Continuous
 62
     1
100
AcDbLine
 10
-9.543116037254663
 20
-26.64543603165612
 30
0.0
 11
-9.543116037254663
 21
-55.92897736084535
 31
0.0
  0
LINE
  5
183
330
1F
100
AcDbEntity
  8
LAYER-001
  6
Continuous
 62
     1
100
AcDbLine
 10
19.7589296144721
 20
-26.64543603165612
 30
0.0
 11
19.7589296144721
 21
-55.92897736084535
 31
0.0
  0
LINE
  5
184
330
1F
100
AcDbEntity
  8
LAYER-001
  6
Continuous
 62
     1
100
AcDbLine
 10
19.7589296144721
 20
-69.66436620349816
 30
0.0
 11
19.7589296144721
 21
-101.3157974773602
 31
0.0
  0
LINE
  5
185
330
1F
100
AcDbEntity
  8
LAYER-001
  6
Continuous
 62
     1
100
AcDbLine
 10
-9.543116037254663
 20
-69.66436620349816
 30
0.0
 11
-9.543116037254663
 21
-101.3157974773602
 31
0.0
  0
ARC
  5
186
330
1F
100
AcDbEntity
  8
LAYER-033
  6
Continuous
 62
     1
100
AcDbCircle
 10
5.107906788608602
 20
-44.95921456094811
 30
0.0
 40
8.699044804028386
100
AcDbArc
 50
90.0
 51
273.6209785072478
  0
ARC
  5
187
330
1F
100
AcDbEntity
  8
LAYER-033
  6
Continuous
 62
     1
100
AcDbCircle
 10
5.107906788608602
 20
-44.95921456094811
 30
0.0
 40
8.699044804028386
100
AcDbArc
 50
266.3790214822299
 51
273.6209785072478
  0
LINE
  5
188
330
1F
100
AcDbEntity
  8
LAYER-033
  6
Continuous
 62
     1
100
AcDbLine
 10
5.107906788608602
 20
-55.92897736084535
 30
0.0
 11
5.107906788608602
 21
-31.98511238478449
 31
0.0
  0
ARC
  5
189
330
1F
100
AcDbEntity
  8
LAYER-033
  6
Continuous
 62
     1
100
AcDbCircle
 10
5.107906788608602
 20
-44.95921456094811
 30
0.0
 40
8.699044804028386
100
AcDbArc
 50
89.99996381304017
 51
90.0
  0
LINE
  5
18A
330
1F
100
AcDbEntity
  8
LAYER-001
  6
Continuous
 62
     1
100
AcDbLine
 10
-4.96467140552943
 20
-22.06699139261286
 30
0.0
 11
5.107912282765199
 21
-22.06699139261286
 31
0.0
  0
LINE
  5
18B
330
1F
100
AcDbEntity
  8
LAYER-001
  6
Continuous
 62
     1
100
AcDbLine
 10
14.99738675531961
 20
-22.06699139261286
 30
0.0
 11
15.18048498274686
 21
-22.06699139261286
 31
0.0
  0
LINE
  5
18C
330
1F
100
AcDbEntity
  8
LAYER-001
  6
Continuous
 62
     1
100
AcDbLine
 10
313.6834200558811
 20
-22.06699139261286
 30
0.0
 11
309.5628198853838
 21
-22.06699139261286
 31
0.0
  0
LINE
  5
18D
330
1F
100
AcDbEntity
  8
LAYER-033
  6
HIDDEN
 62
     1
100
AcDbLine
 10
313.6834200558811
 20
-36.26016975691971
 30
0.0
 11
309.5628198853838
 21
-36.26016975691971
 31
0.0
  0
LINE
  5
18E
330
1F
100
AcDbEntity
  8
LAYER-033
  6
HIDDEN
 62
     1
100
AcDbLine
 10
313.6834200558811
 20
-53.64089321092661
 30
0.0
 11
309.5628198853838
 21
-53.64089321092661
 31
0.0
  0
LINE
  5
18F
330
1F
100
AcDbEntity
  8
LAYER-001
  6
Continuous
 62
     1
100
AcDbLine
 10
309.5628198853838
 20
-103.1951973076858
 30
0.0
 11
309.5628198853838
 21
-22.06699139261286
 31
0.0
  0
ARC
  5
190
330
1F
100
AcDbEntity
  8
LAYER-001
  6
Continuous
 62
     1
100
AcDbCircle
 10
305.4422197167622
 20
-103.1951973076858
 30
0.0
 40
4.120600170329235
100
AcDbArc
 50
270.0
 51
0.0
  0
LINE
  5
191
330
1F
100
AcDbEntity
  8
LAYER-001
  6
Continuous
 62
     1
100
AcDbLine
 10
313.6834200558811
 20
-103.1951973076858
 30
0.0
 11
313.6834200558811
 21
-22.06699139261286
 31
0.0
  0
LINE
  5
192
330
1F
100
AcDbEntity
  8
LAYER-001
  6
Continuous
 62
     1
100
AcDbLine
 10
305.4422197167622
 20
-107.3157974773602
 30
0.0
 11
239.107996777922
 21
-107.3157974773602
 31
0.0
  0
LINE
  5
193
330
1F
100
AcDbEntity
  8
LAYER-001
  6
Continuous
 62
     1
100
AcDbLine
 10
239.107996777922
 20
-111.4363976476894
 30
0.0
 11
239.107996777922
 21
-107.3157974773602
 31
0.0
  0
LINE
  5
194
330
1F
100
AcDbEntity
  8
LAYER-001
  6
Continuous
 62
     1
100
AcDbLine
 10
305.4422197167622
 20
-111.4363976476894
 30
0.0
 11
239.107996777922
 21
-111.4363976476894
 31
0.0
  0
ARC
  5
195
330
1F
100
AcDbEntity
  8
LAYER-001
  6
Continuous
 62
     1
100
AcDbCircle
 10
305.4422197167622
 20
-103.1951973076858
 30
0.0
 40
8.24120034065847
100
AcDbArc
 50
270.0
 51
0.0
  0
LINE
  5
196
330
1F
100
AcDbEntity
  8
LAYER-006
  6
Continuous
 62
     1
100
AcDbLine
 10
-380.9585173913656
 20
-31.20527744407031
 30
0.0
 11
-366.1242919471448
 21
-31.20527744407031
 31
0.0
  0
LINE
  5
197
330
1F
100
AcDbEntity
  8
LAYER-006
  6
Continuous
 62
     1
100
AcDbLine
 10
-380.9585173913656
 20
-31.20527744407031
 30
0.0
 11
-380.9585173913656
 21
-41.09475191662455
 31
0.0
  0
LINE
  5
198
330
1F
100
AcDbEntity
  8
LAYER-006
  6
Continuous
 62
     1
100
AcDbLine
 10
-366.1242919471448
 20
-31.20527744407031
 30
0.0
 11
-366.1242919471448
 21
-41.09475191662455
 31
0.0
  0
LINE
  5
199
330
1F
100
AcDbEntity
  8
LAYER-006
  6
Continuous
 62
     1
100
AcDbLine
 10
-218.0520287983875
 20
-31.20527744407031
 30
0.0
 11
-203.2178033541667
 21
-31.20527744407031
 31
0.0
  0
LINE
  5
19A
330
1F
100
AcDbEntity
  8
LAYER-006
  6
Continuous
 62
     1
100
AcDbLine
 10
-218.0520287983875
 20
-31.20527744407031
 30
0.0
 11
-218.0520287983875
 21
-41.09475191662457
 31
0.0
  0
LINE
  5
19B
330
1F
100
AcDbEntity
  8
LAYER-006
  6
Continuous
 62
     1
100
AcDbLine
 10
-203.2178033541667
 20
-31.20527744407031
 30
0.0
 11
-203.2178033541667
 21
-41.09475191662457
 31
0.0
  0
LINE
  5
19C
330
1F
100
AcDbEntity
  8
LAYER-006
  6
Continuous
 62
     1
100
AcDbLine
 10
-55.1455347112543
 20
-31.20527744407031
 30
0.0
 11
-40.31130926703349
 21
-31.20527744407031
 31
0.0
  0
LINE
  5
19D
330
1F
100
AcDbEntity
  8
LAYER-006
  6
Continuous
 62
     1
100
AcDbLine
 10
-55.1455347112543
 20
-31.20527744407031
 30
0.0
 11
-55.1455347112543
 21
-41.09475191662455
 31
0.0
  0
LINE
  5
19E
330
1F
100
AcDbEntity
  8
LAYER-006
  6
Continuous
 62
     1
100
AcDbLine
 10
-40.31130926703349
 20
-31.20527744407031
 30
0.0
 11
-40.31130926703349
 21
-41.09475191662455
 31
0.0
  0
LINE
  5
19F
330
1F
100
AcDbEntity
  8
LAYER-006
  6
Continuous
 62
     1
100
AcDbLine
 10
237.8822928608407
 20
-31.20527744407031
 30
0.0
 11
237.8822928608407
 21
-41.09475191662455
 31
0.0
  0
LINE
  5
1A0
330
1F
100
AcDbEntity
  8
LAYER-006
  6
Continuous
 62
     1
100
AcDbLine
 10
237.8822928608407
 20
-31.20527744407031
 30
0.0
 11
240.6293706293707
 21
-31.20527744407031
 31
0.0
  0
LINE
  5
1A1
330
1F
100
AcDbEntity
  8
LAYER-006
  6
Continuous
 62
     1
100
AcDbLine
 10
250.518845101925
 20
-31.20527744407031
 30
0.0
 11
252.716518305061
 21
-31.20527744407031
 31
0.0
  0
LINE
  5
1A2
330
1F
100
AcDbEntity
  8
LAYER-006
  6
Continuous
 62
     1
100
AcDbLine
 10
252.716518305061
 20
-31.20527744407031
 30
0.0
 11
252.716518305061
 21
-41.09475191662455
 31
0.0
  0
LINE
  5
1A3
330
1F
100
AcDbEntity
  8
LAYER-006
  6
Continuous
 62
     1
100
AcDbLine
 10
375.3498804392467
 20
-31.20527744407031
 30
0.0
 11
375.3498804392467
 21
-41.09475191662455
 31
0.0
  0
LINE
  5
1A4
330
1F
100
AcDbEntity
  8
LAYER-006
  6
Continuous
 62
     1
100
AcDbLine
 10
377.547553642382
 20
-31.20527744407031
 30
0.0
 11
375.3498804392467
 21
-31.20527744407031
 31
0.0
  0
LINE
  5
1A5
330
1F
100
AcDbEntity
  8
LAYER-006
  6
Continuous
 62
     1
100
AcDbLine
 10
390.1841058834668
 20
-31.20527744407031
 30
0.0
 11
390.1841058834668
 21
-41.09475191662455
 31
0.0
  0
LINE
  5
1A6
330
1F
100
AcDbEntity
  8
LAYER-006
  6
Continuous
 62
     1
100
AcDbLine
 10
390.1841058834668
 20
-31.20527744407031
 30
0.0
 11
387.4370281149369
 21
-31.20527744407031
 31
0.0
  0
LINE
  5
1A7
330
1F
100
AcDbEntity
  8
LAYER-006
  6
HIDDEN
 62
     4
100
AcDbLine
 10
217.0044963278681
 20
-35.60059637956374
 30
0.0
 11
229.0916440015423
 21
-35.60059637956374
 31
0.0
  0
LINE
  5
1A8
330
1F
100
AcDbEntity
  8
LAYER-006
  6
HIDDEN
 62
     4
100
AcDbLine
 10
217.0044963278681
 20
-35.60059637956374
 30
0.0
 11
217.0044963278681
 21
-43.84184067346621
 31
0.0
  0
LINE
  5
1A9
330
1F
100
AcDbEntity
  8
LAYER-006
  6
HIDDEN
 62
     4
100
AcDbLine
 10
229.0916440015423
 20
-35.60059637956374
 30
0.0
 11
234.585799538604
 21
-41.09475191662455
 31
0.0
  0
LINE
  5
1AA
330
1F
100
AcDbEntity
  8
LAYER-006
  6
HIDDEN
 62
     4
100
AcDbLine
 10
398.9747547428681
 20
-35.60059637956374
 30
0.0
 11
393.4805992057037
 21
-41.09475191662455
 31
0.0
  0
LINE
  5
1AB
330
1F
100
AcDbEntity
  8
LAYER-006
  6
HIDDEN
 62
     4
100
AcDbLine
 10
411.0619024162214
 20
-35.60059637956374
 30
0.0
 11
398.9747547428681
 21
-35.60059637956374
 31
0.0
  0
LINE
  5
1AC
330
1F
100
AcDbEntity
  8
LAYER-006
  6
HIDDEN
 62
     4
100
AcDbLine
 10
411.0619024162214
 20
-35.60059637956374
 30
0.0
 11
411.0619024162214
 21
-43.84184067346621
 31
0.0
  0
LINE
  5
1AD
330
1F
100
AcDbEntity
  8
LAYER-006
  6
Continuous
 62
     1
100
AcDbLine
 10
-383.1561741120344
 20
-41.09475191662455
 30
0.0
 11
-363.9266297323208
 21
-41.09475191662455
 31
0.0
  0
LINE
  5
1AE
330
1F
100
AcDbEntity
  8
LAYER-006
  6
Continuous
 62
     1
100
AcDbLine
 10
-383.1561741120344
 20
-41.09475191662455
 30
0.0
 11
-383.1561741120344
 21
-46.03949189997979
 31
0.0
  0
LINE
  5
1AF
330
1F
100
AcDbEntity
  8
LAYER-006
  6
Continuous
 62
     1
100
AcDbLine
 10
-363.9266297323208
 20
-41.09475191662455
 30
0.0
 11
-363.9266297323208
 21
-46.03949189997979
 31
0.0
  0
LINE
  5
1B0
330
1F
100
AcDbEntity
  8
LAYER-006
  6
Continuous
 62
     1
100
AcDbLine
 10
-220.2496855190335
 20
-41.09475191662457
 30
0.0
 11
-201.0201411393427
 21
-41.09475191662457
 31
0.0
  0
LINE
  5
1B1
330
1F
100
AcDbEntity
  8
LAYER-006
  6
Continuous
 62
     1
100
AcDbLine
 10
-220.2496855190335
 20
-41.09475191662457
 30
0.0
 11
-220.2496855190335
 21
-46.03949189997977
 31
0.0
  0
LINE
  5
1B2
330
1F
100
AcDbEntity
  8
LAYER-006
  6
Continuous
 62
     1
100
AcDbLine
 10
-201.0201411393427
 20
-41.09475191662457
 30
0.0
 11
-201.0201411393427
 21
-46.03949189997977
 31
0.0
  0
LINE
  5
1B3
330
1F
100
AcDbEntity
  8
LAYER-006
  6
Continuous
 62
     1
100
AcDbLine
 10
-57.34319143192312
 20
-41.09475191662455
 30
0.0
 11
-38.11364705220944
 21
-41.09475191662455
 31
0.0
  0
LINE
  5
1B4
330
1F
100
AcDbEntity
  8
LAYER-006
  6
Continuous
 62
     1
100
AcDbLine
 10
-57.34319143192312
 20
-41.09475191662455
 30
0.0
 11
-57.34319143192312
 21
-46.03949189997979
 31
0.0
  0
LINE
  5
1B5
330
1F
100
AcDbEntity
  8
LAYER-006
  6
Continuous
 62
     1
100
AcDbLine
 10
-38.11364705220944
 20
-41.09475191662455
 30
0.0
 11
-38.11364705220944
 21
-46.03949189997979
 31
0.0
  0
LINE
  5
1B6
330
1F
100
AcDbEntity
  8
LAYER-006
  6
HIDDEN
 62
     4
100
AcDbLine
 10
234.585799538604
 20
-41.09475191662455
 30
0.0
 11
240.6293706293707
 21
-41.09475191662455
 31
0.0
  0
LINE
  5
1B7
330
1F
100
AcDbEntity
  8
LAYER-006
  6
HIDDEN
 62
     4
100
AcDbLine
 10
250.518845101925
 20
-41.09475191662455
 30
0.0
 11
256.0130061331422
 21
-41.09475191662455
 31
0.0
  0
LINE
  5
1B8
330
1F
100
AcDbEntity
  8
LAYER-006
  6
HIDDEN
 62
     4
100
AcDbLine
 10
256.0130061331422
 20
-41.09475191662455
 30
0.0
 11
256.0130061331422
 21
-43.84184067346621
 31
0.0
  0
LINE
  5
1B9
330
1F
100
AcDbEntity
  8
LAYER-006
  6
HIDDEN
 62
     4
100
AcDbLine
 10
372.0533926111648
 20
-41.09475191662455
 30
0.0
 11
372.0533926111648
 21
-43.84184067346621
 31
0.0
  0
LINE
  5
1BA
330
1F
100
AcDbEntity
  8
LAYER-006
  6
HIDDEN
 62
     4
100
AcDbLine
 10
377.547553642382
 20
-41.09475191662455
 30
0.0
 11
372.0533926111648
 21
-41.09475191662455
 31
0.0
  0
LINE
  5
1BB
330
1F
100
AcDbEntity
  8
LAYER-006
  6
HIDDEN
 62
     4
100
AcDbLine
 10
393.4805992057037
 20
-41.09475191662455
 30
0.0
 11
387.4370281149369
 21
-41.09475191662455
 31
0.0
  0
LINE
  5
1BC
330
1F
100
AcDbEntity
  8
LAYER-006
  6
Continuous
 62
     1
100
AcDbLine
 10
-383.1561741120344
 20
-43.84184067346621
 30
0.0
 11
-363.9266297323208
 21
-43.84184067346621
 31
0.0
  0
LINE
  5
1BD
330
1F
100
AcDbEntity
  8
LAYER-006
  6
Continuous
 62
     1
100
AcDbLine
 10
-220.2496855190335
 20
-43.84184067346618
 30
0.0
 11
-201.0201411393427
 21
-43.84184067346618
 31
0.0
  0
LINE
  5
1BE
330
1F
100
AcDbEntity
  8
LAYER-006
  6
Continuous
 62
     1
100
AcDbLine
 10
-57.34319143192312
 20
-43.84184067346621
 30
0.0
 11
-38.11364705220944
 21
-43.84184067346621
 31
0.0
  0
LINE
  5
1BF
330
1F
100
AcDbEntity
  8
LAYER-006
  6
Continuous
 62
     1
100
AcDbLine
 10
217.0044963278681
 20
-43.84184067346621
 30
0.0
 11
217.0044963278681
 21
-51.5336474370406
 31
0.0
  0
LINE
  5
1C0
330
1F
100
AcDbEntity
  8
LAYER-006
  6
Continuous
 62
     1
100
AcDbLine
 10
217.0044963278681
 20
-43.84184067346621
 30
0.0
 11
240.6293706293707
 21
-43.84184067346621
 31
0.0
  0
LINE
  5
1C1
330
1F
100
AcDbEntity
  8
LAYER-006
  6
Continuous
 62
     1
100
AcDbLine
 10
250.518845101925
 20
-43.84184067346621
 30
0.0
 11
256.0130061331422
 21
-43.84184067346621
 31
0.0
  0
LINE
  5
1C2
330
1F
100
AcDbEntity
  8
LAYER-006
  6
Continuous
 62
     1
100
AcDbLine
 10
256.0130061331422
 20
-43.84184067346621
 30
0.0
 11
256.0130061331422
 21
-46.03949189997979
 31
0.0
  0
LINE
  5
1C3
330
1F
100
AcDbEntity
  8
LAYER-006
  6
Continuous
 62
     1
100
AcDbLine
 10
372.0533926111648
 20
-43.84184067346621
 30
0.0
 11
372.0533926111648
 21
-46.03949189997979
 31
0.0
  0
LINE
  5
1C4
330
1F
100
AcDbEntity
  8
LAYER-006
  6
Continuous
 62
     1
100
AcDbLine
 10
377.547553642382
 20
-43.84184067346621
 30
0.0
 11
372.0533926111648
 21
-43.84184067346621
 31
0.0
  0
LINE
  5
1C5
330
1F
100
AcDbEntity
  8
LAYER-006
  6
Continuous
 62
     1
100
AcDbLine
 10
411.0619024162214
 20
-43.84184067346621
 30
0.0
 11
411.0619024162214
 21
-51.5336474370406
 31
0.0
  0
LINE
  5
1C6
330
1F
100
AcDbEntity
  8
LAYER-006
  6
Continuous
 62
     1
100
AcDbLine
 10
411.0619024162214
 20
-43.84184067346621
 30
0.0
 11
387.4370281149369
 21
-43.84184067346621
 31
0.0
  0
LINE
  5
1C7
330
1F
100
AcDbEntity
  8
LAYER-006
  6
Continuous
 62
     1
100
AcDbLine
 10
-383.1561741120344
 20
-46.03949189997979
 30
0.0
 11
-363.9266297323208
 21
-46.03949189997979
 31
0.0
  0
LINE
  5
1C8
330
1F
100
AcDbEntity
  8
LAYER-006
  6
Continuous
 62
     1
100
AcDbLine
 10
-380.9585173913656
 20
-46.03949189997979
 30
0.0
 11
-380.9585173913656
 21
-55.92897736084535
 31
0.0
  0
LINE
  5
1C9
330
1F
100
AcDbEntity
  8
LAYER-006
  6
Continuous
 62
     1
100
AcDbLine
 10
-377.1126030212672
 20
-46.03949189997979
 30
0.0
 11
-377.1126030212672
 21
-55.92897736084535
 31
0.0
  0
LINE
  5
1CA
330
1F
100
AcDbEntity
  8
LAYER-006
  6
Continuous
 62
     1
100
AcDbLine
 10
-369.9702063172432
 20
-46.03949189997979
 30
0.0
 11
-369.9702063172432
 21
-55.92897736084535
 31
0.0
  0
LINE
  5
1CB
330
1F
100
AcDbEntity
  8
LAYER-006
  6
Continuous
 62
     1
100
AcDbLine
 10
-366.1242919471448
 20
-46.03949189997979
 30
0.0
 11
-366.1242919471448
 21
-55.92897736084535
 31
0.0
  0
LINE
  5
1CC
330
1F
100
AcDbEntity
  8
LAYER-006
  6
Continuous
 62
     1
100
AcDbLine
 10
-220.2496855190335
 20
-46.03949189997977
 30
0.0
 11
-201.0201411393427
 21
-46.03949189997977
 31
0.0
  0
LINE
  5
1CD
330
1F
100
AcDbEntity
  8
LAYER-006
  6
Continuous
 62
     1
100
AcDbLine
 10
-218.0520287983875
 20
-46.03949189997977
 30
0.0
 11
-218.0520287983875
 21
-55.92897736084538
 31
0.0
  0
LINE
  5
1CE
330
1F
100
AcDbEntity
  8
LAYER-006
  6
Continuous
 62
     1
100
AcDbLine
 10
-214.2061144282891
 20
-46.03949189997977
 30
0.0
 11
-214.2061144282891
 21
-55.92897736084538
 31
0.0
  0
LINE
  5
1CF
330
1F
100
AcDbEntity
  8
LAYER-006
  6
Continuous
 62
     1
100
AcDbLine
 10
-207.0637177242651
 20
-46.03949189997977
 30
0.0
 11
-207.0637177242651
 21
-55.92897736084538
 31
0.0
  0
LINE
  5
1D0
330
1F
100
AcDbEntity
  8
LAYER-006
  6
Continuous
 62
     1
100
AcDbLine
 10
-203.2178033541667
 20
-46.03949189997977
 30
0.0
 11
-203.2178033541667
 21
-55.92897736084538
 31
0.0
  0
LINE
  5
1D1
330
1F
100
AcDbEntity
  8
LAYER-006
  6
Continuous
 62
     1
100
AcDbLine
 10
-57.34319143192312
 20
-46.03949189997979
 30
0.0
 11
-38.11364705220944
 21
-46.03949189997979
 31
0.0
  0
LINE
  5
1D2
330
1F
100
AcDbEntity
  8
LAYER-006
  6
Continuous
 62
     1
100
AcDbLine
 10
-55.1455347112543
 20
-46.03949189997979
 30
0.0
 11
-55.1455347112543
 21
-55.92897736084535
 31
0.0
  0
LINE
  5
1D3
330
1F
100
AcDbEntity
  8
LAYER-006
  6
Continuous
 62
     1
100
AcDbLine
 10
-51.2996203411559
 20
-46.03949189997979
 30
0.0
 11
-51.2996203411559
 21
-55.92897736084535
 31
0.0
  0
LINE
  5
1D4
330
1F
100
AcDbEntity
  8
LAYER-006
  6
Continuous
 62
     1
100
AcDbLine
 10
-44.15722363713189
 20
-46.03949189997979
 30
0.0
 11
-44.15722363713189
 21
-55.92897736084535
 31
0.0
  0
LINE
  5
1D5
330
1F
100
AcDbEntity
  8
LAYER-006
  6
Continuous
 62
     1
100
AcDbLine
 10
-40.31130926703349
 20
-46.03949189997979
 30
0.0
 11
-40.31130926703349
 21
-55.92897736084535
 31
0.0
  0
LINE
  5
1D6
330
1F
100
AcDbEntity
  8
LAYER-006
  6
Continuous
 62
     1
100
AcDbLine
 10
234.585799538604
 20
-46.03949189997979
 30
0.0
 11
229.0916440015423
 21
-51.5336474370406
 31
0.0
  0
LINE
  5
1D7
330
1F
100
AcDbEntity
  8
LAYER-006
  6
Continuous
 62
     1
100
AcDbLine
 10
234.585799538604
 20
-46.03949189997979
 30
0.0
 11
240.6293706293707
 21
-46.03949189997979
 31
0.0
  0
LINE
  5
1D8
330
1F
100
AcDbEntity
  8
LAYER-006
  6
Continuous
 62
     1
100
AcDbLine
 10
237.8822928608407
 20
-46.03949189997979
 30
0.0
 11
237.8822928608407
 21
-55.92897736084541
 31
0.0
  0
LINE
  5
1D9
330
1F
100
AcDbEntity
  8
LAYER-006
  6
Continuous
 62
     1
100
AcDbLine
 10
250.518845101925
 20
-46.03949189997979
 30
0.0
 11
256.0130061331422
 21
-46.03949189997979
 31
0.0
  0
LINE
  5
1DA
330
1F
100
AcDbEntity
  8
LAYER-006
  6
Continuous
 62
     1
100
AcDbLine
 10
252.716518305061
 20
-46.03949189997979
 30
0.0
 11
252.716518305061
 21
-55.92897736084541
 31
0.0
  0
LINE
  5
1DB
330
1F
100
AcDbEntity
  8
LAYER-006
  6
Continuous
 62
     1
100
AcDbLine
 10
375.3498804392467
 20
-46.03949189997979
 30
0.0
 11
375.3498804392467
 21
-55.92897736084541
 31
0.0
  0
LINE
  5
1DC
330
1F
100
AcDbEntity
  8
LAYER-006
  6
Continuous
 62
     1
100
AcDbLine
 10
377.547553642382
 20
-46.03949189997979
 30
0.0
 11
372.0533926111648
 21
-46.03949189997979
 31
0.0
  0
LINE
  5
1DD
330
1F
100
AcDbEntity
  8
LAYER-006
  6
Continuous
 62
     1
100
AcDbLine
 10
390.1841058834668
 20
-46.03949189997979
 30
0.0
 11
390.1841058834668
 21
-55.92897736084541
 31
0.0
  0
LINE
  5
1DE
330
1F
100
AcDbEntity
  8
LAYER-006
  6
Continuous
 62
     1
100
AcDbLine
 10
393.4805992057037
 20
-46.03949189997979
 30
0.0
 11
398.9747547428681
 21
-51.5336474370406
 31
0.0
  0
LINE
  5
1DF
330
1F
100
AcDbEntity
  8
LAYER-006
  6
Continuous
 62
     1
100
AcDbLine
 10
393.4805992057037
 20
-46.03949189997979
 30
0.0
 11
387.4370281149369
 21
-46.03949189997979
 31
0.0
  0
LINE
  5
1E0
330
1F
100
AcDbEntity
  8
LAYER-006
  6
Continuous
 62
     1
100
AcDbLine
 10
217.0044963278681
 20
-51.5336474370406
 30
0.0
 11
229.0916440015423
 21
-51.5336474370406
 31
0.0
  0
LINE
  5
1E1
330
1F
100
AcDbEntity
  8
LAYER-006
  6
Continuous
 62
     1
100
AcDbLine
 10
411.0619024162214
 20
-51.5336474370406
 30
0.0
 11
398.9747547428681
 21
-51.5336474370406
 31
0.0
  0
LINE
  5
1E2
330
1F
100
AcDbEntity
  8
LAYER-006
  6
Continuous
 62
     1
100
AcDbLine
 10
21.59037339979199
 20
-55.92897736084535
 30
0.0
 11
21.59037339979199
 21
-69.66436620349816
 31
0.0
  0
LINE
  5
1E3
330
1F
100
AcDbEntity
  8
LAYER-006
  6
Continuous
 62
     1
100
AcDbLine
 10
229.0916440015423
 20
-55.92897736084535
 30
0.0
 11
262.0565772239096
 21
-55.92897736084535
 31
0.0
  0
LINE
  5
1E4
330
1F
100
AcDbEntity
  8
LAYER-006
  6
Continuous
 62
     1
100
AcDbLine
 10
262.0565772239096
 20
-55.92897736084535
 30
0.0
 11
262.0565772239096
 21
-69.66436620349816
 31
0.0
  0
LINE
  5
1E5
330
1F
100
AcDbEntity
  8
LAYER-006
  6
Continuous
 62
     1
100
AcDbLine
 10
366.009821520398
 20
-55.92897736084535
 30
0.0
 11
366.009821520398
 21
-69.66436620349816
 31
0.0
  0
LINE
  5
1E6
330
1F
100
AcDbEntity
  8
LAYER-006
  6
Continuous
 62
     1
100
AcDbLine
 10
398.9747547428681
 20
-55.92897736084535
 30
0.0
 11
366.009821520398
 21
-55.92897736084535
 31
0.0
  0
LINE
  5
1E7
330
1F
100
AcDbEntity
  8
LAYER-006
  6
Continuous
 62
     1
100
AcDbLine
 10
-443.409626600208
 20
-69.66436620349816
 30
0.0
 11
-443.409626600208
 21
-55.92897736084535
 31
0.0
  0
LINE
  5
1E8
330
1F
100
AcDbEntity
  8
LAYER-006
  6
Continuous
 62
     1
100
AcDbLine
 10
-383.1561741120344
 20
-69.66436620349816
 30
0.0
 11
-383.1561741120344
 21
-72.41144397202879
 31
0.0
  0
LINE
  5
1E9
330
1F
100
AcDbEntity
  8
LAYER-006
  6
Continuous
 62
     1
100
AcDbLine
 10
-363.9266297323209
 20
-69.66436620349816
 30
0.0
 11
-363.9266297323209
 21
-72.41144397202879
 31
0.0
  0
LINE
  5
1EA
330
1F
100
AcDbEntity
  8
LAYER-006
  6
Continuous
 62
     1
100
AcDbLine
 10
-220.2496855190335
 20
-69.66436620349819
 30
0.0
 11
-220.2496855190335
 21
-72.41144397202876
 31
0.0
  0
LINE
  5
1EB
330
1F
100
AcDbEntity
  8
LAYER-006
  6
Continuous
 62
     1
100
AcDbLine
 10
-201.0201411393428
 20
-69.66436620349819
 30
0.0
 11
-201.0201411393428
 21
-72.41144397202876
 31
0.0
  0
LINE
  5
1EC
330
1F
100
AcDbEntity
  8
LAYER-006
  6
Continuous
 62
     1
100
AcDbLine
 10
-57.34319143192312
 20
-69.66436620349816
 30
0.0
 11
-57.34319143192312
 21
-72.41144397202879
 31
0.0
  0
LINE
  5
1ED
330
1F
100
AcDbEntity
  8
LAYER-006
  6
Continuous
 62
     1
100
AcDbLine
 10
-38.11364705220956
 20
-69.66436620349816
 30
0.0
 11
-38.11364705220956
 21
-72.41144397202879
 31
0.0
  0
LINE
  5
1EE
330
1F
100
AcDbEntity
  8
LAYER-006
  6
Continuous
 62
     1
100
AcDbLine
 10
229.0916440015423
 20
-69.66436620349816
 30
0.0
 11
229.0916440015423
 21
-55.92897736084535
 31
0.0
  0
LINE
  5
1EF
330
1F
100
AcDbEntity
  8
LAYER-006
  6
Continuous
 62
     1
100
AcDbLine
 10
235.5716107378959
 20
-69.66436620349816
 30
0.0
 11
235.5716107378959
 21
-72.22784897234385
 31
0.0
  0
LINE
  5
1F0
330
1F
100
AcDbEntity
  8
LAYER-006
  6
Continuous
 62
     1
100
AcDbLine
 10
254.8011551170246
 20
-69.66436620349816
 30
0.0
 11
254.8011551170246
 21
-72.22784897234385
 31
0.0
  0
LINE
  5
1F1
330
1F
100
AcDbEntity
  8
LAYER-006
  6
Continuous
 62
     1
100
AcDbLine
 10
262.0565772239096
 20
-69.66436620349816
 30
0.0
 11
229.0916440015423
 21
-69.66436620349816
 31
0.0
  0
LINE
  5
1F2
330
1F
100
AcDbEntity
  8
LAYER-006
  6
Continuous
 62
     1
100
AcDbLine
 10
366.009821520398
 20
-69.66436620349816
 30
0.0
 11
398.9747547428681
 21
-69.66436620349816
 31
0.0
  0
LINE
  5
1F3
330
1F
100
AcDbEntity
  8
LAYER-006
  6
Continuous
 62
     1
100
AcDbLine
 10
373.2652436272824
 20
-69.66436620349816
 30
0.0
 11
373.2652436272824
 21
-72.22784897234385
 31
0.0
  0
LINE
  5
1F4
330
1F
100
AcDbEntity
  8
LAYER-006
  6
Continuous
 62
     1
100
AcDbLine
 10
392.4947880064117
 20
-69.66436620349816
 30
0.0
 11
392.4947880064117
 21
-72.22784897234385
 31
0.0
  0
LINE
  5
1F5
330
1F
100
AcDbEntity
  8
LAYER-006
  6
Continuous
 62
     1
100
AcDbLine
 10
398.9747547428681
 20
-69.66436620349816
 30
0.0
 11
398.9747547428681
 21
-55.92897736084535
 31
0.0
  0
LINE
  5
1F6
330
1F
100
AcDbEntity
  8
LAYER-006
  6
Continuous
 62
     1
100
AcDbLine
 10
-383.1561741120344
 20
-72.41144397202879
 30
0.0
 11
-363.9266297323209
 21
-72.41144397202879
 31
0.0
  0
LINE
  5
1F7
330
1F
100
AcDbEntity
  8
LAYER-006
  6
Continuous
 62
     1
100
AcDbLine
 10
-220.2496855190335
 20
-72.41144397202876
 30
0.0
 11
-201.0201411393428
 21
-72.41144397202876
 31
0.0
  0
LINE
  5
1F8
330
1F
100
AcDbEntity
  8
LAYER-006
  6
Continuous
 62
     1
100
AcDbLine
 10
-57.34319143192312
 20
-72.41144397202879
 30
0.0
 11
-38.11364705220956
 21
-72.41144397202879
 31
0.0
  0
LINE
  5
1F9
330
1F
100
AcDbEntity
  8
LAYER-006
  6
Continuous
 62
     1
100
AcDbLine
 10
240.0799550756651
 20
-72.22784897234385
 30
0.0
 11
235.5716107378959
 21
-72.22784897234385
 31
0.0
  0
LINE
  5
1FA
330
1F
100
AcDbEntity
  8
LAYER-006
  6
Continuous
 62
     1
100
AcDbLine
 10
254.8011551170246
 20
-72.22784897234385
 30
0.0
 11
251.0682661497873
 21
-72.22784897234385
 31
0.0
  0
LINE
  5
1FB
330
1F
100
AcDbEntity
  8
LAYER-006
  6
Continuous
 62
     1
100
AcDbLine
 10
373.2652436272824
 20
-72.22784897234385
 30
0.0
 11
376.9981325945203
 21
-72.22784897234385
 31
0.0
  0
LINE
  5
1FC
330
1F
100
AcDbEntity
  8
LAYER-006
  6
Continuous
 62
     1
100
AcDbLine
 10
387.9864436686426
 20
-72.22784897234385
 30
0.0
 11
392.4947880064117
 21
-72.22784897234385
 31
0.0
  0
LINE
  5
1FD
330
1F
100
AcDbEntity
  8
LAYER-006
  6
Continuous
 62
     1
100
AcDbLine
 10
-380.9585173913656
 20
-80.95262553500083
 30
0.0
 11
-380.9585173913656
 21
-72.41144397202879
 31
0.0
  0
LINE
  5
1FE
330
1F
100
AcDbEntity
  8
LAYER-006
  6
Continuous
 62
     1
100
AcDbLine
 10
-380.9585173913656
 20
-80.95262553500083
 30
0.0
 11
-366.1242919471448
 21
-80.95262553500083
 31
0.0
  0
LINE
  5
1FF
330
1F
100
AcDbEntity
  8
LAYER-006
  6
Continuous
 62
     1
100
AcDbLine
 10
-377.1126030212672
 20
-80.95262553500083
 30
0.0
 11
-377.1126030212672
 21
-72.41144397202879
 31
0.0
  0
LINE
  5
200
330
1F
100
AcDbEntity
  8
LAYER-006
  6
Continuous
 62
     1
100
AcDbLine
 10
-369.9702063172432
 20
-80.95262553500083
 30
0.0
 11
-369.9702063172432
 21
-72.41144397202879
 31
0.0
  0
LINE
  5
201
330
1F
100
AcDbEntity
  8
LAYER-006
  6
Continuous
 62
     1
100
AcDbLine
 10
-366.1242919471448
 20
-80.95262553500083
 30
0.0
 11
-366.1242919471448
 21
-72.41144397202879
 31
0.0
  0
LINE
  5
202
330
1F
100
AcDbEntity
  8
LAYER-006
  6
Continuous
 62
     1
100
AcDbLine
 10
-218.0520287983875
 20
-80.95262553500083
 30
0.0
 11
-218.0520287983875
 21
-72.41144397202876
 31
0.0
  0
LINE
  5
203
330
1F
100
AcDbEntity
  8
LAYER-006
  6
Continuous
 62
     1
100
AcDbLine
 10
-218.0520287983875
 20
-80.95262553500083
 30
0.0
 11
-203.2178033541667
 21
-80.95262553500083
 31
0.0
  0
LINE
  5
204
330
1F
100
AcDbEntity
  8
LAYER-006
  6
Continuous
 62
     1
100
AcDbLine
 10
-214.2061144282891
 20
-80.95262553500083
 30
0.0
 11
-214.2061144282891
 21
-72.41144397202876
 31
0.0
  0
LINE
  5
205
330
1F
100
AcDbEntity
  8
LAYER-006
  6
Continuous
 62
     1
100
AcDbLine
 10
-207.0637177242651
 20
-80.95262553500083
 30
0.0
 11
-207.0637177242651
 21
-72.41144397202876
 31
0.0
  0
LINE
  5
206
330
1F
100
AcDbEntity
  8
LAYER-006
  6
Continuous
 62
     1
100
AcDbLine
 10
-203.2178033541667
 20
-80.95262553500083
 30
0.0
 11
-203.2178033541667
 21
-72.41144397202876
 31
0.0
  0
LINE
  5
207
330
1F
100
AcDbEntity
  8
LAYER-006
  6
Continuous
 62
     1
100
AcDbLine
 10
-55.1455347112543
 20
-80.95262553500083
 30
0.0
 11
-55.1455347112543
 21
-72.41144397202879
 31
0.0
  0
LINE
  5
208
330
1F
100
AcDbEntity
  8
LAYER-006
  6
Continuous
 62
     1
100
AcDbLine
 10
-55.1455347112543
 20
-80.95262553500083
 30
0.0
 11
-40.31130926703349
 21
-80.95262553500083
 31
0.0
  0
LINE
  5
209
330
1F
100
AcDbEntity
  8
LAYER-006
  6
Continuous
 62
     1
100
AcDbLine
 10
-51.2996203411559
 20
-80.95262553500083
 30
0.0
 11
-51.2996203411559
 21
-72.41144397202879
 31
0.0
  0
LINE
  5
20A
330
1F
100
AcDbEntity
  8
LAYER-006
  6
Continuous
 62
     1
100
AcDbLine
 10
-44.15722363713189
 20
-80.95262553500083
 30
0.0
 11
-44.15722363713189
 21
-72.41144397202879
 31
0.0
  0
LINE
  5
20B
330
1F
100
AcDbEntity
  8
LAYER-006
  6
Continuous
 62
     1
100
AcDbLine
 10
-40.31130926703349
 20
-80.95262553500083
 30
0.0
 11
-40.31130926703349
 21
-72.41144397202879
 31
0.0
  0
LINE
  5
20C
330
1F
100
AcDbEntity
  8
LAYER-006
  6
Continuous
 62
     1
100
AcDbLine
 10
237.7692729499701
 20
-80.76903053531589
 30
0.0
 11
237.7692729499701
 21
-72.22784897234385
 31
0.0
  0
LINE
  5
20D
330
1F
100
AcDbEntity
  8
LAYER-006
  6
Continuous
 62
     1
100
AcDbLine
 10
240.0799550756651
 20
-80.76903053531589
 30
0.0
 11
237.7692729499701
 21
-80.76903053531589
 31
0.0
  0
LINE
  5
20E
330
1F
100
AcDbEntity
  8
LAYER-006
  6
Continuous
 62
     1
100
AcDbLine
 10
252.6034983964976
 20
-80.76903053531589
 30
0.0
 11
252.6034983964976
 21
-72.22784897234385
 31
0.0
  0
LINE
  5
20F
330
1F
100
AcDbEntity
  8
LAYER-006
  6
Continuous
 62
     1
100
AcDbLine
 10
252.6034983964976
 20
-80.76903053531589
 30
0.0
 11
251.0682661497873
 21
-80.76903053531589
 31
0.0
  0
LINE
  5
210
330
1F
100
AcDbEntity
  8
LAYER-006
  6
Continuous
 62
     1
100
AcDbLine
 10
375.4629003478101
 20
-80.76903053531589
 30
0.0
 11
375.4629003478101
 21
-72.22784897234385
 31
0.0
  0
LINE
  5
211
330
1F
100
AcDbEntity
  8
LAYER-006
  6
Continuous
 62
     1
100
AcDbLine
 10
375.4629003478101
 20
-80.76903053531589
 30
0.0
 11
376.9981325945203
 21
-80.76903053531589
 31
0.0
  0
LINE
  5
212
330
1F
100
AcDbEntity
  8
LAYER-006
  6
Continuous
 62
     1
100
AcDbLine
 10
387.9864436686426
 20
-80.76903053531589
 30
0.0
 11
390.2971257943376
 21
-80.76903053531589
 31
0.0
  0
LINE
  5
213
330
1F
100
AcDbEntity
  8
LAYER-006
  6
Continuous
 62
     1
100
AcDbLine
 10
390.2971257943376
 20
-80.76903053531589
 30
0.0
 11
390.2971257943376
 21
-72.22784897234385
 31
0.0
  0
LINE
  5
214
330
1F
100
AcDbEntity
  8
LAYER-006
  6
Continuous
 62
     1
100
AcDbLine
 10
21.59037339979199
 20
-101.3157974773602
 30
0.0
 11
21.59037339979199
 21
-431.3157974773602
 31
0.0
  0
LINE
  5
215
330
1F
100
AcDbEntity
  8
LAYER-007
  6
Continuous
 62
     4
100
AcDbLine
 10
-20.90962660020801
 20
-123.9263120164947
 30
0.0
 11
-20.90962660020801
 21
-143.155856396209
 31
0.0
  0
LINE
  5
216
330
1F
100
AcDbEntity
  8
LAYER-007
  6
CENTER
 62
     4
100
AcDbLine
 10
-435.409626600208
 20
-125.0251431226689
 30
0.0
 11
-435.409626600208
 21
-143.155856396209
 31
0.0
  0
LINE
  5
217
330
1F
100
AcDbEntity
  8
LAYER-007
  6
CENTER
 62
     4
100
AcDbLine
 10
13.59037339979199
 20
-125.0251431226689
 30
0.0
 11
13.59037339979199
 21
-143.155856396209
 31
0.0
  0
LINE
  5
218
330
1F
100
AcDbEntity
  8
LAYER-007
  6
Continuous
 62
     4
100
AcDbLine
 10
-400.909626600208
 20
-125.5745641717685
 30
0.0
 11
-400.909626600208
 21
-142.6064408425024
 31
0.0
  0
LINE
  5
219
330
1F
100
AcDbEntity
  8
LAYER-006
  6
Continuous
 62
     1
100
AcDbLine
 10
210.7919715616011
 20
-126.1239852196302
 30
0.0
 11
210.7919715616011
 21
-142.6064518308133
 31
0.0
  0
LINE
  5
21A
330
1F
100
AcDbEntity
  8
LAYER-006
  6
Continuous
 62
     1
100
AcDbLine
 10
219.0331993721535
 20
-126.1239852196302
 30
0.0
 11
210.7919715616011
 21
-126.1239852196302
 31
0.0
  0
LINE
  5
21B
330
1F
100
AcDbEntity
  8
LAYER-006
  6
Continuous
 62
     1
100
AcDbLine
 10
409.0331993721535
 20
-126.1239852196302
 30
0.0
 11
417.2744326777453
 21
-126.1239852196302
 31
0.0
  0
LINE
  5
21C
330
1F
100
AcDbEntity
  8
LAYER-006
  6
Continuous
 62
     1
100
AcDbLine
 10
417.2744326777453
 20
-126.1239852196302
 30
0.0
 11
417.2744326777453
 21
-142.6064518308133
 31
0.0
  0
LINE
  5
21D
330
1F
100
AcDbEntity
  8
LAYER-006
  6
Continuous
 62
     1
100
AcDbLine
 10
205.2978160245401
 20
-129.9698886013602
 30
0.0
 11
205.2978160245401
 21
-138.2111219070091
 31
0.0
  0
LINE
  5
21E
330
1F
100
AcDbEntity
  8
LAYER-006
  6
Continuous
 62
     1
100
AcDbLine
 10
219.0331993721535
 20
-129.9698886013602
 30
0.0
 11
205.2978160245401
 21
-129.9698886013602
 31
0.0
  0
LINE
  5
21F
330
1F
100
AcDbEntity
  8
LAYER-006
  6
Continuous
 62
     1
100
AcDbLine
 10
227.7802771398008
 20
-129.9698886013602
 30
0.0
 11
400.2861216036237
 21
-129.9698886013602
 31
0.0
  0
LINE
  5
220
330
1F
100
AcDbEntity
  8
LAYER-006
  6
Continuous
 62
     1
100
AcDbLine
 10
409.0331993721535
 20
-129.9698886013602
 30
0.0
 11
422.7685882148063
 21
-129.9698886013602
 31
0.0
  0
LINE
  5
221
330
1F
100
AcDbEntity
  8
LAYER-006
  6
Continuous
 62
     1
100
AcDbLine
 10
422.7685882148063
 20
-129.9698886013602
 30
0.0
 11
422.7685882148063
 21
-138.2111219070091
 31
0.0
  0
LINE
  5
222
330
1F
100
AcDbEntity
  8
LAYER-007
  6
CENTER
 62
     4
100
AcDbLine
 10
207.8606153624386
 20
-133.8157974773602
 30
0.0
 11
422.4594421341629
 21
-133.8157974773602
 31
0.0
  0
LINE
  5
223
330
1F
100
AcDbEntity
  8
LAYER-007
  6
CENTER
 62
     4
100
AcDbLine
 10
-440.903782137597
 20
-133.8157974773602
 30
0.0
 11
-429.9154710634753
 21
-133.8157974773602
 31
0.0
  0
LINE
  5
224
330
1F
100
AcDbEntity
  8
LAYER-007
  6
CENTER
 62
     4
100
AcDbLine
 10
-408.052034292543
 20
-133.8157974773602
 30
0.0
 11
-393.2178088483221
 21
-133.8157974773602
 31
0.0
  0
CIRCLE
  5
225
330
1F
100
AcDbEntity
  8
LAYER-006
  6
Continuous
 62
     5
100
AcDbCircle
 10
-400.909626600208
 20
-133.8157974773602
 30
0.0
 40
3.845903381787253
  0
LINE
  5
226
330
1F
100
AcDbEntity
  8
LAYER-007
  6
CENTER
 62
     4
100
AcDbLine
 10
-28.05202879838726
 20
-133.8157974773602
 30
0.0
 11
-13.21780335416719
 21
-133.8157974773602
 31
0.0
  0
CIRCLE
  5
227
330
1F
100
AcDbEntity
  8
LAYER-006
  6
Continuous
 62
     5
100
AcDbCircle
 10
-20.90962660020801
 20
-133.8157974773602
 30
0.0
 40
3.845903381787253
  0
LINE
  5
228
330
1F
100
AcDbEntity
  8
LAYER-007
  6
CENTER
 62
     4
100
AcDbLine
 10
8.096217862731123
 20
-133.8157974773602
 30
0.0
 11
19.08452893685353
 21
-133.8157974773602
 31
0.0
  0
LINE
  5
229
330
1F
100
AcDbEntity
  8
LAYER-006
  6
Continuous
 62
     1
100
AcDbLine
 10
219.0331993721535
 20
-138.2111219070091
 30
0.0
 11
205.2978160245401
 21
-138.2111219070091
 31
0.0
  0
LINE
  5
22A
330
1F
100
AcDbEntity
  8
LAYER-006
  6
Continuous
 62
     1
100
AcDbLine
 10
227.7802771398008
 20
-138.2111219070091
 30
0.0
 11
400.2861216036237
 21
-138.2111219070091
 31
0.0
  0
LINE
  5
22B
330
1F
100
AcDbEntity
  8
LAYER-006
  6
Continuous
 62
     1
100
AcDbLine
 10
409.0331993721535
 20
-138.2111219070091
 30
0.0
 11
422.7685882148063
 21
-138.2111219070091
 31
0.0
  0
LINE
  5
22C
330
1F
100
AcDbEntity
  8
LAYER-006
  6
Continuous
 62
     1
100
AcDbLine
 10
219.0331993721535
 20
-142.6064518308133
 30
0.0
 11
210.7919715616011
 21
-142.6064518308133
 31
0.0
  0
LINE
  5
22D
330
1F
100
AcDbEntity
  8
LAYER-006
  6
Continuous
 62
     1
100
AcDbLine
 10
409.0331993721535
 20
-142.6064518308133
 30
0.0
 11
417.2744326777453
 21
-142.6064518308133
 31
0.0
  0
LINE
  5
22E
330
1F
100
AcDbEntity
  8
LAYER-006
  6
Continuous
 62
     1
100
AcDbLine
 10
-380.909626600208
 20
-166.3157974773602
 30
0.0
 11
-380.909626600208
 21
-178.0371136107181
 31
0.0
  0
LINE
  5
22F
330
1F
100
AcDbEntity
  8
LAYER-006
  6
Continuous
 62
     1
100
AcDbLine
 10
-40.90962660020801
 20
-166.3157974773602
 30
0.0
 11
-40.90962660020801
 21
-178.0371136107181
 31
0.0
  0
LINE
  5
230
330
1F
100
AcDbEntity
  8
LAYER-033
  6
Continuous
 62
     5
100
AcDbLine
 10
5.590373399791986
 20
-327.8567087179324
 30
0.0
 11
21.59037339979199
 21
-327.8567087179324
 31
0.0
  0
LINE
  5
231
330
1F
100
AcDbEntity
  8
LAYER-033
  6
CENTER
 62
     5
100
AcDbLine
 10
13.59037339979199
 20
-329.9642652834464
 30
0.0
 11
13.59037339979199
 21
-339.4845409950711
 31
0.0
  0
LINE
  5
232
330
1F
100
AcDbEntity
  8
LAYER-033
  6
HIDDEN
 62
     5
100
AcDbLine
 10
225.0331993721535
 20
-327.8567087179324
 30
0.0
 11
227.7802771398008
 21
-327.8567087179324
 31
0.0
  0
LINE
  5
233
330
1F
100
AcDbEntity
  8
LAYER-033
  6
CENTER
 62
     5
100
AcDbLine
 10
8.830235543979654
 20
-334.7244031392588
 30
0.0
 11
18.35051125560432
 21
-334.7244031392588
 31
0.0
  0
CIRCLE
  5
234
330
1F
100
AcDbEntity
  8
LAYER-033
  6
Continuous
 62
     5
100
AcDbCircle
 10
13.59037339979199
 20
-334.7244031392588
 30
0.0
 40
2.670456138506594
  0
LINE
  5
235
330
1F
100
AcDbEntity
  8
LAYER-033
  6
HIDDEN
 62
     5
100
AcDbLine
 10
225.0331993721535
 20
-341.5920975605852
 30
0.0
 11
227.7802771398008
 21
-341.5920975605852
 31
0.0
  0
LINE
  5
236
330
1F
100
AcDbEntity
  8
LAYER-033
  6
Continuous
 62
     5
100
AcDbLine
 10
5.590373399791986
 20
-341.5920975605852
 30
0.0
 11
21.59037339979199
 21
-341.5920975605852
 31
0.0
  0
LINE
  5
237
330
1F
100
AcDbEntity
  8
LAYER-006
  6
Continuous
 62
     1
100
AcDbLine
 10
-380.909626600208
 20
-355.3274918973798
 30
0.0
 11
-380.909626600208
 21
-366.3157974773602
 31
0.0
  0
LINE
  5
238
330
1F
100
AcDbEntity
  8
LAYER-006
  6
Continuous
 62
     1
100
AcDbLine
 10
-40.90962660020801
 20
-355.3274918973798
 30
0.0
 11
-40.90962660020801
 21
-366.3157974773602
 31
0.0
  0
LINE
  5
239
330
1F
100
AcDbEntity
  8
LAYER-007
  6
CENTER
 62
     4
100
AcDbLine
 10
-435.409626600208
 20
-390.0251541122178
 30
0.0
 11
-435.409626600208
 21
-408.1558673845552
 31
0.0
  0
LINE
  5
23A
330
1F
100
AcDbEntity
  8
LAYER-007
  6
CENTER
 62
     4
100
AcDbLine
 10
13.59037339979199
 20
-390.0251541122178
 30
0.0
 11
13.59037339979199
 21
-408.1558673845552
 31
0.0
  0
LINE
  5
23B
330
1F
100
AcDbEntity
  8
LAYER-007
  6
CENTER
 62
     4
100
AcDbLine
 10
-20.90962660020801
 20
-391.1239797253602
 30
0.0
 11
-20.90962660020801
 21
-407.6064518308133
 31
0.0
  0
LINE
  5
23C
330
1F
100
AcDbEntity
  8
LAYER-006
  6
Continuous
 62
     1
100
AcDbLine
 10
204.7919715607173
 20
-391.1239797254744
 30
0.0
 11
204.7919715607173
 21
-407.6064518308133
 31
0.0
  0
LINE
  5
23D
330
1F
100
AcDbEntity
  8
LAYER-006
  6
Continuous
 62
     1
100
AcDbLine
 10
213.0331993721535
 20
-391.1239797254744
 30
0.0
 11
204.7919715607173
 21
-391.1239797254744
 31
0.0
  0
LINE
  5
23E
330
1F
100
AcDbEntity
  8
LAYER-006
  6
Continuous
 62
     1
100
AcDbLine
 10
415.0331993721535
 20
-391.1239797254744
 30
0.0
 11
423.2744326777445
 21
-391.1239797254744
 31
0.0
  0
LINE
  5
23F
330
1F
100
AcDbEntity
  8
LAYER-006
  6
Continuous
 62
     1
100
AcDbLine
 10
423.2744326777445
 20
-391.1239797254744
 30
0.0
 11
423.2744326777445
 21
-407.6064518308133
 31
0.0
  0
LINE
  5
240
330
1F
100
AcDbEntity
  8
LAYER-007
  6
CENTER
 62
     4
100
AcDbLine
 10
-400.909626600208
 20
-392.2228163270421
 30
0.0
 11
-400.909626600208
 21
-406.5076152293602
 31
0.0
  0
LINE
  5
241
330
1F
100
AcDbEntity
  8
LAYER-006
  6
Continuous
 62
     1
100
AcDbLine
 10
199.2978160236562
 20
-394.9698940955723
 30
0.0
 11
199.2978160236562
 21
-403.2111274011647
 31
0.0
  0
LINE
  5
242
330
1F
100
AcDbEntity
  8
LAYER-006
  6
Continuous
 62
     1
100
AcDbLine
 10
213.0331993721535
 20
-394.9698940955723
 30
0.0
 11
199.2978160236562
 21
-394.9698940955723
 31
0.0
  0
LINE
  5
243
330
1F
100
AcDbEntity
  8
LAYER-006
  6
Continuous
 62
     1
100
AcDbLine
 10
227.7802771398008
 20
-394.9698940955723
 30
0.0
 11
400.2861216036237
 21
-394.9698940955723
 31
0.0
  0
LINE
  5
244
330
1F
100
AcDbEntity
  8
LAYER-006
  6
Continuous
 62
     1
100
AcDbLine
 10
415.0331993721535
 20
-394.9698940955723
 30
0.0
 11
428.7685882148063
 21
-394.9698940955723
 31
0.0
  0
LINE
  5
245
330
1F
100
AcDbEntity
  8
LAYER-006
  6
Continuous
 62
     1
100
AcDbLine
 10
428.7685882148063
 20
-394.9698940955723
 30
0.0
 11
428.7685882148063
 21
-403.2111274011647
 31
0.0
  0
LINE
  5
246
330
1F
100
AcDbEntity
  8
LAYER-007
  6
CENTER
 62
     4
100
AcDbLine
 10
-440.903782137597
 20
-398.8157974773602
 30
0.0
 11
-429.9154710634754
 21
-398.8157974773602
 31
0.0
  0
LINE
  5
247
330
1F
100
AcDbEntity
  8
LAYER-007
  6
CENTER
 62
     4
100
AcDbLine
 10
-408.052034292543
 20
-398.8157974773602
 30
0.0
 11
-393.2178088483221
 21
-398.8157974773602
 31
0.0
  0
CIRCLE
  5
248
330
1F
100
AcDbEntity
  8
LAYER-006
  6
Continuous
 62
     5
100
AcDbCircle
 10
-400.909626600208
 20
-398.8157974773602
 30
0.0
 40
3.845903381787253
  0
LINE
  5
249
330
1F
100
AcDbEntity
  8
LAYER-007
  6
CENTER
 62
     4
100
AcDbLine
 10
-28.05202879838726
 20
-398.8157974773602
 30
0.0
 11
-13.21780335416719
 21
-398.8157974773602
 31
0.0
  0
CIRCLE
  5
24A
330
1F
100
AcDbEntity
  8
LAYER-006
  6
Continuous
 62
     5
100
AcDbCircle
 10
-20.90962660020801
 20
-398.8157974773602
 30
0.0
 40
3.845903381787253
  0
LINE
  5
24B
330
1F
100
AcDbEntity
  8
LAYER-007
  6
CENTER
 62
     4
100
AcDbLine
 10
8.096217862731123
 20
-398.8157974773602
 30
0.0
 11
19.08452893685353
 21
-398.8157974773602
 31
0.0
  0
LINE
  5
24C
330
1F
100
AcDbEntity
  8
LAYER-007
  6
CENTER
 62
     4
100
AcDbLine
 10
192.8302174569386
 20
-398.8157974773602
 30
0.0
 11
434.6867712278176
 21
-398.8157974773602
 31
0.0
  0
LINE
  5
24D
330
1F
100
AcDbEntity
  8
LAYER-006
  6
Continuous
 62
     1
100
AcDbLine
 10
213.0331993721535
 20
-403.2111274011647
 30
0.0
 11
199.2978160236562
 21
-403.2111274011647
 31
0.0
  0
LINE
  5
24E
330
1F
100
AcDbEntity
  8
LAYER-006
  6
Continuous
 62
     1
100
AcDbLine
 10
227.7802771398008
 20
-403.2111274011647
 30
0.0
 11
400.2861216036237
 21
-403.2111274011647
 31
0.0
  0
LINE
  5
24F
330
1F
100
AcDbEntity
  8
LAYER-006
  6
Continuous
 62
     1
100
AcDbLine
 10
415.0331993721535
 20
-403.2111274011647
 30
0.0
 11
428.7685882148063
 21
-403.2111274011647
 31
0.0
  0
LINE
  5
250
330
1F
100
AcDbEntity
  8
LAYER-006
  6
Continuous
 62
     1
100
AcDbLine
 10
213.0331993721535
 20
-407.6064518308133
 30
0.0
 11
204.7919715607173
 21
-407.6064518308133
 31
0.0
  0
LINE
  5
251
330
1F
100
AcDbEntity
  8
LAYER-006
  6
Continuous
 62
     1
100
AcDbLine
 10
415.0331993721535
 20
-407.6064518308133
 30
0.0
 11
423.2744326777445
 21
-407.6064518308133
 31
0.0
  0
LINE
  5
252
330
1F
100
AcDbEntity
  8
LAYER-007
  6
HIDDEN
 62
     1
100
AcDbLine
 10
-408.1555409703062
 20
-425.3157974773602
 30
0.0
 11
-408.1555409703062
 21
-431.3157974773602
 31
0.0
  0
LINE
  5
253
330
1F
100
AcDbEntity
  8
LAYER-007
  6
HIDDEN
 62
     1
100
AcDbLine
 10
-393.6637232184214
 20
-425.3157974773602
 30
0.0
 11
-393.6637232184214
 21
-431.3157974773602
 31
0.0
  0
LINE
  5
254
330
1F
100
AcDbEntity
  8
LAYER-007
  6
HIDDEN
 62
     1
100
AcDbLine
 10
-28.15552998199519
 20
-425.3157974773602
 30
0.0
 11
-28.15552998199519
 21
-431.3157974773602
 31
0.0
  0
LINE
  5
255
330
1F
100
AcDbEntity
  8
LAYER-007
  6
HIDDEN
 62
     1
100
AcDbLine
 10
-13.66371772420803
 20
-425.3157974773602
 30
0.0
 11
-13.66371772420803
 21
-431.3157974773602
 31
0.0
  0
LINE
  5
256
330
1F
100
AcDbEntity
  8
LAYER-006
  6
Continuous
 62
     1
100
AcDbLine
 10
-443.409626600208
 20
-431.3157974773602
 30
0.0
 11
-443.409626600208
 21
-101.3157974773602
 31
0.0
  0
LINE
  5
257
330
1F
100
AcDbEntity
  8
LAYER-007
  6
CENTER
 62
     4
100
AcDbLine
 10
-210.909626600208
 20
-13.36556868840421
 30
0.0
 11
-210.909626600208
 21
-430.16360373349
 31
0.0
  0
LINE
  5
258
330
1F
100
AcDbEntity
  8
LAYER-006
  6
Continuous
 62
     1
100
AcDbLine
 10
14.99738675531961
 20
-4.853731664419627
 30
0.0
 11
14.99738675531961
 21
-55.92897736084535
 31
0.0
  0
LINE
  5
259
330
1F
100
AcDbEntity
  8
LAYER-006
  6
Continuous
 62
     1
100
AcDbLine
 10
5.107912282765199
 20
-4.853731664419627
 30
0.0
 11
5.107912282765199
 21
-55.92897736084535
 31
0.0
  0
LINE
  5
25A
330
1F
100
AcDbEntity
  8
LAYER-006
  6
Continuous
 62
     1
100
AcDbLine
 10
-428.2552962064337
 20
-4.853731664419627
 30
0.0
 11
-428.2552962064337
 21
-55.92897736084535
 31
0.0
  0
LINE
  5
25B
330
1F
100
AcDbEntity
  8
LAYER-006
  6
Continuous
 62
     1
100
AcDbLine
 10
-438.1447706789883
 20
-4.853731664419627
 30
0.0
 11
-438.1447706789883
 21
-55.92897736084535
 31
0.0
  0
LINE
  5
25C
330
1F
100
AcDbEntity
  8
LAYER-006
  6
Continuous
 62
     1
100
AcDbLine
 10
-428.2552962064337
 20
-69.66436620349816
 30
0.0
 11
-428.2552962064337
 21
-101.3157974773602
 31
0.0
  0
LINE
  5
25D
330
1F
100
AcDbEntity
  8
LAYER-006
  6
Continuous
 62
     1
100
AcDbLine
 10
-437.9154710631468
 20
-69.66436620349816
 30
0.0
 11
-437.9154710631468
 21
-101.3157974773602
 31
0.0
  0
LINE
  5
25E
330
1F
100
AcDbEntity
  8
LAYER-006
  6
Continuous
 62
     1
100
AcDbLine
 10
14.99738675531961
 20
-69.66436620349816
 30
0.0
 11
14.99738675531961
 21
-101.3157974773602
 31
0.0
  0
LINE
  5
25F
330
1F
100
AcDbEntity
  8
LAYER-006
  6
Continuous
 62
     1
100
AcDbLine
 10
5.107906788608602
 20
-69.66436620349816
 30
0.0
 11
5.107906788608602
 21
-101.3157974773602
 31
0.0
  0
LINE
  5
260
330
1F
100
AcDbEntity
  8
LAYER-033
  6
CENTER
 62
     4
100
AcDbLine
 10
-20.90962660020801
 20
-419.9845982770416
 30
0.0
 11
-20.90962660020801
 21
-438.8608596539461
 31
0.0
  0
LINE
  5
261
330
1F
100
AcDbEntity
  8
LAYER-033
  6
CENTER
 62
     4
100
AcDbLine
 10
-400.909626600208
 20
-419.9845982770416
 30
0.0
 11
-400.909626600208
 21
-438.8608596539461
 31
0.0
  0
LINE
  5
262
330
1F
100
AcDbEntity
  8
LAYER-007
  6
CENTER
 62
     4
100
AcDbLine
 10
314.0331993721535
 20
-83.08730262274358
 30
0.0
 11
314.0331993721535
 21
-431.3157974773602
 31
0.0
  0
LINE
  5
263
330
1F
100
AcDbEntity
  8
LAYER-033
  6
Continuous
 62
     1
100
AcDbLine
 10
219.0331993721535
 20
-373.8157974789776
 30
0.0
 11
219.0331993721535
 21
-431.3157974773602
 31
0.0
  0
LINE
  5
264
330
1F
100
AcDbEntity
  8
LAYER-033
  6
Continuous
 62
     1
100
AcDbLine
 10
219.0331993721535
 20
-431.3157974773602
 30
0.0
 11
164.0331993721535
 21
-431.3157974773602
 31
0.0
  0
LINE
  5
265
330
1F
100
AcDbEntity
  8
LAYER-033
  6
Continuous
 62
     1
100
AcDbLine
 10
219.0331993721535
 20
-373.8157974789776
 30
0.0
 11
213.0331993721535
 21
-373.8157974789776
 31
0.0
  0
LINE
  5
266
330
1F
100
AcDbEntity
  8
LAYER-033
  6
Continuous
 62
     1
100
AcDbLine
 10
164.0331993721535
 20
-425.3157974773602
 30
0.0
 11
164.0331993721535
 21
-431.3157974773602
 31
0.0
  0
LINE
  5
267
330
1F
100
AcDbEntity
  8
LAYER-033
  6
Continuous
 62
     1
100
AcDbLine
 10
213.0331993721535
 20
-425.3157974773602
 30
0.0
 11
164.0331993721535
 21
-425.3157974773602
 31
0.0
  0
LINE
  5
268
330
1F
100
AcDbEntity
  8
LAYER-033
  6
Continuous
 62
     1
100
AcDbLine
 10
213.0331993721535
 20
-373.8157974789776
 30
0.0
 11
213.0331993721535
 21
-425.3157974773602
 31
0.0
  0
LINE
  5
269
330
1F
100
AcDbEntity
  8
LAYER-033
  6
HIDDEN
 62
     4
100
AcDbLine
 10
174.0331993721535
 20
-425.3157974773602
 30
0.0
 11
174.0331993721535
 21
-431.3157974773602
 31
0.0
  0
LINE
  5
26A
330
1F
100
AcDbEntity
  8
LAYER-033
  6
HIDDEN
 62
     4
100
AcDbLine
 10
194.0331993721535
 20
-425.3157974773602
 30
0.0
 11
194.0331993721535
 21
-431.3157974773602
 31
0.0
  0
LINE
  5
26B
330
1F
100
AcDbEntity
  8
LAYER-033
  6
CENTER
 62
     4
100
AcDbLine
 10
184.0331993721535
 20
-420.6032877977814
 30
0.0
 11
184.0331993721535
 21
-438.0741112886718
 31
0.0
  0
LINE
  5
26C
330
1F
100
AcDbEntity
  8
LAYER-033
  6
Continuous
 62
     1
100
AcDbLine
 10
219.0331993721535
 20
-366.3157974773602
 30
0.0
 11
219.0331993721535
 21
-431.3157974773602
 31
0.0
  0
LINE
  5
26D
330
1F
100
AcDbEntity
  8
LAYER-033
  6
Continuous
 62
     1
100
AcDbLine
 10
219.0331993721535
 20
-431.3157974773602
 30
0.0
 11
284.0331993721535
 21
-431.3157974773602
 31
0.0
  0
LINE
  5
26E
330
1F
100
AcDbEntity
  8
LAYER-033
  6
Continuous
 62
     1
100
AcDbLine
 10
284.0331993721535
 20
-425.3157974773602
 30
0.0
 11
284.0331993721535
 21
-431.3157974773602
 31
0.0
  0
LINE
  5
26F
330
1F
100
AcDbEntity
  8
LAYER-033
  6
Continuous
 62
     1
100
AcDbLine
 10
219.0331993721535
 20
-366.3157974773602
 30
0.0
 11
225.0331993721535
 21
-366.3157974773602
 31
0.0
  0
LINE
  5
270
330
1F
100
AcDbEntity
  8
LAYER-033
  6
Continuous
 62
     1
100
AcDbLine
 10
225.0331993721535
 20
-366.3157974773602
 30
0.0
 11
225.0331993721535
 21
-425.3157974773602
 31
0.0
  0
LINE
  5
271
330
1F
100
AcDbEntity
  8
LAYER-033
  6
Continuous
 62
     1
100
AcDbLine
 10
225.0331993721535
 20
-425.3157974773602
 30
0.0
 11
284.0331993721535
 21
-425.3157974773602
 31
0.0
  0
LINE
  5
272
330
1F
100
AcDbEntity
  8
LAYER-033
  6
Continuous
 62
     1
100
AcDbLine
 10
403.0331993721535
 20
-425.3157974773602
 30
0.0
 11
344.0331993721535
 21
-425.3157974773602
 31
0.0
  0
LINE
  5
273
330
1F
100
AcDbEntity
  8
LAYER-033
  6
Continuous
 62
     1
100
AcDbLine
 10
409.0331993721535
 20
-431.3157974773602
 30
0.0
 11
344.0331993721535
 21
-431.3157974773602
 31
0.0
  0
LINE
  5
274
330
1F
100
AcDbEntity
  8
LAYER-033
  6
Continuous
 62
     1
100
AcDbLine
 10
344.0331993721535
 20
-425.3157974773602
 30
0.0
 11
344.0331993721535
 21
-431.3157974773602
 31
0.0
  0
LINE
  5
275
330
1F
100
AcDbEntity
  8
LAYER-033
  6
Continuous
 62
     1
100
AcDbLine
 10
403.0331993721535
 20
-366.3157974773602
 30
0.0
 11
403.0331993721535
 21
-425.3157974773602
 31
0.0
  0
LINE
  5
276
330
1F
100
AcDbEntity
  8
LAYER-033
  6
Continuous
 62
     1
100
AcDbLine
 10
409.0331993721535
 20
-366.3157974773602
 30
0.0
 11
409.0331993721535
 21
-431.3157974773602
 31
0.0
  0
LINE
  5
277
330
1F
100
AcDbEntity
  8
LAYER-033
  6
Continuous
 62
     1
100
AcDbLine
 10
409.0331993721535
 20
-366.3157974773602
 30
0.0
 11
403.0331993721535
 21
-366.3157974773602
 31
0.0
  0
LINE
  5
278
330
1F
100
AcDbEntity
  8
LAYER-033
  6
Continuous
 62
     1
100
AcDbLine
 10
409.0331993721535
 20
-431.3157974773602
 30
0.0
 11
464.0331993721535
 21
-431.3157974773602
 31
0.0
  0
LINE
  5
279
330
1F
100
AcDbEntity
  8
LAYER-033
  6
HIDDEN
 62
     4
100
AcDbLine
 10
434.0331993721535
 20
-425.3157974773602
 30
0.0
 11
434.0331993721535
 21
-431.3157974773602
 31
0.0
  0
LINE
  5
27A
330
1F
100
AcDbEntity
  8
LAYER-033
  6
CENTER
 62
     4
100
AcDbLine
 10
444.0331993721535
 20
-420.6032877977814
 30
0.0
 11
444.0331993721535
 21
-438.0741112886718
 31
0.0
  0
LINE
  5
27B
330
1F
100
AcDbEntity
  8
LAYER-033
  6
HIDDEN
 62
     4
100
AcDbLine
 10
454.0331993721535
 20
-425.3157974773602
 30
0.0
 11
454.0331993721535
 21
-431.3157974773602
 31
0.0
  0
LINE
  5
27C
330
1F
100
AcDbEntity
  8
LAYER-033
  6
Continuous
 62
     1
100
AcDbLine
 10
464.0331993721535
 20
-425.3157974773602
 30
0.0
 11
464.0331993721535
 21
-431.3157974773602
 31
0.0
  0
LINE
  5
27D
330
1F
100
AcDbEntity
  8
LAYER-033
  6
Continuous
 62
     1
100
AcDbLine
 10
409.0331993721535
 20
-373.8157974789776
 30
0.0
 11
409.0331993721535
 21
-431.3157974773602
 31
0.0
  0
LINE
  5
27E
330
1F
100
AcDbEntity
  8
LAYER-033
  6
Continuous
 62
     1
100
AcDbLine
 10
415.0331993721535
 20
-373.8157974789776
 30
0.0
 11
415.0331993721535
 21
-425.3157974773602
 31
0.0
  0
LINE
  5
27F
330
1F
100
AcDbEntity
  8
LAYER-033
  6
Continuous
 62
     1
100
AcDbLine
 10
409.0331993721535
 20
-373.8157974789776
 30
0.0
 11
415.0331993721535
 21
-373.8157974789776
 31
0.0
  0
LINE
  5
280
330
1F
100
AcDbEntity
  8
LAYER-033
  6
Continuous
 62
     1
100
AcDbLine
 10
415.0331993721535
 20
-425.3157974773602
 30
0.0
 11
464.0331993721535
 21
-425.3157974773602
 31
0.0
  0
LINE
  5
281
330
1F
100
AcDbEntity
  8
LAYER-006
  6
Continuous
 62
     1
100
AcDbLine
 10
227.7802771398008
 20
-107.3157974773602
 30
0.0
 11
227.7802771398008
 21
-425.3157974773602
 31
0.0
  0
LINE
  5
282
330
1F
100
AcDbEntity
  8
LAYER-006
  6
Continuous
 62
     1
100
AcDbLine
 10
225.0331993721535
 20
-107.3157974773602
 30
0.0
 11
225.0331993721535
 21
-425.3157974773602
 31
0.0
  0
LINE
  5
283
330
1F
100
AcDbEntity
  8
LAYER-006
  6
Continuous
 62
     1
100
AcDbLine
 10
403.0331993721535
 20
-107.3157974773602
 30
0.0
 11
403.0331993721535
 21
-425.3157974773602
 31
0.0
  0
LINE
  5
284
330
1F
100
AcDbEntity
  8
LAYER-006
  6
Continuous
 62
     1
100
AcDbLine
 10
400.2861216036237
 20
-425.3157974773602
 30
0.0
 11
400.2861216036237
 21
-107.3157974773602
 31
0.0
  0
LINE
  5
285
330
1F
100
AcDbEntity
  8
LAYER-006
  6
Continuous
 62
     1
100
AcDbLine
 10
387.4370281149369
 20
-4.853731664323448
 30
0.0
 11
387.4370281149369
 21
-55.92897736084541
 31
0.0
  0
LINE
  5
286
330
1F
100
AcDbEntity
  8
LAYER-006
  6
Continuous
 62
     1
100
AcDbLine
 10
377.547553642382
 20
-4.853731664323448
 30
0.0
 11
377.547553642382
 21
-55.92897736084541
 31
0.0
  0
LINE
  5
287
330
1F
100
AcDbEntity
  8
LAYER-006
  6
Continuous
 62
     1
100
AcDbLine
 10
250.518845101925
 20
-4.853731664323448
 30
0.0
 11
250.518845101925
 21
-55.92897736084541
 31
0.0
  0
LINE
  5
288
330
1F
100
AcDbEntity
  8
LAYER-006
  6
Continuous
 62
     1
100
AcDbLine
 10
240.6293706293707
 20
-4.853731664323448
 30
0.0
 11
240.6293706293707
 21
-55.92897736084541
 31
0.0
  0
LINE
  5
289
330
1F
100
AcDbEntity
  8
LAYER-006
  6
Continuous
 62
     1
100
AcDbLine
 10
387.9864436686426
 20
-69.66436620349816
 30
0.0
 11
387.9864436686426
 21
-101.3157974773602
 31
0.0
  0
LINE
  5
28A
330
1F
100
AcDbEntity
  8
LAYER-006
  6
Continuous
 62
     1
100
AcDbLine
 10
376.9981325945203
 20
-69.66436620349816
 30
0.0
 11
376.9981325945203
 21
-101.3157974773602
 31
0.0
  0
LINE
  5
28B
330
1F
100
AcDbEntity
  8
LAYER-006
  6
Continuous
 62
     1
100
AcDbLine
 10
251.0682661497873
 20
-69.66436620349816
 30
0.0
 11
251.0682661497873
 21
-101.3157974773602
 31
0.0
  0
LINE
  5
28C
330
1F
100
AcDbEntity
  8
LAYER-006
  6
Continuous
 62
     1
100
AcDbLine
 10
240.0799550756651
 20
-69.66436620349816
 30
0.0
 11
240.0799550756651
 21
-101.3157974773602
 31
0.0
  0
LINE
  5
28D
330
1F
100
AcDbEntity
  8
LAYER-033
  6
Continuous
 62
     1
100
AcDbLine
 10
359.0331993721535
 20
-425.3157974773602
 30
0.0
 11
269.0331993721535
 21
-425.3157974773602
 31
0.0
  0
LINE
  5
28E
330
1F
100
AcDbEntity
  8
LAYER-033
  6
CENTER
 62
     4
100
AcDbLine
 10
269.0331993721535
 20
-431.3157974773602
 30
0.0
 11
359.0331993721535
 21
-431.3157974773602
 31
0.0
  0
LINE
  5
28F
330
1F
100
AcDbEntity
  8
LAYER-033
  6
Continuous
 62
     1
100
AcDbLine
 10
359.0331993721535
 20
-107.3157974773602
 30
0.0
 11
312.5793085698275
 21
-107.3157974773602
 31
0.0
  0
ARC
  5
290
330
1F
100
AcDbEntity
  8
LAYER-006
  6
Continuous
 62
     1
100
AcDbCircle
 10
464.0331993721535
 20
-73.84184067346621
 30
0.0
 40
30.0
100
AcDbArc
 50
332.0593372072309
 51
90.0
  0
ARC
  5
291
330
1F
100
AcDbEntity
  8
LAYER-033
  6
Continuous
 62
     1
100
AcDbCircle
 10
464.0331993721535
 20
-73.84184067346621
 30
0.0
 40
22.30819323642561
100
AcDbArc
 50
332.0593372072311
 51
90.0
  0
ARC
  5
292
330
1F
100
AcDbEntity
  8
LAYER-033
  6
Continuous
 62
     1
100
AcDbCircle
 10
164.0331993721535
 20
-73.84184067346621
 30
0.0
 40
22.30819323642561
100
AcDbArc
 50
90.0
 51
207.9406627927691
  0
ARC
  5
293
330
1F
100
AcDbEntity
  8
LAYER-006
  6
Continuous
 62
     1
100
AcDbCircle
 10
164.0331993721535
 20
-73.84184067346621
 30
0.0
 40
30.0
100
AcDbArc
 50
90.0
 51
207.9406627927691
  0
LINE
  5
294
330
1F
100
AcDbEntity
  8
LAYER-033
  6
Continuous
 62
     1
100
AcDbLine
 10
320.296542178922
 20
-44.95921456094811
 30
0.0
 11
285.7114908546022
 21
-44.95921456094811
 31
0.0
  0
LINE
  5
295
330
1F
100
AcDbEntity
  8
LAYER-006
  6
Continuous
 62
     1
100
AcDbLine
 10
184.0331993721535
 20
-178.0371136107181
 30
0.0
 11
444.0331993721535
 21
-178.0371136107181
 31
0.0
  0
LINE
  5
296
330
1F
100
AcDbEntity
  8
LAYER-006
  6
Continuous
 62
     1
100
AcDbLine
 10
444.0331993721535
 20
-355.3274918973938
 30
0.0
 11
184.0331993721535
 21
-355.3274918973938
 31
0.0
  0
LINE
  5
297
330
1F
100
AcDbEntity
  8
LAYER-006
  6
Continuous
 62
     1
100
AcDbLine
 10
464.0331993721535
 20
-43.84184067346621
 30
0.0
 11
411.0619024162214
 21
-43.84184067346621
 31
0.0
  0
LINE
  5
298
330
1F
100
AcDbEntity
  8
LAYER-033
  6
Continuous
 62
     1
100
AcDbLine
 10
464.0331993721535
 20
-51.5336474370406
 30
0.0
 11
411.0619024162214
 21
-51.5336474370406
 31
0.0
  0
LINE
  5
299
330
1F
100
AcDbEntity
  8
LAYER-006
  6
Continuous
 62
     1
100
AcDbLine
 10
164.0331993721535
 20
-43.84184067346621
 30
0.0
 11
217.0044963278681
 21
-43.84184067346621
 31
0.0
  0
LINE
  5
29A
330
1F
100
AcDbEntity
  8
LAYER-033
  6
Continuous
 62
     1
100
AcDbLine
 10
164.0331993721535
 20
-51.5336474370406
 30
0.0
 11
217.0044963278681
 21
-51.5336474370406
 31
0.0
  0
LINE
  5
29B
330
1F
100
AcDbEntity
  8
LAYER-006
  6
Continuous
 62
     1
100
AcDbLine
 10
5.590373399791986
 20
-166.3157974773602
 30
0.0
 11
5.590373399791986
 21
-366.3157974773602
 31
0.0
  0
LINE
  5
29C
330
1F
100
AcDbEntity
  8
LAYER-006
  6
Continuous
 62
     1
100
AcDbLine
 10
-25.90962660020801
 20
-178.0371136107181
 30
0.0
 11
-25.90962660020801
 21
-355.3274918973938
 31
0.0
  0
LINE
  5
29D
330
1F
100
AcDbEntity
  8
LAYER-006
  6
Continuous
 62
     1
100
AcDbLine
 10
-145.909626600208
 20
-178.0371136107181
 30
0.0
 11
-145.909626600208
 21
-355.3274918973938
 31
0.0
  0
LINE
  5
29E
330
1F
100
AcDbEntity
  8
LAYER-006
  6
Continuous
 62
     1
100
AcDbLine
 10
-150.909626600208
 20
-178.0371136107181
 30
0.0
 11
-150.909626600208
 21
-355.3274918973938
 31
0.0
  0
LINE
  5
29F
330
1F
100
AcDbEntity
  8
LAYER-006
  6
Continuous
 62
     1
100
AcDbLine
 10
-270.909626600208
 20
-178.0371136107181
 30
0.0
 11
-270.909626600208
 21
-355.3274918973938
 31
0.0
  0
LINE
  5
2A0
330
1F
100
AcDbEntity
  8
LAYER-006
  6
Continuous
 62
     1
100
AcDbLine
 10
-275.909626600208
 20
-178.0371136107181
 30
0.0
 11
-275.909626600208
 21
-355.3274918973938
 31
0.0
  0
LINE
  5
2A1
330
1F
100
AcDbEntity
  8
LAYER-006
  6
Continuous
 62
     1
100
AcDbLine
 10
-395.909626600208
 20
-355.3274918973938
 30
0.0
 11
-395.909626600208
 21
-178.0371136107181
 31
0.0
  0
LINE
  5
2A2
330
1F
100
AcDbEntity
  8
LAYER-006
  6
Continuous
 62
     1
100
AcDbLine
 10
-427.409626600208
 20
-166.3157974773602
 30
0.0
 11
-427.409626600208
 21
-366.3157974773602
 31
0.0
  0
LINE
  5
2A3
330
1F
100
AcDbEntity
  8
LAYER-033
  6
Continuous
 62
     1
100
AcDbLine
 10
-45.90962660020801
 20
-373.8157974773602
 30
0.0
 11
4.090373399791986
 21
-373.8157974773602
 31
0.0
  0
LINE
  5
2A4
330
1F
100
AcDbEntity
  8
LAYER-006
  6
Continuous
 62
     1
100
AcDbLine
 10
4.090373399791986
 20
-373.8157974773602
 30
0.0
 11
4.090373399791986
 21
-431.3157974773602
 31
0.0
  0
LINE
  5
2A5
330
1F
100
AcDbEntity
  8
LAYER-006
  6
Continuous
 62
     1
100
AcDbLine
 10
-45.90962660020801
 20
-373.8157974773602
 30
0.0
 11
-45.90962660020801
 21
-431.3157974773602
 31
0.0
  0
LINE
  5
2A6
330
1F
100
AcDbEntity
  8
LAYER-033
  6
Continuous
 62
     1
100
AcDbLine
 10
-425.909626600208
 20
-373.8157974773602
 30
0.0
 11
-375.909626600208
 21
-373.8157974773602
 31
0.0
  0
LINE
  5
2A7
330
1F
100
AcDbEntity
  8
LAYER-006
  6
Continuous
 62
     1
100
AcDbLine
 10
-375.909626600208
 20
-373.8157974773602
 30
0.0
 11
-375.909626600208
 21
-431.3157974773602
 31
0.0
  0
LINE
  5
2A8
330
1F
100
AcDbEntity
  8
LAYER-006
  6
Continuous
 62
     1
100
AcDbLine
 10
-425.909626600208
 20
-373.8157974773602
 30
0.0
 11
-425.909626600208
 21
-431.3157974773602
 31
0.0
  0
LINE
  5
2A9
330
1F
100
AcDbEntity
  8
LAYER-006
  6
Continuous
 62
     1
100
AcDbLine
 10
-395.909626600208
 20
-178.0371136107181
 30
0.0
 11
-25.90962660020801
 21
-178.0371136107181
 31
0.0
  0
LINE
  5
2AA
330
1F
100
AcDbEntity
  8
LAYER-006
  6
Continuous
 62
     1
100
AcDbLine
 10
-25.90962660020801
 20
-355.3274918973938
 30
0.0
 11
-395.909626600208
 21
-355.3274918973938
 31
0.0
  0
LINE
  5
2AB
330
1F
100
AcDbEntity
  8
LAYER-006
  6
Continuous
 62
     1
100
AcDbLine
 10
184.0331993721535
 20
-355.3274918973938
 30
0.0
 11
184.0331993721535
 21
-178.0371136107181
 31
0.0
  0
LINE
  5
2AC
330
1F
100
AcDbEntity
  8
LAYER-006
  6
Continuous
 62
     1
100
AcDbLine
 10
444.0331993721535
 20
-178.0371136107181
 30
0.0
 11
444.0331993721535
 21
-355.3274918973938
 31
0.0
  0
LINE
  5
2AD
330
1F
100
AcDbEntity
  8
LAYER-033
  6
Continuous
 62
     1
100
AcDbLine
 10
409.0331993721535
 20
-166.3157974773602
 30
0.0
 11
403.0331993721535
 21
-166.3157974773602
 31
0.0
  0
LINE
  5
2AE
330
1F
100
AcDbEntity
  8
LAYER-033
  6
Continuous
 62
     1
100
AcDbLine
 10
403.0331993721535
 20
-107.3157974773602
 30
0.0
 11
344.0331993721535
 21
-107.3157974773602
 31
0.0
  0
LINE
  5
2AF
330
1F
100
AcDbEntity
  8
LAYER-033
  6
Continuous
 62
     1
100
AcDbLine
 10
409.0331993721535
 20
-101.3157974773602
 30
0.0
 11
344.0331993721535
 21
-101.3157974773602
 31
0.0
  0
LINE
  5
2B0
330
1F
100
AcDbEntity
  8
LAYER-033
  6
Continuous
 62
     1
100
AcDbLine
 10
344.0331993721535
 20
-107.3157974773602
 30
0.0
 11
344.0331993721535
 21
-101.3157974773602
 31
0.0
  0
LINE
  5
2B1
330
1F
100
AcDbEntity
  8
LAYER-033
  6
Continuous
 62
     1
100
AcDbLine
 10
403.0331993721535
 20
-166.3157974773602
 30
0.0
 11
403.0331993721535
 21
-107.3157974773602
 31
0.0
  0
LINE
  5
2B2
330
1F
100
AcDbEntity
  8
LAYER-033
  6
Continuous
 62
     1
100
AcDbLine
 10
409.0331993721535
 20
-166.3157974773602
 30
0.0
 11
409.0331993721535
 21
-101.3157974773602
 31
0.0
  0
LINE
  5
2B3
330
1F
100
AcDbEntity
  8
LAYER-033
  6
Continuous
 62
     1
100
AcDbLine
 10
219.0331993721535
 20
-166.3157974773602
 30
0.0
 11
219.0331993721535
 21
-101.3157974773602
 31
0.0
  0
LINE
  5
2B4
330
1F
100
AcDbEntity
  8
LAYER-033
  6
Continuous
 62
     1
100
AcDbLine
 10
219.0331993721535
 20
-166.3157974773602
 30
0.0
 11
225.0331993721535
 21
-166.3157974773602
 31
0.0
  0
LINE
  5
2B5
330
1F
100
AcDbEntity
  8
LAYER-033
  6
Continuous
 62
     1
100
AcDbLine
 10
225.0331993721535
 20
-107.3157974773602
 30
0.0
 11
284.0331993721535
 21
-107.3157974773602
 31
0.0
  0
LINE
  5
2B6
330
1F
100
AcDbEntity
  8
LAYER-033
  6
Continuous
 62
     1
100
AcDbLine
 10
219.0331993721535
 20
-101.3157974773602
 30
0.0
 11
284.0331993721535
 21
-101.3157974773602
 31
0.0
  0
LINE
  5
2B7
330
1F
100
AcDbEntity
  8
LAYER-033
  6
Continuous
 62
     1
100
AcDbLine
 10
284.0331993721535
 20
-107.3157974773602
 30
0.0
 11
284.0331993721535
 21
-101.3157974773602
 31
0.0
  0
LINE
  5
2B8
330
1F
100
AcDbEntity
  8
LAYER-033
  6
Continuous
 62
     1
100
AcDbLine
 10
225.0331993721535
 20
-166.3157974773602
 30
0.0
 11
225.0331993721535
 21
-107.3157974773602
 31
0.0
  0
LINE
  5
2B9
330
1F
100
AcDbEntity
  8
LAYER-033
  6
Continuous
 62
     1
100
AcDbLine
 10
490.5361989104132
 20
-87.89854780831848
 30
0.0
 11
439.34454986347
 21
-178.0371136107181
 31
0.0
  0
LINE
  5
2BA
330
1F
100
AcDbEntity
  8
LAYER-033
  6
Continuous
 62
     1
100
AcDbLine
 10
483.7410005403001
 20
-84.29449864120375
 30
0.0
 11
430.5025337026754
 21
-178.037113610718
 31
0.0
  0
LINE
  5
2BB
330
1F
100
AcDbEntity
  8
LAYER-033
  6
Continuous
 62
     1
100
AcDbLine
 10
137.5301998338938
 20
-87.89854780831848
 30
0.0
 11
188.721848880837
 21
-178.0371136107181
 31
0.0
  0
LINE
  5
2BC
330
1F
100
AcDbEntity
  8
LAYER-033
  6
Continuous
 62
     1
100
AcDbLine
 10
144.3253982040069
 20
-84.29449864120375
 30
0.0
 11
197.5638650416316
 21
-178.037113610718
 31
0.0
  0
LINE
  5
2BD
330
1F
100
AcDbEntity
  8
LAYER-033
  6
Continuous
 62
     4
100
AcDbLine
 10
411.0619024162214
 20
-47.37737457939898
 30
0.0
 11
414.5974363221542
 21
-43.84184067346621
 31
0.0
  0
LINE
  5
2BE
330
1F
100
AcDbEntity
  8
LAYER-033
  6
Continuous
 62
     4
100
AcDbLine
 10
411.0619024162214
 20
-50.91290848533174
 30
0.0
 11
418.132970228087
 21
-43.84184067346621
 31
0.0
  0
LINE
  5
2BF
330
1F
100
AcDbEntity
  8
LAYER-033
  6
Continuous
 62
     4
100
AcDbLine
 10
413.97669737
 20
-51.5336474370406
 30
0.0
 11
421.6685041340197
 21
-43.84184067346621
 31
0.0
  0
LINE
  5
2C0
330
1F
100
AcDbEntity
  8
LAYER-033
  6
Continuous
 62
     4
100
AcDbLine
 10
417.5122312761535
 20
-51.5336474370406
 30
0.0
 11
425.2040380399524
 21
-43.84184067346621
 31
0.0
  0
LINE
  5
2C1
330
1F
100
AcDbEntity
  8
LAYER-033
  6
Continuous
 62
     4
100
AcDbLine
 10
421.0477651823108
 20
-51.5336474370406
 30
0.0
 11
428.7395719458852
 21
-43.84184067346621
 31
0.0
  0
LINE
  5
2C2
330
1F
100
AcDbEntity
  8
LAYER-033
  6
Continuous
 62
     4
100
AcDbLine
 10
424.5832990882435
 20
-51.5336474370406
 30
0.0
 11
432.2751058518179
 21
-43.84184067346621
 31
0.0
  0
LINE
  5
2C3
330
1F
100
AcDbEntity
  8
LAYER-033
  6
Continuous
 62
     4
100
AcDbLine
 10
428.1188329941763
 20
-51.5336474370406
 30
0.0
 11
435.8106397577507
 21
-43.84184067346621
 31
0.0
  0
LINE
  5
2C4
330
1F
100
AcDbEntity
  8
LAYER-033
  6
Continuous
 62
     4
100
AcDbLine
 10
431.654366900109
 20
-51.5336474370406
 30
0.0
 11
439.3461736636834
 21
-43.84184067346621
 31
0.0
  0
LINE
  5
2C5
330
1F
100
AcDbEntity
  8
LAYER-033
  6
Continuous
 62
     4
100
AcDbLine
 10
435.1899008060418
 20
-51.5336474370406
 30
0.0
 11
442.8817075696162
 21
-43.84184067346621
 31
0.0
  0
LINE
  5
2C6
330
1F
100
AcDbEntity
  8
LAYER-033
  6
Continuous
 62
     4
100
AcDbLine
 10
438.7254347119746
 20
-51.5336474370406
 30
0.0
 11
446.417241475549
 21
-43.84184067346621
 31
0.0
  0
LINE
  5
2C7
330
1F
100
AcDbEntity
  8
LAYER-033
  6
Continuous
 62
     4
100
AcDbLine
 10
442.2609686179073
 20
-51.5336474370406
 30
0.0
 11
449.9527753814817
 21
-43.84184067346621
 31
0.0
  0
LINE
  5
2C8
330
1F
100
AcDbEntity
  8
LAYER-033
  6
Continuous
 62
     4
100
AcDbLine
 10
445.7965025238401
 20
-51.5336474370406
 30
0.0
 11
453.4883092874144
 21
-43.84184067346621
 31
0.0
  0
LINE
  5
2C9
330
1F
100
AcDbEntity
  8
LAYER-033
  6
Continuous
 62
     4
100
AcDbLine
 10
449.3320364297728
 20
-51.5336474370406
 30
0.0
 11
457.0238431933472
 21
-43.84184067346621
 31
0.0
  0
LINE
  5
2CA
330
1F
100
AcDbEntity
  8
LAYER-033
  6
Continuous
 62
     4
100
AcDbLine
 10
452.8675703357056
 20
-51.5336474370406
 30
0.0
 11
460.55937709928
 21
-43.84184067346621
 31
0.0
  0
LINE
  5
2CB
330
1F
100
AcDbEntity
  8
LAYER-033
  6
Continuous
 62
     4
100
AcDbLine
 10
456.4031042416383
 20
-51.5336474370406
 30
0.0
 11
464.0948476632825
 21
-43.84190401539638
 31
0.0
  0
LINE
  5
2CC
330
1F
100
AcDbEntity
  8
LAYER-033
  6
Continuous
 62
     4
100
AcDbLine
 10
459.9386381475711
 20
-51.5336474370406
 30
0.0
 11
467.4367503022288
 21
-44.03553528238285
 31
0.0
  0
LINE
  5
2CD
330
1F
100
AcDbEntity
  8
LAYER-033
  6
Continuous
 62
     4
100
AcDbLine
 10
463.4741720535038
 20
-51.5336474370406
 30
0.0
 11
470.4677886687583
 21
-44.5400308217861
 31
0.0
  0
LINE
  5
2CE
330
1F
100
AcDbEntity
  8
LAYER-033
  6
Continuous
 62
     4
100
AcDbLine
 10
466.8332782181522
 20
-51.71007517842998
 30
0.0
 11
473.250456239
 21
-45.29289715793345
 31
0.0
  0
LINE
  5
2CF
330
1F
100
AcDbEntity
  8
LAYER-033
  6
Continuous
 62
     4
100
AcDbLine
 10
469.7897241370565
 20
-52.28916316535344
 30
0.0
 11
475.8232003415696
 21
-46.25568696084031
 31
0.0
  0
LINE
  5
2D0
330
1F
100
AcDbEntity
  8
LAYER-033
  6
Continuous
 62
     4
100
AcDbLine
 10
472.4372302952231
 20
-53.1771909131196
 30
0.0
 11
478.2109993296177
 21
-47.40342187872494
 31
0.0
  0
LINE
  5
2D1
330
1F
100
AcDbEntity
  8
LAYER-033
  6
Continuous
 62
     4
100
AcDbLine
 10
474.829679499
 20
-54.32027561489389
 30
0.0
 11
480.4304310679506
 21
-48.71952404632481
 31
0.0
  0
LINE
  5
2D2
330
1F
100
AcDbEntity
  8
LAYER-033
  6
Continuous
 62
     4
100
AcDbLine
 10
476.9978223945941
 20
-55.6876666256141
 30
0.0
 11
482.4923341860038
 21
-50.19315483420439
 31
0.0
  0
LINE
  5
2D3
330
1F
100
AcDbEntity
  8
LAYER-033
  6
Continuous
 62
     4
100
AcDbLine
 10
478.9587715399964
 20
-57.2622513861445
 30
0.0
 11
484.4032674231668
 21
-51.81775550297414
 31
0.0
  0
LINE
  5
2D4
330
1F
100
AcDbEntity
  8
LAYER-033
  6
Continuous
 62
     4
100
AcDbLine
 10
480.72015465169
 20
-59.03640218038368
 30
0.0
 11
486.1662906630483
 21
-53.59026616902543
 31
0.0
  0
LINE
  5
2D5
330
1F
100
AcDbEntity
  8
LAYER-033
  6
Continuous
 62
     4
100
AcDbLine
 10
482.2817257861036
 20
-61.01036495190283
 30
0.0
 11
487.7813038597895
 21
-55.51078687821695
 31
0.0
  0
LINE
  5
2D6
330
1F
100
AcDbEntity
  8
LAYER-033
  6
Continuous
 62
     4
100
AcDbLine
 10
483.6353156154603
 20
-63.1923090284788
 30
0.0
 11
489.2450362084717
 21
-57.58258843546747
 31
0.0
  0
LINE
  5
2D7
330
1F
100
AcDbEntity
  8
LAYER-033
  6
Continuous
 62
     4
100
AcDbLine
 10
484.7630953896443
 20
-65.60006316022771
 30
0.0
 11
490.5506827074467
 21
-59.81247584242527
 31
0.0
  0
LINE
  5
2D8
330
1F
100
AcDbEntity
  8
LAYER-033
  6
Continuous
 62
     4
100
AcDbLine
 10
485.6331963002037
 20
-68.265496155601
 30
0.0
 11
491.6870886272261
 21
-62.21160382857863
 31
0.0
  0
LINE
  5
2D9
330
1F
100
AcDbEntity
  8
LAYER-033
  6
Continuous
 62
     4
100
AcDbLine
 10
486.1896782612717
 20
-71.24454810046575
 30
0.0
 11
492.6372329644682
 21
-64.79699339726915
 31
0.0
  0
LINE
  5
2DA
330
1F
100
AcDbEntity
  8
LAYER-033
  6
Continuous
 62
     4
100
AcDbLine
 10
486.32701086
 20
-74.6427494072621
 30
0.0
 11
493.3754597207834
 21
-67.59430054688676
 31
0.0
  0
LINE
  5
2DB
330
1F
100
AcDbEntity
  8
LAYER-033
  6
Continuous
 62
     4
100
AcDbLine
 10
485.8061709609995
 20
-78.69912321260341
 30
0.0
 11
493.8621809610511
 21
-70.64311321255184
 31
0.0
  0
LINE
  5
2DC
330
1F
100
AcDbEntity
  8
LAYER-033
  6
Continuous
 62
     4
100
AcDbLine
 10
483.7339962611278
 20
-84.30683181840789
 30
0.0
 11
494.0327387248836
 21
-74.00808935465204
 31
0.0
  0
LINE
  5
2DD
330
1F
100
AcDbEntity
  8
LAYER-033
  6
Continuous
 62
     4
100
AcDbLine
 10
479.0869066842431
 20
-92.48945530122541
 30
0.0
 11
493.7701020314405
 21
-77.80625995402795
 31
0.0
  0
LINE
  5
2DE
330
1F
100
AcDbEntity
  8
LAYER-033
  6
Continuous
 62
     4
100
AcDbLine
 10
474.4398171073583
 20
-100.6720787840429
 30
0.0
 11
492.8179511970317
 21
-82.29394469436949
 31
0.0
  0
LINE
  5
2DF
330
1F
100
AcDbEntity
  8
LAYER-033
  6
Continuous
 62
     4
100
AcDbLine
 10
469.7927275304736
 20
-108.8547022668603
 30
0.0
 11
490.256649245766
 21
-88.39078055156796
 31
0.0
  0
LINE
  5
2E0
330
1F
100
AcDbEntity
  8
LAYER-033
  6
Continuous
 62
     4
100
AcDbLine
 10
465.1456379535889
 20
-117.0373257496778
 30
0.0
 11
485.6095596688813
 21
-96.57340403438542
 31
0.0
  0
LINE
  5
2E1
330
1F
100
AcDbEntity
  8
LAYER-033
  6
Continuous
 62
     4
100
AcDbLine
 10
460.4985483767042
 20
-125.2199492324953
 30
0.0
 11
480.9624700919966
 21
-104.7560275172029
 31
0.0
  0
LINE
  5
2E2
330
1F
100
AcDbEntity
  8
LAYER-033
  6
Continuous
 62
     4
100
AcDbLine
 10
455.8514587998195
 20
-133.4025727153127
 30
0.0
 11
476.3153805151118
 21
-112.9386510000203
 31
0.0
  0
LINE
  5
2E3
330
1F
100
AcDbEntity
  8
LAYER-033
  6
Continuous
 62
     4
100
AcDbLine
 10
451.2043692229348
 20
-141.5851961981302
 30
0.0
 11
471.6682909382271
 21
-121.1212744828378
 31
0.0
  0
LINE
  5
2E4
330
1F
100
AcDbEntity
  8
LAYER-033
  6
Continuous
 62
     4
100
AcDbLine
 10
446.5572796460501
 20
-149.7678196809476
 30
0.0
 11
467.0212013613424
 21
-129.3038979656553
 31
0.0
  0
LINE
  5
2E5
330
1F
100
AcDbEntity
  8
LAYER-033
  6
Continuous
 62
     4
100
AcDbLine
 10
441.9101900691653
 20
-157.950443164
 30
0.0
 11
462.3741117844577
 21
-137.4865214484727
 31
0.0
  0
LINE
  5
2E6
330
1F
100
AcDbEntity
  8
LAYER-033
  6
Continuous
 62
     4
100
AcDbLine
 10
437.2631004922806
 20
-166.1330666465826
 30
0.0
 11
457.727022207573
 21
-145.6691449312902
 31
0.0
  0
LINE
  5
2E7
330
1F
100
AcDbEntity
  8
LAYER-033
  6
Continuous
 62
     4
100
AcDbLine
 10
432.6160109153959
 20
-174.3156901294001
 30
0.0
 11
453.0799326306883
 21
-153.8517684141077
 31
0.0
  0
LINE
  5
2E8
330
1F
100
AcDbEntity
  8
LAYER-033
  6
Continuous
 62
     4
100
AcDbLine
 10
432.43012134
 20
-178.0371136107181
 30
0.0
 11
448.4328430538036
 21
-162.0343918969251
 31
0.0
  0
LINE
  5
2E9
330
1F
100
AcDbEntity
  8
LAYER-033
  6
Continuous
 62
     4
100
AcDbLine
 10
435.9656552459434
 20
-178.0371136107181
 30
0.0
 11
443.7857534769189
 21
-170.2170153797426
 31
0.0
  0
LINE
  5
2EA
330
1F
100
AcDbEntity
  8
LAYER-033
  6
Continuous
 62
     4
100
AcDbLine
 10
431.1445824780629
 20
-176.9065902369632
 30
0.0
 11
432.2751058518178
 21
-178.0371136107181
 31
0.0
  0
LINE
  5
2EB
330
1F
100
AcDbEntity
  8
LAYER-033
  6
Continuous
 62
     4
100
AcDbLine
 10
432.4251990192535
 20
-174.651672872221
 30
0.0
 11
435.8106397577506
 21
-178.0371136107181
 31
0.0
  0
LINE
  5
2EC
330
1F
100
AcDbEntity
  8
LAYER-033
  6
Continuous
 62
     4
100
AcDbLine
 10
433.705815560444
 20
-172.3967555074787
 30
0.0
 11
439.3451380251078
 21
-178.0360779721426
 31
0.0
  0
LINE
  5
2ED
330
1F
100
AcDbEntity
  8
LAYER-033
  6
Continuous
 62
     4
100
AcDbLine
 10
434.9864321016345
 20
-170.1418381423602
 30
0.0
 11
440.6257545662983
 21
-175.7811606074004
 31
0.0
  0
LINE
  5
2EE
330
1F
100
AcDbEntity
  8
LAYER-033
  6
Continuous
 62
     4
100
AcDbLine
 10
436.267048642825
 20
-167.8869207779943
 30
0.0
 11
441.9063711074132
 21
-173.5262432426582
 31
0.0
  0
LINE
  5
2EF
330
1F
100
AcDbEntity
  8
LAYER-033
  6
Continuous
 62
     4
100
AcDbLine
 10
437.5476651840155
 20
-165.6320034132521
 30
0.0
 11
443.1869876486794
 21
-171.2713258779159
 31
0.0
  0
LINE
  5
2F0
330
1F
100
AcDbEntity
  8
LAYER-033
  6
Continuous
 62
     4
100
AcDbLine
 10
438.8282817252501
 20
-163.3770860484322
 30
0.0
 11
444.467604189914
 21
-169.016408513096
 31
0.0
  0
LINE
  5
2F1
330
1F
100
AcDbEntity
  8
LAYER-033
  6
Continuous
 62
     4
100
AcDbLine
 10
440.1088982664406
 20
-161.1221686836899
 30
0.0
 11
445.7482207311045
 21
-166.7614911483538
 31
0.0
  0
LINE
  5
2F2
330
1F
100
AcDbEntity
  8
LAYER-033
  6
Continuous
 62
     4
100
AcDbLine
 10
441.3895148076311
 20
-158.8672513189476
 30
0.0
 11
447.028837272295
 21
-164.5065737836115
 31
0.0
  0
LINE
  5
2F3
330
1F
100
AcDbEntity
  8
LAYER-033
  6
Continuous
 62
     4
100
AcDbLine
 10
442.6701313488217
 20
-156.6123339542054
 30
0.0
 11
448.3094538134855
 21
-162.2516564188693
 31
0.0
  0
LINE
  5
2F4
330
1F
100
AcDbEntity
  8
LAYER-033
  6
Continuous
 62
     4
100
AcDbLine
 10
443.9507478900122
 20
-154.3574165894632
 30
0.0
 11
449.590070354676
 21
-159.9967390541271
 31
0.0
  0
LINE
  5
2F5
330
1F
100
AcDbEntity
  8
LAYER-033
  6
Continuous
 62
     4
100
AcDbLine
 10
445.2313644312027
 20
-152.102499224721
 30
0.0
 11
450.8706868958665
 21
-157.7418216893849
 31
0.0
  0
LINE
  5
2F6
330
1F
100
AcDbEntity
  8
LAYER-033
  6
Continuous
 62
     4
100
AcDbLine
 10
446.5119809723932
 20
-149.8475818599787
 30
0.0
 11
452.151303437057
 21
-155.4869043246426
 31
0.0
  0
LINE
  5
2F7
330
1F
100
AcDbEntity
  8
LAYER-033
  6
Continuous
 62
     4
100
AcDbLine
 10
447.7925975135837
 20
-147.5926644957181
 30
0.0
 11
453.4319199781872
 21
-153.2319869600066
 31
0.0
  0
LINE
  5
2F8
330
1F
100
AcDbEntity
  8
LAYER-033
  6
Continuous
 62
     4
100
AcDbLine
 10
449.0732140546754
 20
-145.3377471304943
 30
0.0
 11
454.7125365194381
 21
-150.9770695951582
 31
0.0
  0
LINE
  5
2F9
330
1F
100
AcDbEntity
  8
LAYER-033
  6
Continuous
 62
     4
100
AcDbLine
 10
450.3538305959647
 20
-143.0828297657521
 30
0.0
 11
455.9931530606286
 21
-148.7221522304159
 31
0.0
  0
LINE
  5
2FA
330
1F
100
AcDbEntity
  8
LAYER-033
  6
Continuous
 62
     4
100
AcDbLine
 10
451.6344471371542
 20
-140.8279124010118
 30
0.0
 11
457.2737696018191
 21
-146.4672348656737
 31
0.0
  0
LINE
  5
2FB
330
1F
100
AcDbEntity
  8
LAYER-033
  6
Continuous
 62
     4
100
AcDbLine
 10
452.9150636783458
 20
-138.5729950362676
 30
0.0
 11
458.5543861430096
 21
-144.2123175009315
 31
0.0
  0
LINE
  5
2FC
330
1F
100
AcDbEntity
  8
LAYER-033
  6
Continuous
 62
     4
100
AcDbLine
 10
454.1956802195363
 20
-136.3180776715254
 30
0.0
 11
459.8350026842001
 21
-141.9574001361893
 31
0.0
  0
LINE
  5
2FD
330
1F
100
AcDbEntity
  8
LAYER-033
  6
Continuous
 62
     4
100
AcDbLine
 10
455.4762967607268
 20
-134.0631603067832
 30
0.0
 11
461.1156192253906
 21
-139.702482771447
 31
0.0
  0
LINE
  5
2FE
330
1F
100
AcDbEntity
  8
LAYER-033
  6
Continuous
 62
     4
100
AcDbLine
 10
456.7569133019173
 20
-131.8082429420409
 30
0.0
 11
462.3962357665811
 21
-137.4475654067048
 31
0.0
  0
LINE
  5
2FF
330
1F
100
AcDbEntity
  8
LAYER-033
  6
Continuous
 62
     4
100
AcDbLine
 10
458.0375298431078
 20
-129.5533255772987
 30
0.0
 11
463.676852308
 21
-135.1926480419626
 31
0.0
  0
LINE
  5
300
330
1F
100
AcDbEntity
  8
LAYER-033
  6
Continuous
 62
     4
100
AcDbLine
 10
459.3181463842983
 20
-127.2984082125565
 30
0.0
 11
464.9574688489622
 21
-132.9377306772203
 31
0.0
  0
LINE
  5
301
330
1F
100
AcDbEntity
  8
LAYER-033
  6
Continuous
 62
     4
100
AcDbLine
 10
460.5987629254888
 20
-125.0434908478143
 30
0.0
 11
466.2380853901527
 21
-130.6828133124781
 31
0.0
  0
LINE
  5
302
330
1F
100
AcDbEntity
  8
LAYER-033
  6
Continuous
 62
     4
100
AcDbLine
 10
461.8793794666793
 20
-122.788573483072
 30
0.0
 11
467.5187019313432
 21
-128.4278959477359
 31
0.0
  0
LINE
  5
303
330
1F
100
AcDbEntity
  8
LAYER-033
  6
Continuous
 62
     4
100
AcDbLine
 10
463.1599960081535
 20
-120.5336561183298
 30
0.0
 11
468.7993184725337
 21
-126.1729785829937
 31
0.0
  0
LINE
  5
304
330
1F
100
AcDbEntity
  8
LAYER-033
  6
Continuous
 62
     4
100
AcDbLine
 10
464.4406125490604
 20
-118.2787387535876
 30
0.0
 11
470.0799350137242
 21
-123.9180612182514
 31
0.0
  0
LINE
  5
305
330
1F
100
AcDbEntity
  8
LAYER-033
  6
Continuous
 62
     4
100
AcDbLine
 10
465.7212290902509
 20
-116.0238213888453
 30
0.0
 11
471.3605515549147
 21
-121.6631438535092
 31
0.0
  0
LINE
  5
306
330
1F
100
AcDbEntity
  8
LAYER-033
  6
Continuous
 62
     4
100
AcDbLine
 10
467.0018456314414
 20
-113.7689040241031
 30
0.0
 11
472.6411680961052
 21
-119.4082264887669
 31
0.0
  0
LINE
  5
307
330
1F
100
AcDbEntity
  8
LAYER-033
  6
Continuous
 62
     4
100
AcDbLine
 10
468.2824621726319
 20
-111.5139866593609
 30
0.0
 11
473.9217846372958
 21
-117.1533091240247
 31
0.0
  0
LINE
  5
308
330
1F
100
AcDbEntity
  8
LAYER-033
  6
Continuous
 62
     4
100
AcDbLine
 10
411.0619024162214
 20
-50.75789299701762
 30
0.0
 11
411.8376568562444
 21
-51.5336474370406
 31
0.0
  0
LINE
  5
309
330
1F
100
AcDbEntity
  8
LAYER-033
  6
Continuous
 62
     4
100
AcDbLine
 10
469.5630787138224
 20
-109.2590692946186
 30
0.0
 11
475.2024011784863
 21
-114.8983917592825
 31
0.0
  0
LINE
  5
30A
330
1F
100
AcDbEntity
  8
LAYER-033
  6
Continuous
 62
     4
100
AcDbLine
 10
411.0619024162214
 20
-47.22235909108485
 30
0.0
 11
415.3731907621772
 21
-51.5336474370406
 31
0.0
  0
LINE
  5
30B
330
1F
100
AcDbEntity
  8
LAYER-033
  6
Continuous
 62
     4
100
AcDbLine
 10
470.8436952550129
 20
-107.0041519298763
 30
0.0
 11
476.4830177196782
 21
-112.6434743945377
 31
0.0
  0
LINE
  5
30C
330
1F
100
AcDbEntity
  8
LAYER-033
  6
Continuous
 62
     4
100
AcDbLine
 10
411.2169179045355
 20
-43.84184067346621
 30
0.0
 11
418.9087246681099
 21
-51.5336474370406
 31
0.0
  0
LINE
  5
30D
330
1F
100
AcDbEntity
  8
LAYER-033
  6
Continuous
 62
     4
100
AcDbLine
 10
472.1243117962035
 20
-104.7492345651342
 30
0.0
 11
477.7636342448946
 21
-110.3885570579228
 31
0.0
  0
LINE
  5
30E
330
1F
100
AcDbEntity
  8
LAYER-033
  6
Continuous
 62
     4
100
AcDbLine
 10
414.7524518104683
 20
-43.84184067346621
 30
0.0
 11
422.4442585740427
 21
-51.5336474370406
 31
0.0
  0
LINE
  5
30F
330
1F
100
AcDbEntity
  8
LAYER-033
  6
Continuous
 62
     4
100
AcDbLine
 10
473.404928337394
 20
-102.4943172003919
 30
0.0
 11
479.0442508020578
 21
-108.1336396650557
 31
0.0
  0
LINE
  5
310
330
1F
100
AcDbEntity
  8
LAYER-033
  6
Continuous
 62
     4
100
AcDbLine
 10
418.287985716401
 20
-43.84184067346621
 30
0.0
 11
425.9797924799754
 21
-51.5336474370406
 31
0.0
  0
LINE
  5
311
330
1F
100
AcDbEntity
  8
LAYER-033
  6
Continuous
 62
     4
100
AcDbLine
 10
474.6855448785845
 20
-100.2393998356497
 30
0.0
 11
480.3248673432483
 21
-105.8787223003135
 31
0.0
  0
LINE
  5
312
330
1F
100
AcDbEntity
  8
LAYER-033
  6
Continuous
 62
     4
100
AcDbLine
 10
421.8235196223338
 20
-43.84184067346621
 30
0.0
 11
429.5153263859082
 21
-51.5336474370406
 31
0.0
  0
LINE
  5
313
330
1F
100
AcDbEntity
  8
LAYER-033
  6
Continuous
 62
     4
100
AcDbLine
 10
475.9661614197759
 20
-97.98448247090579
 30
0.0
 11
481.6054838844389
 21
-103.6238049355713
 31
0.0
  0
LINE
  5
314
330
1F
100
AcDbEntity
  8
LAYER-033
  6
Continuous
 62
     4
100
AcDbLine
 10
425.3590535282543
 20
-43.84184067346621
 30
0.0
 11
433.0508602918409
 21
-51.5336474370406
 31
0.0
  0
LINE
  5
315
330
1F
100
AcDbEntity
  8
LAYER-033
  6
Continuous
 62
     4
100
AcDbLine
 10
477.2467779609655
 20
-95.72956510616518
 30
0.0
 11
482.8861004256294
 21
-101.368887570829
 31
0.0
  0
LINE
  5
316
330
1F
100
AcDbEntity
  8
LAYER-033
  6
Continuous
 62
     4
100
AcDbLine
 10
428.8945874341993
 20
-43.84184067346621
 30
0.0
 11
436.5863941977737
 21
-51.5336474370406
 31
0.0
  0
LINE
  5
317
330
1F
100
AcDbEntity
  8
LAYER-033
  6
Continuous
 62
     4
100
AcDbLine
 10
478.5273945021535
 20
-93.47464774142293
 30
0.0
 11
484.1667169668199
 21
-99.11397020608678
 31
0.0
  0
LINE
  5
318
330
1F
100
AcDbEntity
  8
LAYER-033
  6
Continuous
 62
     4
100
AcDbLine
 10
432.43012134
 20
-43.84184067346621
 30
0.0
 11
440.1219281037064
 21
-51.5336474370406
 31
0.0
  0
LINE
  5
319
330
1F
100
AcDbEntity
  8
LAYER-033
  6
Continuous
 62
     4
100
AcDbLine
 10
479.8080110433465
 20
-91.21973037668073
 30
0.0
 11
485.4473335080104
 21
-96.85905284134458
 31
0.0
  0
LINE
  5
31A
330
1F
100
AcDbEntity
  8
LAYER-033
  6
Continuous
 62
     4
100
AcDbLine
 10
435.9656552460648
 20
-43.84184067346621
 30
0.0
 11
443.6574620096392
 21
-51.5336474370406
 31
0.0
  0
LINE
  5
31B
330
1F
100
AcDbEntity
  8
LAYER-033
  6
Continuous
 62
     4
100
AcDbLine
 10
481.0886275845371
 20
-88.96481301193848
 30
0.0
 11
486.7279500492009
 21
-94.60413547660232
 31
0.0
  0
LINE
  5
31C
330
1F
100
AcDbEntity
  8
LAYER-033
  6
Continuous
 62
     4
100
AcDbLine
 10
439.5011891519976
 20
-43.84184067346621
 30
0.0
 11
447.1929959155719
 21
-51.5336474370406
 31
0.0
  0
LINE
  5
31D
330
1F
100
AcDbEntity
  8
LAYER-033
  6
Continuous
 62
     4
100
AcDbLine
 10
482.3692441257276
 20
-86.70989564719628
 30
0.0
 11
488.0085665903914
 21
-92.34921811186007
 31
0.0
  0
LINE
  5
31E
330
1F
100
AcDbEntity
  8
LAYER-033
  6
Continuous
 62
     4
100
AcDbLine
 10
443.0367230579303
 20
-43.84184067346621
 30
0.0
 11
450.7285298215047
 21
-51.5336474370406
 31
0.0
  0
LINE
  5
31F
330
1F
100
AcDbEntity
  8
LAYER-033
  6
Continuous
 62
     4
100
AcDbLine
 10
483.649860651
 20
-84.45497831113812
 30
0.0
 11
489.2891831315819
 21
-90.09430074711781
 31
0.0
  0
LINE
  5
320
330
1F
100
AcDbEntity
  8
LAYER-033
  6
Continuous
 62
     4
100
AcDbLine
 10
446.572256963863
 20
-43.84184067346621
 30
0.0
 11
454.2640637274374
 21
-51.5336474370406
 31
0.0
  0
LINE
  5
321
330
1F
100
AcDbEntity
  8
LAYER-033
  6
Continuous
 62
     4
100
AcDbLine
 10
484.7775598221174
 20
-82.04714353172057
 30
0.0
 11
490.5682903037584
 21
-87.8378740133615
 31
0.0
  0
LINE
  5
322
330
1F
100
AcDbEntity
  8
LAYER-033
  6
Continuous
 62
     4
100
AcDbLine
 10
450.1077908697958
 20
-43.84184067346621
 30
0.0
 11
457.7995976333702
 21
-51.5336474370406
 31
0.0
  0
LINE
  5
323
330
1F
100
AcDbEntity
  8
LAYER-033
  6
Continuous
 62
     4
100
AcDbLine
 10
485.6436163457649
 20
-79.3776661494353
 30
0.0
 11
491.7021500956832
 21
-85.4361998993536
 31
0.0
  0
LINE
  5
324
330
1F
100
AcDbEntity
  8
LAYER-033
  6
Continuous
 62
     4
100
AcDbLine
 10
453.6433247757286
 20
-43.84184067346621
 30
0.0
 11
461.335131539303
 21
-51.5336474370406
 31
0.0
  0
LINE
  5
325
330
1F
100
AcDbEntity
  8
LAYER-033
  6
Continuous
 62
     4
100
AcDbLine
 10
486.1949804146198
 20
-76.39349631235746
 30
0.0
 11
492.6494487832907
 21
-82.84796468102837
 31
0.0
  0
LINE
  5
326
330
1F
100
AcDbEntity
  8
LAYER-033
  6
Continuous
 62
     4
100
AcDbLine
 10
457.1788586816613
 20
-43.84184067346621
 30
0.0
 11
464.8870105774984
 21
-51.54999256930324
 31
0.0
  0
LINE
  5
327
330
1F
100
AcDbEntity
  8
LAYER-033
  6
Continuous
 62
     4
100
AcDbLine
 10
486.3250474763285
 20
-72.98802946813333
 30
0.0
 11
493.3843757943169
 21
-80.04735778612184
 31
0.0
  0
LINE
  5
328
330
1F
100
AcDbEntity
  8
LAYER-033
  6
Continuous
 62
     4
100
AcDbLine
 10
460.714392587594
 20
-43.84184067346621
 30
0.0
 11
468.9561820134974
 21
-52.0836300993696
 31
0.0
  0
LINE
  5
329
330
1F
100
AcDbEntity
  8
LAYER-033
  6
Continuous
 62
     4
100
AcDbLine
 10
485.7914099462501
 20
-68.91885803212222
 30
0.0
 11
493.8670819517498
 21
-76.99453003762193
 31
0.0
  0
LINE
  5
32A
330
1F
100
AcDbEntity
  8
LAYER-033
  6
Continuous
 62
     4
100
AcDbLine
 10
464.2507150550961
 20
-43.84262923503547
 30
0.0
 11
474.6066877135021
 21
-54.19860189344144
 31
0.0
  0
LINE
  5
32B
330
1F
100
AcDbEntity
  8
LAYER-033
  6
Continuous
 62
     4
100
AcDbLine
 10
483.6764381521782
 20
-63.26835233211762
 30
0.0
 11
494.0324108105842
 21
-73.62432499052363
 31
0.0
  0
LINE
  5
32C
330
1F
100
AcDbEntity
  8
LAYER-033
  6
Continuous
 62
     4
100
AcDbLine
 10
468.056461766726
 20
-44.11284204073263
 30
0.0
 11
493.7621980048616
 21
-69.81857827886819
 31
0.0
  0
LINE
  5
32D
330
1F
100
AcDbEntity
  8
LAYER-033
  6
Continuous
 62
     4
100
AcDbLine
 10
472.5575569651333
 20
-45.07840333320718
 30
0.0
 11
492.7966367124125
 21
-65.3174830804864
 31
0.0
  0
LINE
  5
32E
330
1F
100
AcDbEntity
  8
LAYER-033
  6
Continuous
 62
     4
100
AcDbLine
 10
478.668709740624
 20
-47.65402220276519
 30
0.0
 11
490.2210178428546
 21
-59.20633030499567
 31
0.0
  0
LINE
  5
32F
330
1F
100
AcDbEntity
  8
LAYER-033
  6
Continuous
 62
     4
100
AcDbLine
 10
141.3870809762397
 20
-54.16562859905787
 30
0.0
 11
144.3569872977593
 21
-51.19572227753827
 31
0.0
  0
LINE
  5
330
330
1F
100
AcDbEntity
  8
LAYER-033
  6
Continuous
 62
     4
100
AcDbLine
 10
136.0435168306097
 20
-63.04472665062059
 30
0.0
 11
153.2360853493221
 21
-45.85215813190825
 31
0.0
  0
LINE
  5
331
330
1F
100
AcDbEntity
  8
LAYER-033
  6
Continuous
 62
     4
100
AcDbLine
 10
134.6034534956374
 20
-68.02032389152566
 30
0.0
 11
158.2116825902272
 21
-44.41209479693589
 31
0.0
  0
LINE
  5
332
330
1F
100
AcDbEntity
  8
LAYER-033
  6
Continuous
 62
     4
100
AcDbLine
 10
134.0853336678766
 20
-72.07397762521919
 30
0.0
 11
162.2653363239207
 21
-43.89397496917513
 31
0.0
  0
LINE
  5
333
330
1F
100
AcDbEntity
  8
LAYER-033
  6
Continuous
 62
     4
100
AcDbLine
 10
134.0853229555234
 20
-75.60952224350513
 30
0.0
 11
142.8510713976835
 21
-66.84377380134504
 31
0.0
  0
LINE
  5
334
330
1F
100
AcDbEntity
  8
LAYER-033
  6
Continuous
 62
     4
100
AcDbLine
 10
157.0351325000466
 20
-52.65971269898199
 30
0.0
 11
165.8530045255624
 21
-43.84184067346621
 31
0.0
  0
LINE
  5
335
330
1F
100
AcDbEntity
  8
LAYER-033
  6
Continuous
 62
     4
100
AcDbLine
 10
134.4435537723832
 20
-78.78682533257813
 30
0.0
 11
141.8626246665959
 21
-71.36775443836541
 31
0.0
  0
LINE
  5
336
330
1F
100
AcDbEntity
  8
LAYER-033
  6
Continuous
 62
     4
100
AcDbLine
 10
161.5591131370669
 20
-51.67126596789439
 30
0.0
 11
169.3885384314951
 21
-43.84184067346621
 31
0.0
  0
LINE
  5
337
330
1F
100
AcDbEntity
  8
LAYER-033
  6
Continuous
 62
     4
100
AcDbLine
 10
135.0775166236838
 20
-81.68839638721033
 30
0.0
 11
141.7556272096246
 21
-75.0102858012695
 31
0.0
  0
LINE
  5
338
330
1F
100
AcDbEntity
  8
LAYER-033
  6
Continuous
 62
     4
100
AcDbLine
 10
165.2322655738535
 20
-51.5336474370406
 30
0.0
 11
172.9240723374279
 21
-43.84184067346621
 31
0.0
  0
LINE
  5
339
330
1F
100
AcDbEntity
  8
LAYER-033
  6
Continuous
 62
     4
100
AcDbLine
 10
135.9385752205995
 20
-84.36287169622733
 30
0.0
 11
142.1460230852995
 21
-78.15542383152729
 31
0.0
  0
LINE
  5
33A
330
1F
100
AcDbEntity
  8
LAYER-033
  6
Continuous
 62
     4
100
AcDbLine
 10
168.7677994797862
 20
-51.5336474370406
 30
0.0
 11
176.4596062433681
 21
-43.84184067346621
 31
0.0
  0
LINE
  5
33B
330
1F
100
AcDbEntity
  8
LAYER-033
  6
Continuous
 62
     4
100
AcDbLine
 10
136.995847570447
 20
-86.8411332523126
 30
0.0
 11
142.8875648589556
 21
-80.94941596380397
 31
0.0
  0
LINE
  5
33C
330
1F
100
AcDbEntity
  8
LAYER-033
  6
Continuous
 62
     4
100
AcDbLine
 10
172.303333385719
 20
-51.5336474370406
 30
0.0
 11
179.9951401492934
 21
-43.84184067346621
 31
0.0
  0
LINE
  5
33D
330
1F
100
AcDbEntity
  8
LAYER-033
  6
Continuous
 62
     4
100
AcDbLine
 10
138.2342576510324
 20
-89.13825707765989
 30
0.0
 11
143.9073952677001
 21
-83.46511946099224
 31
0.0
  0
LINE
  5
33E
330
1F
100
AcDbEntity
  8
LAYER-033
  6
Continuous
 62
     4
100
AcDbLine
 10
175.8388672916517
 20
-51.5336474370406
 30
0.0
 11
183.5306740552261
 21
-43.84184067346621
 31
0.0
  0
LINE
  5
33F
330
1F
100
AcDbEntity
  8
LAYER-033
  6
Continuous
 62
     4
100
AcDbLine
 10
139.514874192223
 20
-91.39317444240214
 30
0.0
 11
145.1541966565862
 21
-85.75385197803882
 31
0.0
  0
LINE
  5
340
330
1F
100
AcDbEntity
  8
LAYER-033
  6
Continuous
 62
     4
100
AcDbLine
 10
179.3744011975845
 20
-51.5336474370406
 30
0.0
 11
187.066207961649
 21
-43.84184067346621
 31
0.0
  0
LINE
  5
341
330
1F
100
AcDbEntity
  8
LAYER-033
  6
Continuous
 62
     4
100
AcDbLine
 10
140.7954907334135
 20
-93.64809180714434
 30
0.0
 11
146.4348131977768
 21
-88.00876934278108
 31
0.0
  0
LINE
  5
342
330
1F
100
AcDbEntity
  8
LAYER-033
  6
Continuous
 62
     4
100
AcDbLine
 10
182.9099351035172
 20
-51.5336474370406
 30
0.0
 11
190.6017418670916
 21
-43.84184067346621
 31
0.0
  0
LINE
  5
343
330
1F
100
AcDbEntity
  8
LAYER-033
  6
Continuous
 62
     4
100
AcDbLine
 10
142.076107274604
 20
-95.9030091718866
 30
0.0
 11
147.7154297389673
 21
-90.26368670752328
 31
0.0
  0
LINE
  5
344
330
1F
100
AcDbEntity
  8
LAYER-033
  6
Continuous
 62
     4
100
AcDbLine
 10
186.44546900945
 20
-51.5336474370406
 30
0.0
 11
194.1372757730244
 21
-43.84184067346621
 31
0.0
  0
LINE
  5
345
330
1F
100
AcDbEntity
  8
LAYER-033
  6
Continuous
 62
     4
100
AcDbLine
 10
143.3567238157945
 20
-98.15792653662885
 30
0.0
 11
148.9960462801578
 21
-92.51860407226553
 31
0.0
  0
LINE
  5
346
330
1F
100
AcDbEntity
  8
LAYER-033
  6
Continuous
 62
     4
100
AcDbLine
 10
189.9810029153827
 20
-51.5336474370406
 30
0.0
 11
197.6728096789684
 21
-43.84184067346621
 31
0.0
  0
LINE
  5
347
330
1F
100
AcDbEntity
  8
LAYER-033
  6
Continuous
 62
     4
100
AcDbLine
 10
144.637340356985
 20
-100.4128439013711
 30
0.0
 11
150.2766628213483
 21
-94.77352143700773
 31
0.0
  0
LINE
  5
348
330
1F
100
AcDbEntity
  8
LAYER-033
  6
Continuous
 62
     4
100
AcDbLine
 10
193.5165368213155
 20
-51.5336474370406
 30
0.0
 11
201.2083435848899
 21
-43.84184067346621
 31
0.0
  0
LINE
  5
349
330
1F
100
AcDbEntity
  8
LAYER-033
  6
Continuous
 62
     4
100
AcDbLine
 10
145.9179568981755
 20
-102.6677612661133
 30
0.0
 11
151.5572793625388
 21
-97.02843880174999
 31
0.0
  0
LINE
  5
34A
330
1F
100
AcDbEntity
  8
LAYER-033
  6
Continuous
 62
     4
100
AcDbLine
 10
197.0520707272482
 20
-51.5336474370406
 30
0.0
 11
204.7438774908226
 21
-43.84184067346621
 31
0.0
  0
LINE
  5
34B
330
1F
100
AcDbEntity
  8
LAYER-033
  6
Continuous
 62
     4
100
AcDbLine
 10
147.198573439366
 20
-104.9226786308556
 30
0.0
 11
152.8378959037293
 21
-99.28335616649224
 31
0.0
  0
LINE
  5
34C
330
1F
100
AcDbEntity
  8
LAYER-033
  6
Continuous
 62
     4
100
AcDbLine
 10
200.587604633181
 20
-51.5336474370406
 30
0.0
 11
208.2794113967554
 21
-43.84184067346621
 31
0.0
  0
LINE
  5
34D
330
1F
100
AcDbEntity
  8
LAYER-033
  6
Continuous
 62
     4
100
AcDbLine
 10
148.4791899805566
 20
-107.1775959955978
 30
0.0
 11
154.1185124449199
 21
-101.5382735312345
 31
0.0
  0
LINE
  5
34E
330
1F
100
AcDbEntity
  8
LAYER-033
  6
Continuous
 62
     4
100
AcDbLine
 10
204.1231385391137
 20
-51.5336474370406
 30
0.0
 11
211.8149453026881
 21
-43.84184067346621
 31
0.0
  0
LINE
  5
34F
330
1F
100
AcDbEntity
  8
LAYER-033
  6
Continuous
 62
     4
100
AcDbLine
 10
149.7598065217471
 20
-109.43251336034
 30
0.0
 11
155.3991289861104
 21
-103.7931908959767
 31
0.0
  0
LINE
  5
350
330
1F
100
AcDbEntity
  8
LAYER-033
  6
Continuous
 62
     4
100
AcDbLine
 10
207.6586724450465
 20
-51.5336474370406
 30
0.0
 11
215.3504792086209
 21
-43.84184067346621
 31
0.0
  0
LINE
  5
351
330
1F
100
AcDbEntity
  8
LAYER-033
  6
Continuous
 62
     4
100
AcDbLine
 10
151.0404230629376
 20
-111.6874307250823
 30
0.0
 11
156.6797455273009
 21
-106.048108260719
 31
0.0
  0
LINE
  5
352
330
1F
100
AcDbEntity
  8
LAYER-033
  6
Continuous
 62
     4
100
AcDbLine
 10
211.1942063509792
 20
-51.5336474370406
 30
0.0
 11
217.0044963278681
 21
-45.72335746015176
 31
0.0
  0
LINE
  5
353
330
1F
100
AcDbEntity
  8
LAYER-033
  6
Continuous
 62
     4
100
AcDbLine
 10
152.3210396041281
 20
-113.9423480898245
 30
0.0
 11
157.9603620684914
 21
-108.3030256254612
 31
0.0
  0
LINE
  5
354
330
1F
100
AcDbEntity
  8
LAYER-033
  6
Continuous
 62
     4
100
AcDbLine
 10
214.729740256912
 20
-51.5336474370406
 30
0.0
 11
217.0044963278681
 21
-49.25889136608453
 31
0.0
  0
LINE
  5
355
330
1F
100
AcDbEntity
  8
LAYER-033
  6
Continuous
 62
     4
100
AcDbLine
 10
153.6016561453186
 20
-116.1972654545667
 30
0.0
 11
159.2409786096816
 21
-110.5579429902028
 31
0.0
  0
LINE
  5
356
330
1F
100
AcDbEntity
  8
LAYER-033
  6
Continuous
 62
     4
100
AcDbLine
 10
154.8822726865091
 20
-118.452182819309
 30
0.0
 11
160.5215951508724
 21
-112.8128603549457
 31
0.0
  0
LINE
  5
357
330
1F
100
AcDbEntity
  8
LAYER-033
  6
Continuous
 62
     4
100
AcDbLine
 10
156.1628892276997
 20
-120.7071001840512
 30
0.0
 11
161.8022116920629
 21
-115.0677777196879
 31
0.0
  0
LINE
  5
358
330
1F
100
AcDbEntity
  8
LAYER-033
  6
Continuous
 62
     4
100
AcDbLine
 10
157.4435057688902
 20
-122.9620175487934
 30
0.0
 11
163.0828282332535
 21
-117.3226950844302
 31
0.0
  0
LINE
  5
359
330
1F
100
AcDbEntity
  8
LAYER-033
  6
Continuous
 62
     4
100
AcDbLine
 10
158.7241223100807
 20
-125.2169349135357
 30
0.0
 11
164.363444774444
 21
-119.5776124491724
 31
0.0
  0
LINE
  5
35A
330
1F
100
AcDbEntity
  8
LAYER-033
  6
Continuous
 62
     4
100
AcDbLine
 10
160.0047388512712
 20
-127.4718522782779
 30
0.0
 11
165.6440613156345
 21
-121.8325298139146
 31
0.0
  0
LINE
  5
35B
330
1F
100
AcDbEntity
  8
LAYER-033
  6
Continuous
 62
     4
100
AcDbLine
 10
161.2853553924617
 20
-129.7267696430201
 30
0.0
 11
166.9246778568265
 21
-124.0874471786594
 31
0.0
  0
LINE
  5
35C
330
1F
100
AcDbEntity
  8
LAYER-033
  6
Continuous
 62
     4
100
AcDbLine
 10
162.5659719336522
 20
-131.9816870077624
 30
0.0
 11
168.2052943980155
 21
-126.3423645433991
 31
0.0
  0
LINE
  5
35D
330
1F
100
AcDbEntity
  8
LAYER-033
  6
Continuous
 62
     4
100
AcDbLine
 10
163.8465884748427
 20
-134.2366043725046
 30
0.0
 11
169.485910939206
 21
-128.5972819081413
 31
0.0
  0
LINE
  5
35E
330
1F
100
AcDbEntity
  8
LAYER-033
  6
Continuous
 62
     4
100
AcDbLine
 10
165.1272050160333
 20
-136.4915217372469
 30
0.0
 11
170.7665274803966
 21
-130.8521992728836
 31
0.0
  0
LINE
  5
35F
330
1F
100
AcDbEntity
  8
LAYER-033
  6
Continuous
 62
     4
100
AcDbLine
 10
166.4078215572238
 20
-138.7464391019891
 30
0.0
 11
172.0471440215871
 21
-133.1071166376258
 31
0.0
  0
LINE
  5
360
330
1F
100
AcDbEntity
  8
LAYER-033
  6
Continuous
 62
     4
100
AcDbLine
 10
167.6884380984143
 20
-141.0013564667313
 30
0.0
 11
173.3277605627776
 21
-135.362034002368
 31
0.0
  0
LINE
  5
361
330
1F
100
AcDbEntity
  8
LAYER-033
  6
Continuous
 62
     4
100
AcDbLine
 10
168.9690546396048
 20
-143.2562738314736
 30
0.0
 11
174.6083771039681
 21
-137.6169513671102
 31
0.0
  0
LINE
  5
362
330
1F
100
AcDbEntity
  8
LAYER-033
  6
Continuous
 62
     4
100
AcDbLine
 10
170.2496711807953
 20
-145.5111911962158
 30
0.0
 11
175.8889936451586
 21
-139.8718687318525
 31
0.0
  0
LINE
  5
363
330
1F
100
AcDbEntity
  8
LAYER-033
  6
Continuous
 62
     4
100
AcDbLine
 10
171.5302877219858
 20
-147.7661085609581
 30
0.0
 11
177.1696101863491
 21
-142.1267860965947
 31
0.0
  0
LINE
  5
364
330
1F
100
AcDbEntity
  8
LAYER-033
  6
Continuous
 62
     4
100
AcDbLine
 10
172.8109042631763
 20
-150.0210259257003
 30
0.0
 11
178.4502267275396
 21
-144.381703461337
 31
0.0
  0
LINE
  5
365
330
1F
100
AcDbEntity
  8
LAYER-033
  6
Continuous
 62
     4
100
AcDbLine
 10
174.0915208043668
 20
-152.2759432904425
 30
0.0
 11
179.7308432687302
 21
-146.6366208260792
 31
0.0
  0
LINE
  5
366
330
1F
100
AcDbEntity
  8
LAYER-033
  6
Continuous
 62
     4
100
AcDbLine
 10
175.3721373455574
 20
-154.5308606551848
 30
0.0
 11
181.0114598099207
 21
-148.8915381908215
 31
0.0
  0
LINE
  5
367
330
1F
100
AcDbEntity
  8
LAYER-033
  6
Continuous
 62
     4
100
AcDbLine
 10
176.6527538867479
 20
-156.785778019927
 30
0.0
 11
182.2920763511112
 21
-151.1464555555637
 31
0.0
  0
LINE
  5
368
330
1F
100
AcDbEntity
  8
LAYER-033
  6
Continuous
 62
     4
100
AcDbLine
 10
177.9333704039404
 20
-159.0406953424134
 30
0.0
 11
183.5726928923017
 21
-153.4013729203059
 31
0.0
  0
LINE
  5
369
330
1F
100
AcDbEntity
  8
LAYER-033
  6
Continuous
 62
     4
100
AcDbLine
 10
179.2139869691289
 20
-161.2956127494115
 30
0.0
 11
184.8533094334922
 21
-155.6562902850482
 31
0.0
  0
LINE
  5
36A
330
1F
100
AcDbEntity
  8
LAYER-033
  6
Continuous
 62
     4
100
AcDbLine
 10
180.4946035103194
 20
-163.5505301141537
 30
0.0
 11
186.1339259746827
 21
-157.9112076497904
 31
0.0
  0
LINE
  5
36B
330
1F
100
AcDbEntity
  8
LAYER-033
  6
Continuous
 62
     4
100
AcDbLine
 10
181.7752200515099
 20
-165.805447478896
 30
0.0
 11
187.4145425158733
 21
-160.1661250145326
 31
0.0
  0
LINE
  5
36C
330
1F
100
AcDbEntity
  8
LAYER-033
  6
Continuous
 62
     4
100
AcDbLine
 10
183.0558365927004
 20
-168.0603648436382
 30
0.0
 11
188.6951590570638
 21
-162.4210423792748
 31
0.0
  0
LINE
  5
36D
330
1F
100
AcDbEntity
  8
LAYER-033
  6
Continuous
 62
     4
100
AcDbLine
 10
184.336453133891
 20
-170.3152822083804
 30
0.0
 11
189.9757755982543
 21
-164.6759597440171
 31
0.0
  0
LINE
  5
36E
330
1F
100
AcDbEntity
  8
LAYER-033
  6
Continuous
 62
     4
100
AcDbLine
 10
185.6170696750815
 20
-172.5701995731226
 30
0.0
 11
191.2563921394448
 21
-166.9308771087593
 31
0.0
  0
LINE
  5
36F
330
1F
100
AcDbEntity
  8
LAYER-033
  6
Continuous
 62
     4
100
AcDbLine
 10
186.897686216272
 20
-174.8251169378649
 30
0.0
 11
192.5370086806353
 21
-169.1857944735015
 31
0.0
  0
LINE
  5
370
330
1F
100
AcDbEntity
  8
LAYER-033
  6
Continuous
 62
     4
100
AcDbLine
 10
188.1783027574625
 20
-177.0800343026071
 30
0.0
 11
193.8176252218258
 21
-171.4407118382438
 31
0.0
  0
LINE
  5
371
330
1F
100
AcDbEntity
  8
LAYER-033
  6
Continuous
 62
     4
100
AcDbLine
 10
190.7567573552843
 20
-178.037113610718
 30
0.0
 11
195.0982417630164
 21
-173.6956292033602
 31
0.0
  0
LINE
  5
372
330
1F
100
AcDbEntity
  8
LAYER-033
  6
Continuous
 62
     4
100
AcDbLine
 10
194.2922912612171
 20
-178.037113610718
 30
0.0
 11
196.3788583042068
 21
-175.9505465677282
 31
0.0
  0
LINE
  5
373
330
1F
100
AcDbEntity
  8
LAYER-033
  6
Continuous
 62
     4
100
AcDbLine
 10
186.2509261485922
 20
-173.686297892097
 30
0.0
 11
190.6017418672131
 21
-178.037113610718
 31
0.0
  0
LINE
  5
374
330
1F
100
AcDbEntity
  8
LAYER-033
  6
Continuous
 62
     4
100
AcDbLine
 10
181.6038365717075
 20
-165.5036744092796
 30
0.0
 11
194.1372757731459
 21
-178.037113610718
 31
0.0
  0
LINE
  5
375
330
1F
100
AcDbEntity
  8
LAYER-033
  6
Continuous
 62
     4
100
AcDbLine
 10
176.9567469948228
 20
-157.3210509264622
 30
0.0
 11
197.4206687090246
 21
-177.784972640664
 31
0.0
  0
LINE
  5
376
330
1F
100
AcDbEntity
  8
LAYER-033
  6
Continuous
 62
     4
100
AcDbLine
 10
172.3096574179381
 20
-149.1384274436448
 30
0.0
 11
192.7735791321399
 21
-169.6023491578466
 31
0.0
  0
LINE
  5
377
330
1F
100
AcDbEntity
  8
LAYER-033
  6
Continuous
 62
     4
100
AcDbLine
 10
167.6625678410534
 20
-140.9558039608273
 30
0.0
 11
188.1264895552552
 21
-161.4197256750292
 31
0.0
  0
LINE
  5
378
330
1F
100
AcDbEntity
  8
LAYER-033
  6
Continuous
 62
     4
100
AcDbLine
 10
163.0154782641688
 20
-132.77318047801
 30
0.0
 11
183.4793999783705
 21
-153.2371021922117
 31
0.0
  0
LINE
  5
379
330
1F
100
AcDbEntity
  8
LAYER-033
  6
Continuous
 62
     4
100
AcDbLine
 10
158.3683886962512
 20
-124.5905570109818
 30
0.0
 11
178.8323104014858
 21
-145.0544787093943
 31
0.0
  0
LINE
  5
37A
330
1F
100
AcDbEntity
  8
LAYER-033
  6
Continuous
 62
     4
100
AcDbLine
 10
153.7212991103994
 20
-116.4079335123751
 30
0.0
 11
174.1852208246012
 21
-136.8718552265768
 31
0.0
  0
LINE
  5
37B
330
1F
100
AcDbEntity
  8
LAYER-033
  6
Continuous
 62
     4
100
AcDbLine
 10
149.0742095335147
 20
-108.2253100295577
 30
0.0
 11
169.5381312477165
 21
-128.6892317437594
 31
0.0
  0
LINE
  5
37C
330
1F
100
AcDbEntity
  8
LAYER-033
  6
Continuous
 62
     4
100
AcDbLine
 10
144.427119957
 20
-100.0426865467402
 30
0.0
 11
164.8910416708318
 21
-120.506608260942
 31
0.0
  0
LINE
  5
37D
330
1F
100
AcDbEntity
  8
LAYER-033
  6
Continuous
 62
     4
100
AcDbLine
 10
139.7800303797453
 20
-91.86006306392284
 30
0.0
 11
160.2439520939471
 21
-112.3239847781246
 31
0.0
  0
LINE
  5
37E
330
1F
100
AcDbEntity
  8
LAYER-033
  6
Continuous
 62
     4
100
AcDbLine
 10
136.0117547943631
 20
-84.55625357260783
 30
0.0
 11
155.5968625170624
 21
-104.1413612953071
 31
0.0
  0
LINE
  5
37F
330
1F
100
AcDbEntity
  8
LAYER-033
  6
Continuous
 62
     4
100
AcDbLine
 10
134.5909809610549
 20
-79.59994583336686
 30
0.0
 11
150.9497729401777
 21
-95.95873781248969
 31
0.0
  0
LINE
  5
380
330
1F
100
AcDbEntity
  8
LAYER-033
  6
Continuous
 62
     4
100
AcDbLine
 10
134.0821900939187
 20
-75.555621060298
 30
0.0
 11
146.302683363293
 21
-87.77611432967223
 31
0.0
  0
LINE
  5
381
330
1F
100
AcDbEntity
  8
LAYER-033
  6
Continuous
 62
     4
100
AcDbLine
 10
134.0881986188514
 20
-72.0260956792979
 30
0.0
 11
142.8261639610772
 21
-80.76406102152373
 31
0.0
  0
LINE
  5
382
330
1F
100
AcDbEntity
  8
LAYER-033
  6
Continuous
 62
     4
100
AcDbLine
 10
134.4508760175077
 20
-68.8532391720214
 30
0.0
 11
141.8563104046667
 21
-76.25867355918047
 31
0.0
  0
LINE
  5
383
330
1F
100
AcDbEntity
  8
LAYER-033
  6
Continuous
 62
     4
100
AcDbLine
 10
135.0884006850452
 20
-65.95522993362619
 30
0.0
 11
141.7582157841535
 21
-72.62504503280405
 31
0.0
  0
LINE
  5
384
330
1F
100
AcDbEntity
  8
LAYER-033
  6
Continuous
 62
     4
100
AcDbLine
 10
135.9524740990455
 20
-63.283769442
 30
0.0
 11
142.1544453334388
 21
-69.48574067608706
 31
0.0
  0
LINE
  5
385
330
1F
100
AcDbEntity
  8
LAYER-033
  6
Continuous
 62
     4
100
AcDbLine
 10
137.0124049077884
 20
-60.80816634450389
 30
0.0
 11
142.9004080553245
 21
-66.69616949204004
 31
0.0
  0
LINE
  5
386
330
1F
100
AcDbEntity
  8
LAYER-033
  6
Continuous
 62
     4
100
AcDbLine
 10
138.247953776347
 20
-58.5081813071298
 30
0.0
 11
143.9238976301535
 21
-64.18412516090365
 31
0.0
  0
LINE
  5
387
330
1F
100
AcDbEntity
  8
LAYER-033
  6
Continuous
 62
     4
100
AcDbLine
 10
139.6457189637027
 20
-56.37041258855265
 30
0.0
 11
145.1845982438225
 21
-61.90929186867248
 31
0.0
  0
LINE
  5
388
330
1F
100
AcDbEntity
  8
LAYER-033
  6
Continuous
 62
     4
100
AcDbLine
 10
141.1971835250444
 20
-54.38634324396168
 30
0.0
 11
146.6594849782234
 21
-59.84864469714069
 31
0.0
  0
LINE
  5
389
330
1F
100
AcDbEntity
  8
LAYER-033
  6
Continuous
 62
     4
100
AcDbLine
 10
142.897645278171
 20
-52.55127109115546
 30
0.0
 11
148.3366228231978
 21
-57.99024863618234
 31
0.0
  0
LINE
  5
38A
330
1F
100
AcDbEntity
  8
LAYER-033
  6
Continuous
 62
     4
100
AcDbLine
 10
144.7456805650741
 20
-50.8637724721259
 30
0.0
 11
150.2125012610291
 21
-56.33059316808078
 31
0.0
  0
LINE
  5
38B
330
1F
100
AcDbEntity
  8
LAYER-033
  6
Continuous
 62
     4
100
AcDbLine
 10
146.7429893605084
 20
-49.3255473616274
 30
0.0
 11
152.2913176173122
 21
-54.87387561843116
 31
0.0
  0
LINE
  5
38C
330
1F
100
AcDbEntity
  8
LAYER-033
  6
Continuous
 62
     4
100
AcDbLine
 10
148.8945806251012
 20
-47.9416047202875
 30
0.0
 11
154.5858374368781
 21
-53.63286153206434
 31
0.0
  0
LINE
  5
38D
330
1F
100
AcDbEntity
  8
LAYER-033
  6
Continuous
 62
     4
100
AcDbLine
 10
151.2093472460203
 20
-46.72083743527389
 30
0.0
 11
157.1202810439406
 21
-52.63177123336021
 31
0.0
  0
LINE
  5
38E
330
1F
100
AcDbEntity
  8
LAYER-033
  6
Continuous
 62
     4
100
AcDbLine
 10
153.7011955557693
 20
-45.67715183909002
 30
0.0
 11
159.9369872127101
 21
-51.91294349603083
 31
0.0
  0
LINE
  5
38F
330
1F
100
AcDbEntity
  8
LAYER-033
  6
Continuous
 62
     4
100
AcDbLine
 10
156.3911034166177
 20
-44.83152579400564
 30
0.0
 11
163.1122432271639
 21
-51.55266560455186
 31
0.0
  0
LINE
  5
390
330
1F
100
AcDbEntity
  8
LAYER-033
  6
Continuous
 62
     4
100
AcDbLine
 10
159.3109448411826
 20
-44.21583331263776
 30
0.0
 11
166.6287589655854
 21
-51.5336474370406
 31
0.0
  0
LINE
  5
391
330
1F
100
AcDbEntity
  8
LAYER-033
  6
Continuous
 62
     4
100
AcDbLine
 10
162.5111229328139
 20
-43.8804774983364
 30
0.0
 11
170.1642928715181
 21
-51.5336474370406
 31
0.0
  0
LINE
  5
392
330
1F
100
AcDbEntity
  8
LAYER-033
  6
Continuous
 62
     4
100
AcDbLine
 10
166.0080200138765
 20
-43.84184067346621
 30
0.0
 11
173.6998267774509
 21
-51.5336474370406
 31
0.0
  0
LINE
  5
393
330
1F
100
AcDbEntity
  8
LAYER-033
  6
Continuous
 62
     4
100
AcDbLine
 10
169.5435539198092
 20
-43.84184067346621
 30
0.0
 11
177.2353606833836
 21
-51.5336474370406
 31
0.0
  0
LINE
  5
394
330
1F
100
AcDbEntity
  8
LAYER-033
  6
Continuous
 62
     4
100
AcDbLine
 10
173.079087825742
 20
-43.84184067346621
 30
0.0
 11
180.7708945893164
 21
-51.5336474370406
 31
0.0
  0
LINE
  5
395
330
1F
100
AcDbEntity
  8
LAYER-033
  6
Continuous
 62
     4
100
AcDbLine
 10
176.6146217316747
 20
-43.84184067346621
 30
0.0
 11
184.3064284952491
 21
-51.5336474370406
 31
0.0
  0
LINE
  5
396
330
1F
100
AcDbEntity
  8
LAYER-033
  6
Continuous
 62
     4
100
AcDbLine
 10
180.1501556376075
 20
-43.84184067346621
 30
0.0
 11
187.8419624011819
 21
-51.5336474370406
 31
0.0
  0
LINE
  5
397
330
1F
100
AcDbEntity
  8
LAYER-033
  6
Continuous
 62
     4
100
AcDbLine
 10
183.6856895435402
 20
-43.84184067346621
 30
0.0
 11
191.3774963071146
 21
-51.5336474370406
 31
0.0
  0
LINE
  5
398
330
1F
100
AcDbEntity
  8
LAYER-033
  6
Continuous
 62
     4
100
AcDbLine
 10
187.221223449473
 20
-43.84184067346621
 30
0.0
 11
194.9130302130474
 21
-51.5336474370406
 31
0.0
  0
LINE
  5
399
330
1F
100
AcDbEntity
  8
LAYER-033
  6
Continuous
 62
     4
100
AcDbLine
 10
190.7567573554057
 20
-43.84184067346621
 30
0.0
 11
198.4485641189801
 21
-51.5336474370406
 31
0.0
  0
LINE
  5
39A
330
1F
100
AcDbEntity
  8
LAYER-033
  6
Continuous
 62
     4
100
AcDbLine
 10
194.2922912613385
 20
-43.84184067346621
 30
0.0
 11
201.9840980249129
 21
-51.5336474370406
 31
0.0
  0
LINE
  5
39B
330
1F
100
AcDbEntity
  8
LAYER-033
  6
Continuous
 62
     4
100
AcDbLine
 10
197.8278251791658
 20
-43.84184067346621
 30
0.0
 11
205.5196319308456
 21
-51.5336474370406
 31
0.0
  0
LINE
  5
39C
330
1F
100
AcDbEntity
  8
LAYER-033
  6
Continuous
 62
     4
100
AcDbLine
 10
201.363359073204
 20
-43.84184067346621
 30
0.0
 11
209.0551658367784
 21
-51.5336474370406
 31
0.0
  0
LINE
  5
39D
330
1F
100
AcDbEntity
  8
LAYER-033
  6
Continuous
 62
     4
100
AcDbLine
 10
204.8988929791368
 20
-43.84184067346621
 30
0.0
 11
212.5906997427111
 21
-51.5336474370406
 31
0.0
  0
LINE
  5
39E
330
1F
100
AcDbEntity
  8
LAYER-033
  6
Continuous
 62
     4
100
AcDbLine
 10
208.4344268850695
 20
-43.84184067346621
 30
0.0
 11
216.1262336486439
 21
-51.5336474370406
 31
0.0
  0
LINE
  5
39F
330
1F
100
AcDbEntity
  8
LAYER-033
  6
Continuous
 62
     4
100
AcDbLine
 10
211.9699607910023
 20
-43.84184067346621
 30
0.0
 11
217.0044963278681
 21
-48.87637621033207
 31
0.0
  0
LINE
  5
3A0
330
1F
100
AcDbEntity
  8
LAYER-033
  6
Continuous
 62
     4
100
AcDbLine
 10
215.505494696935
 20
-43.84184067346621
 30
0.0
 11
217.0044963278681
 21
-45.3408423043993
 31
0.0
  0
LINE
  5
3A1
330
1F
100
AcDbEntity
  8
LAYER-006
  6
Continuous
 62
     1
100
AcDbLine
 10
21.59037339979199
 20
-431.3157974773602
 30
0.0
 11
-443.409626600208
 21
-431.3157974773602
 31
0.0
  0
LINE
  5
3A2
330
1F
100
AcDbEntity
  8
LAYER-007
  6
HIDDEN
 62
     1
100
AcDbLine
 10
-443.409626600208
 20
-425.3157974773602
 30
0.0
 11
21.59037339979199
 21
-425.3157974773602
 31
0.0
  0
LINE
  5
3A3
330
1F
100
AcDbEntity
  8
LAYER-006
  6
Continuous
 62
     1
100
AcDbLine
 10
-443.409626600208
 20
-366.3157974773602
 30
0.0
 11
21.59037339979199
 21
-366.3157974773602
 31
0.0
  0
LINE
  5
3A4
330
1F
100
AcDbEntity
  8
LAYER-006
  6
Continuous
 62
     1
100
AcDbLine
 10
-443.409626600208
 20
-166.3157974773602
 30
0.0
 11
21.59037339979199
 21
-166.3157974773602
 31
0.0
  0
LINE
  5
3A5
330
1F
100
AcDbEntity
  8
LAYER-007
  6
HIDDEN
 62
     1
100
AcDbLine
 10
-443.409626600208
 20
-107.3157974773602
 30
0.0
 11
21.59037339979199
 21
-107.3157974773602
 31
0.0
  0
LINE
  5
3A6
330
1F
100
AcDbEntity
  8
LAYER-006
  6
Continuous
 62
     1
100
AcDbLine
 10
-443.409626600208
 20
-101.3157974773602
 30
0.0
 11
21.59037339979199
 21
-101.3157974773602
 31
0.0
  0
LINE
  5
3A7
330
1F
100
AcDbEntity
  8
LAYER-006
  6
Continuous
 62
     1
100
AcDbLine
 10
21.59037339979199
 20
-69.66436620349816
 30
0.0
 11
-443.409626600208
 21
-69.66436620349816
 31
0.0
  0
LINE
  5
3A8
330
1F
100
AcDbEntity
  8
LAYER-006
  6
Continuous
 62
     1
100
AcDbLine
 10
-443.409626600208
 20
-55.92897736084535
 30
0.0
 11
21.59037339979199
 21
-55.92897736084535
 31
0.0
  0
LINE
  5
3A9
330
1F
100
AcDbEntity
  8
LAYER-006
  6
Continuous
 62
     1
100
AcDbLine
 10
21.04095784472918
 20
-4.853731664419627
 30
0.0
 11
-444.1883417697546
 21
-4.853731664419627
 31
0.0
  0
LINE
  5
3AA
330
1F
100
AcDbEntity
  8
LAYER-006
  6
Continuous
 62
     1
100
AcDbLine
 10
-444.1883417697546
 20
-2.106653895889053
 30
0.0
 11
21.04095784472912
 21
-2.106653895889053
 31
0.0
  0
TEXT
  5
3AB
330
1F
100
AcDbEntity
  8
LAYER-033
  6
Continuous
 62
     7
100
AcDbText
 10
-189.9718281110802
 20
-608.6095046642289
 30
0.0
 40
15.0
  1
４００／４４０Ｖ　５０／６０Ｈｚ　　　１５０ｋＷ
  7
STRING_H
 11
-189.9718281110802
 21
-601.1095046642289
 31
0.0
100
AcDbText
 73
     2
  0
TEXT
  5
3AC
330
1F
100
AcDbEntity
  8
LAYER-033
  6
Continuous
 62
     7
100
AcDbText
 10
-189.9718281110802
 20
-628.6095046642289
 30
0.0
 40
15.0
  1
質　　量　　１４６㎏
  7
STRING_H
 11
-189.9718281110802
 21
-621.1095046642289
 31
0.0
100
AcDbText
 73
     2
  0
TEXT
  5
3AD
330
1F
100
AcDbEntity
  8
LAYER-033
  6
Continuous
 62
     7
100
AcDbText
 10
-189.9718281110802
 20
-588.6095046642289
 30
0.0
 40
15.0
  1
ＲＳ－１Ｐ(低　圧)
  7
STRING_H
 11
-189.9718281110802
 21
-581.1095046642289
 31
0.0
100
AcDbText
 73
     2
  0
DIMENSION
  5
3BD
330
1F
100
AcDbEntity
  8
LAYER-035
  6
Continuous
 62
     5
100
AcDbDimension
  2
*D02
 10
-20.90962660020801
 20
-469.0017956444202
 30
0.0
 11
-210.909626600208
 21
-469.0017956444202
 31
0.0
 70
   129
  1
<>
 71
     0
 42
0.0
  3
DIO_DIMSTYLE
100
AcDbAlignedDimension
 13
-400.909626600208
 23
-438.8608596539461
 33
0.0
 14
-20.90962660020801
 24
-438.8608596539461
 34
0.0
1001
ACAD
1000
DSTYLE
1002
{
1070
    41
1040
4.0
1070
    44
1040
1.0
1070
    42
1040
1.0
1070
     6
1000
_OPEN
1070
     7
1000
_OPEN
1070
   173
1070
     1
1070
   140
1040
10.0
1070
   178
1070
     5
1070
   147
1040
0.5
1002
}
  0
DIMENSION
  5
3C7
330
1F
100
AcDbEntity
  8
LAYER-035
  6
Continuous
 62
     5
100
AcDbDimension
  2
*D13
 10
464.0331993721535
 20
-494.6642602700668
 30
0.0
 11
314.0331993721535
 21
-494.6642602700668
 31
0.0
 70
   129
  1
<>
 71
     0
 42
0.0
  3
DIO_DIMSTYLE
100
AcDbAlignedDimension
 13
164.0331993721535
 23
-431.3157974773602
 33
0.0
 14
464.0331993721535
 24
-431.3157974773602
 34
0.0
1001
ACAD
1000
DSTYLE
1002
{
1070
    41
1040
4.0
1070
    44
1040
1.0
1070
    42
1040
1.0
1070
     6
1000
_OPEN
1070
     7
1000
_OPEN
1070
   173
1070
     1
1070
   140
1040
10.0
1070
   178
1070
     5
1070
   147
1040
0.5
1002
}
  0
DIMENSION
  5
3D1
330
1F
100
AcDbEntity
  8
LAYER-035
  6
Continuous
 62
     5
100
AcDbDimension
  2
*D24
 10
444.0331993721535
 20
-469.0017956444202
 30
0.0
 11
314.0331993721535
 21
-469.0017956444202
 31
0.0
 70
   129
  1
<>
 71
     0
 42
0.0
  3
DIO_DIMSTYLE
100
AcDbAlignedDimension
 13
184.0331993721535
 23
-438.0741112886718
 33
0.0
 14
444.0331993721535
 24
-438.0741112886718
 34
0.0
1001
ACAD
1000
DSTYLE
1002
{
1070
    41
1040
4.0
1070
    44
1040
1.0
1070
    42
1040
1.0
1070
     6
1000
_OPEN
1070
     7
1000
_OPEN
1070
   173
1070
     1
1070
   140
1040
10.0
1070
   178
1070
     5
1070
   147
1040
0.5
1002
}
  0
DIMENSION
  5
3DB
330
1F
100
AcDbEntity
  8
LAYER-035
  6
Continuous
 62
     5
100
AcDbDimension
  2
*D35
 10
184.0331993721535
 20
-320.4116313674398
 30
0.0
 11
295.4041205240893
 21
-320.4116313674398
 31
0.0
 70
   129
  1
<>
 71
     0
 42
0.0
  3
DIO_DIMSTYLE
100
AcDbAlignedDimension
 13
444.0331993721535
 23
-178.0371136107181
 33
0.0
 14
184.0331993721535
 24
-178.0371136107181
 34
0.0
1001
ACAD
1000
DSTYLE
1002
{
1070
    41
1040
4.0
1070
    44
1040
1.0
1070
    42
1040
1.0
1070
     6
1000
_OPEN
1070
     7
1000
_OPEN
1070
   173
1070
     1
1070
   140
1040
10.0
1070
   178
1070
     5
1070
   147
1040
0.5
1002
}
  0
DIMENSION
  5
3E5
330
1F
100
AcDbEntity
  8
LAYER-035
  6
Continuous
 62
     5
100
AcDbDimension
  2
*D46
 10
444.0331993721535
 20
-320.4116313674398
 30
0.0
 11
469.0331993721535
 21
-320.4116313674398
 31
0.0
 70
   128
  1
(<>)
 71
     0
 42
0.0
  3
DIO_DIMSTYLE
100
AcDbAlignedDimension
 13
494.0331993721535
 23
-73.84184067346621
 33
0.0
 14
444.0331993721535
 24
-178.0371136107181
 34
0.0
100
AcDbRotatedDimension
1001
ACAD
1000
DSTYLE
1002
{
1070
    41
1040
4.0
1070
    44
1040
1.0
1070
    42
1040
1.0
1070
     6
1000
_OPEN
1070
     7
1000
_OPEN
1070
   173
1070
     1
1070
   140
1040
10.0
1070
   178
1070
     5
1070
   147
1040
0.5
1002
}
  0
DIMENSION
  5
3EF
330
1F
100
AcDbEntity
  8
LAYER-035
  6
Continuous
 62
     5
100
AcDbDimension
  2
*D57
 10
184.0331993721535
 20
-320.4116313674398
 30
0.0
 11
159.0331993721535
 21
-320.4116313674398
 31
0.0
 70
   128
  1
(<>)
 71
     0
 42
0.0
  3
DIO_DIMSTYLE
100
AcDbAlignedDimension
 13
134.0331993721535
 23
-73.84184067346621
 33
0.0
 14
184.0331993721535
 24
-178.0371136107181
 34
0.0
 50
180.0
100
AcDbRotatedDimension
1001
ACAD
1000
DSTYLE
1002
{
1070
    41
1040
4.0
1070
    44
1040
1.0
1070
    42
1040
1.0
1070
     6
1000
_OPEN
1070
     7
1000
_OPEN
1070
   173
1070
     1
1070
   140
1040
10.0
1070
   178
1070
     5
1070
   147
1040
0.5
1002
}
  0
DIMENSION
  5
3F9
330
1F
100
AcDbEntity
  8
LAYER-035
  6
Continuous
 62
     5
100
AcDbDimension
  2
*D68
 10
-443.409626600208
 20
-494.6642602700668
 30
0.0
 11
-210.909626600208
 21
-494.6642602700668
 31
0.0
 70
   129
  1
<>
 71
     0
 42
0.0
  3
DIO_DIMSTYLE
100
AcDbAlignedDimension
 13
21.59037339979199
 23
-431.3157974773602
 33
0.0
 14
-443.409626600208
 24
-431.3157974773602
 34
0.0
1001
ACAD
1000
DSTYLE
1002
{
1070
    41
1040
4.0
1070
    44
1040
1.0
1070
    42
1040
1.0
1070
     6
1000
_OPEN
1070
     7
1000
_OPEN
1070
   173
1070
     1
1070
   140
1040
10.0
1070
   178
1070
     5
1070
   147
1040
0.5
1002
}
  0
DIMENSION
  5
403
330
1F
100
AcDbEntity
  8
LAYER-035
  6
Continuous
 62
     5
100
AcDbDimension
  2
*D79
 10
74.33827544862001
 20
-431.3157974773602
 30
0.0
 11
74.33827544862001
 21
-226.3157974773602
 31
0.0
 70
   128
  1
<>
 71
     0
 42
0.0
  3
DIO_DIMSTYLE
100
AcDbAlignedDimension
 13
-44.15722363713189
 23
-21.31579747736021
 33
0.0
 14
21.59037339979199
 24
-431.3157974773602
 34
0.0
 50
90.0
100
AcDbRotatedDimension
1001
ACAD
1000
DSTYLE
1002
{
1070
    41
1040
4.0
1070
    44
1040
1.0
1070
    42
1040
1.0
1070
     6
1000
_OPEN
1070
     7
1000
_OPEN
1070
   173
1070
     1
1070
   140
1040
10.0
1070
   178
1070
     5
1070
   147
1040
0.5
1002
}
  0
DIMENSION
  5
40F
330
1F
100
AcDbEntity
  8
LAYER-035
  6
Continuous
 62
     5
100
AcDbDimension
  2
*D810
 10
74.33827544862001
 20
-21.31579747736021
 30
0.0
 11
74.33827544862001
 21
23.68420252263979
 31
0.0
 70
   128
  1
25±5
 71
     0
 42
0.0
  3
DIO_DIMSTYLE
100
AcDbAlignedDimension
 13
14.99738675531961
 23
3.684202522639794
 33
0.0
 14
-44.15722363713189
 24
-21.31579747736021
 34
0.0
 50
90.0
100
AcDbRotatedDimension
1001
ACAD
1000
DSTYLE
1002
{
1070
    41
1040
4.0
1070
    44
1040
1.0
1070
    42
1040
1.0
1070
     6
1000
_OPEN
1070
     7
1000
_OPEN
1070
   173
1070
     1
1070
   140
1040
10.0
1070
   178
1070
     5
1070
   147
1040
0.5
1002
}
  0
ENDSEC
  0
SECTION
  2
OBJECTS
  0
DICTIONARY
  5
C
330
0
100
AcDbDictionary
281
     1
  3
ACAD_GROUP
350
D
  3
ACAD_LAYOUT
350
1A
  3
ACAD_MLINESTYLE
350
17
  3
ACAD_PLOTSETTINGS
350
19
  3
ACAD_PLOTSTYLENAME
350
E
  0
DICTIONARY
  5
D
102
{ACAD_REACTORS
330
C
102
}
330
C
100
AcDbDictionary
281
     1
  0
DICTIONARY
  5
1A
102
{ACAD_REACTORS
330
C
102
}
330
C
100
AcDbDictionary
281
     1
  3
Model
350
22
  3
ﾚｲｱｳﾄ1
350
1E
  3
ﾚｲｱｳﾄ2
350
26
  0
DICTIONARY
  5
17
102
{ACAD_REACTORS
330
C
102
}
330
C
100
AcDbDictionary
281
     1
  3
Standard
350
18
  0
DICTIONARY
  5
19
102
{ACAD_REACTORS
330
C
102
}
330
C
100
AcDbDictionary
281
     1
  0
ACDBDICTIONARYWDFLT
  5
E
102
{ACAD_REACTORS
330
C
102
}
330
C
100
AcDbDictionary
281
     1
  3
Normal
350
F
100
AcDbDictionaryWithDefault
340
F
  0
LAYOUT
  5
22
102
{ACAD_REACTORS
330
1A
102
}
330
1A
100
AcDbPlotSettings
  1

  2
DWF ePlot.pc3
  4
ANSI_A_(8.50_x_11.00_Inches)
  6

 40
5.793749809265137
 41
17.79375076293945
 42
5.793746948242188
 43
17.79376220703125
 44
215.8999938964844
 45
279.3999938964844
 46
0.0
 47
0.0
 48
0.0
 49
0.0
140
0.0
141
0.0
142
1.0
143
39.26051453979704
 70
 11952
 72
     0
 73
     1
 74
     0
  7
acad.ctb
 75
     0
147
0.0254708837039396
148
-1793.922354682663
149
1.490346453088415
100
AcDbLayout
  1
Model
 70
     1
 71
     0
 10
-1000.0
 20
-750.0
 11
1000.0
 21
750.0
 12
0.0
 22
0.0
 32
0.0
 14
-1000.0
 24
-750.0
 34
0.0
 15
1000.0
 25
750.0
 35
0.0
146
0.0
 13
0.0
 23
0.0
 33
0.0
 16
1.0
 26
0.0
 36
0.0
 17
0.0
 27
1.0
 37
0.0
 76
     0
330
1F
  0
LAYOUT
  5
1E
102
{ACAD_REACTORS
330
1A
102
}
330
1A
100
AcDbPlotSettings
  1

  2
RICOH IPSiO NX700
  4

  6

 40
0.0
 41
0.0
 42
0.0
 43
0.0
 44
0.0
 45
0.0
 46
0.0
 47
0.0
 48
0.0
 49
0.0
140
0.0
141
0.0
142
1.0
143
1.0
 70
   688
 72
     0
 73
     0
 74
     5
  7
acad.ctb
 75
    16
147
1.0
148
0.0
149
0.0
100
AcDbLayout
  1
ﾚｲｱｳﾄ1
 70
     1
 71
     1
 10
-1000.0
 20
-750.0
 11
1000.0
 21
750.0
 12
0.0
 22
0.0
 32
0.0
 14
-1000.0
 24
-750.0
 34
0.0
 15
1000.0
 25
750.0
 35
0.0
146
0.0
 13
0.0
 23
0.0
 33
0.0
 16
1.0
 26
0.0
 36
0.0
 17
0.0
 27
1.0
 37
0.0
 76
     0
330
1B
  0
LAYOUT
  5
26
102
{ACAD_REACTORS
330
1A
102
}
330
1A
100
AcDbPlotSettings
  1

  2
RICOH IPSiO NX700
  4

  6

 40
0.0
 41
0.0
 42
0.0
 43
0.0
 44
0.0
 45
0.0
 46
0.0
 47
0.0
 48
0.0
 49
0.0
140
0.0
141
0.0
142
1.0
143
1.0
 70
   688
 72
     0
 73
     0
 74
     5
  7
acad.ctb
 75
    16
147
1.0
148
0.0
149
0.0
100
AcDbLayout
  1
ﾚｲｱｳﾄ2
 70
     1
 71
     2
 10
0.0
 20
0.0
 11
12.0
 21
9.0
 12
0.0
 22
0.0
 32
0.0
 14
0.0
 24
0.0
 34
0.0
 15
0.0
 25
0.0
 35
0.0
146
0.0
 13
0.0
 23
0.0
 33
0.0
 16
1.0
 26
0.0
 36
0.0
 17
0.0
 27
1.0
 37
0.0
 76
     0
330
23
  0
MLINESTYLE
  5
18
102
{ACAD_REACTORS
330
17
102
}
330
17
100
AcDbMlineStyle
  2
STANDARD
 70
     0
  3

 62
   256
 51
90.0
 52
90.0
 71
     2
 49
0.5
 62
   256
  6
BYLAYER
 49
-0.5
 62
   256
  6
BYLAYER
  0
ACDBPLACEHOLDER
  5
F
102
{ACAD_REACTORS
330
E
102
}
330
E
  0
ENDSEC
  0
EOF
