  0
SECTION
  2
HEADER
  9
$ACADVER
  1
AC1015
  9
$ACADMAINTVER
 70
     6
  9
$DWGCODEPAGE
  3
ANSI_932
  9
$INSBASE
 10
0.0
 20
0.0
 30
0.0
  9
$EXTMIN
 10
-1000.0
 20
-750.0
 30
0.0
  9
$EXTMAX
 10
1000.0
 20
750.0
 30
0.0
  9
$LIMMIN
 10
-1000.0
 20
-750.0
  9
$LIMMAX
 10
1000.0
 20
750.0
  9
$ORTHOMODE
 70
     0
  9
$REGENMODE
 70
     1
  9
$FILLMODE
 70
     1
  9
$QTEXTMODE
 70
     0
  9
$MIRRTEXT
 70
     1
  9
$LTSCALE
 40
4.0
  9
$ATTMODE
 70
     1
  9
$TEXTSIZE
 40
2.5
  9
$TRACEWID
 40
1.0
  9
$TEXTSTYLE
  7
Standard
  9
$CLAYER
  8
0
  9
$CELTYPE
  6
ByLayer
  9
$CECOLOR
 62
   256
  9
$CELTSCALE
 40
1.0
  9
$DISPSILH
 70
     0
  9
$DIMSCALE
 40
1.0
  9
$DIMASZ
 40
4.0
  9
$DIMEXO
 40
1.0
  9
$DIMDLI
 40
3.75
  9
$DIMRND
 40
0.1
  9
$DIMDLE
 40
0.0
  9
$DIMEXE
 40
1.0
  9
$DIMTP
 40
0.0
  9
$DIMTM
 40
0.0
  9
$DIMTXT
 40
2.5
  9
$DIMCEN
 40
2.5
  9
$DIMTSZ
 40
0.0
  9
$DIMTOL
 70
     0
  9
$DIMLIM
 70
     0
  9
$DIMTIH
 70
     0
  9
$DIMTOH
 70
     0
  9
$DIMSE1
 70
     0
  9
$DIMSE2
 70
     0
  9
$DIMTAD
 70
     1
  9
$DIMZIN
 70
     8
  9
$DIMBLK
  1

  9
$DIMASO
 70
     1
  9
$DIMSHO
 70
     1
  9
$DIMPOST
  1

  9
$DIMAPOST
  1

  9
$DIMALT
 70
     0
  9
$DIMALTD
 70
     3
  9
$DIMALTF
 40
0.03937007874016
  9
$DIMLFAC
 40
1.0
  9
$DIMTOFL
 70
     1
  9
$DIMTVP
 40
0.0
  9
$DIMTIX
 70
     0
  9
$DIMSOXD
 70
     0
  9
$DIMSAH
 70
     1
  9
$DIMBLK1
  1

  9
$DIMBLK2
  1

  9
$DIMSTYLE
  2
ISO-25
  9
$DIMCLRD
 70
     0
  9
$DIMCLRE
 70
     0
  9
$DIMCLRT
 70
     0
  9
$DIMTFAC
 40
1.0
  9
$DIMGAP
 40
0.5
  9
$DIMJUST
 70
     0
  9
$DIMSD1
 70
     0
  9
$DIMSD2
 70
     0
  9
$DIMTOLJ
 70
     0
  9
$DIMTZIN
 70
     8
  9
$DIMALTZ
 70
     0
  9
$DIMALTTZ
 70
     0
  9
$DIMUPT
 70
     1
  9
$DIMDEC
 70
     1
  9
$DIMTDEC
 70
     2
  9
$DIMALTU
 70
     2
  9
$DIMALTTD
 70
     3
  9
$DIMTXSTY
  7
Standard
  9
$DIMAUNIT
 70
     0
  9
$DIMADEC
 70
     1
  9
$DIMALTRND
 40
0.0
  9
$DIMAZIN
 70
     2
  9
$DIMDSEP
 70
    46
  9
$DIMATFIT
 70
     0
  9
$DIMFRAC
 70
     0
  9
$DIMLDRBLK
  1

  9
$DIMLUNIT
 70
     2
  9
$DIMLWD
 70
    -2
  9
$DIMLWE
 70
    -2
  9
$DIMTMOVE
 70
     0
  9
$LUNITS
 70
     2
  9
$LUPREC
 70
     4
  9
$SKETCHINC
 40
1.0
  9
$FILLETRAD
 40
10.0
  9
$AUNITS
 70
     0
  9
$AUPREC
 70
     0
  9
$MENU
  1
.
  9
$ELEVATION
 40
0.0
  9
$PELEVATION
 40
0.0
  9
$THICKNESS
 40
0.0
  9
$LIMCHECK
 70
     0
  9
$CHAMFERA
 40
10.0
  9
$CHAMFERB
 40
10.0
  9
$CHAMFERC
 40
20.0
  9
$CHAMFERD
 40
0.0
  9
$SKPOLY
 70
     0
  9
$TDCREATE
 40
2455091.0
  9
$TDUCREATE
 40
2451562.87528772
  9
$TDUPDATE
 40
2455505.0
  9
$TDUUPDATE
 40
2452026.917654526
  9
$TDINDWG
 40
0.0010008681
  9
$TDUSRTIMER
 40
0.0009680671
  9
$USRTIMER
 70
     1
  9
$ANGBASE
 50
0.0
  9
$ANGDIR
 70
     0
  9
$PDMODE
 70
     0
  9
$PDSIZE
 40
0.0
  9
$PLINEWID
 40
0.0
  9
$SPLFRAME
 70
     0
  9
$SPLINETYPE
 70
     6
  9
$SPLINESEGS
 70
     8
  9
$HANDSEED
  5
410
  9
$SURFTAB1
 70
     6
  9
$SURFTAB2
 70
     6
  9
$SURFTYPE
 70
     6
  9
$SURFU
 70
     6
  9
$SURFV
 70
     6
  9
$UCSBASE
  2

  9
$UCSNAME
  2

  9
$UCSORG
 10
0.0
 20
0.0
 30
0.0
  9
$UCSXDIR
 10
1.0
 20
0.0
 30
0.0
  9
$UCSYDIR
 10
0.0
 20
1.0
 30
0.0
  9
$UCSORTHOREF
  2

  9
$UCSORTHOVIEW
 70
     0
  9
$UCSORGTOP
 10
0.0
 20
0.0
 30
0.0
  9
$UCSORGBOTTOM
 10
0.0
 20
0.0
 30
0.0
  9
$UCSORGLEFT
 10
0.0
 20
0.0
 30
0.0
  9
$UCSORGRIGHT
 10
0.0
 20
0.0
 30
0.0
  9
$UCSORGFRONT
 10
0.0
 20
0.0
 30
0.0
  9
$UCSORGBACK
 10
0.0
 20
0.0
 30
0.0
  9
$PUCSBASE
  2

  9
$PUCSNAME
  2

  9
$PUCSORG
 10
0.0
 20
0.0
 30
0.0
  9
$PUCSXDIR
 10
1.0
 20
0.0
 30
0.0
  9
$PUCSYDIR
 10
0.0
 20
1.0
 30
0.0
  9
$PUCSORTHOREF
  2

  9
$PUCSORTHOVIEW
 70
     0
  9
$PUCSORGTOP
 10
0.0
 20
0.0
 30
0.0
  9
$PUCSORGBOTTOM
 10
0.0
 20
0.0
 30
0.0
  9
$PUCSORGLEFT
 10
0.0
 20
0.0
 30
0.0
  9
$PUCSORGRIGHT
 10
0.0
 20
0.0
 30
0.0
  9
$PUCSORGFRONT
 10
0.0
 20
0.0
 30
0.0
  9
$PUCSORGBACK
 10
0.0
 20
0.0
 30
0.0
  9
$USERI1
 70
     0
  9
$USERI2
 70
     0
  9
$USERI3
 70
     0
  9
$USERI4
 70
     0
  9
$USERI5
 70
     0
  9
$USERR1
 40
0.0
  9
$USERR2
 40
0.0
  9
$USERR3
 40
0.0
  9
$USERR4
 40
0.0
  9
$USERR5
 40
0.0
  9
$WORLDVIEW
 70
     1
  9
$SHADEDGE
 70
     3
  9
$SHADEDIF
 70
    70
  9
$TILEMODE
 70
     1
  9
$MAXACTVP
 70
    64
  9
$PINSBASE
 10
0.0
 20
0.0
 30
0.0
  9
$PLIMCHECK
 70
     0
  9
$PEXTMIN
 10
-1000.0
 20
-750.0
 30
0.0
  9
$PEXTMAX
 10
1000.0
 20
750.0
 30
0.0
  9
$PLIMMIN
 10
-1000.0
 20
-750.0
  9
$PLIMMAX
 10
1000.0
 20
750.0
  9
$UNITMODE
 70
     0
  9
$VISRETAIN
 70
     1
  9
$PLINEGEN
 70
     0
  9
$PSLTSCALE
 70
     1
  9
$TREEDEPTH
 70
  3020
  9
$CMLSTYLE
  2
Standard
  9
$CMLJUST
 70
     0
  9
$CMLSCALE
 40
20.0
  9
$PROXYGRAPHICS
 70
     1
  9
$MEASUREMENT
 70
     1
  9
$CELWEIGHT
370
    -1
  9
$ENDCAPS
280
     0
  9
$JOINSTYLE
280
     0
  9
$LWDISPLAY
290
     0
  9
$INSUNITS
 70
     4
  9
$HYPERLINKBASE
  1

  9
$STYLESHEET
  1

  9
$XEDIT
290
     1
  9
$CEPSNTYPE
380
     0
  9
$PSTYLEMODE
290
     1
  9
$FINGERPRINTGUID
  2
{B6423330-CE35-11D3-AA43-00E0292263AD}
  9
$VERSIONGUID
  2
{EAA0F794-BAE8-4B09-85E0-65C527BE2B8E}
  9
$EXTNAMES
290
     1
  9
$PSVPSCALE
 40
0.0
  9
$OLESTARTUP
290
     0
  0
ENDSEC
  0
SECTION
  2
CLASSES
  0
CLASS
  1
ACDBDICTIONARYWDFLT
  2
AcDbDictionaryWithDefault
  3
ObjectDBX Classes
 90
        0
280
     0
281
     0
  0
CLASS
  1
ACDBPLACEHOLDER
  2
AcDbPlaceHolder
  3
ObjectDBX Classes
 90
        0
280
     0
281
     0
  0
CLASS
  1
LAYOUT
  2
AcDbLayout
  3
ObjectDBX Classes
 90
        0
280
     0
281
     0
  0
ENDSEC
  0
SECTION
  2
TABLES
  0
TABLE
  2
VPORT
  5
8
330
0
100
AcDbSymbolTable
 70
     3
  0
VPORT
  5
30
330
8
100
AcDbSymbolTableRecord
100
AcDbViewportTableRecord
  2
*Active
 70
     0
 10
0.0
 20
0.0
 11
1.0
 21
1.0
 12
259.0560661764706
 22
148.5
 13
0.0
 23
0.0
 14
10.0
 24
10.0
 15
10.0
 25
10.0
 16
0.0
 26
0.0
 36
1.0
 17
0.0
 27
0.0
 37
0.0
 40
297.1173501144164
 41
1.268382352941176
 42
50.0
 43
0.0
 44
0.0
 50
0.0
 51
0.0
 71
     0
 72
   100
 73
     1
 74
     3
 75
     0
 76
     0
 77
     0
 78
     0
281
     0
 65
     1
110
0.0
120
0.0
130
0.0
111
1.0
121
0.0
131
0.0
112
0.0
122
1.0
132
0.0
 79
     0
146
0.0
  0
ENDTAB
  0
TABLE
  2
LTYPE
  5
5
330
0
100
AcDbSymbolTable
 70
    26
  0
LTYPE
  5
14
330
5
100
AcDbSymbolTableRecord
100
AcDbLinetypeTableRecord
  2
ByBlock
 70
     0
  3

 72
    65
 73
     0
 40
0.0
  0
LTYPE
  5
15
330
5
100
AcDbSymbolTableRecord
100
AcDbLinetypeTableRecord
  2
ByLayer
 70
     0
  3

 72
    65
 73
     0
 40
0.0
  0
LTYPE
  5
16
330
5
100
AcDbSymbolTableRecord
100
AcDbLinetypeTableRecord
  2
Continuous
 70
     0
  3
Solid line
 72
    65
 73
     0
 40
0.0
  0
LTYPE
  5
37
330
5
100
AcDbSymbolTableRecord
100
AcDbLinetypeTableRecord
  2
BORDER
 70
     0
  3
 __ __ . __ __ . __ __ . __ __ . __ __ . __ __
 72
    65
 73
     6
 40
1.75
 49
0.5
 74
     0
 49
-0.25
 74
     0
 49
0.5
 74
     0
 49
-0.25
 74
     0
 49
0.0
 74
     0
 49
-0.25
 74
     0
  0
LTYPE
  5
38
330
5
100
AcDbSymbolTableRecord
100
AcDbLinetypeTableRecord
  2
BORDER2
 70
     0
  3
__.__.__.__.__.__.__.__.__.__.__.__.__.__.__
 72
    65
 73
     6
 40
0.875
 49
0.25
 74
     0
 49
-0.125
 74
     0
 49
0.25
 74
     0
 49
-0.125
 74
     0
 49
0.0
 74
     0
 49
-0.125
 74
     0
  0
LTYPE
  5
39
330
5
100
AcDbSymbolTableRecord
100
AcDbLinetypeTableRecord
  2
BORDERX2
 70
     0
  3
____  ____  .  ____  ____  .  ____  ____  .
 72
    65
 73
     6
 40
3.5
 49
1.0
 74
     0
 49
-0.5
 74
     0
 49
1.0
 74
     0
 49
-0.5
 74
     0
 49
0.0
 74
     0
 49
-0.5
 74
     0
  0
LTYPE
  5
3A
330
5
100
AcDbSymbolTableRecord
100
AcDbLinetypeTableRecord
  2
CENTER
 70
     0
  3
____ _ ____ _ ____ _ ____ _ ____ _ ____ _ ____
 72
    65
 73
     4
 40
2.0
 49
1.25
 74
     0
 49
-0.25
 74
     0
 49
0.25
 74
     0
 49
-0.25
 74
     0
  0
LTYPE
  5
3B
330
5
100
AcDbSymbolTableRecord
100
AcDbLinetypeTableRecord
  2
CENTER2
 70
     0
  3
___ _ ___ _ ___ _ ___ _ ___ _ ___ _ ___ _ ___ 
 72
    65
 73
     4
 40
1.125
 49
0.75
 74
     0
 49
-0.125
 74
     0
 49
0.125
 74
     0
 49
-0.125
 74
     0
  0
LTYPE
  5
3C
330
5
100
AcDbSymbolTableRecord
100
AcDbLinetypeTableRecord
  2
CENTERX2
 70
     0
  3
________  __  ________  __  ________  __
 72
    65
 73
     4
 40
4.0
 49
2.5
 74
     0
 49
-0.5
 74
     0
 49
0.5
 74
     0
 49
-0.5
 74
     0
  0
LTYPE
  5
3D
330
5
100
AcDbSymbolTableRecord
100
AcDbLinetypeTableRecord
  2
DASHDOT
 70
     0
  3
__ . __ . __ . __ . __ . __ . __ . __ . __ .
 72
    65
 73
     4
 40
1.0
 49
0.5
 74
     0
 49
-0.25
 74
     0
 49
0.0
 74
     0
 49
-0.25
 74
     0
  0
LTYPE
  5
3E
330
5
100
AcDbSymbolTableRecord
100
AcDbLinetypeTableRecord
  2
DASHDOT2
 70
     0
  3
_._._._._._._._._._._._._._._._._._._._._._._.
 72
    65
 73
     4
 40
0.5
 49
0.25
 74
     0
 49
-0.125
 74
     0
 49
0.0
 74
     0
 49
-0.125
 74
     0
  0
LTYPE
  5
3F
330
5
100
AcDbSymbolTableRecord
100
AcDbLinetypeTableRecord
  2
DASHDOTX2
 70
     0
  3
____  .  ____  .  ____  .  ____  .  ____  .
 72
    65
 73
     4
 40
2.0
 49
1.0
 74
     0
 49
-0.5
 74
     0
 49
0.0
 74
     0
 49
-0.5
 74
     0
  0
LTYPE
  5
40
330
5
100
AcDbSymbolTableRecord
100
AcDbLinetypeTableRecord
  2
DASHED
 70
     0
  3
__ __ __ __ __ __ __ __ __ __ __ __ __ __ __
 72
    65
 73
     2
 40
0.75
 49
0.5
 74
     0
 49
-0.25
 74
     0
  0
LTYPE
  5
41
330
5
100
AcDbSymbolTableRecord
100
AcDbLinetypeTableRecord
  2
DASHED2
 70
     0
  3
_ _ _ _ _ _ _ _ _ _ _ _ _ _ _ _ _ _ _ _ _ _ _
 72
    65
 73
     2
 40
0.375
 49
0.25
 74
     0
 49
-0.125
 74
     0
  0
LTYPE
  5
42
330
5
100
AcDbSymbolTableRecord
100
AcDbLinetypeTableRecord
  2
DASHEDX2
 70
     0
  3
____  ____  ____  ____  ____  ____  ____  ____
 72
    65
 73
     2
 40
1.5
 49
1.0
 74
     0
 49
-0.5
 74
     0
  0
LTYPE
  5
43
330
5
100
AcDbSymbolTableRecord
100
AcDbLinetypeTableRecord
  2
DIVIDE
 70
     0
  3
____ . . ____ . . ____ . . ____ . . ____ . .
 72
    65
 73
     6
 40
1.25
 49
0.5
 74
     0
 49
-0.25
 74
     0
 49
0.0
 74
     0
 49
-0.25
 74
     0
 49
0.0
 74
     0
 49
-0.25
 74
     0
  0
LTYPE
  5
44
330
5
100
AcDbSymbolTableRecord
100
AcDbLinetypeTableRecord
  2
DIVIDE2
 70
     0
  3
__..__..__..__..__..__..__..__..__..__..__..__
 72
    65
 73
     6
 40
0.625
 49
0.25
 74
     0
 49
-0.125
 74
     0
 49
0.0
 74
     0
 49
-0.125
 74
     0
 49
0.0
 74
     0
 49
-0.125
 74
     0
  0
LTYPE
  5
45
330
5
100
AcDbSymbolTableRecord
100
AcDbLinetypeTableRecord
  2
DIVIDEX2
 70
     0
  3
________  .  .  ________  .  .  ________  .  .
 72
    65
 73
     6
 40
2.5
 49
1.0
 74
     0
 49
-0.5
 74
     0
 49
0.0
 74
     0
 49
-0.5
 74
     0
 49
0.0
 74
     0
 49
-0.5
 74
     0
  0
LTYPE
  5
46
330
5
100
AcDbSymbolTableRecord
100
AcDbLinetypeTableRecord
  2
DOT
 70
     0
  3
. . . . . . . . . . . . . . . . . . . . . . .
 72
    65
 73
     2
 40
0.25
 49
0.0
 74
     0
 49
-0.25
 74
     0
  0
LTYPE
  5
47
330
5
100
AcDbSymbolTableRecord
100
AcDbLinetypeTableRecord
  2
DOT2
 70
     0
  3
..............................................
 72
    65
 73
     2
 40
0.125
 49
0.0
 74
     0
 49
-0.125
 74
     0
  0
LTYPE
  5
48
330
5
100
AcDbSymbolTableRecord
100
AcDbLinetypeTableRecord
  2
DOTX2
 70
     0
  3
.  .  .  .  .  .  .  .  .  .  .  .  .  .  .  .
 72
    65
 73
     2
 40
0.5
 49
0.0
 74
     0
 49
-0.5
 74
     0
  0
LTYPE
  5
49
330
5
100
AcDbSymbolTableRecord
100
AcDbLinetypeTableRecord
  2
HIDDEN
 70
     0
  3
__ __ __ __ __ __ __ __ __ __ __ __ __ __ __
 72
    65
 73
     2
 40
0.375
 49
0.25
 74
     0
 49
-0.125
 74
     0
  0
LTYPE
  5
4A
330
5
100
AcDbSymbolTableRecord
100
AcDbLinetypeTableRecord
  2
HIDDEN2
 70
     0
  3
_ _ _ _ _ _ _ _ _ _ _ _ _ _ _ _ _ _ _ _ _ _ _
 72
    65
 73
     2
 40
0.1875
 49
0.125
 74
     0
 49
-0.0625
 74
     0
  0
LTYPE
  5
4B
330
5
100
AcDbSymbolTableRecord
100
AcDbLinetypeTableRecord
  2
HIDDENX2
 70
     0
  3
____ ____ ____ ____ ____ ____ ____ ____ ____
 72
    65
 73
     2
 40
0.75
 49
0.5
 74
     0
 49
-0.25
 74
     0
  0
LTYPE
  5
4C
330
5
100
AcDbSymbolTableRecord
100
AcDbLinetypeTableRecord
  2
PHANTOM
 70
     0
  3
______  __  __  ______  __  __  ______  __
 72
    65
 73
     6
 40
2.5
 49
1.25
 74
     0
 49
-0.25
 74
     0
 49
0.25
 74
     0
 49
-0.25
 74
     0
 49
0.25
 74
     0
 49
-0.25
 74
     0
  0
LTYPE
  5
4D
330
5
100
AcDbSymbolTableRecord
100
AcDbLinetypeTableRecord
  2
PHANTOM2
 70
     0
  3
___ _ _ ___ _ _ ___ _ _ ___ _ _ ___ _ _ ___ _
 72
    65
 73
     6
 40
1.25
 49
0.625
 74
     0
 49
-0.125
 74
     0
 49
0.125
 74
     0
 49
-0.125
 74
     0
 49
0.125
 74
     0
 49
-0.125
 74
     0
  0
LTYPE
  5
4E
330
5
100
AcDbSymbolTableRecord
100
AcDbLinetypeTableRecord
  2
PHANTOMX2
 70
     0
  3
____________    ____    ____    ____________
 72
    65
 73
     6
 40
5.0
 49
2.5
 74
     0
 49
-0.5
 74
     0
 49
0.5
 74
     0
 49
-0.5
 74
     0
 49
0.5
 74
     0
 49
-0.5
 74
     0
  0
LTYPE
  5
4F
330
5
100
AcDbSymbolTableRecord
100
AcDbLinetypeTableRecord
  2
CONTINUOUS2
 70
     0
  3
Solid line
 72
    65
 73
     0
 40
0.0
  0
ENDTAB
  0
TABLE
  2
LAYER
  5
2
330
0
100
AcDbSymbolTable
 70
   258
  0
LAYER
  5
10
330
2
100
AcDbSymbolTableRecord
100
AcDbLayerTableRecord
  2
0
 70
     0
 62
     7
  6
Continuous
370
    -3
390
F
  0
LAYER
  5
50
330
2
100
AcDbSymbolTableRecord
100
AcDbLayerTableRecord
  2
LAYER-001
 70
     0
 62
     7
  6
Continuous
370
    -3
390
F
  0
LAYER
  5
51
330
2
100
AcDbSymbolTableRecord
100
AcDbLayerTableRecord
  2
LAYER-002
 70
     0
 62
     7
  6
Continuous
370
    -3
390
F
  0
LAYER
  5
52
330
2
100
AcDbSymbolTableRecord
100
AcDbLayerTableRecord
  2
LAYER-003
 70
     0
 62
     7
  6
Continuous
370
    -3
390
F
  0
LAYER
  5
53
330
2
100
AcDbSymbolTableRecord
100
AcDbLayerTableRecord
  2
LAYER-004
 70
     0
 62
     7
  6
Continuous
370
    -3
390
F
  0
LAYER
  5
54
330
2
100
AcDbSymbolTableRecord
100
AcDbLayerTableRecord
  2
LAYER-005
 70
     0
 62
     7
  6
Continuous
370
    -3
390
F
  0
LAYER
  5
55
330
2
100
AcDbSymbolTableRecord
100
AcDbLayerTableRecord
  2
LAYER-006
 70
     0
 62
     7
  6
Continuous
370
    -3
390
F
  0
LAYER
  5
56
330
2
100
AcDbSymbolTableRecord
100
AcDbLayerTableRecord
  2
LAYER-007
 70
     0
 62
     7
  6
Continuous
370
    -3
390
F
  0
LAYER
  5
57
330
2
100
AcDbSymbolTableRecord
100
AcDbLayerTableRecord
  2
LAYER-008
 70
     0
 62
     7
  6
Continuous
370
    -3
390
F
  0
LAYER
  5
58
330
2
100
AcDbSymbolTableRecord
100
AcDbLayerTableRecord
  2
LAYER-009
 70
     0
 62
     7
  6
Continuous
370
    -3
390
F
  0
LAYER
  5
59
330
2
100
AcDbSymbolTableRecord
100
AcDbLayerTableRecord
  2
LAYER-010
 70
     0
 62
     7
  6
Continuous
370
    -3
390
F
  0
LAYER
  5
5A
330
2
100
AcDbSymbolTableRecord
100
AcDbLayerTableRecord
  2
LAYER-011
 70
     0
 62
     7
  6
Continuous
370
    -3
390
F
  0
LAYER
  5
5B
330
2
100
AcDbSymbolTableRecord
100
AcDbLayerTableRecord
  2
LAYER-012
 70
     0
 62
     7
  6
Continuous
370
    -3
390
F
  0
LAYER
  5
5C
330
2
100
AcDbSymbolTableRecord
100
AcDbLayerTableRecord
  2
LAYER-013
 70
     0
 62
     7
  6
Continuous
370
    -3
390
F
  0
LAYER
  5
5D
330
2
100
AcDbSymbolTableRecord
100
AcDbLayerTableRecord
  2
LAYER-014
 70
     0
 62
     7
  6
Continuous
370
    -3
390
F
  0
LAYER
  5
5E
330
2
100
AcDbSymbolTableRecord
100
AcDbLayerTableRecord
  2
LAYER-015
 70
     0
 62
    -7
  6
Continuous
370
    -3
390
F
  0
LAYER
  5
5F
330
2
100
AcDbSymbolTableRecord
100
AcDbLayerTableRecord
  2
LAYER-016
 70
     0
 62
     4
  6
Continuous
370
    -3
390
F
  0
LAYER
  5
60
330
2
100
AcDbSymbolTableRecord
100
AcDbLayerTableRecord
  2
LAYER-017
 70
     0
 62
     7
  6
Continuous
370
    -3
390
F
  0
LAYER
  5
61
330
2
100
AcDbSymbolTableRecord
100
AcDbLayerTableRecord
  2
LAYER-018
 70
     0
 62
     2
  6
Continuous
370
    -3
390
F
  0
LAYER
  5
62
330
2
100
AcDbSymbolTableRecord
100
AcDbLayerTableRecord
  2
LAYER-019
 70
     0
 62
     3
  6
Continuous
370
    -3
390
F
  0
LAYER
  5
63
330
2
100
AcDbSymbolTableRecord
100
AcDbLayerTableRecord
  2
LAYER-020
 70
     0
 62
     2
  6
Continuous
370
    -3
390
F
  0
LAYER
  5
64
330
2
100
AcDbSymbolTableRecord
100
AcDbLayerTableRecord
  2
LAYER-021
 70
     0
 62
     7
  6
Continuous
370
    -3
390
F
  0
LAYER
  5
65
330
2
100
AcDbSymbolTableRecord
100
AcDbLayerTableRecord
  2
LAYER-022
 70
     0
 62
     4
  6
Continuous
370
    -3
390
F
  0
LAYER
  5
66
330
2
100
AcDbSymbolTableRecord
100
AcDbLayerTableRecord
  2
LAYER-023
 70
     0
 62
     4
  6
Continuous
370
    -3
390
F
  0
LAYER
  5
67
330
2
100
AcDbSymbolTableRecord
100
AcDbLayerTableRecord
  2
LAYER-024
 70
     0
 62
     7
  6
Continuous
370
    -3
390
F
  0
LAYER
  5
68
330
2
100
AcDbSymbolTableRecord
100
AcDbLayerTableRecord
  2
LAYER-025
 70
     0
 62
     7
  6
Continuous
370
    -3
390
F
  0
LAYER
  5
69
330
2
100
AcDbSymbolTableRecord
100
AcDbLayerTableRecord
  2
LAYER-026
 70
     0
 62
    -7
  6
Continuous
370
    -3
390
F
  0
LAYER
  5
6A
330
2
100
AcDbSymbolTableRecord
100
AcDbLayerTableRecord
  2
LAYER-027
 70
     0
 62
     7
  6
Continuous
370
    -3
390
F
  0
LAYER
  5
6B
330
2
100
AcDbSymbolTableRecord
100
AcDbLayerTableRecord
  2
LAYER-028
 70
     0
 62
     7
  6
Continuous
370
    -3
390
F
  0
LAYER
  5
6C
330
2
100
AcDbSymbolTableRecord
100
AcDbLayerTableRecord
  2
LAYER-029
 70
     0
 62
     7
  6
Continuous
370
    -3
390
F
  0
LAYER
  5
6D
330
2
100
AcDbSymbolTableRecord
100
AcDbLayerTableRecord
  2
LAYER-030
 70
     0
 62
     2
  6
Continuous
370
    -3
390
F
  0
LAYER
  5
6E
330
2
100
AcDbSymbolTableRecord
100
AcDbLayerTableRecord
  2
LAYER-031
 70
     0
 62
     7
  6
Continuous
370
    -3
390
F
  0
LAYER
  5
6F
330
2
100
AcDbSymbolTableRecord
100
AcDbLayerTableRecord
  2
LAYER-032
 70
     0
 62
     2
  6
Continuous
370
    -3
390
F
  0
LAYER
  5
70
330
2
100
AcDbSymbolTableRecord
100
AcDbLayerTableRecord
  2
LAYER-033
 70
     0
 62
     7
  6
Continuous
370
    -3
390
F
  0
LAYER
  5
71
330
2
100
AcDbSymbolTableRecord
100
AcDbLayerTableRecord
  2
LAYER-034
 70
     0
 62
     7
  6
Continuous
370
    -3
390
F
  0
LAYER
  5
72
330
2
100
AcDbSymbolTableRecord
100
AcDbLayerTableRecord
  2
LAYER-035
 70
     0
 62
     3
  6
Continuous
370
    -3
390
F
  0
LAYER
  5
73
330
2
100
AcDbSymbolTableRecord
100
AcDbLayerTableRecord
  2
LAYER-036
 70
     0
 62
     2
  6
Continuous
370
    -3
390
F
  0
LAYER
  5
74
330
2
100
AcDbSymbolTableRecord
100
AcDbLayerTableRecord
  2
LAYER-037
 70
     0
 62
     7
  6
Continuous
370
    -3
390
F
  0
LAYER
  5
75
330
2
100
AcDbSymbolTableRecord
100
AcDbLayerTableRecord
  2
LAYER-038
 70
     0
 62
     7
  6
Continuous
370
    -3
390
F
  0
LAYER
  5
76
330
2
100
AcDbSymbolTableRecord
100
AcDbLayerTableRecord
  2
LAYER-039
 70
     0
 62
     7
  6
Continuous
370
    -3
390
F
  0
LAYER
  5
77
330
2
100
AcDbSymbolTableRecord
100
AcDbLayerTableRecord
  2
LAYER-040
 70
     0
 62
     7
  6
Continuous
370
    -3
390
F
  0
LAYER
  5
78
330
2
100
AcDbSymbolTableRecord
100
AcDbLayerTableRecord
  2
LAYER-041
 70
     0
 62
     7
  6
Continuous
370
    -3
390
F
  0
LAYER
  5
79
330
2
100
AcDbSymbolTableRecord
100
AcDbLayerTableRecord
  2
LAYER-042
 70
     0
 62
     7
  6
Continuous
370
    -3
390
F
  0
LAYER
  5
7A
330
2
100
AcDbSymbolTableRecord
100
AcDbLayerTableRecord
  2
LAYER-043
 70
     0
 62
     7
  6
Continuous
370
    -3
390
F
  0
LAYER
  5
7B
330
2
100
AcDbSymbolTableRecord
100
AcDbLayerTableRecord
  2
LAYER-044
 70
     0
 62
     7
  6
Continuous
370
    -3
390
F
  0
LAYER
  5
7C
330
2
100
AcDbSymbolTableRecord
100
AcDbLayerTableRecord
  2
LAYER-045
 70
     0
 62
     7
  6
Continuous
370
    -3
390
F
  0
LAYER
  5
7D
330
2
100
AcDbSymbolTableRecord
100
AcDbLayerTableRecord
  2
LAYER-046
 70
     0
 62
     7
  6
Continuous
370
    -3
390
F
  0
LAYER
  5
7E
330
2
100
AcDbSymbolTableRecord
100
AcDbLayerTableRecord
  2
LAYER-047
 70
     0
 62
     7
  6
Continuous
370
    -3
390
F
  0
LAYER
  5
7F
330
2
100
AcDbSymbolTableRecord
100
AcDbLayerTableRecord
  2
LAYER-048
 70
     0
 62
     2
  6
Continuous
370
    -3
390
F
  0
LAYER
  5
80
330
2
100
AcDbSymbolTableRecord
100
AcDbLayerTableRecord
  2
LAYER-049
 70
     0
 62
     3
  6
Continuous
370
    -3
390
F
  0
LAYER
  5
81
330
2
100
AcDbSymbolTableRecord
100
AcDbLayerTableRecord
  2
LAYER-050
 70
     0
 62
     7
  6
Continuous
370
    -3
390
F
  0
LAYER
  5
82
330
2
100
AcDbSymbolTableRecord
100
AcDbLayerTableRecord
  2
LAYER-051
 70
     0
 62
     2
  6
Continuous
370
    -3
390
F
  0
LAYER
  5
83
330
2
100
AcDbSymbolTableRecord
100
AcDbLayerTableRecord
  2
LAYER-052
 70
     0
 62
     7
  6
Continuous
370
    -3
390
F
  0
LAYER
  5
84
330
2
100
AcDbSymbolTableRecord
100
AcDbLayerTableRecord
  2
LAYER-053
 70
     0
 62
     7
  6
Continuous
370
    -3
390
F
  0
LAYER
  5
85
330
2
100
AcDbSymbolTableRecord
100
AcDbLayerTableRecord
  2
LAYER-054
 70
     0
 62
     7
  6
Continuous
370
    -3
390
F
  0
LAYER
  5
86
330
2
100
AcDbSymbolTableRecord
100
AcDbLayerTableRecord
  2
LAYER-055
 70
     0
 62
     7
  6
Continuous
370
    -3
390
F
  0
LAYER
  5
87
330
2
100
AcDbSymbolTableRecord
100
AcDbLayerTableRecord
  2
LAYER-056
 70
     0
 62
     7
  6
Continuous
370
    -3
390
F
  0
LAYER
  5
88
330
2
100
AcDbSymbolTableRecord
100
AcDbLayerTableRecord
  2
LAYER-057
 70
     0
 62
     7
  6
Continuous
370
    -3
390
F
  0
LAYER
  5
89
330
2
100
AcDbSymbolTableRecord
100
AcDbLayerTableRecord
  2
LAYER-058
 70
     0
 62
     7
  6
Continuous
370
    -3
390
F
  0
LAYER
  5
8A
330
2
100
AcDbSymbolTableRecord
100
AcDbLayerTableRecord
  2
LAYER-059
 70
     0
 62
     7
  6
Continuous
370
    -3
390
F
  0
LAYER
  5
8B
330
2
100
AcDbSymbolTableRecord
100
AcDbLayerTableRecord
  2
LAYER-060
 70
     0
 62
     7
  6
Continuous
370
    -3
390
F
  0
LAYER
  5
8C
330
2
100
AcDbSymbolTableRecord
100
AcDbLayerTableRecord
  2
LAYER-061
 70
     0
 62
     7
  6
Continuous
370
    -3
390
F
  0
LAYER
  5
8D
330
2
100
AcDbSymbolTableRecord
100
AcDbLayerTableRecord
  2
LAYER-062
 70
     0
 62
     7
  6
Continuous
370
    -3
390
F
  0
LAYER
  5
8E
330
2
100
AcDbSymbolTableRecord
100
AcDbLayerTableRecord
  2
LAYER-063
 70
     0
 62
     7
  6
Continuous
370
    -3
390
F
  0
LAYER
  5
8F
330
2
100
AcDbSymbolTableRecord
100
AcDbLayerTableRecord
  2
LAYER-064
 70
     0
 62
     2
  6
Continuous
370
    -3
390
F
  0
LAYER
  5
90
330
2
100
AcDbSymbolTableRecord
100
AcDbLayerTableRecord
  2
LAYER-065
 70
     0
 62
     7
  6
Continuous
370
    -3
390
F
  0
LAYER
  5
91
330
2
100
AcDbSymbolTableRecord
100
AcDbLayerTableRecord
  2
LAYER-066
 70
     0
 62
     2
  6
Continuous
370
    -3
390
F
  0
LAYER
  5
92
330
2
100
AcDbSymbolTableRecord
100
AcDbLayerTableRecord
  2
LAYER-067
 70
     0
 62
     2
  6
Continuous
370
    -3
390
F
  0
LAYER
  5
93
330
2
100
AcDbSymbolTableRecord
100
AcDbLayerTableRecord
  2
LAYER-068
 70
     0
 62
     7
  6
Continuous
370
    -3
390
F
  0
LAYER
  5
94
330
2
100
AcDbSymbolTableRecord
100
AcDbLayerTableRecord
  2
LAYER-069
 70
     0
 62
     7
  6
Continuous
370
    -3
390
F
  0
LAYER
  5
95
330
2
100
AcDbSymbolTableRecord
100
AcDbLayerTableRecord
  2
LAYER-070
 70
     0
 62
     7
  6
Continuous
370
    -3
390
F
  0
LAYER
  5
96
330
2
100
AcDbSymbolTableRecord
100
AcDbLayerTableRecord
  2
LAYER-071
 70
     0
 62
     7
  6
Continuous
370
    -3
390
F
  0
LAYER
  5
97
330
2
100
AcDbSymbolTableRecord
100
AcDbLayerTableRecord
  2
LAYER-072
 70
     0
 62
     7
  6
Continuous
370
    -3
390
F
  0
LAYER
  5
98
330
2
100
AcDbSymbolTableRecord
100
AcDbLayerTableRecord
  2
LAYER-073
 70
     0
 62
     7
  6
Continuous
370
    -3
390
F
  0
LAYER
  5
99
330
2
100
AcDbSymbolTableRecord
100
AcDbLayerTableRecord
  2
LAYER-074
 70
     0
 62
     7
  6
Continuous
370
    -3
390
F
  0
LAYER
  5
9A
330
2
100
AcDbSymbolTableRecord
100
AcDbLayerTableRecord
  2
LAYER-075
 70
     0
 62
     7
  6
Continuous
370
    -3
390
F
  0
LAYER
  5
9B
330
2
100
AcDbSymbolTableRecord
100
AcDbLayerTableRecord
  2
LAYER-076
 70
     0
 62
     7
  6
Continuous
370
    -3
390
F
  0
LAYER
  5
9C
330
2
100
AcDbSymbolTableRecord
100
AcDbLayerTableRecord
  2
LAYER-077
 70
     0
 62
     7
  6
Continuous
370
    -3
390
F
  0
LAYER
  5
9D
330
2
100
AcDbSymbolTableRecord
100
AcDbLayerTableRecord
  2
LAYER-078
 70
     0
 62
     7
  6
Continuous
370
    -3
390
F
  0
LAYER
  5
9E
330
2
100
AcDbSymbolTableRecord
100
AcDbLayerTableRecord
  2
LAYER-079
 70
     0
 62
     7
  6
Continuous
370
    -3
390
F
  0
LAYER
  5
9F
330
2
100
AcDbSymbolTableRecord
100
AcDbLayerTableRecord
  2
LAYER-080
 70
     0
 62
     2
  6
Continuous
370
    -3
390
F
  0
LAYER
  5
A0
330
2
100
AcDbSymbolTableRecord
100
AcDbLayerTableRecord
  2
LAYER-081
 70
     0
 62
     7
  6
Continuous
370
    -3
390
F
  0
LAYER
  5
A1
330
2
100
AcDbSymbolTableRecord
100
AcDbLayerTableRecord
  2
LAYER-082
 70
     0
 62
     7
  6
Continuous
370
    -3
390
F
  0
LAYER
  5
A2
330
2
100
AcDbSymbolTableRecord
100
AcDbLayerTableRecord
  2
LAYER-083
 70
     0
 62
     7
  6
Continuous
370
    -3
390
F
  0
LAYER
  5
A3
330
2
100
AcDbSymbolTableRecord
100
AcDbLayerTableRecord
  2
LAYER-084
 70
     0
 62
     7
  6
Continuous
370
    -3
390
F
  0
LAYER
  5
A4
330
2
100
AcDbSymbolTableRecord
100
AcDbLayerTableRecord
  2
LAYER-085
 70
     0
 62
     7
  6
Continuous
370
    -3
390
F
  0
LAYER
  5
A5
330
2
100
AcDbSymbolTableRecord
100
AcDbLayerTableRecord
  2
LAYER-086
 70
     0
 62
     7
  6
Continuous
370
    -3
390
F
  0
LAYER
  5
A6
330
2
100
AcDbSymbolTableRecord
100
AcDbLayerTableRecord
  2
LAYER-087
 70
     0
 62
     7
  6
Continuous
370
    -3
390
F
  0
LAYER
  5
A7
330
2
100
AcDbSymbolTableRecord
100
AcDbLayerTableRecord
  2
LAYER-088
 70
     0
 62
     7
  6
Continuous
370
    -3
390
F
  0
LAYER
  5
A8
330
2
100
AcDbSymbolTableRecord
100
AcDbLayerTableRecord
  2
LAYER-089
 70
     0
 62
     7
  6
Continuous
370
    -3
390
F
  0
LAYER
  5
A9
330
2
100
AcDbSymbolTableRecord
100
AcDbLayerTableRecord
  2
LAYER-090
 70
     0
 62
     7
  6
Continuous
370
    -3
390
F
  0
LAYER
  5
AA
330
2
100
AcDbSymbolTableRecord
100
AcDbLayerTableRecord
  2
LAYER-091
 70
     0
 62
     7
  6
Continuous
370
    -3
390
F
  0
LAYER
  5
AB
330
2
100
AcDbSymbolTableRecord
100
AcDbLayerTableRecord
  2
LAYER-092
 70
     0
 62
     7
  6
Continuous
370
    -3
390
F
  0
LAYER
  5
AC
330
2
100
AcDbSymbolTableRecord
100
AcDbLayerTableRecord
  2
LAYER-093
 70
     0
 62
     7
  6
Continuous
370
    -3
390
F
  0
LAYER
  5
AD
330
2
100
AcDbSymbolTableRecord
100
AcDbLayerTableRecord
  2
LAYER-094
 70
     0
 62
     7
  6
Continuous
370
    -3
390
F
  0
LAYER
  5
AE
330
2
100
AcDbSymbolTableRecord
100
AcDbLayerTableRecord
  2
LAYER-095
 70
     0
 62
     7
  6
Continuous
370
    -3
390
F
  0
LAYER
  5
AF
330
2
100
AcDbSymbolTableRecord
100
AcDbLayerTableRecord
  2
LAYER-096
 70
     0
 62
     7
  6
Continuous
370
    -3
390
F
  0
LAYER
  5
B0
330
2
100
AcDbSymbolTableRecord
100
AcDbLayerTableRecord
  2
LAYER-097
 70
     0
 62
     7
  6
Continuous
370
    -3
390
F
  0
LAYER
  5
B1
330
2
100
AcDbSymbolTableRecord
100
AcDbLayerTableRecord
  2
LAYER-098
 70
     0
 62
     7
  6
Continuous
370
    -3
390
F
  0
LAYER
  5
B2
330
2
100
AcDbSymbolTableRecord
100
AcDbLayerTableRecord
  2
LAYER-099
 70
     0
 62
     7
  6
Continuous
370
    -3
390
F
  0
LAYER
  5
B3
330
2
100
AcDbSymbolTableRecord
100
AcDbLayerTableRecord
  2
LAYER-100
 70
     0
 62
     7
  6
Continuous
370
    -3
390
F
  0
LAYER
  5
B4
330
2
100
AcDbSymbolTableRecord
100
AcDbLayerTableRecord
  2
LAYER-101
 70
     0
 62
     7
  6
Continuous
370
    -3
390
F
  0
LAYER
  5
B5
330
2
100
AcDbSymbolTableRecord
100
AcDbLayerTableRecord
  2
LAYER-102
 70
     0
 62
     7
  6
Continuous
370
    -3
390
F
  0
LAYER
  5
B6
330
2
100
AcDbSymbolTableRecord
100
AcDbLayerTableRecord
  2
LAYER-103
 70
     0
 62
     7
  6
Continuous
370
    -3
390
F
  0
LAYER
  5
B7
330
2
100
AcDbSymbolTableRecord
100
AcDbLayerTableRecord
  2
LAYER-104
 70
     0
 62
     7
  6
Continuous
370
    -3
390
F
  0
LAYER
  5
B8
330
2
100
AcDbSymbolTableRecord
100
AcDbLayerTableRecord
  2
LAYER-105
 70
     0
 62
     7
  6
Continuous
370
    -3
390
F
  0
LAYER
  5
B9
330
2
100
AcDbSymbolTableRecord
100
AcDbLayerTableRecord
  2
LAYER-106
 70
     0
 62
     7
  6
Continuous
370
    -3
390
F
  0
LAYER
  5
BA
330
2
100
AcDbSymbolTableRecord
100
AcDbLayerTableRecord
  2
LAYER-107
 70
     0
 62
     7
  6
Continuous
370
    -3
390
F
  0
LAYER
  5
BB
330
2
100
AcDbSymbolTableRecord
100
AcDbLayerTableRecord
  2
LAYER-108
 70
     0
 62
     7
  6
Continuous
370
    -3
390
F
  0
LAYER
  5
BC
330
2
100
AcDbSymbolTableRecord
100
AcDbLayerTableRecord
  2
LAYER-109
 70
     0
 62
     7
  6
Continuous
370
    -3
390
F
  0
LAYER
  5
BD
330
2
100
AcDbSymbolTableRecord
100
AcDbLayerTableRecord
  2
LAYER-110
 70
     0
 62
     7
  6
Continuous
370
    -3
390
F
  0
LAYER
  5
BE
330
2
100
AcDbSymbolTableRecord
100
AcDbLayerTableRecord
  2
LAYER-111
 70
     0
 62
     7
  6
Continuous
370
    -3
390
F
  0
LAYER
  5
BF
330
2
100
AcDbSymbolTableRecord
100
AcDbLayerTableRecord
  2
LAYER-112
 70
     0
 62
     7
  6
Continuous
370
    -3
390
F
  0
LAYER
  5
C0
330
2
100
AcDbSymbolTableRecord
100
AcDbLayerTableRecord
  2
LAYER-113
 70
     0
 62
     7
  6
Continuous
370
    -3
390
F
  0
LAYER
  5
C1
330
2
100
AcDbSymbolTableRecord
100
AcDbLayerTableRecord
  2
LAYER-114
 70
     0
 62
     7
  6
Continuous
370
    -3
390
F
  0
LAYER
  5
C2
330
2
100
AcDbSymbolTableRecord
100
AcDbLayerTableRecord
  2
LAYER-115
 70
     0
 62
     7
  6
Continuous
370
    -3
390
F
  0
LAYER
  5
C3
330
2
100
AcDbSymbolTableRecord
100
AcDbLayerTableRecord
  2
LAYER-116
 70
     0
 62
     7
  6
Continuous
370
    -3
390
F
  0
LAYER
  5
C4
330
2
100
AcDbSymbolTableRecord
100
AcDbLayerTableRecord
  2
LAYER-117
 70
     0
 62
     7
  6
Continuous
370
    -3
390
F
  0
LAYER
  5
C5
330
2
100
AcDbSymbolTableRecord
100
AcDbLayerTableRecord
  2
LAYER-118
 70
     0
 62
     7
  6
Continuous
370
    -3
390
F
  0
LAYER
  5
C6
330
2
100
AcDbSymbolTableRecord
100
AcDbLayerTableRecord
  2
LAYER-119
 70
     0
 62
     7
  6
Continuous
370
    -3
390
F
  0
LAYER
  5
C7
330
2
100
AcDbSymbolTableRecord
100
AcDbLayerTableRecord
  2
LAYER-120
 70
     0
 62
     7
  6
Continuous
370
    -3
390
F
  0
LAYER
  5
C8
330
2
100
AcDbSymbolTableRecord
100
AcDbLayerTableRecord
  2
LAYER-121
 70
     0
 62
     7
  6
Continuous
370
    -3
390
F
  0
LAYER
  5
C9
330
2
100
AcDbSymbolTableRecord
100
AcDbLayerTableRecord
  2
LAYER-122
 70
     0
 62
     7
  6
Continuous
370
    -3
390
F
  0
LAYER
  5
CA
330
2
100
AcDbSymbolTableRecord
100
AcDbLayerTableRecord
  2
LAYER-123
 70
     0
 62
     7
  6
Continuous
370
    -3
390
F
  0
LAYER
  5
CB
330
2
100
AcDbSymbolTableRecord
100
AcDbLayerTableRecord
  2
LAYER-124
 70
     0
 62
     7
  6
Continuous
370
    -3
390
F
  0
LAYER
  5
CC
330
2
100
AcDbSymbolTableRecord
100
AcDbLayerTableRecord
  2
LAYER-125
 70
     0
 62
     7
  6
Continuous
370
    -3
390
F
  0
LAYER
  5
CD
330
2
100
AcDbSymbolTableRecord
100
AcDbLayerTableRecord
  2
LAYER-126
 70
     0
 62
     7
  6
Continuous
370
    -3
390
F
  0
LAYER
  5
CE
330
2
100
AcDbSymbolTableRecord
100
AcDbLayerTableRecord
  2
LAYER-127
 70
     0
 62
     7
  6
Continuous
370
    -3
390
F
  0
LAYER
  5
CF
330
2
100
AcDbSymbolTableRecord
100
AcDbLayerTableRecord
  2
LAYER-128
 70
     0
 62
     7
  6
Continuous
370
    -3
390
F
  0
LAYER
  5
D0
330
2
100
AcDbSymbolTableRecord
100
AcDbLayerTableRecord
  2
LAYER-129
 70
     0
 62
     7
  6
Continuous
370
    -3
390
F
  0
LAYER
  5
D1
330
2
100
AcDbSymbolTableRecord
100
AcDbLayerTableRecord
  2
LAYER-130
 70
     0
 62
     7
  6
Continuous
370
    -3
390
F
  0
LAYER
  5
D2
330
2
100
AcDbSymbolTableRecord
100
AcDbLayerTableRecord
  2
LAYER-131
 70
     0
 62
     7
  6
Continuous
370
    -3
390
F
  0
LAYER
  5
D3
330
2
100
AcDbSymbolTableRecord
100
AcDbLayerTableRecord
  2
LAYER-132
 70
     0
 62
     7
  6
Continuous
370
    -3
390
F
  0
LAYER
  5
D4
330
2
100
AcDbSymbolTableRecord
100
AcDbLayerTableRecord
  2
LAYER-133
 70
     0
 62
     7
  6
Continuous
370
    -3
390
F
  0
LAYER
  5
D5
330
2
100
AcDbSymbolTableRecord
100
AcDbLayerTableRecord
  2
LAYER-134
 70
     0
 62
     7
  6
Continuous
370
    -3
390
F
  0
LAYER
  5
D6
330
2
100
AcDbSymbolTableRecord
100
AcDbLayerTableRecord
  2
LAYER-135
 70
     0
 62
    -4
  6
Continuous
370
    -3
390
F
  0
LAYER
  5
D7
330
2
100
AcDbSymbolTableRecord
100
AcDbLayerTableRecord
  2
LAYER-136
 70
     0
 62
    -3
  6
Continuous
370
    -3
390
F
  0
LAYER
  5
D8
330
2
100
AcDbSymbolTableRecord
100
AcDbLayerTableRecord
  2
LAYER-137
 70
     0
 62
    -1
  6
Continuous
370
    -3
390
F
  0
LAYER
  5
D9
330
2
100
AcDbSymbolTableRecord
100
AcDbLayerTableRecord
  2
LAYER-138
 70
     0
 62
     7
  6
Continuous
370
    -3
390
F
  0
LAYER
  5
DA
330
2
100
AcDbSymbolTableRecord
100
AcDbLayerTableRecord
  2
LAYER-139
 70
     0
 62
     7
  6
Continuous
370
    -3
390
F
  0
LAYER
  5
DB
330
2
100
AcDbSymbolTableRecord
100
AcDbLayerTableRecord
  2
LAYER-140
 70
     0
 62
     7
  6
Continuous
370
    -3
390
F
  0
LAYER
  5
DC
330
2
100
AcDbSymbolTableRecord
100
AcDbLayerTableRecord
  2
LAYER-141
 70
     0
 62
     7
  6
Continuous
370
    -3
390
F
  0
LAYER
  5
DD
330
2
100
AcDbSymbolTableRecord
100
AcDbLayerTableRecord
  2
LAYER-142
 70
     0
 62
     3
  6
Continuous
370
    -3
390
F
  0
LAYER
  5
DE
330
2
100
AcDbSymbolTableRecord
100
AcDbLayerTableRecord
  2
LAYER-143
 70
     0
 62
     7
  6
Continuous
370
    -3
390
F
  0
LAYER
  5
DF
330
2
100
AcDbSymbolTableRecord
100
AcDbLayerTableRecord
  2
LAYER-144
 70
     0
 62
     7
  6
Continuous
370
    -3
390
F
  0
LAYER
  5
E0
330
2
100
AcDbSymbolTableRecord
100
AcDbLayerTableRecord
  2
LAYER-145
 70
     0
 62
     3
  6
Continuous
370
    -3
390
F
  0
LAYER
  5
E1
330
2
100
AcDbSymbolTableRecord
100
AcDbLayerTableRecord
  2
LAYER-146
 70
     0
 62
     7
  6
Continuous
370
    -3
390
F
  0
LAYER
  5
E2
330
2
100
AcDbSymbolTableRecord
100
AcDbLayerTableRecord
  2
LAYER-147
 70
     0
 62
     7
  6
Continuous
370
    -3
390
F
  0
LAYER
  5
E3
330
2
100
AcDbSymbolTableRecord
100
AcDbLayerTableRecord
  2
LAYER-148
 70
     0
 62
     7
  6
Continuous
370
    -3
390
F
  0
LAYER
  5
E4
330
2
100
AcDbSymbolTableRecord
100
AcDbLayerTableRecord
  2
LAYER-149
 70
     0
 62
     7
  6
Continuous
370
    -3
390
F
  0
LAYER
  5
E5
330
2
100
AcDbSymbolTableRecord
100
AcDbLayerTableRecord
  2
LAYER-150
 70
     0
 62
     7
  6
Continuous
370
    -3
390
F
  0
LAYER
  5
E6
330
2
100
AcDbSymbolTableRecord
100
AcDbLayerTableRecord
  2
LAYER-151
 70
     0
 62
     7
  6
Continuous
370
    -3
390
F
  0
LAYER
  5
E7
330
2
100
AcDbSymbolTableRecord
100
AcDbLayerTableRecord
  2
LAYER-152
 70
     0
 62
     7
  6
Continuous
370
    -3
390
F
  0
LAYER
  5
E8
330
2
100
AcDbSymbolTableRecord
100
AcDbLayerTableRecord
  2
LAYER-153
 70
     0
 62
     7
  6
Continuous
370
    -3
390
F
  0
LAYER
  5
E9
330
2
100
AcDbSymbolTableRecord
100
AcDbLayerTableRecord
  2
LAYER-154
 70
     0
 62
     7
  6
Continuous
370
    -3
390
F
  0
LAYER
  5
EA
330
2
100
AcDbSymbolTableRecord
100
AcDbLayerTableRecord
  2
LAYER-155
 70
     0
 62
     7
  6
Continuous
370
    -3
390
F
  0
LAYER
  5
EB
330
2
100
AcDbSymbolTableRecord
100
AcDbLayerTableRecord
  2
LAYER-156
 70
     0
 62
     7
  6
Continuous
370
    -3
390
F
  0
LAYER
  5
EC
330
2
100
AcDbSymbolTableRecord
100
AcDbLayerTableRecord
  2
LAYER-157
 70
     0
 62
     7
  6
Continuous
370
    -3
390
F
  0
LAYER
  5
ED
330
2
100
AcDbSymbolTableRecord
100
AcDbLayerTableRecord
  2
LAYER-158
 70
     0
 62
     7
  6
Continuous
370
    -3
390
F
  0
LAYER
  5
EE
330
2
100
AcDbSymbolTableRecord
100
AcDbLayerTableRecord
  2
LAYER-159
 70
     0
 62
     7
  6
Continuous
370
    -3
390
F
  0
LAYER
  5
EF
330
2
100
AcDbSymbolTableRecord
100
AcDbLayerTableRecord
  2
LAYER-160
 70
     0
 62
     7
  6
Continuous
370
    -3
390
F
  0
LAYER
  5
F0
330
2
100
AcDbSymbolTableRecord
100
AcDbLayerTableRecord
  2
LAYER-161
 70
     0
 62
     7
  6
Continuous
370
    -3
390
F
  0
LAYER
  5
F1
330
2
100
AcDbSymbolTableRecord
100
AcDbLayerTableRecord
  2
LAYER-162
 70
     0
 62
     7
  6
Continuous
370
    -3
390
F
  0
LAYER
  5
F2
330
2
100
AcDbSymbolTableRecord
100
AcDbLayerTableRecord
  2
LAYER-163
 70
     0
 62
     7
  6
Continuous
370
    -3
390
F
  0
LAYER
  5
F3
330
2
100
AcDbSymbolTableRecord
100
AcDbLayerTableRecord
  2
LAYER-164
 70
     0
 62
     7
  6
Continuous
370
    -3
390
F
  0
LAYER
  5
F4
330
2
100
AcDbSymbolTableRecord
100
AcDbLayerTableRecord
  2
LAYER-165
 70
     0
 62
     7
  6
Continuous
370
    -3
390
F
  0
LAYER
  5
F5
330
2
100
AcDbSymbolTableRecord
100
AcDbLayerTableRecord
  2
LAYER-166
 70
     0
 62
     7
  6
Continuous
370
    -3
390
F
  0
LAYER
  5
F6
330
2
100
AcDbSymbolTableRecord
100
AcDbLayerTableRecord
  2
LAYER-167
 70
     0
 62
     7
  6
Continuous
370
    -3
390
F
  0
LAYER
  5
F7
330
2
100
AcDbSymbolTableRecord
100
AcDbLayerTableRecord
  2
LAYER-168
 70
     0
 62
     7
  6
Continuous
370
    -3
390
F
  0
LAYER
  5
F8
330
2
100
AcDbSymbolTableRecord
100
AcDbLayerTableRecord
  2
LAYER-169
 70
     0
 62
     7
  6
Continuous
370
    -3
390
F
  0
LAYER
  5
F9
330
2
100
AcDbSymbolTableRecord
100
AcDbLayerTableRecord
  2
LAYER-170
 70
     0
 62
     7
  6
Continuous
370
    -3
390
F
  0
LAYER
  5
FA
330
2
100
AcDbSymbolTableRecord
100
AcDbLayerTableRecord
  2
LAYER-171
 70
     0
 62
     7
  6
Continuous
370
    -3
390
F
  0
LAYER
  5
FB
330
2
100
AcDbSymbolTableRecord
100
AcDbLayerTableRecord
  2
LAYER-172
 70
     0
 62
     7
  6
Continuous
370
    -3
390
F
  0
LAYER
  5
FC
330
2
100
AcDbSymbolTableRecord
100
AcDbLayerTableRecord
  2
LAYER-173
 70
     0
 62
     7
  6
Continuous
370
    -3
390
F
  0
LAYER
  5
FD
330
2
100
AcDbSymbolTableRecord
100
AcDbLayerTableRecord
  2
LAYER-174
 70
     0
 62
     7
  6
Continuous
370
    -3
390
F
  0
LAYER
  5
FE
330
2
100
AcDbSymbolTableRecord
100
AcDbLayerTableRecord
  2
LAYER-175
 70
     0
 62
     7
  6
Continuous
370
    -3
390
F
  0
LAYER
  5
FF
330
2
100
AcDbSymbolTableRecord
100
AcDbLayerTableRecord
  2
LAYER-176
 70
     0
 62
     7
  6
Continuous
370
    -3
390
F
  0
LAYER
  5
100
330
2
100
AcDbSymbolTableRecord
100
AcDbLayerTableRecord
  2
LAYER-177
 70
     0
 62
     7
  6
Continuous
370
    -3
390
F
  0
LAYER
  5
101
330
2
100
AcDbSymbolTableRecord
100
AcDbLayerTableRecord
  2
LAYER-178
 70
     0
 62
     7
  6
Continuous
370
    -3
390
F
  0
LAYER
  5
102
330
2
100
AcDbSymbolTableRecord
100
AcDbLayerTableRecord
  2
LAYER-179
 70
     0
 62
     7
  6
Continuous
370
    -3
390
F
  0
LAYER
  5
103
330
2
100
AcDbSymbolTableRecord
100
AcDbLayerTableRecord
  2
LAYER-180
 70
     0
 62
     7
  6
Continuous
370
    -3
390
F
  0
LAYER
  5
104
330
2
100
AcDbSymbolTableRecord
100
AcDbLayerTableRecord
  2
LAYER-181
 70
     0
 62
     7
  6
Continuous
370
    -3
390
F
  0
LAYER
  5
105
330
2
100
AcDbSymbolTableRecord
100
AcDbLayerTableRecord
  2
LAYER-182
 70
     0
 62
     7
  6
Continuous
370
    -3
390
F
  0
LAYER
  5
106
330
2
100
AcDbSymbolTableRecord
100
AcDbLayerTableRecord
  2
LAYER-183
 70
     0
 62
     7
  6
Continuous
370
    -3
390
F
  0
LAYER
  5
107
330
2
100
AcDbSymbolTableRecord
100
AcDbLayerTableRecord
  2
LAYER-184
 70
     0
 62
     7
  6
Continuous
370
    -3
390
F
  0
LAYER
  5
108
330
2
100
AcDbSymbolTableRecord
100
AcDbLayerTableRecord
  2
LAYER-185
 70
     0
 62
     7
  6
Continuous
370
    -3
390
F
  0
LAYER
  5
109
330
2
100
AcDbSymbolTableRecord
100
AcDbLayerTableRecord
  2
LAYER-186
 70
     0
 62
     7
  6
Continuous
370
    -3
390
F
  0
LAYER
  5
10A
330
2
100
AcDbSymbolTableRecord
100
AcDbLayerTableRecord
  2
LAYER-187
 70
     0
 62
     7
  6
Continuous
370
    -3
390
F
  0
LAYER
  5
10B
330
2
100
AcDbSymbolTableRecord
100
AcDbLayerTableRecord
  2
LAYER-188
 70
     0
 62
     7
  6
Continuous
370
    -3
390
F
  0
LAYER
  5
10C
330
2
100
AcDbSymbolTableRecord
100
AcDbLayerTableRecord
  2
LAYER-189
 70
     0
 62
     7
  6
Continuous
370
    -3
390
F
  0
LAYER
  5
10D
330
2
100
AcDbSymbolTableRecord
100
AcDbLayerTableRecord
  2
LAYER-190
 70
     0
 62
     7
  6
Continuous
370
    -3
390
F
  0
LAYER
  5
10E
330
2
100
AcDbSymbolTableRecord
100
AcDbLayerTableRecord
  2
LAYER-191
 70
     0
 62
     7
  6
Continuous
370
    -3
390
F
  0
LAYER
  5
10F
330
2
100
AcDbSymbolTableRecord
100
AcDbLayerTableRecord
  2
LAYER-192
 70
     0
 62
     7
  6
Continuous
370
    -3
390
F
  0
LAYER
  5
110
330
2
100
AcDbSymbolTableRecord
100
AcDbLayerTableRecord
  2
LAYER-193
 70
     0
 62
     7
  6
Continuous
370
    -3
390
F
  0
LAYER
  5
111
330
2
100
AcDbSymbolTableRecord
100
AcDbLayerTableRecord
  2
LAYER-194
 70
     0
 62
     2
  6
Continuous
370
    -3
390
F
  0
LAYER
  5
112
330
2
100
AcDbSymbolTableRecord
100
AcDbLayerTableRecord
  2
LAYER-195
 70
     0
 62
     2
  6
Continuous
370
    -3
390
F
  0
LAYER
  5
113
330
2
100
AcDbSymbolTableRecord
100
AcDbLayerTableRecord
  2
LAYER-196
 70
     0
 62
     2
  6
Continuous
370
    -3
390
F
  0
LAYER
  5
114
330
2
100
AcDbSymbolTableRecord
100
AcDbLayerTableRecord
  2
LAYER-197
 70
     0
 62
     7
  6
Continuous
370
    -3
390
F
  0
LAYER
  5
115
330
2
100
AcDbSymbolTableRecord
100
AcDbLayerTableRecord
  2
LAYER-198
 70
     0
 62
     7
  6
Continuous
370
    -3
390
F
  0
LAYER
  5
116
330
2
100
AcDbSymbolTableRecord
100
AcDbLayerTableRecord
  2
LAYER-199
 70
     0
 62
     4
  6
Continuous
370
    -3
390
F
  0
LAYER
  5
117
330
2
100
AcDbSymbolTableRecord
100
AcDbLayerTableRecord
  2
LAYER-200
 70
     0
 62
     1
  6
Continuous
370
    -3
390
F
  0
LAYER
  5
118
330
2
100
AcDbSymbolTableRecord
100
AcDbLayerTableRecord
  2
LAYER-201
 70
     0
 62
     1
  6
Continuous
370
    -3
390
F
  0
LAYER
  5
119
330
2
100
AcDbSymbolTableRecord
100
AcDbLayerTableRecord
  2
LAYER-202
 70
     0
 62
     2
  6
Continuous
370
    -3
390
F
  0
LAYER
  5
11A
330
2
100
AcDbSymbolTableRecord
100
AcDbLayerTableRecord
  2
LAYER-203
 70
     0
 62
     2
  6
Continuous
370
    -3
390
F
  0
LAYER
  5
11B
330
2
100
AcDbSymbolTableRecord
100
AcDbLayerTableRecord
  2
LAYER-204
 70
     0
 62
     7
  6
Continuous
370
    -3
390
F
  0
LAYER
  5
11C
330
2
100
AcDbSymbolTableRecord
100
AcDbLayerTableRecord
  2
LAYER-205
 70
     0
 62
     7
  6
Continuous
370
    -3
390
F
  0
LAYER
  5
11D
330
2
100
AcDbSymbolTableRecord
100
AcDbLayerTableRecord
  2
LAYER-206
 70
     0
 62
     7
  6
Continuous
370
    -3
390
F
  0
LAYER
  5
11E
330
2
100
AcDbSymbolTableRecord
100
AcDbLayerTableRecord
  2
LAYER-207
 70
     0
 62
    -7
  6
Continuous
370
    -3
390
F
  0
LAYER
  5
11F
330
2
100
AcDbSymbolTableRecord
100
AcDbLayerTableRecord
  2
LAYER-208
 70
     0
 62
     2
  6
Continuous
370
    -3
390
F
  0
LAYER
  5
120
330
2
100
AcDbSymbolTableRecord
100
AcDbLayerTableRecord
  2
LAYER-209
 70
     0
 62
     7
  6
Continuous
370
    -3
390
F
  0
LAYER
  5
121
330
2
100
AcDbSymbolTableRecord
100
AcDbLayerTableRecord
  2
LAYER-210
 70
     0
 62
     2
  6
Continuous
290
     0
370
    -3
390
F
  0
LAYER
  5
122
330
2
100
AcDbSymbolTableRecord
100
AcDbLayerTableRecord
  2
LAYER-211
 70
     0
 62
     7
  6
Continuous
370
    -3
390
F
  0
LAYER
  5
123
330
2
100
AcDbSymbolTableRecord
100
AcDbLayerTableRecord
  2
LAYER-212
 70
     0
 62
     7
  6
Continuous
370
    -3
390
F
  0
LAYER
  5
124
330
2
100
AcDbSymbolTableRecord
100
AcDbLayerTableRecord
  2
LAYER-213
 70
     0
 62
     2
  6
Continuous
370
    -3
390
F
  0
LAYER
  5
125
330
2
100
AcDbSymbolTableRecord
100
AcDbLayerTableRecord
  2
LAYER-214
 70
     0
 62
     7
  6
Continuous
370
    -3
390
F
  0
LAYER
  5
126
330
2
100
AcDbSymbolTableRecord
100
AcDbLayerTableRecord
  2
LAYER-215
 70
     0
 62
     7
  6
Continuous
370
    -3
390
F
  0
LAYER
  5
127
330
2
100
AcDbSymbolTableRecord
100
AcDbLayerTableRecord
  2
LAYER-216
 70
     0
 62
     4
  6
Continuous
370
    -3
390
F
  0
LAYER
  5
128
330
2
100
AcDbSymbolTableRecord
100
AcDbLayerTableRecord
  2
LAYER-217
 70
     0
 62
     7
  6
Continuous
370
    -3
390
F
  0
LAYER
  5
129
330
2
100
AcDbSymbolTableRecord
100
AcDbLayerTableRecord
  2
LAYER-218
 70
     0
 62
     7
  6
Continuous
370
    -3
390
F
  0
LAYER
  5
12A
330
2
100
AcDbSymbolTableRecord
100
AcDbLayerTableRecord
  2
LAYER-219
 70
     0
 62
     7
  6
Continuous
370
    -3
390
F
  0
LAYER
  5
12B
330
2
100
AcDbSymbolTableRecord
100
AcDbLayerTableRecord
  2
LAYER-220
 70
     0
 62
     4
  6
Continuous
370
    -3
390
F
  0
LAYER
  5
12C
330
2
100
AcDbSymbolTableRecord
100
AcDbLayerTableRecord
  2
LAYER-221
 70
     0
 62
    -7
  6
Continuous
290
     0
370
    -3
390
F
  0
LAYER
  5
12D
330
2
100
AcDbSymbolTableRecord
100
AcDbLayerTableRecord
  2
LAYER-222
 70
     0
 62
    -4
  6
Continuous
290
     0
370
    -3
390
F
  0
LAYER
  5
12E
330
2
100
AcDbSymbolTableRecord
100
AcDbLayerTableRecord
  2
LAYER-223
 70
     0
 62
    -1
  6
Continuous
290
     0
370
    -3
390
F
  0
LAYER
  5
12F
330
2
100
AcDbSymbolTableRecord
100
AcDbLayerTableRecord
  2
LAYER-224
 70
     0
 62
    -1
  6
Continuous
290
     0
370
    -3
390
F
  0
LAYER
  5
130
330
2
100
AcDbSymbolTableRecord
100
AcDbLayerTableRecord
  2
LAYER-225
 70
     0
 62
     7
  6
Continuous
370
    -3
390
F
  0
LAYER
  5
131
330
2
100
AcDbSymbolTableRecord
100
AcDbLayerTableRecord
  2
LAYER-226
 70
     0
 62
     2
  6
Continuous
370
    -3
390
F
  0
LAYER
  5
132
330
2
100
AcDbSymbolTableRecord
100
AcDbLayerTableRecord
  2
LAYER-227
 70
     0
 62
     7
  6
Continuous
370
    -3
390
F
  0
LAYER
  5
133
330
2
100
AcDbSymbolTableRecord
100
AcDbLayerTableRecord
  2
LAYER-228
 70
     0
 62
     7
  6
Continuous
370
    -3
390
F
  0
LAYER
  5
134
330
2
100
AcDbSymbolTableRecord
100
AcDbLayerTableRecord
  2
LAYER-229
 70
     0
 62
     7
  6
Continuous
370
    -3
390
F
  0
LAYER
  5
135
330
2
100
AcDbSymbolTableRecord
100
AcDbLayerTableRecord
  2
LAYER-230
 70
     0
 62
     7
  6
Continuous
370
    -3
390
F
  0
LAYER
  5
136
330
2
100
AcDbSymbolTableRecord
100
AcDbLayerTableRecord
  2
LAYER-231
 70
     0
 62
     7
  6
Continuous
370
    -3
390
F
  0
LAYER
  5
137
330
2
100
AcDbSymbolTableRecord
100
AcDbLayerTableRecord
  2
LAYER-232
 70
     0
 62
     7
  6
Continuous
370
    -3
390
F
  0
LAYER
  5
138
330
2
100
AcDbSymbolTableRecord
100
AcDbLayerTableRecord
  2
LAYER-233
 70
     0
 62
     7
  6
Continuous
370
    -3
390
F
  0
LAYER
  5
139
330
2
100
AcDbSymbolTableRecord
100
AcDbLayerTableRecord
  2
LAYER-234
 70
     0
 62
     7
  6
Continuous
370
    -3
390
F
  0
LAYER
  5
13A
330
2
100
AcDbSymbolTableRecord
100
AcDbLayerTableRecord
  2
LAYER-235
 70
     0
 62
     7
  6
Continuous
370
    -3
390
F
  0
LAYER
  5
13B
330
2
100
AcDbSymbolTableRecord
100
AcDbLayerTableRecord
  2
LAYER-236
 70
     0
 62
     7
  6
Continuous
370
    -3
390
F
  0
LAYER
  5
13C
330
2
100
AcDbSymbolTableRecord
100
AcDbLayerTableRecord
  2
LAYER-237
 70
     0
 62
     7
  6
Continuous
370
    -3
390
F
  0
LAYER
  5
13D
330
2
100
AcDbSymbolTableRecord
100
AcDbLayerTableRecord
  2
LAYER-238
 70
     0
 62
     7
  6
Continuous
370
    -3
390
F
  0
LAYER
  5
13E
330
2
100
AcDbSymbolTableRecord
100
AcDbLayerTableRecord
  2
LAYER-239
 70
     0
 62
     7
  6
Continuous
370
    -3
390
F
  0
LAYER
  5
13F
330
2
100
AcDbSymbolTableRecord
100
AcDbLayerTableRecord
  2
LAYER-240
 70
     0
 62
     7
  6
Continuous
370
    -3
390
F
  0
LAYER
  5
140
330
2
100
AcDbSymbolTableRecord
100
AcDbLayerTableRecord
  2
LAYER-241
 70
     0
 62
     7
  6
Continuous
370
    -3
390
F
  0
LAYER
  5
141
330
2
100
AcDbSymbolTableRecord
100
AcDbLayerTableRecord
  2
LAYER-242
 70
     0
 62
     7
  6
Continuous
370
    -3
390
F
  0
LAYER
  5
142
330
2
100
AcDbSymbolTableRecord
100
AcDbLayerTableRecord
  2
LAYER-243
 70
     0
 62
     7
  6
Continuous
370
    -3
390
F
  0
LAYER
  5
143
330
2
100
AcDbSymbolTableRecord
100
AcDbLayerTableRecord
  2
LAYER-244
 70
     0
 62
     7
  6
Continuous
370
    -3
390
F
  0
LAYER
  5
144
330
2
100
AcDbSymbolTableRecord
100
AcDbLayerTableRecord
  2
LAYER-245
 70
     0
 62
     7
  6
Continuous
370
    -3
390
F
  0
LAYER
  5
145
330
2
100
AcDbSymbolTableRecord
100
AcDbLayerTableRecord
  2
LAYER-246
 70
     0
 62
     7
  6
Continuous
370
    -3
390
F
  0
LAYER
  5
146
330
2
100
AcDbSymbolTableRecord
100
AcDbLayerTableRecord
  2
LAYER-247
 70
     0
 62
     7
  6
Continuous
370
    -3
390
F
  0
LAYER
  5
147
330
2
100
AcDbSymbolTableRecord
100
AcDbLayerTableRecord
  2
LAYER-248
 70
     0
 62
     7
  6
Continuous
370
    -3
390
F
  0
LAYER
  5
148
330
2
100
AcDbSymbolTableRecord
100
AcDbLayerTableRecord
  2
LAYER-249
 70
     0
 62
     7
  6
Continuous
370
    -3
390
F
  0
LAYER
  5
149
330
2
100
AcDbSymbolTableRecord
100
AcDbLayerTableRecord
  2
LAYER-250
 70
     0
 62
     7
  6
Continuous
370
    -3
390
F
  0
LAYER
  5
14A
330
2
100
AcDbSymbolTableRecord
100
AcDbLayerTableRecord
  2
LAYER-251
 70
     0
 62
     7
  6
Continuous
370
    -3
390
F
  0
LAYER
  5
14B
330
2
100
AcDbSymbolTableRecord
100
AcDbLayerTableRecord
  2
LAYER-252
 70
     0
 62
     7
  6
Continuous
370
    -3
390
F
  0
LAYER
  5
14C
330
2
100
AcDbSymbolTableRecord
100
AcDbLayerTableRecord
  2
LAYER-253
 70
     0
 62
     7
  6
Continuous
370
    -3
390
F
  0
LAYER
  5
14D
330
2
100
AcDbSymbolTableRecord
100
AcDbLayerTableRecord
  2
LAYER-254
 70
     0
 62
     7
  6
Continuous
370
    -3
390
F
  0
LAYER
  5
14E
330
2
100
AcDbSymbolTableRecord
100
AcDbLayerTableRecord
  2
LAYER-255
 70
     0
 62
     7
  6
Continuous
370
    -3
390
F
  0
LAYER
  5
14F
330
2
100
AcDbSymbolTableRecord
100
AcDbLayerTableRecord
  2
LAYER-256
 70
     0
 62
     7
  6
Continuous
370
    -3
390
F
  0
LAYER
  5
150
330
2
100
AcDbSymbolTableRecord
100
AcDbLayerTableRecord
  2
SUPLINE
 70
     0
 62
    -7
  6
Continuous
290
     0
370
    -3
390
F
  0
ENDTAB
  0
TABLE
  2
STYLE
  5
3
330
0
100
AcDbSymbolTable
 70
     7
  0
STYLE
  5
11
330
3
100
AcDbSymbolTableRecord
100
AcDbTextStyleTableRecord
  2
Standard
 70
     0
 40
0.0
 41
1.0
 50
0.0
 71
     0
 42
2.5
  3
txt
  4

  0
STYLE
  5
31
330
3
100
AcDbSymbolTableRecord
100
AcDbTextStyleTableRecord
  2
STANDARD2
 70
     0
 40
0.0
 41
1.0
 50
0.0
 71
     0
 42
4.0
  3
txt.shx
  4
bigfont.shx
  0
STYLE
  5
32
330
3
100
AcDbSymbolTableRecord
100
AcDbTextStyleTableRecord
  2
STRING_H
 70
     0
 40
0.0
 41
1.0
 50
0.0
 71
     0
 42
4.0
  3
txt.shx
  4
bigfont.shx
  0
STYLE
  5
33
330
3
100
AcDbSymbolTableRecord
100
AcDbTextStyleTableRecord
  2
STRING_H_ITALIC
 70
     0
 40
0.0
 41
1.0
 50
15.0
 71
     0
 42
4.0
  3
txt.shx
  4
bigfont.shx
  0
STYLE
  5
34
330
3
100
AcDbSymbolTableRecord
100
AcDbTextStyleTableRecord
  2
STRING_V
 70
     4
 40
0.0
 41
1.0
 50
0.0
 71
     0
 42
4.0
  3
txt.shx
  4
bigfont.shx
  0
STYLE
  5
35
330
3
100
AcDbSymbolTableRecord
100
AcDbTextStyleTableRecord
  2
STRING_V_ITALIC
 70
     4
 40
0.0
 41
1.0
 50
15.0
 71
     0
 42
4.0
  3
txt.shx
  4
bigfont.shx
  0
STYLE
  5
36
330
3
100
AcDbSymbolTableRecord
100
AcDbTextStyleTableRecord
  2

 70
     1
 40
0.0
 41
1.0
 50
0.0
 71
     0
 42
0.2
  3
ltypeshp.shx
  4

  0
ENDTAB
  0
TABLE
  2
VIEW
  5
6
330
0
100
AcDbSymbolTable
 70
     0
  0
ENDTAB
  0
TABLE
  2
UCS
  5
7
330
0
100
AcDbSymbolTable
 70
     0
  0
ENDTAB
  0
TABLE
  2
APPID
  5
9
330
0
100
AcDbSymbolTable
 70
     1
  0
APPID
  5
12
330
9
100
AcDbSymbolTableRecord
100
AcDbRegAppTableRecord
  2
ACAD
 70
     0
  0
ENDTAB
  0
TABLE
  2
DIMSTYLE
  5
A
330
0
100
AcDbSymbolTable
 70
     2
100
AcDbDimStyleTable
  0
DIMSTYLE
105
27
330
A
100
AcDbSymbolTableRecord
100
AcDbDimStyleTableRecord
  2
ISO-25
 70
     0
 41
2.5
 42
0.625
 43
3.75
 44
1.25
 73
     0
 74
     0
 77
     1
 78
     8
140
2.5
141
2.5
143
0.03937007874016
147
0.625
171
     3
172
     1
271
     2
272
     2
274
     3
283
     0
284
     8
340
11
  0
DIMSTYLE
105
151
102
{ACAD_REACTORS
330
3BD
330
3C7
330
3D1
330
3DB
330
3E5
330
3EF
330
3F9
330
403
330
40F
102
}
330
A
100
AcDbSymbolTableRecord
100
AcDbDimStyleTableRecord
  2
DIO_DIMSTYLE
 70
     0
 41
4.0
 42
1.0
 43
3.75
 44
1.0
 45
0.1
 73
     0
 74
     0
 77
     1
 78
     8
 79
     2
140
3.0
141
2.5
143
0.03937007874016
147
0.5
171
     3
172
     1
173
     1
179
     1
271
     1
272
     1
274
     3
283
     0
284
     8
288
     1
289
     0
340
31
  0
ENDTAB
  0
TABLE
  2
BLOCK_RECORD
  5
1
330
0
100
AcDbSymbolTable
 70
    11
  0
BLOCK_RECORD
  5
1F
330
1
100
AcDbSymbolTableRecord
100
AcDbBlockTableRecord
  2
*Model_Space
340
22
  0
BLOCK_RECORD
  5
1B
330
1
100
AcDbSymbolTableRecord
100
AcDbBlockTableRecord
  2
*Paper_Space
340
1E
  0
BLOCK_RECORD
  5
23
330
1
100
AcDbSymbolTableRecord
100
AcDbBlockTableRecord
  2
*Paper_Space0
340
26
  0
BLOCK_RECORD
  5
3AE
330
1
100
AcDbSymbolTableRecord
100
AcDbBlockTableRecord
  2
_OPEN
340
0
102
{BLKREFS
331
3B7
331
3B8
331
3C1
331
3C2
331
3CB
331
3CC
331
3D5
331
3D6
331
3DF
331
3E0
331
3E9
331
3EA
331
3F3
331
3F4
331
3FD
331
3FE
331
407
331
408
102
}
  0
BLOCK_RECORD
  5
3B4
330
1
100
AcDbSymbolTableRecord
100
AcDbBlockTableRecord
  2
*D02
340
0
  0
BLOCK_RECORD
  5
3BE
330
1
100
AcDbSymbolTableRecord
100
AcDbBlockTableRecord
  2
*D13
340
0
  0
BLOCK_RECORD
  5
3C8
330
1
100
AcDbSymbolTableRecord
100
AcDbBlockTableRecord
  2
*D24
340
0
  0
BLOCK_RECORD
  5
3D2
330
1
100
AcDbSymbolTableRecord
100
AcDbBlockTableRecord
  2
*D35
340
0
  0
BLOCK_RECORD
  5
3DC
330
1
100
AcDbSymbolTableRecord
100
AcDbBlockTableRecord
  2
*D46
340
0
  0
BLOCK_RECORD
  5
3E6
330
1
100
AcDbSymbolTableRecord
100
AcDbBlockTableRecord
  2
*D57
340
0
  0
BLOCK_RECORD
  5
3F0
330
1
100
AcDbSymbolTableRecord
100
AcDbBlockTableRecord
  2
*D68
340
0
  0
BLOCK_RECORD
  5
3FA
330
1
100
AcDbSymbolTableRecord
100
AcDbBlockTableRecord
  2
*D79
340
0
  0
BLOCK_RECORD
  5
404
330
1
100
AcDbSymbolTableRecord
100
AcDbBlockTableRecord
  2
*D810
340
0
  0
ENDTAB
  0
ENDSEC
  0
SECTION
  2
BLOCKS
  0
BLOCK
  5
20
330
1F
100
AcDbEntity
  8
0
100
AcDbBlockBegin
  2
*Model_Space
 70
     0
 71
     0
 10
0.0
 20
0.0
 30
0.0
  3
*Model_Space
  1

  0
ENDBLK
  5
21
330
1F
100
AcDbEntity
  8
0
100
AcDbBlockEnd
  0
BLOCK
  5
1C
330
1B
100
AcDbEntity
 67
     1
  8
0
100
AcDbBlockBegin
  2
*Paper_Space
 70
     0
 71
     0
 10
0.0
 20
0.0
 30
0.0
  3
*Paper_Space
  1

  0
ENDBLK
  5
1D
330
1B
100
AcDbEntity
 67
     1
  8
0
100
AcDbBlockEnd
  0
BLOCK
  5
24
330
23
100
AcDbEntity
  8
0
100
AcDbBlockBegin
  2
*Paper_Space0
 70
     0
 71
     0
 10
0.0
 20
0.0
 30
0.0
  3
*Paper_Space0
  1

  0
ENDBLK
  5
25
330
23
100
AcDbEntity
  8
0
100
AcDbBlockEnd
  0
BLOCK
  5
3AF
330
3AE
100
AcDbEntity
  8
0
100
AcDbBlockBegin
  2
_OPEN
 70
     0
 71
     0
 10
0.0
 20
0.0
 30
0.0
  3
_OPEN
  1

  0
LINE
  5
3B1
330
3AE
100
AcDbEntity
  8
LAYER-035
  6
Continuous
 62
     0
100
AcDbLine
 10
0.0
 20
0.0
 30
0.0
 11
-1.0
 21
0.0
 31
0.0
  0
LINE
  5
3B2
330
3AE
100
AcDbEntity
  8
LAYER-035
  6
Continuous
 62
     0
100
AcDbLine
 10
0.0
 20
0.0
 30
0.0
 11
-1.0
 21
0.1666250109338451
 31
0.0
  0
LINE
  5
3B3
330
3AE
100
AcDbEntity
  8
LAYER-035
  6
Continuous
 62
     0
100
AcDbLine
 10
0.0
 20
0.0
 30
0.0
 11
-1.0
 21
-0.1666250109338451
 31
0.0
  0
ENDBLK
  5
3B0
330
3AE
100
AcDbEntity
  8
0
100
AcDbBlockEnd
  0
BLOCK
  5
3B5
330
3B4
100
AcDbEntity
  8
0
100
AcDbBlockBegin
  2
*D02
 70
     1
 71
     0
 10
0.0
 20
0.0
 30
0.0
  3
*D02
  1

  0
INSERT
  5
3B7
330
3B4
100
AcDbEntity
  8
LAYER-035
  6
Continuous
 62
     5
100
AcDbBlockReference
  2
_OPEN
 10
-460.909626600208
 20
-469.0017956444202
 30
0.0
 41
4.0
 42
4.0
 43
4.0
 50
180.0
  0
INSERT
  5
3B8
330
3B4
100
AcDbEntity
  8
LAYER-035
  6
Continuous
 62
     5
100
AcDbBlockReference
  2
_OPEN
 10
-60.90962660020801
 20
-469.0017956444202
 30
0.0
 41
4.0
 42
4.0
 43
4.0
  0
LINE
  5
3B9
330
3B4
100
AcDbEntity
  8
LAYER-035
  6
Continuous
 62
     5
100
AcDbLine
 10
-460.909626600208
 20
-439.8608596539461
 30
0.0
 11
-460.909626600208
 21
-470.0017956444202
 31
0.0
  0
LINE
  5
3BA
330
3B4
100
AcDbEntity
  8
LAYER-035
  6
Continuous
 62
     5
100
AcDbLine
 10
-60.90962660020801
 20
-439.8608596539461
 30
0.0
 11
-60.90962660020801
 21
-470.0017956444202
 31
0.0
  0
LINE
  5
3BB
330
3B4
100
AcDbEntity
  8
LAYER-035
  6
Continuous
 62
     5
100
AcDbLine
 10
-460.909626600208
 20
-469.0017956444202
 30
0.0
 11
-60.90962660020801
 21
-469.0017956444202
 31
0.0
  0
MTEXT
  5
3BC
330
3B4
100
AcDbEntity
  8
LAYER-036
  6
Continuous
 62
     5
100
AcDbMText
 10
-260.909626600208
 20
-468.5017956444202
 30
0.0
 40
10.0
 41
0.0
 71
     8
 72
     1
  1
400
  7
STRING_H
 73
     1
 44
1.0
  0
ENDBLK
  5
3B6
330
3B4
100
AcDbEntity
  8
0
100
AcDbBlockEnd
  0
BLOCK
  5
3BF
330
3BE
100
AcDbEntity
  8
0
100
AcDbBlockBegin
  2
*D13
 70
     1
 71
     0
 10
0.0
 20
0.0
 30
0.0
  3
*D13
  1

  0
INSERT
  5
3C1
330
3BE
100
AcDbEntity
  8
LAYER-035
  6
Continuous
 62
     5
100
AcDbBlockReference
  2
_OPEN
 10
144.0331993721535
 20
-494.6642602700668
 30
0.0
 41
4.0
 42
4.0
 43
4.0
 50
180.0
  0
INSERT
  5
3C2
330
3BE
100
AcDbEntity
  8
LAYER-035
  6
Continuous
 62
     5
100
AcDbBlockReference
  2
_OPEN
 10
484.0331993721535
 20
-494.6642602700668
 30
0.0
 41
4.0
 42
4.0
 43
4.0
  0
LINE
  5
3C3
330
3BE
100
AcDbEntity
  8
LAYER-035
  6
Continuous
 62
     5
100
AcDbLine
 10
144.0331993721535
 20
-432.3157974773602
 30
0.0
 11
144.0331993721535
 21
-495.6642602700668
 31
0.0
  0
LINE
  5
3C4
330
3BE
100
AcDbEntity
  8
LAYER-035
  6
Continuous
 62
     5
100
AcDbLine
 10
484.0331993721535
 20
-432.3157974773602
 30
0.0
 11
484.0331993721535
 21
-495.6642602700668
 31
0.0
  0
LINE
  5
3C5
330
3BE
100
AcDbEntity
  8
LAYER-035
  6
Continuous
 62
     5
100
AcDbLine
 10
144.0331993721535
 20
-494.6642602700668
 30
0.0
 11
484.0331993721535
 21
-494.6642602700668
 31
0.0
  0
MTEXT
  5
3C6
330
3BE
100
AcDbEntity
  8
LAYER-036
  6
Continuous
 62
     5
100
AcDbMText
 10
314.0331993721535
 20
-494.1642602700668
 30
0.0
 40
10.0
 41
0.0
 71
     8
 72
     1
  1
340
  7
STRING_H
 73
     1
 44
1.0
  0
ENDBLK
  5
3C0
330
3BE
100
AcDbEntity
  8
0
100
AcDbBlockEnd
  0
BLOCK
  5
3C9
330
3C8
100
AcDbEntity
  8
0
100
AcDbBlockBegin
  2
*D24
 70
     1
 71
     0
 10
0.0
 20
0.0
 30
0.0
  3
*D24
  1

  0
INSERT
  5
3CB
330
3C8
100
AcDbEntity
  8
LAYER-035
  6
Continuous
 62
     5
100
AcDbBlockReference
  2
_OPEN
 10
164.0331993721535
 20
-469.0017956444202
 30
0.0
 41
4.0
 42
4.0
 43
4.0
 50
180.0
  0
INSERT
  5
3CC
330
3C8
100
AcDbEntity
  8
LAYER-035
  6
Continuous
 62
     5
100
AcDbBlockReference
  2
_OPEN
 10
464.0331993721535
 20
-469.0017956444202
 30
0.0
 41
4.0
 42
4.0
 43
4.0
  0
LINE
  5
3CD
330
3C8
100
AcDbEntity
  8
LAYER-035
  6
Continuous
 62
     5
100
AcDbLine
 10
164.0331993721535
 20
-439.0741112886718
 30
0.0
 11
164.0331993721535
 21
-470.0017956444202
 31
0.0
  0
LINE
  5
3CE
330
3C8
100
AcDbEntity
  8
LAYER-035
  6
Continuous
 62
     5
100
AcDbLine
 10
464.0331993721535
 20
-439.0741112886718
 30
0.0
 11
464.0331993721535
 21
-470.0017956444202
 31
0.0
  0
LINE
  5
3CF
330
3C8
100
AcDbEntity
  8
LAYER-035
  6
Continuous
 62
     5
100
AcDbLine
 10
164.0331993721535
 20
-469.0017956444202
 30
0.0
 11
464.0331993721535
 21
-469.0017956444202
 31
0.0
  0
MTEXT
  5
3D0
330
3C8
100
AcDbEntity
  8
LAYER-036
  6
Continuous
 62
     5
100
AcDbMText
 10
314.0331993721535
 20
-468.5017956444202
 30
0.0
 40
10.0
 41
0.0
 71
     8
 72
     1
  1
300
  7
STRING_H
 73
     1
 44
1.0
  0
ENDBLK
  5
3CA
330
3C8
100
AcDbEntity
  8
0
100
AcDbBlockEnd
  0
BLOCK
  5
3D3
330
3D2
100
AcDbEntity
  8
0
100
AcDbBlockBegin
  2
*D35
 70
     1
 71
     0
 10
0.0
 20
0.0
 30
0.0
  3
*D35
  1

  0
INSERT
  5
3D5
330
3D2
100
AcDbEntity
  8
LAYER-035
  6
Continuous
 62
     5
100
AcDbBlockReference
  2
_OPEN
 10
464.0331993721535
 20
-320.4116313674398
 30
0.0
 41
4.0
 42
4.0
 43
4.0
  0
INSERT
  5
3D6
330
3D2
100
AcDbEntity
  8
LAYER-035
  6
Continuous
 62
     5
100
AcDbBlockReference
  2
_OPEN
 10
164.0331993721535
 20
-320.4116313674398
 30
0.0
 41
4.0
 42
4.0
 43
4.0
 50
180.0
  0
LINE
  5
3D7
330
3D2
100
AcDbEntity
  8
LAYER-035
  6
Continuous
 62
     5
100
AcDbLine
 10
464.0331993721535
 20
-149.0371136107181
 30
0.0
 11
464.0331993721535
 21
-321.4116313674398
 31
0.0
  0
LINE
  5
3D8
330
3D2
100
AcDbEntity
  8
LAYER-035
  6
Continuous
 62
     5
100
AcDbLine
 10
164.0331993721535
 20
-149.0371136107181
 30
0.0
 11
164.0331993721535
 21
-321.4116313674398
 31
0.0
  0
LINE
  5
3D9
330
3D2
100
AcDbEntity
  8
LAYER-035
  6
Continuous
 62
     5
100
AcDbLine
 10
464.0331993721535
 20
-320.4116313674398
 30
0.0
 11
164.0331993721535
 21
-320.4116313674398
 31
0.0
  0
MTEXT
  5
3DA
330
3D2
100
AcDbEntity
  8
LAYER-036
  6
Continuous
 62
     5
100
AcDbMText
 10
295.4041205240893
 20
-319.9116313674398
 30
0.0
 40
10.0
 41
0.0
 71
     8
 72
     1
  1
300
  7
STRING_H
 73
     1
 44
1.0
  0
ENDBLK
  5
3D4
330
3D2
100
AcDbEntity
  8
0
100
AcDbBlockEnd
  0
BLOCK
  5
3DD
330
3DC
100
AcDbEntity
  8
0
100
AcDbBlockBegin
  2
*D46
 70
     1
 71
     0
 10
0.0
 20
0.0
 30
0.0
  3
*D46
  1

  0
INSERT
  5
3DF
330
3DC
100
AcDbEntity
  8
LAYER-035
  6
Continuous
 62
     5
100
AcDbBlockReference
  2
_OPEN
 10
514.0331993721535
 20
-320.4116313674398
 30
0.0
 41
4.0
 42
4.0
 43
4.0
  0
INSERT
  5
3E0
330
3DC
100
AcDbEntity
  8
LAYER-035
  6
Continuous
 62
     5
100
AcDbBlockReference
  2
_OPEN
 10
464.0331993721535
 20
-320.4116313674398
 30
0.0
 41
4.0
 42
4.0
 43
4.0
 50
180.0
  0
LINE
  5
3E1
330
3DC
100
AcDbEntity
  8
LAYER-035
  6
Continuous
 62
     5
100
AcDbLine
 10
514.0331993721535
 20
-44.84184067346621
 30
0.0
 11
514.0331993721535
 21
-321.4116313674398
 31
0.0
  0
LINE
  5
3E2
330
3DC
100
AcDbEntity
  8
LAYER-035
  6
Continuous
 62
     5
100
AcDbLine
 10
464.0331993721535
 20
-149.0371136107181
 30
0.0
 11
464.0331993721535
 21
-321.4116313674398
 31
0.0
  0
LINE
  5
3E3
330
3DC
100
AcDbEntity
  8
LAYER-035
  6
Continuous
 62
     5
100
AcDbLine
 10
514.0331993721535
 20
-320.4116313674398
 30
0.0
 11
464.0331993721535
 21
-320.4116313674398
 31
0.0
  0
MTEXT
  5
3E4
330
3DC
100
AcDbEntity
  8
LAYER-036
  6
Continuous
 62
     5
100
AcDbMText
 10
489.0331993721535
 20
-319.9116313674398
 30
0.0
 40
10.0
 41
0.0
 71
     8
 72
     1
  1
(50)
  7
STRING_H
 73
     1
 44
1.0
  0
ENDBLK
  5
3DE
330
3DC
100
AcDbEntity
  8
0
100
AcDbBlockEnd
  0
BLOCK
  5
3E7
330
3E6
100
AcDbEntity
  8
0
100
AcDbBlockBegin
  2
*D57
 70
     1
 71
     0
 10
0.0
 20
0.0
 30
0.0
  3
*D57
  1

  0
INSERT
  5
3E9
330
3E6
100
AcDbEntity
  8
LAYER-035
  6
Continuous
 62
     5
100
AcDbBlockReference
  2
_OPEN
 10
114.0331993721535
 20
-320.4116313674398
 30
0.0
 41
4.0
 42
4.0
 43
4.0
 50
180.0
  0
INSERT
  5
3EA
330
3E6
100
AcDbEntity
  8
LAYER-035
  6
Continuous
 62
     5
100
AcDbBlockReference
  2
_OPEN
 10
164.0331993721535
 20
-320.4116313674398
 30
0.0
 41
4.0
 42
4.0
 43
4.0
  0
LINE
  5
3EB
330
3E6
100
AcDbEntity
  8
LAYER-035
  6
Continuous
 62
     5
100
AcDbLine
 10
114.0331993721535
 20
-44.84184067346621
 30
0.0
 11
114.0331993721535
 21
-321.4116313674398
 31
0.0
  0
LINE
  5
3EC
330
3E6
100
AcDbEntity
  8
LAYER-035
  6
Continuous
 62
     5
100
AcDbLine
 10
164.0331993721535
 20
-149.0371136107181
 30
0.0
 11
164.0331993721535
 21
-321.4116313674398
 31
0.0
  0
LINE
  5
3ED
330
3E6
100
AcDbEntity
  8
LAYER-035
  6
Continuous
 62
     5
100
AcDbLine
 10
114.0331993721535
 20
-320.4116313674398
 30
0.0
 11
164.0331993721535
 21
-320.4116313674398
 31
0.0
  0
MTEXT
  5
3EE
330
3E6
100
AcDbEntity
  8
LAYER-036
  6
Continuous
 62
     5
100
AcDbMText
 10
139.0331993721535
 20
-319.9116313674398
 30
0.0
 40
10.0
 41
0.0
 71
     8
 72
     1
  1
(50)
  7
STRING_H
 73
     1
 44
1.0
  0
ENDBLK
  5
3E8
330
3E6
100
AcDbEntity
  8
0
100
AcDbBlockEnd
  0
BLOCK
  5
3F1
330
3F0
100
AcDbEntity
  8
0
100
AcDbBlockBegin
  2
*D68
 70
     1
 71
     0
 10
0.0
 20
0.0
 30
0.0
  3
*D68
  1

  0
INSERT
  5
3F3
330
3F0
100
AcDbEntity
  8
LAYER-035
  6
Continuous
 62
     5
100
AcDbBlockReference
  2
_OPEN
 10
-18.40962660020813
 20
-494.6642602700668
 30
0.0
 41
4.0
 42
4.0
 43
4.0
  0
INSERT
  5
3F4
330
3F0
100
AcDbEntity
  8
LAYER-035
  6
Continuous
 62
     5
100
AcDbBlockReference
  2
_OPEN
 10
-503.409626600208
 20
-494.6642602700668
 30
0.0
 41
4.0
 42
4.0
 43
4.0
 50
180.0
  0
LINE
  5
3F5
330
3F0
100
AcDbEntity
  8
LAYER-035
  6
Continuous
 62
     5
100
AcDbLine
 10
-18.40962660020801
 20
-432.3157974773602
 30
0.0
 11
-18.40962660020813
 21
-495.6642602700668
 31
0.0
  0
LINE
  5
3F6
330
3F0
100
AcDbEntity
  8
LAYER-035
  6
Continuous
 62
     5
100
AcDbLine
 10
-503.409626600208
 20
-432.3157974773602
 30
0.0
 11
-503.409626600208
 21
-495.6642602700668
 31
0.0
  0
LINE
  5
3F7
330
3F0
100
AcDbEntity
  8
LAYER-035
  6
Continuous
 62
     5
100
AcDbLine
 10
-18.40962660020813
 20
-494.6642602700668
 30
0.0
 11
-503.409626600208
 21
-494.6642602700668
 31
0.0
  0
MTEXT
  5
3F8
330
3F0
100
AcDbEntity
  8
LAYER-036
  6
Continuous
 62
     5
100
AcDbMText
 10
-260.9096266002081
 20
-494.1642602700668
 30
0.0
 40
10.0
 41
0.0
 71
     8
 72
     1
  1
485
  7
STRING_H
 73
     1
 44
1.0
  0
ENDBLK
  5
3F2
330
3F0
100
AcDbEntity
  8
0
100
AcDbBlockEnd
  0
BLOCK
  5
3FB
330
3FA
100
AcDbEntity
  8
0
100
AcDbBlockBegin
  2
*D79
 70
     1
 71
     0
 10
0.0
 20
0.0
 30
0.0
  3
*D79
  1

  0
INSERT
  5
3FD
330
3FA
100
AcDbEntity
  8
LAYER-035
  6
Continuous
 62
     5
100
AcDbBlockReference
  2
_OPEN
 10
34.33827544862004
 20
8.684202522639794
 30
0.0
 41
4.0
 42
4.0
 43
4.0
 50
90.0
  0
INSERT
  5
3FE
330
3FA
100
AcDbEntity
  8
LAYER-035
  6
Continuous
 62
     5
100
AcDbBlockReference
  2
_OPEN
 10
34.33827544862004
 20
-431.3157974773602
 30
0.0
 41
4.0
 42
4.0
 43
4.0
 50
-90.0
  0
LINE
  5
3FF
330
3FA
100
AcDbEntity
  8
LAYER-035
  6
Continuous
 62
     5
100
AcDbLine
 10
-83.15722363713189
 20
8.684202522639794
 30
0.0
 11
35.33827544862004
 21
8.684202522639794
 31
0.0
  0
LINE
  5
400
330
3FA
100
AcDbEntity
  8
LAYER-035
  6
Continuous
 62
     5
100
AcDbLine
 10
-17.40962660020801
 20
-431.3157974773602
 30
0.0
 11
35.33827544862004
 21
-431.3157974773602
 31
0.0
  0
LINE
  5
401
330
3FA
100
AcDbEntity
  8
LAYER-035
  6
Continuous
 62
     5
100
AcDbLine
 10
34.33827544862004
 20
8.684202522639794
 30
0.0
 11
34.33827544862004
 21
-431.3157974773602
 31
0.0
  0
MTEXT
  5
402
330
3FA
100
AcDbEntity
  8
LAYER-036
  6
Continuous
 62
     5
100
AcDbMText
 10
33.83827544862004
 20
-211.3157974773602
 30
0.0
 40
10.0
 41
0.0
 71
     8
 72
     1
  1
440
  7
STRING_H
 11
6.123031769111886E-17
 21
1.0
 31
0.0
 73
     1
 44
1.0
  0
ENDBLK
  5
3FC
330
3FA
100
AcDbEntity
  8
0
100
AcDbBlockEnd
  0
BLOCK
  5
405
330
404
100
AcDbEntity
  8
0
100
AcDbBlockBegin
  2
*D810
 70
     1
 71
     0
 10
0.0
 20
0.0
 30
0.0
  3
*D810
  1

  0
INSERT
  5
407
330
404
100
AcDbEntity
  8
LAYER-035
  6
Continuous
 62
     5
100
AcDbBlockReference
  2
_OPEN
 10
34.33827544862004
 20
33.68420252263979
 30
0.0
 41
4.0
 42
4.0
 43
4.0
 50
90.0
  0
INSERT
  5
408
330
404
100
AcDbEntity
  8
LAYER-035
  6
Continuous
 62
     5
100
AcDbBlockReference
  2
_OPEN
 10
34.33827544862004
 20
8.684202522639794
 30
0.0
 41
4.0
 42
4.0
 43
4.0
 50
-90.0
  0
LINE
  5
409
330
404
100
AcDbEntity
  8
LAYER-035
  6
Continuous
 62
     5
100
AcDbLine
 10
-24.00261324468039
 20
33.68420252263979
 30
0.0
 11
35.33827544862004
 21
33.68420252263979
 31
0.0
  0
LINE
  5
40A
330
404
100
AcDbEntity
  8
LAYER-035
  6
Continuous
 62
     5
100
AcDbLine
 10
-83.15722363713189
 20
8.684202522639794
 30
0.0
 11
35.33827544862004
 21
8.684202522639794
 31
0.0
  0
LINE
  5
40B
330
404
100
AcDbEntity
  8
LAYER-035
  6
Continuous
 62
     5
100
AcDbLine
 10
34.33827544862004
 20
33.68420252263979
 30
0.0
 11
34.33827544862004
 21
8.684202522639794
 31
0.0
  0
LINE
  5
40C
330
404
100
AcDbEntity
  8
LAYER-035
  6
Continuous
 62
     5
100
AcDbLine
 10
34.33827544862004
 20
33.68420252263979
 30
0.0
 11
34.33827544862004
 21
78.68420252263979
 31
0.0
  0
LINE
  5
40D
330
404
100
AcDbEntity
  8
LAYER-035
  6
Continuous
 62
     5
100
AcDbLine
 10
34.33827544862004
 20
8.684202522639794
 30
0.0
 11
34.33827544862004
 21
0.6842025226397936
 31
0.0
  0
MTEXT
  5
40E
330
404
100
AcDbEntity
  8
LAYER-036
  6
Continuous
 62
     5
100
AcDbMText
 10
33.83827544862004
 20
33.68420252263979
 30
0.0
 40
10.0
 41
0.0
 71
     7
 72
     1
  1
25±5
  7
STRING_H
 11
6.123031769111886E-17
 21
1.0
 31
0.0
 73
     1
 44
1.0
  0
ENDBLK
  5
406
330
404
100
AcDbEntity
  8
0
100
AcDbBlockEnd
  0
ENDSEC
  0
SECTION
  2
ENTITIES
  0
LINE
  5
152
330
1F
100
AcDbEntity
  8
LAYER-033
  6
Continuous
 62
     1
100
AcDbLine
 10
-189.9718281110802
 20
-588.6095046642289
 30
0.0
 11
-21.22182811108016
 21
-588.6095046642289
 31
0.0
  0
LINE
  5
153
330
1F
100
AcDbEntity
  8
LAYER-033
  6
Continuous
 62
     1
100
AcDbLine
 10
-189.9718281110802
 20
-608.6095046642289
 30
0.0
 11
260.0281718889198
 21
-608.6095046642289
 31
0.0
  0
LINE
  5
154
330
1F
100
AcDbEntity
  8
LAYER-033
  6
Continuous
 62
     1
100
AcDbLine
 10
-189.9718281110802
 20
-628.6095046642289
 30
0.0
 11
-4.971828111080157
 21
-628.6095046642289
 31
0.0
  0
LINE
  5
155
330
1F
100
AcDbEntity
  8
LAYER-006
  6
Continuous
 62
     1
100
AcDbLine
 10
-498.1447706789883
 20
33.68420252263979
 30
0.0
 11
-498.1447706789883
 21
27.89334610411095
 31
0.0
  0
LINE
  5
156
330
1F
100
AcDbEntity
  8
LAYER-006
  6
Continuous
 62
     1
100
AcDbLine
 10
-488.2552962064337
 20
33.68420252263979
 30
0.0
 11
-498.1447706789883
 21
33.68420252263979
 31
0.0
  0
LINE
  5
157
330
1F
100
AcDbEntity
  8
LAYER-006
  6
Continuous
 62
     1
100
AcDbLine
 10
-488.2552962064337
 20
33.68420252263979
 30
0.0
 11
-488.2552962064337
 21
27.89334610411095
 31
0.0
  0
LINE
  5
158
330
1F
100
AcDbEntity
  8
LAYER-006
  6
Continuous
 62
     1
100
AcDbLine
 10
-34.8920877172348
 20
33.68420252263979
 30
0.0
 11
-34.8920877172348
 21
27.89334610411095
 31
0.0
  0
LINE
  5
159
330
1F
100
AcDbEntity
  8
LAYER-006
  6
Continuous
 62
     1
100
AcDbLine
 10
-34.8920877172348
 20
33.68420252263979
 30
0.0
 11
-25.00261324468039
 21
33.68420252263979
 31
0.0
  0
LINE
  5
15A
330
1F
100
AcDbEntity
  8
LAYER-006
  6
Continuous
 62
     1
100
AcDbLine
 10
-25.00261324468039
 20
33.68420252263979
 30
0.0
 11
-25.00261324468039
 21
27.89334610411095
 31
0.0
  0
LINE
  5
15B
330
1F
100
AcDbEntity
  8
LAYER-006
  6
Continuous
 62
     1
100
AcDbLine
 10
220.6293706293707
 20
33.68420252263979
 30
0.0
 11
220.6293706293707
 21
27.89334610411095
 31
0.0
  0
LINE
  5
15C
330
1F
100
AcDbEntity
  8
LAYER-006
  6
Continuous
 62
     1
100
AcDbLine
 10
227.9311088322802
 20
33.68420252263979
 30
0.0
 11
220.6293706293707
 21
33.68420252263979
 31
0.0
  0
LINE
  5
15D
330
1F
100
AcDbEntity
  8
LAYER-006
  6
Continuous
 62
     1
100
AcDbLine
 10
230.518845101925
 20
33.68420252263979
 30
0.0
 11
230.518845101925
 21
27.89334610411095
 31
0.0
  0
LINE
  5
15E
330
1F
100
AcDbEntity
  8
LAYER-006
  6
Continuous
 62
     1
100
AcDbLine
 10
230.518845101925
 20
33.68420252263979
 30
0.0
 11
220.6293706293707
 21
33.68420252263979
 31
0.0
  0
LINE
  5
15F
330
1F
100
AcDbEntity
  8
LAYER-006
  6
Continuous
 62
     1
100
AcDbLine
 10
397.547553642382
 20
33.68420252263979
 30
0.0
 11
397.547553642382
 21
27.89334610411095
 31
0.0
  0
LINE
  5
160
330
1F
100
AcDbEntity
  8
LAYER-006
  6
Continuous
 62
     1
100
AcDbLine
 10
397.547553642382
 20
33.68420252263979
 30
0.0
 11
407.4370281149369
 21
33.68420252263979
 31
0.0
  0
LINE
  5
161
330
1F
100
AcDbEntity
  8
LAYER-006
  6
Continuous
 62
     1
100
AcDbLine
 10
400.1352899120268
 20
33.68420252263979
 30
0.0
 11
407.4370281149369
 21
33.68420252263979
 31
0.0
  0
LINE
  5
162
330
1F
100
AcDbEntity
  8
LAYER-006
  6
Continuous
 62
     1
100
AcDbLine
 10
407.4370281149369
 20
33.68420252263979
 30
0.0
 11
407.4370281149369
 21
27.89334610411095
 31
0.0
  0
LINE
  5
163
330
1F
100
AcDbEntity
  8
LAYER-006
  6
Continuous
 62
     1
100
AcDbLine
 10
-504.1883417697546
 20
27.89334610411095
 30
0.0
 11
-504.1883417697546
 21
25.14626833558037
 31
0.0
  0
LINE
  5
164
330
1F
100
AcDbEntity
  8
LAYER-006
  6
Continuous
 62
     1
100
AcDbLine
 10
-18.95904215527088
 20
27.89334610411095
 30
0.0
 11
-18.95904215527088
 21
25.14626833558037
 31
0.0
  0
LINE
  5
165
330
1F
100
AcDbEntity
  8
LAYER-006
  6
Continuous
 62
     1
100
AcDbLine
 10
185.6411856663498
 20
27.89334610411095
 30
0.0
 11
442.4252130779572
 21
27.89334610411095
 31
0.0
  0
LINE
  5
166
330
1F
100
AcDbEntity
  8
LAYER-006
  6
Continuous
 62
     1
100
AcDbLine
 10
185.6411856663498
 20
27.89334610411095
 30
0.0
 11
185.6411856663498
 21
25.14626833567655
 31
0.0
  0
LINE
  5
167
330
1F
100
AcDbEntity
  8
LAYER-006
  6
Continuous
 62
     1
100
AcDbLine
 10
442.4252130779572
 20
27.89334610411095
 30
0.0
 11
442.4252130779572
 21
25.14626833567655
 31
0.0
  0
LINE
  5
168
330
1F
100
AcDbEntity
  8
LAYER-006
  6
Continuous
 62
     1
100
AcDbLine
 10
442.4252130779572
 20
25.14626833567655
 30
0.0
 11
185.6411856663498
 21
25.14626833567655
 31
0.0
  0
LINE
  5
169
330
1F
100
AcDbEntity
  8
LAYER-007
  6
CENTER
 62
     4
100
AcDbLine
 10
-433.26669963948
 20
15.41836917990474
 30
0.0
 11
-433.26669963948
 21
-57.80858245577679
 31
0.0
  0
LINE
  5
16A
330
1F
100
AcDbEntity
  8
LAYER-007
  6
CENTER
 62
     4
100
AcDbLine
 10
-87.45371695936871
 20
15.41836917990474
 30
0.0
 11
-87.45371695936871
 21
-57.80858245577679
 31
0.0
  0
LINE
  5
16B
330
1F
100
AcDbEntity
  8
LAYER-006
  6
Continuous
 62
     1
100
AcDbLine
 10
-437.1126030212672
 20
8.684202522639794
 30
0.0
 11
-437.1126030212672
 21
-11.09475191662455
 31
0.0
  0
LINE
  5
16C
330
1F
100
AcDbEntity
  8
LAYER-006
  6
Continuous
 62
     1
100
AcDbLine
 10
-437.1126030212672
 20
8.684202522639794
 30
0.0
 11
-429.9702063172432
 21
8.684202522639794
 31
0.0
  0
LINE
  5
16D
330
1F
100
AcDbEntity
  8
LAYER-006
  6
Continuous
 62
     1
100
AcDbLine
 10
-429.9702063172432
 20
8.684202522639794
 30
0.0
 11
-429.9702063172432
 21
-11.09475191662455
 31
0.0
  0
LINE
  5
16E
330
1F
100
AcDbEntity
  8
LAYER-006
  6
Continuous
 62
     1
100
AcDbLine
 10
-264.2061144282891
 20
8.684202522639794
 30
0.0
 11
-264.2061144282891
 21
-11.09475191662457
 31
0.0
  0
LINE
  5
16F
330
1F
100
AcDbEntity
  8
LAYER-006
  6
Continuous
 62
     1
100
AcDbLine
 10
-264.2061144282891
 20
8.684202522639794
 30
0.0
 11
-257.0637177242651
 21
8.684202522639794
 31
0.0
  0
LINE
  5
170
330
1F
100
AcDbEntity
  8
LAYER-006
  6
Continuous
 62
     1
100
AcDbLine
 10
-257.0637177242651
 20
8.684202522639794
 30
0.0
 11
-257.0637177242651
 21
-11.09475191662457
 31
0.0
  0
LINE
  5
171
330
1F
100
AcDbEntity
  8
LAYER-006
  6
Continuous
 62
     1
100
AcDbLine
 10
-91.2996203411559
 20
8.684202522639794
 30
0.0
 11
-91.2996203411559
 21
-11.09475191662455
 31
0.0
  0
LINE
  5
172
330
1F
100
AcDbEntity
  8
LAYER-006
  6
Continuous
 62
     1
100
AcDbLine
 10
-91.2996203411559
 20
8.684202522639794
 30
0.0
 11
-84.15722363713189
 21
8.684202522639794
 31
0.0
  0
LINE
  5
173
330
1F
100
AcDbEntity
  8
LAYER-006
  6
Continuous
 62
     1
100
AcDbLine
 10
-84.15722363713189
 20
8.684202522639794
 30
0.0
 11
-84.15722363713189
 21
-11.09475191662455
 31
0.0
  0
LINE
  5
174
330
1F
100
AcDbEntity
  8
LAYER-001
  6
Continuous
 62
     1
100
AcDbLine
 10
-476.8545817948864
 20
7.933008607387137
 30
0.0
 11
-488.2552962064337
 21
7.933008607387137
 31
0.0
  0
LINE
  5
175
330
1F
100
AcDbEntity
  8
LAYER-001
  6
Continuous
 62
     1
100
AcDbLine
 10
-476.8545817948864
 20
7.933008607387137
 30
0.0
 11
-472.2761371631611
 21
3.354563968343882
 31
0.0
  0
LINE
  5
176
330
1F
100
AcDbEntity
  8
LAYER-033
  6
Continuous
 62
     1
100
AcDbLine
 10
-488.2552962064337
 20
-14.95921456094811
 30
0.0
 11
-470.735429628024
 21
-14.95921456094811
 31
0.0
  0
LINE
  5
177
330
1F
100
AcDbEntity
  8
LAYER-001
  6
Continuous
 62
     1
100
AcDbLine
 10
-472.2761371631611
 20
3.354563968343882
 30
0.0
 11
-472.2761371631611
 21
-25.92897736084535
 31
0.0
  0
LINE
  5
178
330
1F
100
AcDbEntity
  8
LAYER-001
  6
Continuous
 62
     1
100
AcDbLine
 10
-498.1447706789883
 20
6.787976109870215
 30
0.0
 11
-501.5781828148878
 21
3.354563968343882
 31
0.0
  0
LINE
  5
179
330
1F
100
AcDbEntity
  8
LAYER-001
  6
Continuous
 62
     1
100
AcDbLine
 10
-501.5781828148878
 20
3.354563968343882
 30
0.0
 11
-501.5781828148878
 21
-25.92897736084535
 31
0.0
  0
LINE
  5
17A
330
1F
100
AcDbEntity
  8
LAYER-001
  6
Continuous
 62
     1
100
AcDbLine
 10
-501.5781828148878
 20
-39.66436620349816
 30
0.0
 11
-501.5781828148878
 21
-71.31579747736021
 31
0.0
  0
LINE
  5
17B
330
1F
100
AcDbEntity
  8
LAYER-001
  6
Continuous
 62
     1
100
AcDbLine
 10
-472.2761371631611
 20
-39.66436620349816
 30
0.0
 11
-472.2761371631611
 21
-71.31579747736021
 31
0.0
  0
ARC
  5
17C
330
1F
100
AcDbEntity
  8
LAYER-033
  6
Continuous
 62
     1
100
AcDbCircle
 10
-486.9271599890245
 20
-14.95921456094811
 30
0.0
 40
8.699044804028386
100
AcDbArc
 50
266.3790214822288
 51
273.6209785072467
  0
ARC
  5
17D
330
1F
100
AcDbEntity
  8
LAYER-033
  6
Continuous
 62
     1
100
AcDbCircle
 10
-486.9271599890245
 20
-14.95921456094811
 30
0.0
 40
8.699044804028386
100
AcDbArc
 50
261.2179576541959
 51
98.78204234580439
  0
ARC
  5
17E
330
1F
100
AcDbEntity
  8
LAYER-033
  6
Continuous
 62
     1
100
AcDbCircle
 10
-486.9271599890245
 20
-14.95921456094811
 30
0.0
 40
8.699044804028386
100
AcDbArc
 50
90.0
 51
90.00003618695909
  0
LINE
  5
17F
330
1F
100
AcDbEntity
  8
LAYER-001
  6
Continuous
 62
     1
100
AcDbLine
 10
-44.96467140552943
 20
7.933008607387137
 30
0.0
 11
-49.54311603725466
 21
3.354563968343882
 31
0.0
  0
LINE
  5
180
330
1F
100
AcDbEntity
  8
LAYER-033
  6
Continuous
 62
     1
100
AcDbLine
 10
-34.8920877172348
 20
-14.95921456094811
 30
0.0
 11
-51.08382357239179
 21
-14.95921456094811
 31
0.0
  0
LINE
  5
181
330
1F
100
AcDbEntity
  8
LAYER-001
  6
Continuous
 62
     1
100
AcDbLine
 10
-24.81951501725314
 20
7.933008607387137
 30
0.0
 11
-20.24107038552791
 21
3.354563968343882
 31
0.0
  0
LINE
  5
182
330
1F
100
AcDbEntity
  8
LAYER-001
  6
Continuous
 62
     1
100
AcDbLine
 10
-49.54311603725466
 20
3.354563968343882
 30
0.0
 11
-49.54311603725466
 21
-25.92897736084535
 31
0.0
  0
LINE
  5
183
330
1F
100
AcDbEntity
  8
LAYER-001
  6
Continuous
 62
     1
100
AcDbLine
 10
-20.24107038552791
 20
3.354563968343882
 30
0.0
 11
-20.24107038552791
 21
-25.92897736084535
 31
0.0
  0
LINE
  5
184
330
1F
100
AcDbEntity
  8
LAYER-001
  6
Continuous
 62
     1
100
AcDbLine
 10
-20.24107038552791
 20
-39.66436620349816
 30
0.0
 11
-20.24107038552791
 21
-71.31579747736021
 31
0.0
  0
LINE
  5
185
330
1F
100
AcDbEntity
  8
LAYER-001
  6
Continuous
 62
     1
100
AcDbLine
 10
-49.54311603725466
 20
-39.66436620349816
 30
0.0
 11
-49.54311603725466
 21
-71.31579747736021
 31
0.0
  0
ARC
  5
186
330
1F
100
AcDbEntity
  8
LAYER-033
  6
Continuous
 62
     1
100
AcDbCircle
 10
-34.8920932113914
 20
-14.95921456094811
 30
0.0
 40
8.699044804028386
100
AcDbArc
 50
90.0
 51
273.6209785072478
  0
ARC
  5
187
330
1F
100
AcDbEntity
  8
LAYER-033
  6
Continuous
 62
     1
100
AcDbCircle
 10
-34.8920932113914
 20
-14.95921456094811
 30
0.0
 40
8.699044804028386
100
AcDbArc
 50
266.3790214822299
 51
273.6209785072478
  0
LINE
  5
188
330
1F
100
AcDbEntity
  8
LAYER-033
  6
Continuous
 62
     1
100
AcDbLine
 10
-34.8920932113914
 20
-25.92897736084535
 30
0.0
 11
-34.8920932113914
 21
-1.985112384784486
 31
0.0
  0
ARC
  5
189
330
1F
100
AcDbEntity
  8
LAYER-033
  6
Continuous
 62
     1
100
AcDbCircle
 10
-34.8920932113914
 20
-14.95921456094811
 30
0.0
 40
8.699044804028386
100
AcDbArc
 50
89.99996381304017
 51
90.0
  0
LINE
  5
18A
330
1F
100
AcDbEntity
  8
LAYER-001
  6
Continuous
 62
     1
100
AcDbLine
 10
-44.96467140552943
 20
7.933008607387137
 30
0.0
 11
-34.8920877172348
 21
7.933008607387137
 31
0.0
  0
LINE
  5
18B
330
1F
100
AcDbEntity
  8
LAYER-001
  6
Continuous
 62
     1
100
AcDbLine
 10
-25.00261324468039
 20
7.933008607387137
 30
0.0
 11
-24.81951501725314
 21
7.933008607387137
 31
0.0
  0
LINE
  5
18C
330
1F
100
AcDbEntity
  8
LAYER-001
  6
Continuous
 62
     1
100
AcDbLine
 10
313.6834200558811
 20
7.933008607387137
 30
0.0
 11
309.5628198853838
 21
7.933008607387137
 31
0.0
  0
LINE
  5
18D
330
1F
100
AcDbEntity
  8
LAYER-033
  6
HIDDEN
 62
     1
100
AcDbLine
 10
313.6834200558811
 20
-6.260169756919709
 30
0.0
 11
309.5628198853838
 21
-6.260169756919709
 31
0.0
  0
LINE
  5
18E
330
1F
100
AcDbEntity
  8
LAYER-033
  6
HIDDEN
 62
     1
100
AcDbLine
 10
313.6834200558811
 20
-23.64089321092661
 30
0.0
 11
309.5628198853838
 21
-23.64089321092661
 31
0.0
  0
LINE
  5
18F
330
1F
100
AcDbEntity
  8
LAYER-001
  6
Continuous
 62
     1
100
AcDbLine
 10
309.5628198853838
 20
-73.19519730768582
 30
0.0
 11
309.5628198853838
 21
7.933008607387137
 31
0.0
  0
ARC
  5
190
330
1F
100
AcDbEntity
  8
LAYER-001
  6
Continuous
 62
     1
100
AcDbCircle
 10
305.4422197167622
 20
-73.19519730768582
 30
0.0
 40
4.120600170329235
100
AcDbArc
 50
270.0
 51
0.0
  0
LINE
  5
191
330
1F
100
AcDbEntity
  8
LAYER-001
  6
Continuous
 62
     1
100
AcDbLine
 10
313.6834200558811
 20
-73.19519730768582
 30
0.0
 11
313.6834200558811
 21
7.933008607387137
 31
0.0
  0
LINE
  5
192
330
1F
100
AcDbEntity
  8
LAYER-001
  6
Continuous
 62
     1
100
AcDbLine
 10
305.4422197167622
 20
-77.31579747736021
 30
0.0
 11
219.107996777922
 21
-77.31579747736021
 31
0.0
  0
LINE
  5
193
330
1F
100
AcDbEntity
  8
LAYER-001
  6
Continuous
 62
     1
100
AcDbLine
 10
219.107996777922
 20
-81.43639764768943
 30
0.0
 11
219.107996777922
 21
-77.31579747736021
 31
0.0
  0
LINE
  5
194
330
1F
100
AcDbEntity
  8
LAYER-001
  6
Continuous
 62
     1
100
AcDbLine
 10
305.4422197167622
 20
-81.43639764768943
 30
0.0
 11
219.107996777922
 21
-81.43639764768943
 31
0.0
  0
ARC
  5
195
330
1F
100
AcDbEntity
  8
LAYER-001
  6
Continuous
 62
     1
100
AcDbCircle
 10
305.4422197167622
 20
-73.19519730768582
 30
0.0
 40
8.24120034065847
100
AcDbArc
 50
270.0
 51
0.0
  0
LINE
  5
196
330
1F
100
AcDbEntity
  8
LAYER-006
  6
Continuous
 62
     1
100
AcDbLine
 10
-440.9585173913656
 20
-1.205277444070305
 30
0.0
 11
-426.1242919471448
 21
-1.205277444070305
 31
0.0
  0
LINE
  5
197
330
1F
100
AcDbEntity
  8
LAYER-006
  6
Continuous
 62
     1
100
AcDbLine
 10
-440.9585173913656
 20
-1.205277444070305
 30
0.0
 11
-440.9585173913656
 21
-11.09475191662455
 31
0.0
  0
LINE
  5
198
330
1F
100
AcDbEntity
  8
LAYER-006
  6
Continuous
 62
     1
100
AcDbLine
 10
-426.1242919471448
 20
-1.205277444070305
 30
0.0
 11
-426.1242919471448
 21
-11.09475191662455
 31
0.0
  0
LINE
  5
199
330
1F
100
AcDbEntity
  8
LAYER-006
  6
Continuous
 62
     1
100
AcDbLine
 10
-268.0520287983875
 20
-1.205277444070305
 30
0.0
 11
-253.2178033541667
 21
-1.205277444070305
 31
0.0
  0
LINE
  5
19A
330
1F
100
AcDbEntity
  8
LAYER-006
  6
Continuous
 62
     1
100
AcDbLine
 10
-268.0520287983875
 20
-1.205277444070305
 30
0.0
 11
-268.0520287983875
 21
-11.09475191662457
 31
0.0
  0
LINE
  5
19B
330
1F
100
AcDbEntity
  8
LAYER-006
  6
Continuous
 62
     1
100
AcDbLine
 10
-253.2178033541667
 20
-1.205277444070305
 30
0.0
 11
-253.2178033541667
 21
-11.09475191662457
 31
0.0
  0
LINE
  5
19C
330
1F
100
AcDbEntity
  8
LAYER-006
  6
Continuous
 62
     1
100
AcDbLine
 10
-95.1455347112543
 20
-1.205277444070305
 30
0.0
 11
-80.31130926703349
 21
-1.205277444070305
 31
0.0
  0
LINE
  5
19D
330
1F
100
AcDbEntity
  8
LAYER-006
  6
Continuous
 62
     1
100
AcDbLine
 10
-95.1455347112543
 20
-1.205277444070305
 30
0.0
 11
-95.1455347112543
 21
-11.09475191662455
 31
0.0
  0
LINE
  5
19E
330
1F
100
AcDbEntity
  8
LAYER-006
  6
Continuous
 62
     1
100
AcDbLine
 10
-80.31130926703349
 20
-1.205277444070305
 30
0.0
 11
-80.31130926703349
 21
-11.09475191662455
 31
0.0
  0
LINE
  5
19F
330
1F
100
AcDbEntity
  8
LAYER-006
  6
Continuous
 62
     1
100
AcDbLine
 10
217.8822928608407
 20
-1.205277444070305
 30
0.0
 11
217.8822928608407
 21
-11.09475191662455
 31
0.0
  0
LINE
  5
1A0
330
1F
100
AcDbEntity
  8
LAYER-006
  6
Continuous
 62
     1
100
AcDbLine
 10
217.8822928608407
 20
-1.205277444070305
 30
0.0
 11
220.6293706293707
 21
-1.205277444070305
 31
0.0
  0
LINE
  5
1A1
330
1F
100
AcDbEntity
  8
LAYER-006
  6
Continuous
 62
     1
100
AcDbLine
 10
230.518845101925
 20
-1.205277444070305
 30
0.0
 11
232.716518305061
 21
-1.205277444070305
 31
0.0
  0
LINE
  5
1A2
330
1F
100
AcDbEntity
  8
LAYER-006
  6
Continuous
 62
     1
100
AcDbLine
 10
232.716518305061
 20
-1.205277444070305
 30
0.0
 11
232.716518305061
 21
-11.09475191662455
 31
0.0
  0
LINE
  5
1A3
330
1F
100
AcDbEntity
  8
LAYER-006
  6
Continuous
 62
     1
100
AcDbLine
 10
395.3498804392467
 20
-1.205277444070305
 30
0.0
 11
395.3498804392467
 21
-11.09475191662455
 31
0.0
  0
LINE
  5
1A4
330
1F
100
AcDbEntity
  8
LAYER-006
  6
Continuous
 62
     1
100
AcDbLine
 10
397.547553642382
 20
-1.205277444070305
 30
0.0
 11
395.3498804392467
 21
-1.205277444070305
 31
0.0
  0
LINE
  5
1A5
330
1F
100
AcDbEntity
  8
LAYER-006
  6
Continuous
 62
     1
100
AcDbLine
 10
410.1841058834668
 20
-1.205277444070305
 30
0.0
 11
410.1841058834668
 21
-11.09475191662455
 31
0.0
  0
LINE
  5
1A6
330
1F
100
AcDbEntity
  8
LAYER-006
  6
Continuous
 62
     1
100
AcDbLine
 10
410.1841058834668
 20
-1.205277444070305
 30
0.0
 11
407.4370281149369
 21
-1.205277444070305
 31
0.0
  0
LINE
  5
1A7
330
1F
100
AcDbEntity
  8
LAYER-006
  6
HIDDEN
 62
     4
100
AcDbLine
 10
197.0044963278681
 20
-5.60059637956374
 30
0.0
 11
209.0916440015423
 21
-5.60059637956374
 31
0.0
  0
LINE
  5
1A8
330
1F
100
AcDbEntity
  8
LAYER-006
  6
HIDDEN
 62
     4
100
AcDbLine
 10
197.0044963278681
 20
-5.60059637956374
 30
0.0
 11
197.0044963278681
 21
-13.84184067346621
 31
0.0
  0
LINE
  5
1A9
330
1F
100
AcDbEntity
  8
LAYER-006
  6
HIDDEN
 62
     4
100
AcDbLine
 10
209.0916440015423
 20
-5.60059637956374
 30
0.0
 11
214.585799538604
 21
-11.09475191662455
 31
0.0
  0
LINE
  5
1AA
330
1F
100
AcDbEntity
  8
LAYER-006
  6
HIDDEN
 62
     4
100
AcDbLine
 10
418.9747547428681
 20
-5.60059637956374
 30
0.0
 11
413.4805992057037
 21
-11.09475191662455
 31
0.0
  0
LINE
  5
1AB
330
1F
100
AcDbEntity
  8
LAYER-006
  6
HIDDEN
 62
     4
100
AcDbLine
 10
431.0619024162214
 20
-5.60059637956374
 30
0.0
 11
418.9747547428681
 21
-5.60059637956374
 31
0.0
  0
LINE
  5
1AC
330
1F
100
AcDbEntity
  8
LAYER-006
  6
HIDDEN
 62
     4
100
AcDbLine
 10
431.0619024162214
 20
-5.60059637956374
 30
0.0
 11
431.0619024162214
 21
-13.84184067346621
 31
0.0
  0
LINE
  5
1AD
330
1F
100
AcDbEntity
  8
LAYER-006
  6
Continuous
 62
     1
100
AcDbLine
 10
-443.1561741120344
 20
-11.09475191662455
 30
0.0
 11
-423.9266297323208
 21
-11.09475191662455
 31
0.0
  0
LINE
  5
1AE
330
1F
100
AcDbEntity
  8
LAYER-006
  6
Continuous
 62
     1
100
AcDbLine
 10
-443.1561741120344
 20
-11.09475191662455
 30
0.0
 11
-443.1561741120344
 21
-16.03949189997979
 31
0.0
  0
LINE
  5
1AF
330
1F
100
AcDbEntity
  8
LAYER-006
  6
Continuous
 62
     1
100
AcDbLine
 10
-423.9266297323208
 20
-11.09475191662455
 30
0.0
 11
-423.9266297323208
 21
-16.03949189997979
 31
0.0
  0
LINE
  5
1B0
330
1F
100
AcDbEntity
  8
LAYER-006
  6
Continuous
 62
     1
100
AcDbLine
 10
-270.2496855190335
 20
-11.09475191662457
 30
0.0
 11
-251.0201411393427
 21
-11.09475191662457
 31
0.0
  0
LINE
  5
1B1
330
1F
100
AcDbEntity
  8
LAYER-006
  6
Continuous
 62
     1
100
AcDbLine
 10
-270.2496855190335
 20
-11.09475191662457
 30
0.0
 11
-270.2496855190335
 21
-16.03949189997977
 31
0.0
  0
LINE
  5
1B2
330
1F
100
AcDbEntity
  8
LAYER-006
  6
Continuous
 62
     1
100
AcDbLine
 10
-251.0201411393427
 20
-11.09475191662457
 30
0.0
 11
-251.0201411393427
 21
-16.03949189997977
 31
0.0
  0
LINE
  5
1B3
330
1F
100
AcDbEntity
  8
LAYER-006
  6
Continuous
 62
     1
100
AcDbLine
 10
-97.34319143192312
 20
-11.09475191662455
 30
0.0
 11
-78.11364705220944
 21
-11.09475191662455
 31
0.0
  0
LINE
  5
1B4
330
1F
100
AcDbEntity
  8
LAYER-006
  6
Continuous
 62
     1
100
AcDbLine
 10
-97.34319143192312
 20
-11.09475191662455
 30
0.0
 11
-97.34319143192312
 21
-16.03949189997979
 31
0.0
  0
LINE
  5
1B5
330
1F
100
AcDbEntity
  8
LAYER-006
  6
Continuous
 62
     1
100
AcDbLine
 10
-78.11364705220944
 20
-11.09475191662455
 30
0.0
 11
-78.11364705220944
 21
-16.03949189997979
 31
0.0
  0
LINE
  5
1B6
330
1F
100
AcDbEntity
  8
LAYER-006
  6
HIDDEN
 62
     4
100
AcDbLine
 10
214.585799538604
 20
-11.09475191662455
 30
0.0
 11
220.6293706293707
 21
-11.09475191662455
 31
0.0
  0
LINE
  5
1B7
330
1F
100
AcDbEntity
  8
LAYER-006
  6
HIDDEN
 62
     4
100
AcDbLine
 10
230.518845101925
 20
-11.09475191662455
 30
0.0
 11
236.0130061331422
 21
-11.09475191662455
 31
0.0
  0
LINE
  5
1B8
330
1F
100
AcDbEntity
  8
LAYER-006
  6
HIDDEN
 62
     4
100
AcDbLine
 10
236.0130061331422
 20
-11.09475191662455
 30
0.0
 11
236.0130061331422
 21
-13.84184067346621
 31
0.0
  0
LINE
  5
1B9
330
1F
100
AcDbEntity
  8
LAYER-006
  6
HIDDEN
 62
     4
100
AcDbLine
 10
392.0533926111648
 20
-11.09475191662455
 30
0.0
 11
392.0533926111648
 21
-13.84184067346621
 31
0.0
  0
LINE
  5
1BA
330
1F
100
AcDbEntity
  8
LAYER-006
  6
HIDDEN
 62
     4
100
AcDbLine
 10
397.547553642382
 20
-11.09475191662455
 30
0.0
 11
392.0533926111648
 21
-11.09475191662455
 31
0.0
  0
LINE
  5
1BB
330
1F
100
AcDbEntity
  8
LAYER-006
  6
HIDDEN
 62
     4
100
AcDbLine
 10
413.4805992057037
 20
-11.09475191662455
 30
0.0
 11
407.4370281149369
 21
-11.09475191662455
 31
0.0
  0
LINE
  5
1BC
330
1F
100
AcDbEntity
  8
LAYER-006
  6
Continuous
 62
     1
100
AcDbLine
 10
-443.1561741120344
 20
-13.84184067346621
 30
0.0
 11
-423.9266297323208
 21
-13.84184067346621
 31
0.0
  0
LINE
  5
1BD
330
1F
100
AcDbEntity
  8
LAYER-006
  6
Continuous
 62
     1
100
AcDbLine
 10
-270.2496855190335
 20
-13.84184067346618
 30
0.0
 11
-251.0201411393427
 21
-13.84184067346618
 31
0.0
  0
LINE
  5
1BE
330
1F
100
AcDbEntity
  8
LAYER-006
  6
Continuous
 62
     1
100
AcDbLine
 10
-97.34319143192312
 20
-13.84184067346621
 30
0.0
 11
-78.11364705220944
 21
-13.84184067346621
 31
0.0
  0
LINE
  5
1BF
330
1F
100
AcDbEntity
  8
LAYER-006
  6
Continuous
 62
     1
100
AcDbLine
 10
197.0044963278681
 20
-13.84184067346621
 30
0.0
 11
197.0044963278681
 21
-21.5336474370406
 31
0.0
  0
LINE
  5
1C0
330
1F
100
AcDbEntity
  8
LAYER-006
  6
Continuous
 62
     1
100
AcDbLine
 10
197.0044963278681
 20
-13.84184067346621
 30
0.0
 11
220.6293706293707
 21
-13.84184067346621
 31
0.0
  0
LINE
  5
1C1
330
1F
100
AcDbEntity
  8
LAYER-006
  6
Continuous
 62
     1
100
AcDbLine
 10
230.518845101925
 20
-13.84184067346621
 30
0.0
 11
236.0130061331422
 21
-13.84184067346621
 31
0.0
  0
LINE
  5
1C2
330
1F
100
AcDbEntity
  8
LAYER-006
  6
Continuous
 62
     1
100
AcDbLine
 10
236.0130061331422
 20
-13.84184067346621
 30
0.0
 11
236.0130061331422
 21
-16.03949189997979
 31
0.0
  0
LINE
  5
1C3
330
1F
100
AcDbEntity
  8
LAYER-006
  6
Continuous
 62
     1
100
AcDbLine
 10
392.0533926111648
 20
-13.84184067346621
 30
0.0
 11
392.0533926111648
 21
-16.03949189997979
 31
0.0
  0
LINE
  5
1C4
330
1F
100
AcDbEntity
  8
LAYER-006
  6
Continuous
 62
     1
100
AcDbLine
 10
397.547553642382
 20
-13.84184067346621
 30
0.0
 11
392.0533926111648
 21
-13.84184067346621
 31
0.0
  0
LINE
  5
1C5
330
1F
100
AcDbEntity
  8
LAYER-006
  6
Continuous
 62
     1
100
AcDbLine
 10
431.0619024162214
 20
-13.84184067346621
 30
0.0
 11
431.0619024162214
 21
-21.5336474370406
 31
0.0
  0
LINE
  5
1C6
330
1F
100
AcDbEntity
  8
LAYER-006
  6
Continuous
 62
     1
100
AcDbLine
 10
431.0619024162214
 20
-13.84184067346621
 30
0.0
 11
407.4370281149369
 21
-13.84184067346621
 31
0.0
  0
LINE
  5
1C7
330
1F
100
AcDbEntity
  8
LAYER-006
  6
Continuous
 62
     1
100
AcDbLine
 10
-443.1561741120344
 20
-16.03949189997979
 30
0.0
 11
-423.9266297323208
 21
-16.03949189997979
 31
0.0
  0
LINE
  5
1C8
330
1F
100
AcDbEntity
  8
LAYER-006
  6
Continuous
 62
     1
100
AcDbLine
 10
-440.9585173913656
 20
-16.03949189997979
 30
0.0
 11
-440.9585173913656
 21
-25.92897736084535
 31
0.0
  0
LINE
  5
1C9
330
1F
100
AcDbEntity
  8
LAYER-006
  6
Continuous
 62
     1
100
AcDbLine
 10
-437.1126030212672
 20
-16.03949189997979
 30
0.0
 11
-437.1126030212672
 21
-25.92897736084535
 31
0.0
  0
LINE
  5
1CA
330
1F
100
AcDbEntity
  8
LAYER-006
  6
Continuous
 62
     1
100
AcDbLine
 10
-429.9702063172432
 20
-16.03949189997979
 30
0.0
 11
-429.9702063172432
 21
-25.92897736084535
 31
0.0
  0
LINE
  5
1CB
330
1F
100
AcDbEntity
  8
LAYER-006
  6
Continuous
 62
     1
100
AcDbLine
 10
-426.1242919471448
 20
-16.03949189997979
 30
0.0
 11
-426.1242919471448
 21
-25.92897736084535
 31
0.0
  0
LINE
  5
1CC
330
1F
100
AcDbEntity
  8
LAYER-006
  6
Continuous
 62
     1
100
AcDbLine
 10
-270.2496855190335
 20
-16.03949189997977
 30
0.0
 11
-251.0201411393427
 21
-16.03949189997977
 31
0.0
  0
LINE
  5
1CD
330
1F
100
AcDbEntity
  8
LAYER-006
  6
Continuous
 62
     1
100
AcDbLine
 10
-268.0520287983875
 20
-16.03949189997977
 30
0.0
 11
-268.0520287983875
 21
-25.92897736084538
 31
0.0
  0
LINE
  5
1CE
330
1F
100
AcDbEntity
  8
LAYER-006
  6
Continuous
 62
     1
100
AcDbLine
 10
-264.2061144282891
 20
-16.03949189997977
 30
0.0
 11
-264.2061144282891
 21
-25.92897736084538
 31
0.0
  0
LINE
  5
1CF
330
1F
100
AcDbEntity
  8
LAYER-006
  6
Continuous
 62
     1
100
AcDbLine
 10
-257.0637177242651
 20
-16.03949189997977
 30
0.0
 11
-257.0637177242651
 21
-25.92897736084538
 31
0.0
  0
LINE
  5
1D0
330
1F
100
AcDbEntity
  8
LAYER-006
  6
Continuous
 62
     1
100
AcDbLine
 10
-253.2178033541667
 20
-16.03949189997977
 30
0.0
 11
-253.2178033541667
 21
-25.92897736084538
 31
0.0
  0
LINE
  5
1D1
330
1F
100
AcDbEntity
  8
LAYER-006
  6
Continuous
 62
     1
100
AcDbLine
 10
-97.34319143192312
 20
-16.03949189997979
 30
0.0
 11
-78.11364705220944
 21
-16.03949189997979
 31
0.0
  0
LINE
  5
1D2
330
1F
100
AcDbEntity
  8
LAYER-006
  6
Continuous
 62
     1
100
AcDbLine
 10
-95.1455347112543
 20
-16.03949189997979
 30
0.0
 11
-95.1455347112543
 21
-25.92897736084535
 31
0.0
  0
LINE
  5
1D3
330
1F
100
AcDbEntity
  8
LAYER-006
  6
Continuous
 62
     1
100
AcDbLine
 10
-91.2996203411559
 20
-16.03949189997979
 30
0.0
 11
-91.2996203411559
 21
-25.92897736084535
 31
0.0
  0
LINE
  5
1D4
330
1F
100
AcDbEntity
  8
LAYER-006
  6
Continuous
 62
     1
100
AcDbLine
 10
-84.15722363713189
 20
-16.03949189997979
 30
0.0
 11
-84.15722363713189
 21
-25.92897736084535
 31
0.0
  0
LINE
  5
1D5
330
1F
100
AcDbEntity
  8
LAYER-006
  6
Continuous
 62
     1
100
AcDbLine
 10
-80.31130926703349
 20
-16.03949189997979
 30
0.0
 11
-80.31130926703349
 21
-25.92897736084535
 31
0.0
  0
LINE
  5
1D6
330
1F
100
AcDbEntity
  8
LAYER-006
  6
Continuous
 62
     1
100
AcDbLine
 10
214.585799538604
 20
-16.03949189997979
 30
0.0
 11
209.0916440015423
 21
-21.5336474370406
 31
0.0
  0
LINE
  5
1D7
330
1F
100
AcDbEntity
  8
LAYER-006
  6
Continuous
 62
     1
100
AcDbLine
 10
214.585799538604
 20
-16.03949189997979
 30
0.0
 11
220.6293706293707
 21
-16.03949189997979
 31
0.0
  0
LINE
  5
1D8
330
1F
100
AcDbEntity
  8
LAYER-006
  6
Continuous
 62
     1
100
AcDbLine
 10
217.8822928608407
 20
-16.03949189997979
 30
0.0
 11
217.8822928608407
 21
-25.92897736084541
 31
0.0
  0
LINE
  5
1D9
330
1F
100
AcDbEntity
  8
LAYER-006
  6
Continuous
 62
     1
100
AcDbLine
 10
230.518845101925
 20
-16.03949189997979
 30
0.0
 11
236.0130061331422
 21
-16.03949189997979
 31
0.0
  0
LINE
  5
1DA
330
1F
100
AcDbEntity
  8
LAYER-006
  6
Continuous
 62
     1
100
AcDbLine
 10
232.716518305061
 20
-16.03949189997979
 30
0.0
 11
232.716518305061
 21
-25.92897736084541
 31
0.0
  0
LINE
  5
1DB
330
1F
100
AcDbEntity
  8
LAYER-006
  6
Continuous
 62
     1
100
AcDbLine
 10
395.3498804392467
 20
-16.03949189997979
 30
0.0
 11
395.3498804392467
 21
-25.92897736084541
 31
0.0
  0
LINE
  5
1DC
330
1F
100
AcDbEntity
  8
LAYER-006
  6
Continuous
 62
     1
100
AcDbLine
 10
397.547553642382
 20
-16.03949189997979
 30
0.0
 11
392.0533926111648
 21
-16.03949189997979
 31
0.0
  0
LINE
  5
1DD
330
1F
100
AcDbEntity
  8
LAYER-006
  6
Continuous
 62
     1
100
AcDbLine
 10
410.1841058834668
 20
-16.03949189997979
 30
0.0
 11
410.1841058834668
 21
-25.92897736084541
 31
0.0
  0
LINE
  5
1DE
330
1F
100
AcDbEntity
  8
LAYER-006
  6
Continuous
 62
     1
100
AcDbLine
 10
413.4805992057037
 20
-16.03949189997979
 30
0.0
 11
418.9747547428681
 21
-21.5336474370406
 31
0.0
  0
LINE
  5
1DF
330
1F
100
AcDbEntity
  8
LAYER-006
  6
Continuous
 62
     1
100
AcDbLine
 10
413.4805992057037
 20
-16.03949189997979
 30
0.0
 11
407.4370281149369
 21
-16.03949189997979
 31
0.0
  0
LINE
  5
1E0
330
1F
100
AcDbEntity
  8
LAYER-006
  6
Continuous
 62
     1
100
AcDbLine
 10
197.0044963278681
 20
-21.5336474370406
 30
0.0
 11
209.0916440015423
 21
-21.5336474370406
 31
0.0
  0
LINE
  5
1E1
330
1F
100
AcDbEntity
  8
LAYER-006
  6
Continuous
 62
     1
100
AcDbLine
 10
431.0619024162214
 20
-21.5336474370406
 30
0.0
 11
418.9747547428681
 21
-21.5336474370406
 31
0.0
  0
LINE
  5
1E2
330
1F
100
AcDbEntity
  8
LAYER-006
  6
Continuous
 62
     1
100
AcDbLine
 10
-18.40962660020801
 20
-25.92897736084535
 30
0.0
 11
-18.40962660020801
 21
-39.66436620349816
 31
0.0
  0
LINE
  5
1E3
330
1F
100
AcDbEntity
  8
LAYER-006
  6
Continuous
 62
     1
100
AcDbLine
 10
209.0916440015423
 20
-25.92897736084535
 30
0.0
 11
242.0565772239096
 21
-25.92897736084535
 31
0.0
  0
LINE
  5
1E4
330
1F
100
AcDbEntity
  8
LAYER-006
  6
Continuous
 62
     1
100
AcDbLine
 10
242.0565772239096
 20
-25.92897736084535
 30
0.0
 11
242.0565772239096
 21
-39.66436620349816
 31
0.0
  0
LINE
  5
1E5
330
1F
100
AcDbEntity
  8
LAYER-006
  6
Continuous
 62
     1
100
AcDbLine
 10
386.009821520398
 20
-25.92897736084535
 30
0.0
 11
386.009821520398
 21
-39.66436620349816
 31
0.0
  0
LINE
  5
1E6
330
1F
100
AcDbEntity
  8
LAYER-006
  6
Continuous
 62
     1
100
AcDbLine
 10
418.9747547428681
 20
-25.92897736084535
 30
0.0
 11
386.009821520398
 21
-25.92897736084535
 31
0.0
  0
LINE
  5
1E7
330
1F
100
AcDbEntity
  8
LAYER-006
  6
Continuous
 62
     1
100
AcDbLine
 10
-503.409626600208
 20
-39.66436620349816
 30
0.0
 11
-503.409626600208
 21
-25.92897736084535
 31
0.0
  0
LINE
  5
1E8
330
1F
100
AcDbEntity
  8
LAYER-006
  6
Continuous
 62
     1
100
AcDbLine
 10
-443.1561741120344
 20
-39.66436620349816
 30
0.0
 11
-443.1561741120344
 21
-42.41144397202879
 31
0.0
  0
LINE
  5
1E9
330
1F
100
AcDbEntity
  8
LAYER-006
  6
Continuous
 62
     1
100
AcDbLine
 10
-423.9266297323209
 20
-39.66436620349816
 30
0.0
 11
-423.9266297323209
 21
-42.41144397202879
 31
0.0
  0
LINE
  5
1EA
330
1F
100
AcDbEntity
  8
LAYER-006
  6
Continuous
 62
     1
100
AcDbLine
 10
-270.2496855190335
 20
-39.66436620349819
 30
0.0
 11
-270.2496855190335
 21
-42.41144397202876
 31
0.0
  0
LINE
  5
1EB
330
1F
100
AcDbEntity
  8
LAYER-006
  6
Continuous
 62
     1
100
AcDbLine
 10
-251.0201411393428
 20
-39.66436620349819
 30
0.0
 11
-251.0201411393428
 21
-42.41144397202876
 31
0.0
  0
LINE
  5
1EC
330
1F
100
AcDbEntity
  8
LAYER-006
  6
Continuous
 62
     1
100
AcDbLine
 10
-97.34319143192312
 20
-39.66436620349816
 30
0.0
 11
-97.34319143192312
 21
-42.41144397202879
 31
0.0
  0
LINE
  5
1ED
330
1F
100
AcDbEntity
  8
LAYER-006
  6
Continuous
 62
     1
100
AcDbLine
 10
-78.11364705220956
 20
-39.66436620349816
 30
0.0
 11
-78.11364705220956
 21
-42.41144397202879
 31
0.0
  0
LINE
  5
1EE
330
1F
100
AcDbEntity
  8
LAYER-006
  6
Continuous
 62
     1
100
AcDbLine
 10
209.0916440015423
 20
-39.66436620349816
 30
0.0
 11
209.0916440015423
 21
-25.92897736084535
 31
0.0
  0
LINE
  5
1EF
330
1F
100
AcDbEntity
  8
LAYER-006
  6
Continuous
 62
     1
100
AcDbLine
 10
215.5716107378959
 20
-39.66436620349816
 30
0.0
 11
215.5716107378959
 21
-42.22784897234385
 31
0.0
  0
LINE
  5
1F0
330
1F
100
AcDbEntity
  8
LAYER-006
  6
Continuous
 62
     1
100
AcDbLine
 10
234.8011551170246
 20
-39.66436620349816
 30
0.0
 11
234.8011551170246
 21
-42.22784897234385
 31
0.0
  0
LINE
  5
1F1
330
1F
100
AcDbEntity
  8
LAYER-006
  6
Continuous
 62
     1
100
AcDbLine
 10
242.0565772239096
 20
-39.66436620349816
 30
0.0
 11
209.0916440015423
 21
-39.66436620349816
 31
0.0
  0
LINE
  5
1F2
330
1F
100
AcDbEntity
  8
LAYER-006
  6
Continuous
 62
     1
100
AcDbLine
 10
386.009821520398
 20
-39.66436620349816
 30
0.0
 11
418.9747547428681
 21
-39.66436620349816
 31
0.0
  0
LINE
  5
1F3
330
1F
100
AcDbEntity
  8
LAYER-006
  6
Continuous
 62
     1
100
AcDbLine
 10
393.2652436272824
 20
-39.66436620349816
 30
0.0
 11
393.2652436272824
 21
-42.22784897234385
 31
0.0
  0
LINE
  5
1F4
330
1F
100
AcDbEntity
  8
LAYER-006
  6
Continuous
 62
     1
100
AcDbLine
 10
412.4947880064117
 20
-39.66436620349816
 30
0.0
 11
412.4947880064117
 21
-42.22784897234385
 31
0.0
  0
LINE
  5
1F5
330
1F
100
AcDbEntity
  8
LAYER-006
  6
Continuous
 62
     1
100
AcDbLine
 10
418.9747547428681
 20
-39.66436620349816
 30
0.0
 11
418.9747547428681
 21
-25.92897736084535
 31
0.0
  0
LINE
  5
1F6
330
1F
100
AcDbEntity
  8
LAYER-006
  6
Continuous
 62
     1
100
AcDbLine
 10
-443.1561741120344
 20
-42.41144397202879
 30
0.0
 11
-423.9266297323209
 21
-42.41144397202879
 31
0.0
  0
LINE
  5
1F7
330
1F
100
AcDbEntity
  8
LAYER-006
  6
Continuous
 62
     1
100
AcDbLine
 10
-270.2496855190335
 20
-42.41144397202876
 30
0.0
 11
-251.0201411393428
 21
-42.41144397202876
 31
0.0
  0
LINE
  5
1F8
330
1F
100
AcDbEntity
  8
LAYER-006
  6
Continuous
 62
     1
100
AcDbLine
 10
-97.34319143192312
 20
-42.41144397202879
 30
0.0
 11
-78.11364705220956
 21
-42.41144397202879
 31
0.0
  0
LINE
  5
1F9
330
1F
100
AcDbEntity
  8
LAYER-006
  6
Continuous
 62
     1
100
AcDbLine
 10
220.0799550756651
 20
-42.22784897234385
 30
0.0
 11
215.5716107378959
 21
-42.22784897234385
 31
0.0
  0
LINE
  5
1FA
330
1F
100
AcDbEntity
  8
LAYER-006
  6
Continuous
 62
     1
100
AcDbLine
 10
234.8011551170246
 20
-42.22784897234385
 30
0.0
 11
231.0682661497873
 21
-42.22784897234385
 31
0.0
  0
LINE
  5
1FB
330
1F
100
AcDbEntity
  8
LAYER-006
  6
Continuous
 62
     1
100
AcDbLine
 10
393.2652436272824
 20
-42.22784897234385
 30
0.0
 11
396.9981325945203
 21
-42.22784897234385
 31
0.0
  0
LINE
  5
1FC
330
1F
100
AcDbEntity
  8
LAYER-006
  6
Continuous
 62
     1
100
AcDbLine
 10
407.9864436686426
 20
-42.22784897234385
 30
0.0
 11
412.4947880064117
 21
-42.22784897234385
 31
0.0
  0
LINE
  5
1FD
330
1F
100
AcDbEntity
  8
LAYER-006
  6
Continuous
 62
     1
100
AcDbLine
 10
-440.9585173913656
 20
-50.95262553500083
 30
0.0
 11
-440.9585173913656
 21
-42.41144397202879
 31
0.0
  0
LINE
  5
1FE
330
1F
100
AcDbEntity
  8
LAYER-006
  6
Continuous
 62
     1
100
AcDbLine
 10
-440.9585173913656
 20
-50.95262553500083
 30
0.0
 11
-426.1242919471448
 21
-50.95262553500083
 31
0.0
  0
LINE
  5
1FF
330
1F
100
AcDbEntity
  8
LAYER-006
  6
Continuous
 62
     1
100
AcDbLine
 10
-437.1126030212672
 20
-50.95262553500083
 30
0.0
 11
-437.1126030212672
 21
-42.41144397202879
 31
0.0
  0
LINE
  5
200
330
1F
100
AcDbEntity
  8
LAYER-006
  6
Continuous
 62
     1
100
AcDbLine
 10
-429.9702063172432
 20
-50.95262553500083
 30
0.0
 11
-429.9702063172432
 21
-42.41144397202879
 31
0.0
  0
LINE
  5
201
330
1F
100
AcDbEntity
  8
LAYER-006
  6
Continuous
 62
     1
100
AcDbLine
 10
-426.1242919471448
 20
-50.95262553500083
 30
0.0
 11
-426.1242919471448
 21
-42.41144397202879
 31
0.0
  0
LINE
  5
202
330
1F
100
AcDbEntity
  8
LAYER-006
  6
Continuous
 62
     1
100
AcDbLine
 10
-268.0520287983875
 20
-50.95262553500083
 30
0.0
 11
-268.0520287983875
 21
-42.41144397202876
 31
0.0
  0
LINE
  5
203
330
1F
100
AcDbEntity
  8
LAYER-006
  6
Continuous
 62
     1
100
AcDbLine
 10
-268.0520287983875
 20
-50.95262553500083
 30
0.0
 11
-253.2178033541667
 21
-50.95262553500083
 31
0.0
  0
LINE
  5
204
330
1F
100
AcDbEntity
  8
LAYER-006
  6
Continuous
 62
     1
100
AcDbLine
 10
-264.2061144282891
 20
-50.95262553500083
 30
0.0
 11
-264.2061144282891
 21
-42.41144397202876
 31
0.0
  0
LINE
  5
205
330
1F
100
AcDbEntity
  8
LAYER-006
  6
Continuous
 62
     1
100
AcDbLine
 10
-257.0637177242651
 20
-50.95262553500083
 30
0.0
 11
-257.0637177242651
 21
-42.41144397202876
 31
0.0
  0
LINE
  5
206
330
1F
100
AcDbEntity
  8
LAYER-006
  6
Continuous
 62
     1
100
AcDbLine
 10
-253.2178033541667
 20
-50.95262553500083
 30
0.0
 11
-253.2178033541667
 21
-42.41144397202876
 31
0.0
  0
LINE
  5
207
330
1F
100
AcDbEntity
  8
LAYER-006
  6
Continuous
 62
     1
100
AcDbLine
 10
-95.1455347112543
 20
-50.95262553500083
 30
0.0
 11
-95.1455347112543
 21
-42.41144397202879
 31
0.0
  0
LINE
  5
208
330
1F
100
AcDbEntity
  8
LAYER-006
  6
Continuous
 62
     1
100
AcDbLine
 10
-95.1455347112543
 20
-50.95262553500083
 30
0.0
 11
-80.31130926703349
 21
-50.95262553500083
 31
0.0
  0
LINE
  5
209
330
1F
100
AcDbEntity
  8
LAYER-006
  6
Continuous
 62
     1
100
AcDbLine
 10
-91.2996203411559
 20
-50.95262553500083
 30
0.0
 11
-91.2996203411559
 21
-42.41144397202879
 31
0.0
  0
LINE
  5
20A
330
1F
100
AcDbEntity
  8
LAYER-006
  6
Continuous
 62
     1
100
AcDbLine
 10
-84.15722363713189
 20
-50.95262553500083
 30
0.0
 11
-84.15722363713189
 21
-42.41144397202879
 31
0.0
  0
LINE
  5
20B
330
1F
100
AcDbEntity
  8
LAYER-006
  6
Continuous
 62
     1
100
AcDbLine
 10
-80.31130926703349
 20
-50.95262553500083
 30
0.0
 11
-80.31130926703349
 21
-42.41144397202879
 31
0.0
  0
LINE
  5
20C
330
1F
100
AcDbEntity
  8
LAYER-006
  6
Continuous
 62
     1
100
AcDbLine
 10
217.7692729499701
 20
-50.76903053531589
 30
0.0
 11
217.7692729499701
 21
-42.22784897234385
 31
0.0
  0
LINE
  5
20D
330
1F
100
AcDbEntity
  8
LAYER-006
  6
Continuous
 62
     1
100
AcDbLine
 10
220.0799550756651
 20
-50.76903053531589
 30
0.0
 11
217.7692729499701
 21
-50.76903053531589
 31
0.0
  0
LINE
  5
20E
330
1F
100
AcDbEntity
  8
LAYER-006
  6
Continuous
 62
     1
100
AcDbLine
 10
232.6034983964976
 20
-50.76903053531589
 30
0.0
 11
232.6034983964976
 21
-42.22784897234385
 31
0.0
  0
LINE
  5
20F
330
1F
100
AcDbEntity
  8
LAYER-006
  6
Continuous
 62
     1
100
AcDbLine
 10
232.6034983964976
 20
-50.76903053531589
 30
0.0
 11
231.0682661497873
 21
-50.76903053531589
 31
0.0
  0
LINE
  5
210
330
1F
100
AcDbEntity
  8
LAYER-006
  6
Continuous
 62
     1
100
AcDbLine
 10
395.4629003478101
 20
-50.76903053531589
 30
0.0
 11
395.4629003478101
 21
-42.22784897234385
 31
0.0
  0
LINE
  5
211
330
1F
100
AcDbEntity
  8
LAYER-006
  6
Continuous
 62
     1
100
AcDbLine
 10
395.4629003478101
 20
-50.76903053531589
 30
0.0
 11
396.9981325945203
 21
-50.76903053531589
 31
0.0
  0
LINE
  5
212
330
1F
100
AcDbEntity
  8
LAYER-006
  6
Continuous
 62
     1
100
AcDbLine
 10
407.9864436686426
 20
-50.76903053531589
 30
0.0
 11
410.2971257943376
 21
-50.76903053531589
 31
0.0
  0
LINE
  5
213
330
1F
100
AcDbEntity
  8
LAYER-006
  6
Continuous
 62
     1
100
AcDbLine
 10
410.2971257943376
 20
-50.76903053531589
 30
0.0
 11
410.2971257943376
 21
-42.22784897234385
 31
0.0
  0
LINE
  5
214
330
1F
100
AcDbEntity
  8
LAYER-006
  6
Continuous
 62
     1
100
AcDbLine
 10
-18.40962660020801
 20
-71.31579747736021
 30
0.0
 11
-18.40962660020801
 21
-431.3157974773602
 31
0.0
  0
LINE
  5
215
330
1F
100
AcDbEntity
  8
LAYER-007
  6
Continuous
 62
     4
100
AcDbLine
 10
-60.90962660020801
 20
-93.92631201649465
 30
0.0
 11
-60.90962660020801
 21
-113.155856396209
 31
0.0
  0
LINE
  5
216
330
1F
100
AcDbEntity
  8
LAYER-007
  6
CENTER
 62
     4
100
AcDbLine
 10
-495.409626600208
 20
-95.02514312266885
 30
0.0
 11
-495.409626600208
 21
-113.155856396209
 31
0.0
  0
LINE
  5
217
330
1F
100
AcDbEntity
  8
LAYER-007
  6
CENTER
 62
     4
100
AcDbLine
 10
-26.40962660020801
 20
-95.02514312266885
 30
0.0
 11
-26.40962660020801
 21
-113.155856396209
 31
0.0
  0
LINE
  5
218
330
1F
100
AcDbEntity
  8
LAYER-007
  6
Continuous
 62
     4
100
AcDbLine
 10
-460.909626600208
 20
-95.57456417176854
 30
0.0
 11
-460.909626600208
 21
-112.6064408425024
 31
0.0
  0
LINE
  5
219
330
1F
100
AcDbEntity
  8
LAYER-006
  6
Continuous
 62
     1
100
AcDbLine
 10
190.7919715616011
 20
-96.12398521963024
 30
0.0
 11
190.7919715616011
 21
-112.6064518308133
 31
0.0
  0
LINE
  5
21A
330
1F
100
AcDbEntity
  8
LAYER-006
  6
Continuous
 62
     1
100
AcDbLine
 10
199.0331993721535
 20
-96.12398521963024
 30
0.0
 11
190.7919715616011
 21
-96.12398521963024
 31
0.0
  0
LINE
  5
21B
330
1F
100
AcDbEntity
  8
LAYER-006
  6
Continuous
 62
     1
100
AcDbLine
 10
429.0331993721535
 20
-96.12398521963024
 30
0.0
 11
437.2744326777453
 21
-96.12398521963024
 31
0.0
  0
LINE
  5
21C
330
1F
100
AcDbEntity
  8
LAYER-006
  6
Continuous
 62
     1
100
AcDbLine
 10
437.2744326777453
 20
-96.12398521963024
 30
0.0
 11
437.2744326777453
 21
-112.6064518308133
 31
0.0
  0
LINE
  5
21D
330
1F
100
AcDbEntity
  8
LAYER-006
  6
Continuous
 62
     1
100
AcDbLine
 10
185.2978160245401
 20
-99.9698886013602
 30
0.0
 11
185.2978160245401
 21
-108.2111219070091
 31
0.0
  0
LINE
  5
21E
330
1F
100
AcDbEntity
  8
LAYER-006
  6
Continuous
 62
     1
100
AcDbLine
 10
199.0331993721535
 20
-99.9698886013602
 30
0.0
 11
185.2978160245401
 21
-99.9698886013602
 31
0.0
  0
LINE
  5
21F
330
1F
100
AcDbEntity
  8
LAYER-006
  6
Continuous
 62
     1
100
AcDbLine
 10
207.7802771398008
 20
-99.9698886013602
 30
0.0
 11
420.2861216036237
 21
-99.9698886013602
 31
0.0
  0
LINE
  5
220
330
1F
100
AcDbEntity
  8
LAYER-006
  6
Continuous
 62
     1
100
AcDbLine
 10
429.0331993721535
 20
-99.9698886013602
 30
0.0
 11
442.7685882148063
 21
-99.9698886013602
 31
0.0
  0
LINE
  5
221
330
1F
100
AcDbEntity
  8
LAYER-006
  6
Continuous
 62
     1
100
AcDbLine
 10
442.7685882148063
 20
-99.9698886013602
 30
0.0
 11
442.7685882148063
 21
-108.2111219070091
 31
0.0
  0
LINE
  5
222
330
1F
100
AcDbEntity
  8
LAYER-007
  6
CENTER
 62
     4
100
AcDbLine
 10
187.8606153624386
 20
-103.8157974773602
 30
0.0
 11
442.4594421341629
 21
-103.8157974773602
 31
0.0
  0
LINE
  5
223
330
1F
100
AcDbEntity
  8
LAYER-007
  6
CENTER
 62
     4
100
AcDbLine
 10
-500.903782137597
 20
-103.8157974773602
 30
0.0
 11
-489.9154710634753
 21
-103.8157974773602
 31
0.0
  0
LINE
  5
224
330
1F
100
AcDbEntity
  8
LAYER-007
  6
CENTER
 62
     4
100
AcDbLine
 10
-468.052034292543
 20
-103.8157974773602
 30
0.0
 11
-453.2178088483221
 21
-103.8157974773602
 31
0.0
  0
CIRCLE
  5
225
330
1F
100
AcDbEntity
  8
LAYER-006
  6
Continuous
 62
     5
100
AcDbCircle
 10
-460.909626600208
 20
-103.8157974773602
 30
0.0
 40
3.845903381787253
  0
LINE
  5
226
330
1F
100
AcDbEntity
  8
LAYER-007
  6
CENTER
 62
     4
100
AcDbLine
 10
-68.05202879838726
 20
-103.8157974773602
 30
0.0
 11
-53.21780335416719
 21
-103.8157974773602
 31
0.0
  0
CIRCLE
  5
227
330
1F
100
AcDbEntity
  8
LAYER-006
  6
Continuous
 62
     5
100
AcDbCircle
 10
-60.90962660020801
 20
-103.8157974773602
 30
0.0
 40
3.845903381787253
  0
LINE
  5
228
330
1F
100
AcDbEntity
  8
LAYER-007
  6
CENTER
 62
     4
100
AcDbLine
 10
-31.90378213726888
 20
-103.8157974773602
 30
0.0
 11
-20.91547106314647
 21
-103.8157974773602
 31
0.0
  0
LINE
  5
229
330
1F
100
AcDbEntity
  8
LAYER-006
  6
Continuous
 62
     1
100
AcDbLine
 10
199.0331993721535
 20
-108.2111219070091
 30
0.0
 11
185.2978160245401
 21
-108.2111219070091
 31
0.0
  0
LINE
  5
22A
330
1F
100
AcDbEntity
  8
LAYER-006
  6
Continuous
 62
     1
100
AcDbLine
 10
207.7802771398008
 20
-108.2111219070091
 30
0.0
 11
420.2861216036237
 21
-108.2111219070091
 31
0.0
  0
LINE
  5
22B
330
1F
100
AcDbEntity
  8
LAYER-006
  6
Continuous
 62
     1
100
AcDbLine
 10
429.0331993721535
 20
-108.2111219070091
 30
0.0
 11
442.7685882148063
 21
-108.2111219070091
 31
0.0
  0
LINE
  5
22C
330
1F
100
AcDbEntity
  8
LAYER-006
  6
Continuous
 62
     1
100
AcDbLine
 10
199.0331993721535
 20
-112.6064518308133
 30
0.0
 11
190.7919715616011
 21
-112.6064518308133
 31
0.0
  0
LINE
  5
22D
330
1F
100
AcDbEntity
  8
LAYER-006
  6
Continuous
 62
     1
100
AcDbLine
 10
429.0331993721535
 20
-112.6064518308133
 30
0.0
 11
437.2744326777453
 21
-112.6064518308133
 31
0.0
  0
LINE
  5
22E
330
1F
100
AcDbEntity
  8
LAYER-006
  6
Continuous
 62
     1
100
AcDbLine
 10
-435.909626600208
 20
-136.3157974773602
 30
0.0
 11
-435.909626600208
 21
-148.0371136107181
 31
0.0
  0
LINE
  5
22F
330
1F
100
AcDbEntity
  8
LAYER-006
  6
Continuous
 62
     1
100
AcDbLine
 10
-85.90962660020801
 20
-136.3157974773602
 30
0.0
 11
-85.90962660020801
 21
-148.0371136107181
 31
0.0
  0
LINE
  5
230
330
1F
100
AcDbEntity
  8
LAYER-033
  6
Continuous
 62
     5
100
AcDbLine
 10
-34.40962660020801
 20
-327.8567087179324
 30
0.0
 11
-18.40962660020801
 21
-327.8567087179324
 31
0.0
  0
LINE
  5
231
330
1F
100
AcDbEntity
  8
LAYER-033
  6
CENTER
 62
     5
100
AcDbLine
 10
-26.40962660020801
 20
-329.9642652834464
 30
0.0
 11
-26.40962660020801
 21
-339.4845409950711
 31
0.0
  0
LINE
  5
232
330
1F
100
AcDbEntity
  8
LAYER-033
  6
HIDDEN
 62
     5
100
AcDbLine
 10
205.0331993721535
 20
-327.8567087179324
 30
0.0
 11
207.7802771398008
 21
-327.8567087179324
 31
0.0
  0
LINE
  5
233
330
1F
100
AcDbEntity
  8
LAYER-033
  6
CENTER
 62
     5
100
AcDbLine
 10
-31.16976445602035
 20
-334.7244031392588
 30
0.0
 11
-21.64948874439568
 21
-334.7244031392588
 31
0.0
  0
CIRCLE
  5
234
330
1F
100
AcDbEntity
  8
LAYER-033
  6
Continuous
 62
     5
100
AcDbCircle
 10
-26.40962660020801
 20
-334.7244031392588
 30
0.0
 40
2.670456138506594
  0
LINE
  5
235
330
1F
100
AcDbEntity
  8
LAYER-033
  6
HIDDEN
 62
     5
100
AcDbLine
 10
205.0331993721535
 20
-341.5920975605852
 30
0.0
 11
207.7802771398008
 21
-341.5920975605852
 31
0.0
  0
LINE
  5
236
330
1F
100
AcDbEntity
  8
LAYER-033
  6
Continuous
 62
     5
100
AcDbLine
 10
-34.40962660020801
 20
-341.5920975605852
 30
0.0
 11
-18.40962660020801
 21
-341.5920975605852
 31
0.0
  0
LINE
  5
237
330
1F
100
AcDbEntity
  8
LAYER-006
  6
Continuous
 62
     1
100
AcDbLine
 10
-435.909626600208
 20
-355.3274918973798
 30
0.0
 11
-435.909626600208
 21
-366.3157974773602
 31
0.0
  0
LINE
  5
238
330
1F
100
AcDbEntity
  8
LAYER-006
  6
Continuous
 62
     1
100
AcDbLine
 10
-85.90962660020801
 20
-355.3274918973798
 30
0.0
 11
-85.90962660020801
 21
-366.3157974773602
 31
0.0
  0
LINE
  5
239
330
1F
100
AcDbEntity
  8
LAYER-007
  6
CENTER
 62
     4
100
AcDbLine
 10
-495.409626600208
 20
-390.0251541122178
 30
0.0
 11
-495.409626600208
 21
-408.1558673845552
 31
0.0
  0
LINE
  5
23A
330
1F
100
AcDbEntity
  8
LAYER-007
  6
CENTER
 62
     4
100
AcDbLine
 10
-26.40962660020801
 20
-390.0251541122178
 30
0.0
 11
-26.40962660020801
 21
-408.1558673845552
 31
0.0
  0
LINE
  5
23B
330
1F
100
AcDbEntity
  8
LAYER-007
  6
CENTER
 62
     4
100
AcDbLine
 10
-60.90962660020801
 20
-391.1239797253602
 30
0.0
 11
-60.90962660020801
 21
-407.6064518308133
 31
0.0
  0
LINE
  5
23C
330
1F
100
AcDbEntity
  8
LAYER-006
  6
Continuous
 62
     1
100
AcDbLine
 10
184.7919715607173
 20
-391.1239797254744
 30
0.0
 11
184.7919715607173
 21
-407.6064518308133
 31
0.0
  0
LINE
  5
23D
330
1F
100
AcDbEntity
  8
LAYER-006
  6
Continuous
 62
     1
100
AcDbLine
 10
193.0331993721535
 20
-391.1239797254744
 30
0.0
 11
184.7919715607173
 21
-391.1239797254744
 31
0.0
  0
LINE
  5
23E
330
1F
100
AcDbEntity
  8
LAYER-006
  6
Continuous
 62
     1
100
AcDbLine
 10
435.0331993721535
 20
-391.1239797254744
 30
0.0
 11
443.2744326777445
 21
-391.1239797254744
 31
0.0
  0
LINE
  5
23F
330
1F
100
AcDbEntity
  8
LAYER-006
  6
Continuous
 62
     1
100
AcDbLine
 10
443.2744326777445
 20
-391.1239797254744
 30
0.0
 11
443.2744326777445
 21
-407.6064518308133
 31
0.0
  0
LINE
  5
240
330
1F
100
AcDbEntity
  8
LAYER-007
  6
CENTER
 62
     4
100
AcDbLine
 10
-460.909626600208
 20
-392.2228163270421
 30
0.0
 11
-460.909626600208
 21
-406.5076152293602
 31
0.0
  0
LINE
  5
241
330
1F
100
AcDbEntity
  8
LAYER-006
  6
Continuous
 62
     1
100
AcDbLine
 10
179.2978160236562
 20
-394.9698940955723
 30
0.0
 11
179.2978160236562
 21
-403.2111274011647
 31
0.0
  0
LINE
  5
242
330
1F
100
AcDbEntity
  8
LAYER-006
  6
Continuous
 62
     1
100
AcDbLine
 10
193.0331993721535
 20
-394.9698940955723
 30
0.0
 11
179.2978160236562
 21
-394.9698940955723
 31
0.0
  0
LINE
  5
243
330
1F
100
AcDbEntity
  8
LAYER-006
  6
Continuous
 62
     1
100
AcDbLine
 10
207.7802771398008
 20
-394.9698940955723
 30
0.0
 11
420.2861216036237
 21
-394.9698940955723
 31
0.0
  0
LINE
  5
244
330
1F
100
AcDbEntity
  8
LAYER-006
  6
Continuous
 62
     1
100
AcDbLine
 10
435.0331993721535
 20
-394.9698940955723
 30
0.0
 11
448.7685882148063
 21
-394.9698940955723
 31
0.0
  0
LINE
  5
245
330
1F
100
AcDbEntity
  8
LAYER-006
  6
Continuous
 62
     1
100
AcDbLine
 10
448.7685882148063
 20
-394.9698940955723
 30
0.0
 11
448.7685882148063
 21
-403.2111274011647
 31
0.0
  0
LINE
  5
246
330
1F
100
AcDbEntity
  8
LAYER-007
  6
CENTER
 62
     4
100
AcDbLine
 10
-500.903782137597
 20
-398.8157974773602
 30
0.0
 11
-489.9154710634754
 21
-398.8157974773602
 31
0.0
  0
LINE
  5
247
330
1F
100
AcDbEntity
  8
LAYER-007
  6
CENTER
 62
     4
100
AcDbLine
 10
-468.052034292543
 20
-398.8157974773602
 30
0.0
 11
-453.2178088483221
 21
-398.8157974773602
 31
0.0
  0
CIRCLE
  5
248
330
1F
100
AcDbEntity
  8
LAYER-006
  6
Continuous
 62
     5
100
AcDbCircle
 10
-460.909626600208
 20
-398.8157974773602
 30
0.0
 40
3.845903381787253
  0
LINE
  5
249
330
1F
100
AcDbEntity
  8
LAYER-007
  6
CENTER
 62
     4
100
AcDbLine
 10
-68.05202879838726
 20
-398.8157974773602
 30
0.0
 11
-53.21780335416719
 21
-398.8157974773602
 31
0.0
  0
CIRCLE
  5
24A
330
1F
100
AcDbEntity
  8
LAYER-006
  6
Continuous
 62
     5
100
AcDbCircle
 10
-60.90962660020801
 20
-398.8157974773602
 30
0.0
 40
3.845903381787253
  0
LINE
  5
24B
330
1F
100
AcDbEntity
  8
LAYER-007
  6
CENTER
 62
     4
100
AcDbLine
 10
-31.90378213726888
 20
-398.8157974773602
 30
0.0
 11
-20.91547106314647
 21
-398.8157974773602
 31
0.0
  0
LINE
  5
24C
330
1F
100
AcDbEntity
  8
LAYER-007
  6
CENTER
 62
     4
100
AcDbLine
 10
172.8302174569386
 20
-398.8157974773602
 30
0.0
 11
454.6867712278176
 21
-398.8157974773602
 31
0.0
  0
LINE
  5
24D
330
1F
100
AcDbEntity
  8
LAYER-006
  6
Continuous
 62
     1
100
AcDbLine
 10
193.0331993721535
 20
-403.2111274011647
 30
0.0
 11
179.2978160236562
 21
-403.2111274011647
 31
0.0
  0
LINE
  5
24E
330
1F
100
AcDbEntity
  8
LAYER-006
  6
Continuous
 62
     1
100
AcDbLine
 10
207.7802771398008
 20
-403.2111274011647
 30
0.0
 11
420.2861216036237
 21
-403.2111274011647
 31
0.0
  0
LINE
  5
24F
330
1F
100
AcDbEntity
  8
LAYER-006
  6
Continuous
 62
     1
100
AcDbLine
 10
435.0331993721535
 20
-403.2111274011647
 30
0.0
 11
448.7685882148063
 21
-403.2111274011647
 31
0.0
  0
LINE
  5
250
330
1F
100
AcDbEntity
  8
LAYER-006
  6
Continuous
 62
     1
100
AcDbLine
 10
193.0331993721535
 20
-407.6064518308133
 30
0.0
 11
184.7919715607173
 21
-407.6064518308133
 31
0.0
  0
LINE
  5
251
330
1F
100
AcDbEntity
  8
LAYER-006
  6
Continuous
 62
     1
100
AcDbLine
 10
435.0331993721535
 20
-407.6064518308133
 30
0.0
 11
443.2744326777445
 21
-407.6064518308133
 31
0.0
  0
LINE
  5
252
330
1F
100
AcDbEntity
  8
LAYER-007
  6
HIDDEN
 62
     1
100
AcDbLine
 10
-468.1555409703062
 20
-425.3157974773602
 30
0.0
 11
-468.1555409703062
 21
-431.3157974773602
 31
0.0
  0
LINE
  5
253
330
1F
100
AcDbEntity
  8
LAYER-007
  6
HIDDEN
 62
     1
100
AcDbLine
 10
-453.6637232184214
 20
-425.3157974773602
 30
0.0
 11
-453.6637232184214
 21
-431.3157974773602
 31
0.0
  0
LINE
  5
254
330
1F
100
AcDbEntity
  8
LAYER-007
  6
HIDDEN
 62
     1
100
AcDbLine
 10
-68.15552998199519
 20
-425.3157974773602
 30
0.0
 11
-68.15552998199519
 21
-431.3157974773602
 31
0.0
  0
LINE
  5
255
330
1F
100
AcDbEntity
  8
LAYER-007
  6
HIDDEN
 62
     1
100
AcDbLine
 10
-53.66371772420803
 20
-425.3157974773602
 30
0.0
 11
-53.66371772420803
 21
-431.3157974773602
 31
0.0
  0
LINE
  5
256
330
1F
100
AcDbEntity
  8
LAYER-006
  6
Continuous
 62
     1
100
AcDbLine
 10
-503.409626600208
 20
-431.3157974773602
 30
0.0
 11
-503.409626600208
 21
-71.31579747736021
 31
0.0
  0
LINE
  5
257
330
1F
100
AcDbEntity
  8
LAYER-007
  6
CENTER
 62
     4
100
AcDbLine
 10
-260.909626600208
 20
16.63443131159579
 30
0.0
 11
-260.909626600208
 21
-430.16360373349
 31
0.0
  0
LINE
  5
258
330
1F
100
AcDbEntity
  8
LAYER-006
  6
Continuous
 62
     1
100
AcDbLine
 10
-25.00261324468039
 20
25.14626833558037
 30
0.0
 11
-25.00261324468039
 21
-25.92897736084535
 31
0.0
  0
LINE
  5
259
330
1F
100
AcDbEntity
  8
LAYER-006
  6
Continuous
 62
     1
100
AcDbLine
 10
-34.8920877172348
 20
25.14626833558037
 30
0.0
 11
-34.8920877172348
 21
-25.92897736084535
 31
0.0
  0
LINE
  5
25A
330
1F
100
AcDbEntity
  8
LAYER-006
  6
Continuous
 62
     1
100
AcDbLine
 10
-488.2552962064337
 20
25.14626833558037
 30
0.0
 11
-488.2552962064337
 21
-25.92897736084535
 31
0.0
  0
LINE
  5
25B
330
1F
100
AcDbEntity
  8
LAYER-006
  6
Continuous
 62
     1
100
AcDbLine
 10
-498.1447706789883
 20
25.14626833558037
 30
0.0
 11
-498.1447706789883
 21
-25.92897736084535
 31
0.0
  0
LINE
  5
25C
330
1F
100
AcDbEntity
  8
LAYER-006
  6
Continuous
 62
     1
100
AcDbLine
 10
-488.2552962064337
 20
-39.66436620349816
 30
0.0
 11
-488.2552962064337
 21
-71.31579747736021
 31
0.0
  0
LINE
  5
25D
330
1F
100
AcDbEntity
  8
LAYER-006
  6
Continuous
 62
     1
100
AcDbLine
 10
-497.9154710631468
 20
-39.66436620349816
 30
0.0
 11
-497.9154710631468
 21
-71.31579747736021
 31
0.0
  0
LINE
  5
25E
330
1F
100
AcDbEntity
  8
LAYER-006
  6
Continuous
 62
     1
100
AcDbLine
 10
-25.00261324468039
 20
-39.66436620349816
 30
0.0
 11
-25.00261324468039
 21
-71.31579747736021
 31
0.0
  0
LINE
  5
25F
330
1F
100
AcDbEntity
  8
LAYER-006
  6
Continuous
 62
     1
100
AcDbLine
 10
-34.8920932113914
 20
-39.66436620349816
 30
0.0
 11
-34.8920932113914
 21
-71.31579747736021
 31
0.0
  0
LINE
  5
260
330
1F
100
AcDbEntity
  8
LAYER-033
  6
CENTER
 62
     4
100
AcDbLine
 10
-60.90962660020801
 20
-419.9845982770416
 30
0.0
 11
-60.90962660020801
 21
-438.8608596539461
 31
0.0
  0
LINE
  5
261
330
1F
100
AcDbEntity
  8
LAYER-033
  6
CENTER
 62
     4
100
AcDbLine
 10
-460.909626600208
 20
-419.9845982770416
 30
0.0
 11
-460.909626600208
 21
-438.8608596539461
 31
0.0
  0
LINE
  5
262
330
1F
100
AcDbEntity
  8
LAYER-007
  6
CENTER
 62
     4
100
AcDbLine
 10
314.0331993721535
 20
-53.08730262274358
 30
0.0
 11
314.0331993721535
 21
-431.3157974773602
 31
0.0
  0
LINE
  5
263
330
1F
100
AcDbEntity
  8
LAYER-033
  6
Continuous
 62
     1
100
AcDbLine
 10
199.0331993721535
 20
-373.8157974789776
 30
0.0
 11
199.0331993721535
 21
-431.3157974773602
 31
0.0
  0
LINE
  5
264
330
1F
100
AcDbEntity
  8
LAYER-033
  6
Continuous
 62
     1
100
AcDbLine
 10
199.0331993721535
 20
-431.3157974773602
 30
0.0
 11
144.0331993721535
 21
-431.3157974773602
 31
0.0
  0
LINE
  5
265
330
1F
100
AcDbEntity
  8
LAYER-033
  6
Continuous
 62
     1
100
AcDbLine
 10
199.0331993721535
 20
-373.8157974789776
 30
0.0
 11
193.0331993721535
 21
-373.8157974789776
 31
0.0
  0
LINE
  5
266
330
1F
100
AcDbEntity
  8
LAYER-033
  6
Continuous
 62
     1
100
AcDbLine
 10
144.0331993721535
 20
-425.3157974773602
 30
0.0
 11
144.0331993721535
 21
-431.3157974773602
 31
0.0
  0
LINE
  5
267
330
1F
100
AcDbEntity
  8
LAYER-033
  6
Continuous
 62
     1
100
AcDbLine
 10
193.0331993721535
 20
-425.3157974773602
 30
0.0
 11
144.0331993721535
 21
-425.3157974773602
 31
0.0
  0
LINE
  5
268
330
1F
100
AcDbEntity
  8
LAYER-033
  6
Continuous
 62
     1
100
AcDbLine
 10
193.0331993721535
 20
-373.8157974789776
 30
0.0
 11
193.0331993721535
 21
-425.3157974773602
 31
0.0
  0
LINE
  5
269
330
1F
100
AcDbEntity
  8
LAYER-033
  6
HIDDEN
 62
     4
100
AcDbLine
 10
154.0331993721535
 20
-425.3157974773602
 30
0.0
 11
154.0331993721535
 21
-431.3157974773602
 31
0.0
  0
LINE
  5
26A
330
1F
100
AcDbEntity
  8
LAYER-033
  6
HIDDEN
 62
     4
100
AcDbLine
 10
174.0331993721535
 20
-425.3157974773602
 30
0.0
 11
174.0331993721535
 21
-431.3157974773602
 31
0.0
  0
LINE
  5
26B
330
1F
100
AcDbEntity
  8
LAYER-033
  6
CENTER
 62
     4
100
AcDbLine
 10
164.0331993721535
 20
-420.6032877977814
 30
0.0
 11
164.0331993721535
 21
-438.0741112886718
 31
0.0
  0
LINE
  5
26C
330
1F
100
AcDbEntity
  8
LAYER-033
  6
Continuous
 62
     1
100
AcDbLine
 10
199.0331993721535
 20
-366.3157974773602
 30
0.0
 11
199.0331993721535
 21
-431.3157974773602
 31
0.0
  0
LINE
  5
26D
330
1F
100
AcDbEntity
  8
LAYER-033
  6
Continuous
 62
     1
100
AcDbLine
 10
199.0331993721535
 20
-431.3157974773602
 30
0.0
 11
264.0331993721535
 21
-431.3157974773602
 31
0.0
  0
LINE
  5
26E
330
1F
100
AcDbEntity
  8
LAYER-033
  6
Continuous
 62
     1
100
AcDbLine
 10
264.0331993721535
 20
-425.3157974773602
 30
0.0
 11
264.0331993721535
 21
-431.3157974773602
 31
0.0
  0
LINE
  5
26F
330
1F
100
AcDbEntity
  8
LAYER-033
  6
Continuous
 62
     1
100
AcDbLine
 10
199.0331993721535
 20
-366.3157974773602
 30
0.0
 11
205.0331993721535
 21
-366.3157974773602
 31
0.0
  0
LINE
  5
270
330
1F
100
AcDbEntity
  8
LAYER-033
  6
Continuous
 62
     1
100
AcDbLine
 10
205.0331993721535
 20
-366.3157974773602
 30
0.0
 11
205.0331993721535
 21
-425.3157974773602
 31
0.0
  0
LINE
  5
271
330
1F
100
AcDbEntity
  8
LAYER-033
  6
Continuous
 62
     1
100
AcDbLine
 10
205.0331993721535
 20
-425.3157974773602
 30
0.0
 11
264.0331993721535
 21
-425.3157974773602
 31
0.0
  0
LINE
  5
272
330
1F
100
AcDbEntity
  8
LAYER-033
  6
Continuous
 62
     1
100
AcDbLine
 10
423.0331993721535
 20
-425.3157974773602
 30
0.0
 11
364.0331993721535
 21
-425.3157974773602
 31
0.0
  0
LINE
  5
273
330
1F
100
AcDbEntity
  8
LAYER-033
  6
Continuous
 62
     1
100
AcDbLine
 10
429.0331993721535
 20
-431.3157974773602
 30
0.0
 11
364.0331993721535
 21
-431.3157974773602
 31
0.0
  0
LINE
  5
274
330
1F
100
AcDbEntity
  8
LAYER-033
  6
Continuous
 62
     1
100
AcDbLine
 10
364.0331993721535
 20
-425.3157974773602
 30
0.0
 11
364.0331993721535
 21
-431.3157974773602
 31
0.0
  0
LINE
  5
275
330
1F
100
AcDbEntity
  8
LAYER-033
  6
Continuous
 62
     1
100
AcDbLine
 10
423.0331993721535
 20
-366.3157974773602
 30
0.0
 11
423.0331993721535
 21
-425.3157974773602
 31
0.0
  0
LINE
  5
276
330
1F
100
AcDbEntity
  8
LAYER-033
  6
Continuous
 62
     1
100
AcDbLine
 10
429.0331993721535
 20
-366.3157974773602
 30
0.0
 11
429.0331993721535
 21
-431.3157974773602
 31
0.0
  0
LINE
  5
277
330
1F
100
AcDbEntity
  8
LAYER-033
  6
Continuous
 62
     1
100
AcDbLine
 10
429.0331993721535
 20
-366.3157974773602
 30
0.0
 11
423.0331993721535
 21
-366.3157974773602
 31
0.0
  0
LINE
  5
278
330
1F
100
AcDbEntity
  8
LAYER-033
  6
Continuous
 62
     1
100
AcDbLine
 10
429.0331993721535
 20
-431.3157974773602
 30
0.0
 11
484.0331993721535
 21
-431.3157974773602
 31
0.0
  0
LINE
  5
279
330
1F
100
AcDbEntity
  8
LAYER-033
  6
HIDDEN
 62
     4
100
AcDbLine
 10
454.0331993721535
 20
-425.3157974773602
 30
0.0
 11
454.0331993721535
 21
-431.3157974773602
 31
0.0
  0
LINE
  5
27A
330
1F
100
AcDbEntity
  8
LAYER-033
  6
CENTER
 62
     4
100
AcDbLine
 10
464.0331993721535
 20
-420.6032877977814
 30
0.0
 11
464.0331993721535
 21
-438.0741112886718
 31
0.0
  0
LINE
  5
27B
330
1F
100
AcDbEntity
  8
LAYER-033
  6
HIDDEN
 62
     4
100
AcDbLine
 10
474.0331993721535
 20
-425.3157974773602
 30
0.0
 11
474.0331993721535
 21
-431.3157974773602
 31
0.0
  0
LINE
  5
27C
330
1F
100
AcDbEntity
  8
LAYER-033
  6
Continuous
 62
     1
100
AcDbLine
 10
484.0331993721535
 20
-425.3157974773602
 30
0.0
 11
484.0331993721535
 21
-431.3157974773602
 31
0.0
  0
LINE
  5
27D
330
1F
100
AcDbEntity
  8
LAYER-033
  6
Continuous
 62
     1
100
AcDbLine
 10
429.0331993721535
 20
-373.8157974789776
 30
0.0
 11
429.0331993721535
 21
-431.3157974773602
 31
0.0
  0
LINE
  5
27E
330
1F
100
AcDbEntity
  8
LAYER-033
  6
Continuous
 62
     1
100
AcDbLine
 10
435.0331993721535
 20
-373.8157974789776
 30
0.0
 11
435.0331993721535
 21
-425.3157974773602
 31
0.0
  0
LINE
  5
27F
330
1F
100
AcDbEntity
  8
LAYER-033
  6
Continuous
 62
     1
100
AcDbLine
 10
429.0331993721535
 20
-373.8157974789776
 30
0.0
 11
435.0331993721535
 21
-373.8157974789776
 31
0.0
  0
LINE
  5
280
330
1F
100
AcDbEntity
  8
LAYER-033
  6
Continuous
 62
     1
100
AcDbLine
 10
435.0331993721535
 20
-425.3157974773602
 30
0.0
 11
484.0331993721535
 21
-425.3157974773602
 31
0.0
  0
LINE
  5
281
330
1F
100
AcDbEntity
  8
LAYER-006
  6
Continuous
 62
     1
100
AcDbLine
 10
207.7802771398008
 20
-77.31579747736021
 30
0.0
 11
207.7802771398008
 21
-425.3157974773602
 31
0.0
  0
LINE
  5
282
330
1F
100
AcDbEntity
  8
LAYER-006
  6
Continuous
 62
     1
100
AcDbLine
 10
205.0331993721535
 20
-77.31579747736021
 30
0.0
 11
205.0331993721535
 21
-425.3157974773602
 31
0.0
  0
LINE
  5
283
330
1F
100
AcDbEntity
  8
LAYER-006
  6
Continuous
 62
     1
100
AcDbLine
 10
423.0331993721535
 20
-77.31579747736021
 30
0.0
 11
423.0331993721535
 21
-425.3157974773602
 31
0.0
  0
LINE
  5
284
330
1F
100
AcDbEntity
  8
LAYER-006
  6
Continuous
 62
     1
100
AcDbLine
 10
420.2861216036237
 20
-425.3157974773602
 30
0.0
 11
420.2861216036237
 21
-77.31579747736021
 31
0.0
  0
LINE
  5
285
330
1F
100
AcDbEntity
  8
LAYER-006
  6
Continuous
 62
     1
100
AcDbLine
 10
407.4370281149369
 20
25.14626833567655
 30
0.0
 11
407.4370281149369
 21
-25.92897736084541
 31
0.0
  0
LINE
  5
286
330
1F
100
AcDbEntity
  8
LAYER-006
  6
Continuous
 62
     1
100
AcDbLine
 10
397.547553642382
 20
25.14626833567655
 30
0.0
 11
397.547553642382
 21
-25.92897736084541
 31
0.0
  0
LINE
  5
287
330
1F
100
AcDbEntity
  8
LAYER-006
  6
Continuous
 62
     1
100
AcDbLine
 10
230.518845101925
 20
25.14626833567655
 30
0.0
 11
230.518845101925
 21
-25.92897736084541
 31
0.0
  0
LINE
  5
288
330
1F
100
AcDbEntity
  8
LAYER-006
  6
Continuous
 62
     1
100
AcDbLine
 10
220.6293706293707
 20
25.14626833567655
 30
0.0
 11
220.6293706293707
 21
-25.92897736084541
 31
0.0
  0
LINE
  5
289
330
1F
100
AcDbEntity
  8
LAYER-006
  6
Continuous
 62
     1
100
AcDbLine
 10
407.9864436686426
 20
-39.66436620349816
 30
0.0
 11
407.9864436686426
 21
-71.31579747736021
 31
0.0
  0
LINE
  5
28A
330
1F
100
AcDbEntity
  8
LAYER-006
  6
Continuous
 62
     1
100
AcDbLine
 10
396.9981325945203
 20
-39.66436620349816
 30
0.0
 11
396.9981325945203
 21
-71.31579747736021
 31
0.0
  0
LINE
  5
28B
330
1F
100
AcDbEntity
  8
LAYER-006
  6
Continuous
 62
     1
100
AcDbLine
 10
231.0682661497873
 20
-39.66436620349816
 30
0.0
 11
231.0682661497873
 21
-71.31579747736021
 31
0.0
  0
LINE
  5
28C
330
1F
100
AcDbEntity
  8
LAYER-006
  6
Continuous
 62
     1
100
AcDbLine
 10
220.0799550756651
 20
-39.66436620349816
 30
0.0
 11
220.0799550756651
 21
-71.31579747736021
 31
0.0
  0
LINE
  5
28D
330
1F
100
AcDbEntity
  8
LAYER-033
  6
Continuous
 62
     1
100
AcDbLine
 10
379.0331993721535
 20
-425.3157974773602
 30
0.0
 11
249.0331993721535
 21
-425.3157974773602
 31
0.0
  0
LINE
  5
28E
330
1F
100
AcDbEntity
  8
LAYER-033
  6
CENTER
 62
     4
100
AcDbLine
 10
249.0331993721535
 20
-431.3157974773602
 30
0.0
 11
379.0331993721535
 21
-431.3157974773602
 31
0.0
  0
LINE
  5
28F
330
1F
100
AcDbEntity
  8
LAYER-033
  6
Continuous
 62
     1
100
AcDbLine
 10
379.0331993721535
 20
-77.31579747736021
 30
0.0
 11
312.5793085698275
 21
-77.31579747736021
 31
0.0
  0
ARC
  5
290
330
1F
100
AcDbEntity
  8
LAYER-006
  6
Continuous
 62
     1
100
AcDbCircle
 10
484.0331993721535
 20
-43.84184067346621
 30
0.0
 40
30.0
100
AcDbArc
 50
332.0593372072309
 51
90.0
  0
ARC
  5
291
330
1F
100
AcDbEntity
  8
LAYER-033
  6
Continuous
 62
     1
100
AcDbCircle
 10
484.0331993721535
 20
-43.84184067346621
 30
0.0
 40
22.30819323642561
100
AcDbArc
 50
332.0593372072311
 51
90.0
  0
ARC
  5
292
330
1F
100
AcDbEntity
  8
LAYER-033
  6
Continuous
 62
     1
100
AcDbCircle
 10
144.0331993721535
 20
-43.84184067346621
 30
0.0
 40
22.30819323642561
100
AcDbArc
 50
90.0
 51
207.9406627927691
  0
ARC
  5
293
330
1F
100
AcDbEntity
  8
LAYER-006
  6
Continuous
 62
     1
100
AcDbCircle
 10
144.0331993721535
 20
-43.84184067346621
 30
0.0
 40
30.0
100
AcDbArc
 50
90.0
 51
207.9406627927691
  0
LINE
  5
294
330
1F
100
AcDbEntity
  8
LAYER-006
  6
Continuous
 62
     1
100
AcDbLine
 10
164.0331993721535
 20
-148.0371136107181
 30
0.0
 11
464.0331993721535
 21
-148.0371136107181
 31
0.0
  0
LINE
  5
295
330
1F
100
AcDbEntity
  8
LAYER-006
  6
Continuous
 62
     1
100
AcDbLine
 10
464.0331993721535
 20
-355.3274918973938
 30
0.0
 11
164.0331993721535
 21
-355.3274918973938
 31
0.0
  0
LINE
  5
296
330
1F
100
AcDbEntity
  8
LAYER-006
  6
Continuous
 62
     1
100
AcDbLine
 10
484.0331993721535
 20
-13.84184067346621
 30
0.0
 11
431.0619024162214
 21
-13.84184067346621
 31
0.0
  0
LINE
  5
297
330
1F
100
AcDbEntity
  8
LAYER-033
  6
Continuous
 62
     1
100
AcDbLine
 10
484.0331993721535
 20
-21.5336474370406
 30
0.0
 11
431.0619024162214
 21
-21.5336474370406
 31
0.0
  0
LINE
  5
298
330
1F
100
AcDbEntity
  8
LAYER-006
  6
Continuous
 62
     1
100
AcDbLine
 10
144.0331993721535
 20
-13.84184067346621
 30
0.0
 11
197.0044963278681
 21
-13.84184067346621
 31
0.0
  0
LINE
  5
299
330
1F
100
AcDbEntity
  8
LAYER-033
  6
Continuous
 62
     1
100
AcDbLine
 10
144.0331993721535
 20
-21.5336474370406
 30
0.0
 11
197.0044963278681
 21
-21.5336474370406
 31
0.0
  0
LINE
  5
29A
330
1F
100
AcDbEntity
  8
LAYER-006
  6
Continuous
 62
     1
100
AcDbLine
 10
-34.40962660020801
 20
-136.3157974773602
 30
0.0
 11
-34.40962660020801
 21
-366.3157974773602
 31
0.0
  0
LINE
  5
29B
330
1F
100
AcDbEntity
  8
LAYER-006
  6
Continuous
 62
     1
100
AcDbLine
 10
-70.90962660020801
 20
-148.0371136107181
 30
0.0
 11
-70.90962660020801
 21
-355.3274918973938
 31
0.0
  0
LINE
  5
29C
330
1F
100
AcDbEntity
  8
LAYER-006
  6
Continuous
 62
     1
100
AcDbLine
 10
-194.239626600208
 20
-148.0371136107181
 30
0.0
 11
-194.239626600208
 21
-355.3274918973938
 31
0.0
  0
LINE
  5
29D
330
1F
100
AcDbEntity
  8
LAYER-006
  6
Continuous
 62
     1
100
AcDbLine
 10
-199.239626600208
 20
-148.0371136107181
 30
0.0
 11
-199.239626600208
 21
-355.3274918973938
 31
0.0
  0
LINE
  5
29E
330
1F
100
AcDbEntity
  8
LAYER-006
  6
Continuous
 62
     1
100
AcDbLine
 10
-322.579626600208
 20
-148.0371136107181
 30
0.0
 11
-322.579626600208
 21
-355.3274918973938
 31
0.0
  0
LINE
  5
29F
330
1F
100
AcDbEntity
  8
LAYER-006
  6
Continuous
 62
     1
100
AcDbLine
 10
-327.579626600208
 20
-148.0371136107181
 30
0.0
 11
-327.579626600208
 21
-355.3274918973938
 31
0.0
  0
LINE
  5
2A0
330
1F
100
AcDbEntity
  8
LAYER-006
  6
Continuous
 62
     1
100
AcDbLine
 10
-450.909626600208
 20
-355.3274918973938
 30
0.0
 11
-450.909626600208
 21
-148.0371136107181
 31
0.0
  0
LINE
  5
2A1
330
1F
100
AcDbEntity
  8
LAYER-006
  6
Continuous
 62
     1
100
AcDbLine
 10
-487.409626600208
 20
-136.3157974773602
 30
0.0
 11
-487.409626600208
 21
-366.3157974773602
 31
0.0
  0
LINE
  5
2A2
330
1F
100
AcDbEntity
  8
LAYER-033
  6
Continuous
 62
     1
100
AcDbLine
 10
-85.90962660020801
 20
-373.8157974773602
 30
0.0
 11
-35.90962660020801
 21
-373.8157974773602
 31
0.0
  0
LINE
  5
2A3
330
1F
100
AcDbEntity
  8
LAYER-006
  6
Continuous
 62
     1
100
AcDbLine
 10
-35.90962660020801
 20
-373.8157974773602
 30
0.0
 11
-35.90962660020801
 21
-431.3157974773602
 31
0.0
  0
LINE
  5
2A4
330
1F
100
AcDbEntity
  8
LAYER-006
  6
Continuous
 62
     1
100
AcDbLine
 10
-85.90962660020801
 20
-373.8157974773602
 30
0.0
 11
-85.90962660020801
 21
-431.3157974773602
 31
0.0
  0
LINE
  5
2A5
330
1F
100
AcDbEntity
  8
LAYER-033
  6
Continuous
 62
     1
100
AcDbLine
 10
-485.909626600208
 20
-373.8157974773602
 30
0.0
 11
-435.909626600208
 21
-373.8157974773602
 31
0.0
  0
LINE
  5
2A6
330
1F
100
AcDbEntity
  8
LAYER-006
  6
Continuous
 62
     1
100
AcDbLine
 10
-435.909626600208
 20
-373.8157974773602
 30
0.0
 11
-435.909626600208
 21
-431.3157974773602
 31
0.0
  0
LINE
  5
2A7
330
1F
100
AcDbEntity
  8
LAYER-006
  6
Continuous
 62
     1
100
AcDbLine
 10
-485.909626600208
 20
-373.8157974773602
 30
0.0
 11
-485.909626600208
 21
-431.3157974773602
 31
0.0
  0
LINE
  5
2A8
330
1F
100
AcDbEntity
  8
LAYER-006
  6
Continuous
 62
     1
100
AcDbLine
 10
164.0331993721535
 20
-355.3274918973938
 30
0.0
 11
164.0331993721535
 21
-148.0371136107181
 31
0.0
  0
LINE
  5
2A9
330
1F
100
AcDbEntity
  8
LAYER-006
  6
Continuous
 62
     1
100
AcDbLine
 10
464.0331993721535
 20
-148.0371136107181
 30
0.0
 11
464.0331993721535
 21
-355.3274918973938
 31
0.0
  0
LINE
  5
2AA
330
1F
100
AcDbEntity
  8
LAYER-033
  6
Continuous
 62
     1
100
AcDbLine
 10
429.0331993721535
 20
-136.3157974773602
 30
0.0
 11
423.0331993721535
 21
-136.3157974773602
 31
0.0
  0
LINE
  5
2AB
330
1F
100
AcDbEntity
  8
LAYER-033
  6
Continuous
 62
     1
100
AcDbLine
 10
423.0331993721535
 20
-77.31579747736021
 30
0.0
 11
364.0331993721535
 21
-77.31579747736021
 31
0.0
  0
LINE
  5
2AC
330
1F
100
AcDbEntity
  8
LAYER-033
  6
Continuous
 62
     1
100
AcDbLine
 10
429.0331993721535
 20
-71.31579747736021
 30
0.0
 11
364.0331993721535
 21
-71.31579747736021
 31
0.0
  0
LINE
  5
2AD
330
1F
100
AcDbEntity
  8
LAYER-033
  6
Continuous
 62
     1
100
AcDbLine
 10
364.0331993721535
 20
-77.31579747736021
 30
0.0
 11
364.0331993721535
 21
-71.31579747736021
 31
0.0
  0
LINE
  5
2AE
330
1F
100
AcDbEntity
  8
LAYER-033
  6
Continuous
 62
     1
100
AcDbLine
 10
423.0331993721535
 20
-136.3157974773602
 30
0.0
 11
423.0331993721535
 21
-77.31579747736021
 31
0.0
  0
LINE
  5
2AF
330
1F
100
AcDbEntity
  8
LAYER-033
  6
Continuous
 62
     1
100
AcDbLine
 10
429.0331993721535
 20
-136.3157974773602
 30
0.0
 11
429.0331993721535
 21
-71.31579747736021
 31
0.0
  0
LINE
  5
2B0
330
1F
100
AcDbEntity
  8
LAYER-033
  6
Continuous
 62
     1
100
AcDbLine
 10
199.0331993721535
 20
-136.3157974773602
 30
0.0
 11
199.0331993721535
 21
-71.31579747736021
 31
0.0
  0
LINE
  5
2B1
330
1F
100
AcDbEntity
  8
LAYER-033
  6
Continuous
 62
     1
100
AcDbLine
 10
199.0331993721535
 20
-136.3157974773602
 30
0.0
 11
205.0331993721535
 21
-136.3157974773602
 31
0.0
  0
LINE
  5
2B2
330
1F
100
AcDbEntity
  8
LAYER-033
  6
Continuous
 62
     1
100
AcDbLine
 10
205.0331993721535
 20
-77.31579747736021
 30
0.0
 11
264.0331993721535
 21
-77.31579747736021
 31
0.0
  0
LINE
  5
2B3
330
1F
100
AcDbEntity
  8
LAYER-033
  6
Continuous
 62
     1
100
AcDbLine
 10
199.0331993721535
 20
-71.31579747736021
 30
0.0
 11
264.0331993721535
 21
-71.31579747736021
 31
0.0
  0
LINE
  5
2B4
330
1F
100
AcDbEntity
  8
LAYER-033
  6
Continuous
 62
     1
100
AcDbLine
 10
264.0331993721535
 20
-77.31579747736021
 30
0.0
 11
264.0331993721535
 21
-71.31579747736021
 31
0.0
  0
LINE
  5
2B5
330
1F
100
AcDbEntity
  8
LAYER-033
  6
Continuous
 62
     1
100
AcDbLine
 10
205.0331993721535
 20
-136.3157974773602
 30
0.0
 11
205.0331993721535
 21
-77.31579747736021
 31
0.0
  0
LINE
  5
2B6
330
1F
100
AcDbEntity
  8
LAYER-033
  6
Continuous
 62
     1
100
AcDbLine
 10
510.5361989104132
 20
-57.89854780831848
 30
0.0
 11
459.34454986347
 21
-148.0371136107181
 31
0.0
  0
LINE
  5
2B7
330
1F
100
AcDbEntity
  8
LAYER-033
  6
Continuous
 62
     1
100
AcDbLine
 10
503.7410005403001
 20
-54.29449864120375
 30
0.0
 11
450.5025337026754
 21
-148.037113610718
 31
0.0
  0
LINE
  5
2B8
330
1F
100
AcDbEntity
  8
LAYER-033
  6
Continuous
 62
     1
100
AcDbLine
 10
117.5301998338938
 20
-57.89854780831848
 30
0.0
 11
168.721848880837
 21
-148.0371136107181
 31
0.0
  0
LINE
  5
2B9
330
1F
100
AcDbEntity
  8
LAYER-033
  6
Continuous
 62
     1
100
AcDbLine
 10
124.3253982040069
 20
-54.29449864120375
 30
0.0
 11
177.5638650416316
 21
-148.037113610718
 31
0.0
  0
LINE
  5
2BA
330
1F
100
AcDbEntity
  8
LAYER-033
  6
Continuous
 62
     4
100
AcDbLine
 10
431.0619024162214
 20
-17.37737457939898
 30
0.0
 11
434.5974363221542
 21
-13.84184067346621
 31
0.0
  0
LINE
  5
2BB
330
1F
100
AcDbEntity
  8
LAYER-033
  6
Continuous
 62
     4
100
AcDbLine
 10
431.0619024162214
 20
-20.91290848533174
 30
0.0
 11
438.132970228087
 21
-13.84184067346621
 31
0.0
  0
LINE
  5
2BC
330
1F
100
AcDbEntity
  8
LAYER-033
  6
Continuous
 62
     4
100
AcDbLine
 10
433.97669737
 20
-21.5336474370406
 30
0.0
 11
441.6685041340197
 21
-13.84184067346621
 31
0.0
  0
LINE
  5
2BD
330
1F
100
AcDbEntity
  8
LAYER-033
  6
Continuous
 62
     4
100
AcDbLine
 10
437.5122312761534
 20
-21.5336474370406
 30
0.0
 11
445.2040380399524
 21
-13.84184067346621
 31
0.0
  0
LINE
  5
2BE
330
1F
100
AcDbEntity
  8
LAYER-033
  6
Continuous
 62
     4
100
AcDbLine
 10
441.0477651823107
 20
-21.5336474370406
 30
0.0
 11
448.7395719458853
 21
-13.84184067346621
 31
0.0
  0
LINE
  5
2BF
330
1F
100
AcDbEntity
  8
LAYER-033
  6
Continuous
 62
     4
100
AcDbLine
 10
444.5832990882435
 20
-21.5336474370406
 30
0.0
 11
452.2751058518179
 21
-13.84184067346621
 31
0.0
  0
LINE
  5
2C0
330
1F
100
AcDbEntity
  8
LAYER-033
  6
Continuous
 62
     4
100
AcDbLine
 10
448.1188329941763
 20
-21.5336474370406
 30
0.0
 11
455.8106397577507
 21
-13.84184067346621
 31
0.0
  0
LINE
  5
2C1
330
1F
100
AcDbEntity
  8
LAYER-033
  6
Continuous
 62
     4
100
AcDbLine
 10
451.654366900109
 20
-21.5336474370406
 30
0.0
 11
459.3461736636834
 21
-13.84184067346621
 31
0.0
  0
LINE
  5
2C2
330
1F
100
AcDbEntity
  8
LAYER-033
  6
Continuous
 62
     4
100
AcDbLine
 10
455.1899008060418
 20
-21.5336474370406
 30
0.0
 11
462.8817075696162
 21
-13.84184067346621
 31
0.0
  0
LINE
  5
2C3
330
1F
100
AcDbEntity
  8
LAYER-033
  6
Continuous
 62
     4
100
AcDbLine
 10
458.7254347119746
 20
-21.5336474370406
 30
0.0
 11
466.417241475549
 21
-13.84184067346621
 31
0.0
  0
LINE
  5
2C4
330
1F
100
AcDbEntity
  8
LAYER-033
  6
Continuous
 62
     4
100
AcDbLine
 10
462.2609686179073
 20
-21.5336474370406
 30
0.0
 11
469.9527753814816
 21
-13.84184067346621
 31
0.0
  0
LINE
  5
2C5
330
1F
100
AcDbEntity
  8
LAYER-033
  6
Continuous
 62
     4
100
AcDbLine
 10
465.79650252384
 20
-21.5336474370406
 30
0.0
 11
473.4883092874145
 21
-13.84184067346621
 31
0.0
  0
LINE
  5
2C6
330
1F
100
AcDbEntity
  8
LAYER-033
  6
Continuous
 62
     4
100
AcDbLine
 10
469.3320364297729
 20
-21.5336474370406
 30
0.0
 11
477.0238431933472
 21
-13.84184067346621
 31
0.0
  0
LINE
  5
2C7
330
1F
100
AcDbEntity
  8
LAYER-033
  6
Continuous
 62
     4
100
AcDbLine
 10
472.8675703357055
 20
-21.5336474370406
 30
0.0
 11
480.55937709928
 21
-13.84184067346621
 31
0.0
  0
LINE
  5
2C8
330
1F
100
AcDbEntity
  8
LAYER-033
  6
Continuous
 62
     4
100
AcDbLine
 10
476.4031042416383
 20
-21.5336474370406
 30
0.0
 11
484.0948476632825
 21
-13.84190401539638
 31
0.0
  0
LINE
  5
2C9
330
1F
100
AcDbEntity
  8
LAYER-033
  6
Continuous
 62
     4
100
AcDbLine
 10
479.9386381475711
 20
-21.5336474370406
 30
0.0
 11
487.4367503022288
 21
-14.03553528238285
 31
0.0
  0
LINE
  5
2CA
330
1F
100
AcDbEntity
  8
LAYER-033
  6
Continuous
 62
     4
100
AcDbLine
 10
483.4741720535038
 20
-21.5336474370406
 30
0.0
 11
490.4677886687583
 21
-14.5400308217861
 31
0.0
  0
LINE
  5
2CB
330
1F
100
AcDbEntity
  8
LAYER-033
  6
Continuous
 62
     4
100
AcDbLine
 10
486.8332782181522
 20
-21.71007517842998
 30
0.0
 11
493.250456239
 21
-15.29289715793345
 31
0.0
  0
LINE
  5
2CC
330
1F
100
AcDbEntity
  8
LAYER-033
  6
Continuous
 62
     4
100
AcDbLine
 10
489.7897241370565
 20
-22.28916316535344
 30
0.0
 11
495.8232003415697
 21
-16.25568696084031
 31
0.0
  0
LINE
  5
2CD
330
1F
100
AcDbEntity
  8
LAYER-033
  6
Continuous
 62
     4
100
AcDbLine
 10
492.4372302952231
 20
-23.1771909131196
 30
0.0
 11
498.2109993296176
 21
-17.40342187872494
 31
0.0
  0
LINE
  5
2CE
330
1F
100
AcDbEntity
  8
LAYER-033
  6
Continuous
 62
     4
100
AcDbLine
 10
494.829679499
 20
-24.32027561489389
 30
0.0
 11
500.4304310679506
 21
-18.71952404632481
 31
0.0
  0
LINE
  5
2CF
330
1F
100
AcDbEntity
  8
LAYER-033
  6
Continuous
 62
     4
100
AcDbLine
 10
496.9978223945941
 20
-25.6876666256141
 30
0.0
 11
502.4923341860038
 21
-20.19315483420439
 31
0.0
  0
LINE
  5
2D0
330
1F
100
AcDbEntity
  8
LAYER-033
  6
Continuous
 62
     4
100
AcDbLine
 10
498.9587715399964
 20
-27.2622513861445
 30
0.0
 11
504.4032674231668
 21
-21.81775550297414
 31
0.0
  0
LINE
  5
2D1
330
1F
100
AcDbEntity
  8
LAYER-033
  6
Continuous
 62
     4
100
AcDbLine
 10
500.72015465169
 20
-29.03640218038368
 30
0.0
 11
506.1662906630484
 21
-23.59026616902543
 31
0.0
  0
LINE
  5
2D2
330
1F
100
AcDbEntity
  8
LAYER-033
  6
Continuous
 62
     4
100
AcDbLine
 10
502.2817257861036
 20
-31.01036495190283
 30
0.0
 11
507.7813038597894
 21
-25.51078687821695
 31
0.0
  0
LINE
  5
2D3
330
1F
100
AcDbEntity
  8
LAYER-033
  6
Continuous
 62
     4
100
AcDbLine
 10
503.6353156158681
 20
-33.1923090284788
 30
0.0
 11
509.2450362084717
 21
-27.58258843546747
 31
0.0
  0
LINE
  5
2D4
330
1F
100
AcDbEntity
  8
LAYER-033
  6
Continuous
 62
     4
100
AcDbLine
 10
504.7630953896443
 20
-35.60006316022771
 30
0.0
 11
510.5506827074466
 21
-29.81247584242527
 31
0.0
  0
LINE
  5
2D5
330
1F
100
AcDbEntity
  8
LAYER-033
  6
Continuous
 62
     4
100
AcDbLine
 10
505.6331963002037
 20
-38.265496155601
 30
0.0
 11
511.6870886272261
 21
-32.2116038283602
 31
0.0
  0
LINE
  5
2D6
330
1F
100
AcDbEntity
  8
LAYER-033
  6
Continuous
 62
     4
100
AcDbLine
 10
506.1896782612716
 20
-41.24454810046575
 30
0.0
 11
512.6372329644682
 21
-34.79699339726915
 31
0.0
  0
LINE
  5
2D7
330
1F
100
AcDbEntity
  8
LAYER-033
  6
Continuous
 62
     4
100
AcDbLine
 10
506.32701086
 20
-44.6427494072621
 30
0.0
 11
513.3754597207834
 21
-37.59430054688676
 31
0.0
  0
LINE
  5
2D8
330
1F
100
AcDbEntity
  8
LAYER-033
  6
Continuous
 62
     4
100
AcDbLine
 10
505.8061709609995
 20
-48.69912321260341
 30
0.0
 11
513.8621809610511
 21
-40.64311321255184
 31
0.0
  0
LINE
  5
2D9
330
1F
100
AcDbEntity
  8
LAYER-033
  6
Continuous
 62
     4
100
AcDbLine
 10
503.7339962611278
 20
-54.30683181840789
 30
0.0
 11
514.0327387248836
 21
-44.00808935465204
 31
0.0
  0
LINE
  5
2DA
330
1F
100
AcDbEntity
  8
LAYER-033
  6
Continuous
 62
     4
100
AcDbLine
 10
499.0869066842431
 20
-62.48945530122541
 30
0.0
 11
513.7701020314405
 21
-47.80625995402795
 31
0.0
  0
LINE
  5
2DB
330
1F
100
AcDbEntity
  8
LAYER-033
  6
Continuous
 62
     4
100
AcDbLine
 10
494.4398171073583
 20
-70.67207878404287
 30
0.0
 11
512.8179511970318
 21
-52.29394469436949
 31
0.0
  0
LINE
  5
2DC
330
1F
100
AcDbEntity
  8
LAYER-033
  6
Continuous
 62
     4
100
AcDbLine
 10
489.7927275304736
 20
-78.85470226686033
 30
0.0
 11
510.256649245766
 21
-58.39078055156796
 31
0.0
  0
LINE
  5
2DD
330
1F
100
AcDbEntity
  8
LAYER-033
  6
Continuous
 62
     4
100
AcDbLine
 10
485.1456379535889
 20
-87.03732574967779
 30
0.0
 11
505.6095596688813
 21
-66.57340403438542
 31
0.0
  0
LINE
  5
2DE
330
1F
100
AcDbEntity
  8
LAYER-033
  6
Continuous
 62
     4
100
AcDbLine
 10
480.4985483767042
 20
-95.21994923249525
 30
0.0
 11
500.9624700919966
 21
-74.75602751720288
 31
0.0
  0
LINE
  5
2DF
330
1F
100
AcDbEntity
  8
LAYER-033
  6
Continuous
 62
     4
100
AcDbLine
 10
475.8514587998195
 20
-103.4025727153127
 30
0.0
 11
496.3153805151119
 21
-82.93865100002034
 31
0.0
  0
LINE
  5
2E0
330
1F
100
AcDbEntity
  8
LAYER-033
  6
Continuous
 62
     4
100
AcDbLine
 10
471.2043692229347
 20
-111.5851961981302
 30
0.0
 11
491.6682909382271
 21
-91.12127448283781
 31
0.0
  0
LINE
  5
2E1
330
1F
100
AcDbEntity
  8
LAYER-033
  6
Continuous
 62
     4
100
AcDbLine
 10
466.5572796460501
 20
-119.7678196809476
 30
0.0
 11
487.0212013613425
 21
-99.30389796565527
 31
0.0
  0
LINE
  5
2E2
330
1F
100
AcDbEntity
  8
LAYER-033
  6
Continuous
 62
     4
100
AcDbLine
 10
461.9101900691653
 20
-127.950443164
 30
0.0
 11
482.3741117844577
 21
-107.4865214484727
 31
0.0
  0
LINE
  5
2E3
330
1F
100
AcDbEntity
  8
LAYER-033
  6
Continuous
 62
     4
100
AcDbLine
 10
457.2631004922806
 20
-136.1330666465826
 30
0.0
 11
477.7270222075731
 21
-115.6691449312902
 31
0.0
  0
LINE
  5
2E4
330
1F
100
AcDbEntity
  8
LAYER-033
  6
Continuous
 62
     4
100
AcDbLine
 10
452.6160109153959
 20
-144.3156901294001
 30
0.0
 11
473.0799326306883
 21
-123.8517684141077
 31
0.0
  0
LINE
  5
2E5
330
1F
100
AcDbEntity
  8
LAYER-033
  6
Continuous
 62
     4
100
AcDbLine
 10
452.43012134
 20
-148.0371136107181
 30
0.0
 11
468.4328430538036
 21
-132.0343918969251
 31
0.0
  0
LINE
  5
2E6
330
1F
100
AcDbEntity
  8
LAYER-033
  6
Continuous
 62
     4
100
AcDbLine
 10
455.9656552459434
 20
-148.0371136107181
 30
0.0
 11
463.7857534769189
 21
-140.2170153797426
 31
0.0
  0
LINE
  5
2E7
330
1F
100
AcDbEntity
  8
LAYER-033
  6
Continuous
 62
     4
100
AcDbLine
 10
451.1445824780629
 20
-146.9065902369632
 30
0.0
 11
452.2751058518179
 21
-148.0371136107181
 31
0.0
  0
LINE
  5
2E8
330
1F
100
AcDbEntity
  8
LAYER-033
  6
Continuous
 62
     4
100
AcDbLine
 10
452.4251990192535
 20
-144.651672872221
 30
0.0
 11
455.8106397577506
 21
-148.0371136107181
 31
0.0
  0
LINE
  5
2E9
330
1F
100
AcDbEntity
  8
LAYER-033
  6
Continuous
 62
     4
100
AcDbLine
 10
453.705815560444
 20
-142.3967555074787
 30
0.0
 11
459.3451380251079
 21
-148.0360779721426
 31
0.0
  0
LINE
  5
2EA
330
1F
100
AcDbEntity
  8
LAYER-033
  6
Continuous
 62
     4
100
AcDbLine
 10
454.9864321016345
 20
-140.1418381423602
 30
0.0
 11
460.6257545662984
 21
-145.7811606074004
 31
0.0
  0
LINE
  5
2EB
330
1F
100
AcDbEntity
  8
LAYER-033
  6
Continuous
 62
     4
100
AcDbLine
 10
456.267048642825
 20
-137.8869207779943
 30
0.0
 11
461.9063711074132
 21
-143.5262432426582
 31
0.0
  0
LINE
  5
2EC
330
1F
100
AcDbEntity
  8
LAYER-033
  6
Continuous
 62
     4
100
AcDbLine
 10
457.5476651840155
 20
-135.6320034132521
 30
0.0
 11
463.1869876486794
 21
-141.2713258779159
 31
0.0
  0
LINE
  5
2ED
330
1F
100
AcDbEntity
  8
LAYER-033
  6
Continuous
 62
     4
100
AcDbLine
 10
458.8282817252501
 20
-133.3770860484322
 30
0.0
 11
464.467604189914
 21
-139.016408513096
 31
0.0
  0
LINE
  5
2EE
330
1F
100
AcDbEntity
  8
LAYER-033
  6
Continuous
 62
     4
100
AcDbLine
 10
460.1088982664406
 20
-131.1221686836899
 30
0.0
 11
465.7482207311045
 21
-136.7614911483538
 31
0.0
  0
LINE
  5
2EF
330
1F
100
AcDbEntity
  8
LAYER-033
  6
Continuous
 62
     4
100
AcDbLine
 10
461.3895148076311
 20
-128.8672513189476
 30
0.0
 11
467.0288372722951
 21
-134.5065737836115
 31
0.0
  0
LINE
  5
2F0
330
1F
100
AcDbEntity
  8
LAYER-033
  6
Continuous
 62
     4
100
AcDbLine
 10
462.6701313488217
 20
-126.6123339542054
 30
0.0
 11
468.3094538134856
 21
-132.2516564188693
 31
0.0
  0
LINE
  5
2F1
330
1F
100
AcDbEntity
  8
LAYER-033
  6
Continuous
 62
     4
100
AcDbLine
 10
463.9507478900122
 20
-124.3574165894632
 30
0.0
 11
469.5900703546761
 21
-129.9967390541271
 31
0.0
  0
LINE
  5
2F2
330
1F
100
AcDbEntity
  8
LAYER-033
  6
Continuous
 62
     4
100
AcDbLine
 10
465.2313644308681
 20
-122.102499224721
 30
0.0
 11
470.8706868958666
 21
-127.7418216893849
 31
0.0
  0
LINE
  5
2F3
330
1F
100
AcDbEntity
  8
LAYER-033
  6
Continuous
 62
     4
100
AcDbLine
 10
466.5119809723932
 20
-119.8475818599787
 30
0.0
 11
472.1513034370571
 21
-125.4869043246426
 31
0.0
  0
LINE
  5
2F4
330
1F
100
AcDbEntity
  8
LAYER-033
  6
Continuous
 62
     4
100
AcDbLine
 10
467.7925975135837
 20
-117.5926644957181
 30
0.0
 11
473.4319199781872
 21
-123.2319869600066
 31
0.0
  0
LINE
  5
2F5
330
1F
100
AcDbEntity
  8
LAYER-033
  6
Continuous
 62
     4
100
AcDbLine
 10
469.0732140546754
 20
-115.3377471304943
 30
0.0
 11
474.7125365194381
 21
-120.9770695951582
 31
0.0
  0
LINE
  5
2F6
330
1F
100
AcDbEntity
  8
LAYER-033
  6
Continuous
 62
     4
100
AcDbLine
 10
470.3538305959647
 20
-113.0828297657521
 30
0.0
 11
475.9931530606286
 21
-118.7221522304159
 31
0.0
  0
LINE
  5
2F7
330
1F
100
AcDbEntity
  8
LAYER-033
  6
Continuous
 62
     4
100
AcDbLine
 10
471.6344471371542
 20
-110.8279124010118
 30
0.0
 11
477.2737696018191
 21
-116.4672348656737
 31
0.0
  0
LINE
  5
2F8
330
1F
100
AcDbEntity
  8
LAYER-033
  6
Continuous
 62
     4
100
AcDbLine
 10
472.9150636783458
 20
-108.5729950362676
 30
0.0
 11
478.5543861430097
 21
-114.2123175009315
 31
0.0
  0
LINE
  5
2F9
330
1F
100
AcDbEntity
  8
LAYER-033
  6
Continuous
 62
     4
100
AcDbLine
 10
474.1956802195363
 20
-106.3180776715254
 30
0.0
 11
479.8350026842002
 21
-111.9574001361893
 31
0.0
  0
LINE
  5
2FA
330
1F
100
AcDbEntity
  8
LAYER-033
  6
Continuous
 62
     4
100
AcDbLine
 10
475.4762967607268
 20
-104.0631603067832
 30
0.0
 11
481.1156192253907
 21
-109.702482771447
 31
0.0
  0
LINE
  5
2FB
330
1F
100
AcDbEntity
  8
LAYER-033
  6
Continuous
 62
     4
100
AcDbLine
 10
476.7569133019173
 20
-101.8082429420409
 30
0.0
 11
482.3962357665812
 21
-107.4475654067048
 31
0.0
  0
LINE
  5
2FC
330
1F
100
AcDbEntity
  8
LAYER-033
  6
Continuous
 62
     4
100
AcDbLine
 10
478.0375298431078
 20
-99.55332557729872
 30
0.0
 11
483.676852308
 21
-105.1926480419626
 31
0.0
  0
LINE
  5
2FD
330
1F
100
AcDbEntity
  8
LAYER-033
  6
Continuous
 62
     4
100
AcDbLine
 10
479.3181463842983
 20
-97.29840821255652
 30
0.0
 11
484.9574688489622
 21
-102.9377306772203
 31
0.0
  0
LINE
  5
2FE
330
1F
100
AcDbEntity
  8
LAYER-033
  6
Continuous
 62
     4
100
AcDbLine
 10
480.5987629254888
 20
-95.04349084781427
 30
0.0
 11
486.2380853901527
 21
-100.6828133124781
 31
0.0
  0
LINE
  5
2FF
330
1F
100
AcDbEntity
  8
LAYER-033
  6
Continuous
 62
     4
100
AcDbLine
 10
481.8793794666793
 20
-92.78857348307201
 30
0.0
 11
487.5187019313432
 21
-98.42789594773586
 31
0.0
  0
LINE
  5
300
330
1F
100
AcDbEntity
  8
LAYER-033
  6
Continuous
 62
     4
100
AcDbLine
 10
483.1599960081535
 20
-90.53365611832976
 30
0.0
 11
488.7993184725337
 21
-96.17297858299367
 31
0.0
  0
LINE
  5
301
330
1F
100
AcDbEntity
  8
LAYER-033
  6
Continuous
 62
     4
100
AcDbLine
 10
484.4406125490604
 20
-88.27873875358756
 30
0.0
 11
490.0799350137243
 21
-93.91806121825141
 31
0.0
  0
LINE
  5
302
330
1F
100
AcDbEntity
  8
LAYER-033
  6
Continuous
 62
     4
100
AcDbLine
 10
485.7212290902509
 20
-86.02382138884531
 30
0.0
 11
491.3605515549148
 21
-91.66314385350916
 31
0.0
  0
LINE
  5
303
330
1F
100
AcDbEntity
  8
LAYER-033
  6
Continuous
 62
     4
100
AcDbLine
 10
487.0018456314414
 20
-83.76890402410311
 30
0.0
 11
492.6411680961053
 21
-89.4082264887669
 31
0.0
  0
LINE
  5
304
330
1F
100
AcDbEntity
  8
LAYER-033
  6
Continuous
 62
     4
100
AcDbLine
 10
488.2824621726319
 20
-81.51398665936085
 30
0.0
 11
493.9217846372958
 21
-87.1533091240247
 31
0.0
  0
LINE
  5
305
330
1F
100
AcDbEntity
  8
LAYER-033
  6
Continuous
 62
     4
100
AcDbLine
 10
431.0619024162214
 20
-20.75789299701762
 30
0.0
 11
431.8376568562444
 21
-21.5336474370406
 31
0.0
  0
LINE
  5
306
330
1F
100
AcDbEntity
  8
LAYER-033
  6
Continuous
 62
     4
100
AcDbLine
 10
489.5630787138224
 20
-79.2590692946186
 30
0.0
 11
495.2024011784863
 21
-84.89839175928245
 31
0.0
  0
LINE
  5
307
330
1F
100
AcDbEntity
  8
LAYER-033
  6
Continuous
 62
     4
100
AcDbLine
 10
431.0619024162214
 20
-17.22235909108485
 30
0.0
 11
435.3731907621772
 21
-21.5336474370406
 31
0.0
  0
LINE
  5
308
330
1F
100
AcDbEntity
  8
LAYER-033
  6
Continuous
 62
     4
100
AcDbLine
 10
490.8436952550129
 20
-77.00415192987634
 30
0.0
 11
496.4830177196782
 21
-82.64347439453769
 31
0.0
  0
LINE
  5
309
330
1F
100
AcDbEntity
  8
LAYER-033
  6
Continuous
 62
     4
100
AcDbLine
 10
431.2169179045355
 20
-13.84184067346621
 30
0.0
 11
438.9087246681099
 21
-21.5336474370406
 31
0.0
  0
LINE
  5
30A
330
1F
100
AcDbEntity
  8
LAYER-033
  6
Continuous
 62
     4
100
AcDbLine
 10
492.1243117962035
 20
-74.74923456513415
 30
0.0
 11
497.7636342448946
 21
-80.38855705792275
 31
0.0
  0
LINE
  5
30B
330
1F
100
AcDbEntity
  8
LAYER-033
  6
Continuous
 62
     4
100
AcDbLine
 10
434.7524518104683
 20
-13.84184067346621
 30
0.0
 11
442.4442585740427
 21
-21.5336474370406
 31
0.0
  0
LINE
  5
30C
330
1F
100
AcDbEntity
  8
LAYER-033
  6
Continuous
 62
     4
100
AcDbLine
 10
493.404928337394
 20
-72.49431720039189
 30
0.0
 11
499.0442508020578
 21
-78.13363966505574
 31
0.0
  0
LINE
  5
30D
330
1F
100
AcDbEntity
  8
LAYER-033
  6
Continuous
 62
     4
100
AcDbLine
 10
438.287985716401
 20
-13.84184067346621
 30
0.0
 11
445.9797924799755
 21
-21.5336474370406
 31
0.0
  0
LINE
  5
30E
330
1F
100
AcDbEntity
  8
LAYER-033
  6
Continuous
 62
     4
100
AcDbLine
 10
494.6855448785846
 20
-70.23939983564969
 30
0.0
 11
500.3248673432483
 21
-75.87872230031348
 31
0.0
  0
LINE
  5
30F
330
1F
100
AcDbEntity
  8
LAYER-033
  6
Continuous
 62
     4
100
AcDbLine
 10
441.8235196223338
 20
-13.84184067346621
 30
0.0
 11
449.5153263859081
 21
-21.5336474370406
 31
0.0
  0
LINE
  5
310
330
1F
100
AcDbEntity
  8
LAYER-033
  6
Continuous
 62
     4
100
AcDbLine
 10
495.966161419776
 20
-67.98448247090579
 30
0.0
 11
501.6054838844389
 21
-73.62380493557129
 31
0.0
  0
LINE
  5
311
330
1F
100
AcDbEntity
  8
LAYER-033
  6
Continuous
 62
     4
100
AcDbLine
 10
445.3590535282543
 20
-13.84184067346621
 30
0.0
 11
453.050860291841
 21
-21.5336474370406
 31
0.0
  0
LINE
  5
312
330
1F
100
AcDbEntity
  8
LAYER-033
  6
Continuous
 62
     4
100
AcDbLine
 10
497.2467779609656
 20
-65.72956510636021
 30
0.0
 11
502.8861004256294
 21
-71.36888757082903
 31
0.0
  0
LINE
  5
313
330
1F
100
AcDbEntity
  8
LAYER-033
  6
Continuous
 62
     4
100
AcDbLine
 10
448.8945874341993
 20
-13.84184067346621
 30
0.0
 11
456.5863941977736
 21
-21.5336474370406
 31
0.0
  0
LINE
  5
314
330
1F
100
AcDbEntity
  8
LAYER-033
  6
Continuous
 62
     4
100
AcDbLine
 10
498.5273945021535
 20
-63.47464774142293
 30
0.0
 11
504.1667169668199
 21
-69.11397020608678
 31
0.0
  0
LINE
  5
315
330
1F
100
AcDbEntity
  8
LAYER-033
  6
Continuous
 62
     4
100
AcDbLine
 10
452.43012134
 20
-13.84184067346621
 30
0.0
 11
460.1219281037064
 21
-21.5336474370406
 31
0.0
  0
LINE
  5
316
330
1F
100
AcDbEntity
  8
LAYER-033
  6
Continuous
 62
     4
100
AcDbLine
 10
499.8080110433466
 20
-61.21973037668073
 30
0.0
 11
505.4473335080104
 21
-66.85905284134458
 31
0.0
  0
LINE
  5
317
330
1F
100
AcDbEntity
  8
LAYER-033
  6
Continuous
 62
     4
100
AcDbLine
 10
455.9656552460648
 20
-13.84184067346621
 30
0.0
 11
463.6574620096392
 21
-21.5336474370406
 31
0.0
  0
LINE
  5
318
330
1F
100
AcDbEntity
  8
LAYER-033
  6
Continuous
 62
     4
100
AcDbLine
 10
501.0886275845371
 20
-58.96481301193848
 30
0.0
 11
506.7279500492009
 21
-64.60413547660232
 31
0.0
  0
LINE
  5
319
330
1F
100
AcDbEntity
  8
LAYER-033
  6
Continuous
 62
     4
100
AcDbLine
 10
459.5011891519976
 20
-13.84184067346621
 30
0.0
 11
467.1929959155719
 21
-21.5336474370406
 31
0.0
  0
LINE
  5
31A
330
1F
100
AcDbEntity
  8
LAYER-033
  6
Continuous
 62
     4
100
AcDbLine
 10
502.3692441257276
 20
-56.70989564719628
 30
0.0
 11
508.0085665903914
 21
-62.34921811186007
 31
0.0
  0
LINE
  5
31B
330
1F
100
AcDbEntity
  8
LAYER-033
  6
Continuous
 62
     4
100
AcDbLine
 10
463.0367230579303
 20
-13.84184067346621
 30
0.0
 11
470.7285298215047
 21
-21.5336474370406
 31
0.0
  0
LINE
  5
31C
330
1F
100
AcDbEntity
  8
LAYER-033
  6
Continuous
 62
     4
100
AcDbLine
 10
503.649860651
 20
-54.45497831113812
 30
0.0
 11
509.2891831315819
 21
-60.09430074711781
 31
0.0
  0
LINE
  5
31D
330
1F
100
AcDbEntity
  8
LAYER-033
  6
Continuous
 62
     4
100
AcDbLine
 10
466.5722569638631
 20
-13.84184067346621
 30
0.0
 11
474.2640637274374
 21
-21.5336474370406
 31
0.0
  0
LINE
  5
31E
330
1F
100
AcDbEntity
  8
LAYER-033
  6
Continuous
 62
     4
100
AcDbLine
 10
504.7775598221174
 20
-52.04714353172057
 30
0.0
 11
510.5682903037584
 21
-57.8378740133615
 31
0.0
  0
LINE
  5
31F
330
1F
100
AcDbEntity
  8
LAYER-033
  6
Continuous
 62
     4
100
AcDbLine
 10
470.1077908697957
 20
-13.84184067346621
 30
0.0
 11
477.7995976333702
 21
-21.5336474370406
 31
0.0
  0
LINE
  5
320
330
1F
100
AcDbEntity
  8
LAYER-033
  6
Continuous
 62
     4
100
AcDbLine
 10
505.6436163457649
 20
-49.3776661494353
 30
0.0
 11
511.7021500956832
 21
-55.4361998993536
 31
0.0
  0
LINE
  5
321
330
1F
100
AcDbEntity
  8
LAYER-033
  6
Continuous
 62
     4
100
AcDbLine
 10
473.6433247757286
 20
-13.84184067346621
 30
0.0
 11
481.3351315393029
 21
-21.5336474370406
 31
0.0
  0
LINE
  5
322
330
1F
100
AcDbEntity
  8
LAYER-033
  6
Continuous
 62
     4
100
AcDbLine
 10
506.1949804146198
 20
-46.39349631235746
 30
0.0
 11
512.6494487832907
 21
-52.84796468102837
 31
0.0
  0
LINE
  5
323
330
1F
100
AcDbEntity
  8
LAYER-033
  6
Continuous
 62
     4
100
AcDbLine
 10
477.1788586816613
 20
-13.84184067346621
 30
0.0
 11
484.8870105774984
 21
-21.54999256930324
 31
0.0
  0
LINE
  5
324
330
1F
100
AcDbEntity
  8
LAYER-033
  6
Continuous
 62
     4
100
AcDbLine
 10
506.3250474763285
 20
-42.98802946813333
 30
0.0
 11
513.3843757943168
 21
-50.04735778612184
 31
0.0
  0
LINE
  5
325
330
1F
100
AcDbEntity
  8
LAYER-033
  6
Continuous
 62
     4
100
AcDbLine
 10
480.714392587594
 20
-13.84184067346621
 30
0.0
 11
488.9561820134975
 21
-22.0836300993696
 31
0.0
  0
LINE
  5
326
330
1F
100
AcDbEntity
  8
LAYER-033
  6
Continuous
 62
     4
100
AcDbLine
 10
505.79140994625
 20
-38.91885803212222
 30
0.0
 11
513.8670819518682
 21
-46.99453003762193
 31
0.0
  0
LINE
  5
327
330
1F
100
AcDbEntity
  8
LAYER-033
  6
Continuous
 62
     4
100
AcDbLine
 10
484.2507150550961
 20
-13.84262923503547
 30
0.0
 11
494.6066877135021
 21
-24.19860189344144
 31
0.0
  0
LINE
  5
328
330
1F
100
AcDbEntity
  8
LAYER-033
  6
Continuous
 62
     4
100
AcDbLine
 10
503.6764381521782
 20
-33.26835233211762
 30
0.0
 11
514.0324108105842
 21
-43.62432499052363
 31
0.0
  0
LINE
  5
329
330
1F
100
AcDbEntity
  8
LAYER-033
  6
Continuous
 62
     4
100
AcDbLine
 10
488.056461766726
 20
-14.11284204073263
 30
0.0
 11
513.7621980048616
 21
-39.81857827886819
 31
0.0
  0
LINE
  5
32A
330
1F
100
AcDbEntity
  8
LAYER-033
  6
Continuous
 62
     4
100
AcDbLine
 10
492.5575569651332
 20
-15.07840333320718
 30
0.0
 11
512.7966367124125
 21
-35.3174830804864
 31
0.0
  0
LINE
  5
32B
330
1F
100
AcDbEntity
  8
LAYER-033
  6
Continuous
 62
     4
100
AcDbLine
 10
498.6687097406241
 20
-17.65402220276519
 30
0.0
 11
510.2210178428545
 21
-29.20633030499567
 31
0.0
  0
LINE
  5
32C
330
1F
100
AcDbEntity
  8
LAYER-033
  6
Continuous
 62
     4
100
AcDbLine
 10
121.3870809762397
 20
-24.16562859905787
 30
0.0
 11
124.3569872977593
 21
-21.19572227753827
 31
0.0
  0
LINE
  5
32D
330
1F
100
AcDbEntity
  8
LAYER-033
  6
Continuous
 62
     4
100
AcDbLine
 10
116.0435168306097
 20
-33.04472665062059
 30
0.0
 11
133.2360853493221
 21
-15.85215813190825
 31
0.0
  0
LINE
  5
32E
330
1F
100
AcDbEntity
  8
LAYER-033
  6
Continuous
 62
     4
100
AcDbLine
 10
114.6034534956374
 20
-38.02032389152566
 30
0.0
 11
138.2116825902272
 21
-14.41209479693589
 31
0.0
  0
LINE
  5
32F
330
1F
100
AcDbEntity
  8
LAYER-033
  6
Continuous
 62
     4
100
AcDbLine
 10
114.0853336678766
 20
-42.07397762521919
 30
0.0
 11
142.2653363239207
 21
-13.89397496917513
 31
0.0
  0
LINE
  5
330
330
1F
100
AcDbEntity
  8
LAYER-033
  6
Continuous
 62
     4
100
AcDbLine
 10
114.0853229555234
 20
-45.60952224350513
 30
0.0
 11
122.8510713976835
 21
-36.84377380134504
 31
0.0
  0
LINE
  5
331
330
1F
100
AcDbEntity
  8
LAYER-033
  6
Continuous
 62
     4
100
AcDbLine
 10
137.0351325000466
 20
-22.65971269898199
 30
0.0
 11
145.8530045255624
 21
-13.84184067346621
 31
0.0
  0
LINE
  5
332
330
1F
100
AcDbEntity
  8
LAYER-033
  6
Continuous
 62
     4
100
AcDbLine
 10
114.4435537723832
 20
-48.78682533257813
 30
0.0
 11
121.8626246665959
 21
-41.36775443836541
 31
0.0
  0
LINE
  5
333
330
1F
100
AcDbEntity
  8
LAYER-033
  6
Continuous
 62
     4
100
AcDbLine
 10
141.5591131370669
 20
-21.67126596789439
 30
0.0
 11
149.3885384314951
 21
-13.84184067346621
 31
0.0
  0
LINE
  5
334
330
1F
100
AcDbEntity
  8
LAYER-033
  6
Continuous
 62
     4
100
AcDbLine
 10
115.0775166236838
 20
-51.68839638721033
 30
0.0
 11
121.7556272096246
 21
-45.0102858012695
 31
0.0
  0
LINE
  5
335
330
1F
100
AcDbEntity
  8
LAYER-033
  6
Continuous
 62
     4
100
AcDbLine
 10
145.2322655738535
 20
-21.5336474370406
 30
0.0
 11
152.9240723374279
 21
-13.84184067346621
 31
0.0
  0
LINE
  5
336
330
1F
100
AcDbEntity
  8
LAYER-033
  6
Continuous
 62
     4
100
AcDbLine
 10
115.9385752205995
 20
-54.36287169622733
 30
0.0
 11
122.1460230852995
 21
-48.15542383152729
 31
0.0
  0
LINE
  5
337
330
1F
100
AcDbEntity
  8
LAYER-033
  6
Continuous
 62
     4
100
AcDbLine
 10
148.7677994797862
 20
-21.5336474370406
 30
0.0
 11
156.4596062433681
 21
-13.84184067346621
 31
0.0
  0
LINE
  5
338
330
1F
100
AcDbEntity
  8
LAYER-033
  6
Continuous
 62
     4
100
AcDbLine
 10
116.995847570447
 20
-56.8411332523126
 30
0.0
 11
122.8875648589556
 21
-50.94941596380397
 31
0.0
  0
LINE
  5
339
330
1F
100
AcDbEntity
  8
LAYER-033
  6
Continuous
 62
     4
100
AcDbLine
 10
152.303333385719
 20
-21.5336474370406
 30
0.0
 11
159.9951401492934
 21
-13.84184067346621
 31
0.0
  0
LINE
  5
33A
330
1F
100
AcDbEntity
  8
LAYER-033
  6
Continuous
 62
     4
100
AcDbLine
 10
118.2342576510324
 20
-59.13825707765989
 30
0.0
 11
123.9073952677001
 21
-53.46511946099224
 31
0.0
  0
LINE
  5
33B
330
1F
100
AcDbEntity
  8
LAYER-033
  6
Continuous
 62
     4
100
AcDbLine
 10
155.8388672916517
 20
-21.5336474370406
 30
0.0
 11
163.5306740552261
 21
-13.84184067346621
 31
0.0
  0
LINE
  5
33C
330
1F
100
AcDbEntity
  8
LAYER-033
  6
Continuous
 62
     4
100
AcDbLine
 10
119.514874192223
 20
-61.39317444240214
 30
0.0
 11
125.1541966565862
 21
-55.75385197803882
 31
0.0
  0
LINE
  5
33D
330
1F
100
AcDbEntity
  8
LAYER-033
  6
Continuous
 62
     4
100
AcDbLine
 10
159.3744011975845
 20
-21.5336474370406
 30
0.0
 11
167.066207961649
 21
-13.84184067346621
 31
0.0
  0
LINE
  5
33E
330
1F
100
AcDbEntity
  8
LAYER-033
  6
Continuous
 62
     4
100
AcDbLine
 10
120.7954907334135
 20
-63.64809180714434
 30
0.0
 11
126.4348131977768
 21
-58.00876934278108
 31
0.0
  0
LINE
  5
33F
330
1F
100
AcDbEntity
  8
LAYER-033
  6
Continuous
 62
     4
100
AcDbLine
 10
162.9099351035172
 20
-21.5336474370406
 30
0.0
 11
170.6017418670916
 21
-13.84184067346621
 31
0.0
  0
LINE
  5
340
330
1F
100
AcDbEntity
  8
LAYER-033
  6
Continuous
 62
     4
100
AcDbLine
 10
122.076107274604
 20
-65.9030091718866
 30
0.0
 11
127.7154297389673
 21
-60.26368670752328
 31
0.0
  0
LINE
  5
341
330
1F
100
AcDbEntity
  8
LAYER-033
  6
Continuous
 62
     4
100
AcDbLine
 10
166.44546900945
 20
-21.5336474370406
 30
0.0
 11
174.1372757730244
 21
-13.84184067346621
 31
0.0
  0
LINE
  5
342
330
1F
100
AcDbEntity
  8
LAYER-033
  6
Continuous
 62
     4
100
AcDbLine
 10
123.3567238157945
 20
-68.15792653662885
 30
0.0
 11
128.9960462801578
 21
-62.51860407226553
 31
0.0
  0
LINE
  5
343
330
1F
100
AcDbEntity
  8
LAYER-033
  6
Continuous
 62
     4
100
AcDbLine
 10
169.9810029153827
 20
-21.5336474370406
 30
0.0
 11
177.6728096789684
 21
-13.84184067346621
 31
0.0
  0
LINE
  5
344
330
1F
100
AcDbEntity
  8
LAYER-033
  6
Continuous
 62
     4
100
AcDbLine
 10
124.637340356985
 20
-70.41284390137105
 30
0.0
 11
130.2766628213483
 21
-64.77352143700773
 31
0.0
  0
LINE
  5
345
330
1F
100
AcDbEntity
  8
LAYER-033
  6
Continuous
 62
     4
100
AcDbLine
 10
173.5165368213155
 20
-21.5336474370406
 30
0.0
 11
181.2083435848899
 21
-13.84184067346621
 31
0.0
  0
LINE
  5
346
330
1F
100
AcDbEntity
  8
LAYER-033
  6
Continuous
 62
     4
100
AcDbLine
 10
125.9179568981755
 20
-72.6677612661133
 30
0.0
 11
131.5572793625388
 21
-67.02843880174999
 31
0.0
  0
LINE
  5
347
330
1F
100
AcDbEntity
  8
LAYER-033
  6
Continuous
 62
     4
100
AcDbLine
 10
177.0520707272482
 20
-21.5336474370406
 30
0.0
 11
184.7438774908226
 21
-13.84184067346621
 31
0.0
  0
LINE
  5
348
330
1F
100
AcDbEntity
  8
LAYER-033
  6
Continuous
 62
     4
100
AcDbLine
 10
127.198573439366
 20
-74.92267863085556
 30
0.0
 11
132.8378959037293
 21
-69.28335616649224
 31
0.0
  0
LINE
  5
349
330
1F
100
AcDbEntity
  8
LAYER-033
  6
Continuous
 62
     4
100
AcDbLine
 10
180.587604633181
 20
-21.5336474370406
 30
0.0
 11
188.2794113967554
 21
-13.84184067346621
 31
0.0
  0
LINE
  5
34A
330
1F
100
AcDbEntity
  8
LAYER-033
  6
Continuous
 62
     4
100
AcDbLine
 10
128.4791899805566
 20
-77.17759599559781
 30
0.0
 11
134.1185124449199
 21
-71.5382735312345
 31
0.0
  0
LINE
  5
34B
330
1F
100
AcDbEntity
  8
LAYER-033
  6
Continuous
 62
     4
100
AcDbLine
 10
184.1231385391137
 20
-21.5336474370406
 30
0.0
 11
191.8149453026881
 21
-13.84184067346621
 31
0.0
  0
LINE
  5
34C
330
1F
100
AcDbEntity
  8
LAYER-033
  6
Continuous
 62
     4
100
AcDbLine
 10
129.7598065217471
 20
-79.43251336034001
 30
0.0
 11
135.3991289861104
 21
-73.79319089597669
 31
0.0
  0
LINE
  5
34D
330
1F
100
AcDbEntity
  8
LAYER-033
  6
Continuous
 62
     4
100
AcDbLine
 10
187.6586724450465
 20
-21.5336474370406
 30
0.0
 11
195.3504792086209
 21
-13.84184067346621
 31
0.0
  0
LINE
  5
34E
330
1F
100
AcDbEntity
  8
LAYER-033
  6
Continuous
 62
     4
100
AcDbLine
 10
131.0404230629376
 20
-81.68743072508227
 30
0.0
 11
136.6797455273009
 21
-76.04810826071895
 31
0.0
  0
LINE
  5
34F
330
1F
100
AcDbEntity
  8
LAYER-033
  6
Continuous
 62
     4
100
AcDbLine
 10
191.1942063509792
 20
-21.5336474370406
 30
0.0
 11
197.0044963278681
 21
-15.72335746015176
 31
0.0
  0
LINE
  5
350
330
1F
100
AcDbEntity
  8
LAYER-033
  6
Continuous
 62
     4
100
AcDbLine
 10
132.3210396041281
 20
-83.94234808982446
 30
0.0
 11
137.9603620684914
 21
-78.3030256254612
 31
0.0
  0
LINE
  5
351
330
1F
100
AcDbEntity
  8
LAYER-033
  6
Continuous
 62
     4
100
AcDbLine
 10
194.729740256912
 20
-21.5336474370406
 30
0.0
 11
197.0044963278681
 21
-19.25889136608453
 31
0.0
  0
LINE
  5
352
330
1F
100
AcDbEntity
  8
LAYER-033
  6
Continuous
 62
     4
100
AcDbLine
 10
133.6016561453186
 20
-86.19726545456672
 30
0.0
 11
139.2409786096816
 21
-80.55794299020278
 31
0.0
  0
LINE
  5
353
330
1F
100
AcDbEntity
  8
LAYER-033
  6
Continuous
 62
     4
100
AcDbLine
 10
134.8822726865091
 20
-88.45218281930897
 30
0.0
 11
140.5215951508724
 21
-82.81286035494566
 31
0.0
  0
LINE
  5
354
330
1F
100
AcDbEntity
  8
LAYER-033
  6
Continuous
 62
     4
100
AcDbLine
 10
136.1628892276997
 20
-90.70710018405123
 30
0.0
 11
141.8022116920629
 21
-85.06777771968791
 31
0.0
  0
LINE
  5
355
330
1F
100
AcDbEntity
  8
LAYER-033
  6
Continuous
 62
     4
100
AcDbLine
 10
137.4435057688902
 20
-92.96201754879343
 30
0.0
 11
143.0828282332535
 21
-87.32269508443017
 31
0.0
  0
LINE
  5
356
330
1F
100
AcDbEntity
  8
LAYER-033
  6
Continuous
 62
     4
100
AcDbLine
 10
138.7241223100807
 20
-95.21693491353568
 30
0.0
 11
144.363444774444
 21
-89.57761244917236
 31
0.0
  0
LINE
  5
357
330
1F
100
AcDbEntity
  8
LAYER-033
  6
Continuous
 62
     4
100
AcDbLine
 10
140.0047388512712
 20
-97.47185227827788
 30
0.0
 11
145.6440613156345
 21
-91.83252981391456
 31
0.0
  0
LINE
  5
358
330
1F
100
AcDbEntity
  8
LAYER-033
  6
Continuous
 62
     4
100
AcDbLine
 10
141.2853553924617
 20
-99.7267696433602
 30
0.0
 11
146.9246778568265
 21
-94.08744717865943
 31
0.0
  0
LINE
  5
359
330
1F
100
AcDbEntity
  8
LAYER-033
  6
Continuous
 62
     4
100
AcDbLine
 10
142.5659719336522
 20
-101.9816870077624
 30
0.0
 11
148.2052943980155
 21
-96.34236454339907
 31
0.0
  0
LINE
  5
35A
330
1F
100
AcDbEntity
  8
LAYER-033
  6
Continuous
 62
     4
100
AcDbLine
 10
143.8465884748427
 20
-104.2366043725046
 30
0.0
 11
149.485910939206
 21
-98.59728190814133
 31
0.0
  0
LINE
  5
35B
330
1F
100
AcDbEntity
  8
LAYER-033
  6
Continuous
 62
     4
100
AcDbLine
 10
145.1272050160333
 20
-106.4915217372469
 30
0.0
 11
150.7665274803966
 21
-100.8521992728836
 31
0.0
  0
LINE
  5
35C
330
1F
100
AcDbEntity
  8
LAYER-033
  6
Continuous
 62
     4
100
AcDbLine
 10
146.4078215572238
 20
-108.7464391019891
 30
0.0
 11
152.0471440215871
 21
-103.1071166376258
 31
0.0
  0
LINE
  5
35D
330
1F
100
AcDbEntity
  8
LAYER-033
  6
Continuous
 62
     4
100
AcDbLine
 10
147.6884380984143
 20
-111.0013564667313
 30
0.0
 11
153.3277605627776
 21
-105.362034002368
 31
0.0
  0
LINE
  5
35E
330
1F
100
AcDbEntity
  8
LAYER-033
  6
Continuous
 62
     4
100
AcDbLine
 10
148.9690546396048
 20
-113.2562738314736
 30
0.0
 11
154.6083771039681
 21
-107.6169513671102
 31
0.0
  0
LINE
  5
35F
330
1F
100
AcDbEntity
  8
LAYER-033
  6
Continuous
 62
     4
100
AcDbLine
 10
150.2496711807953
 20
-115.5111911962158
 30
0.0
 11
155.8889936451586
 21
-109.8718687318525
 31
0.0
  0
LINE
  5
360
330
1F
100
AcDbEntity
  8
LAYER-033
  6
Continuous
 62
     4
100
AcDbLine
 10
151.5302877219858
 20
-117.7661085609581
 30
0.0
 11
157.1696101863491
 21
-112.1267860965947
 31
0.0
  0
LINE
  5
361
330
1F
100
AcDbEntity
  8
LAYER-033
  6
Continuous
 62
     4
100
AcDbLine
 10
152.8109042631763
 20
-120.0210259257003
 30
0.0
 11
158.4502267275396
 21
-114.381703461337
 31
0.0
  0
LINE
  5
362
330
1F
100
AcDbEntity
  8
LAYER-033
  6
Continuous
 62
     4
100
AcDbLine
 10
154.0915208043668
 20
-122.2759432904425
 30
0.0
 11
159.7308432687302
 21
-116.6366208260792
 31
0.0
  0
LINE
  5
363
330
1F
100
AcDbEntity
  8
LAYER-033
  6
Continuous
 62
     4
100
AcDbLine
 10
155.3721373455574
 20
-124.5308606551848
 30
0.0
 11
161.0114598099207
 21
-118.8915381908215
 31
0.0
  0
LINE
  5
364
330
1F
100
AcDbEntity
  8
LAYER-033
  6
Continuous
 62
     4
100
AcDbLine
 10
156.6527538867479
 20
-126.785778019927
 30
0.0
 11
162.2920763511112
 21
-121.1464555555637
 31
0.0
  0
LINE
  5
365
330
1F
100
AcDbEntity
  8
LAYER-033
  6
Continuous
 62
     4
100
AcDbLine
 10
157.9333704039404
 20
-129.0406953424134
 30
0.0
 11
163.5726928923017
 21
-123.4013729203059
 31
0.0
  0
LINE
  5
366
330
1F
100
AcDbEntity
  8
LAYER-033
  6
Continuous
 62
     4
100
AcDbLine
 10
159.2139869691289
 20
-131.2956127494115
 30
0.0
 11
164.8533094334922
 21
-125.6562902850482
 31
0.0
  0
LINE
  5
367
330
1F
100
AcDbEntity
  8
LAYER-033
  6
Continuous
 62
     4
100
AcDbLine
 10
160.4946035103194
 20
-133.5505301141537
 30
0.0
 11
166.1339259746827
 21
-127.9112076497904
 31
0.0
  0
LINE
  5
368
330
1F
100
AcDbEntity
  8
LAYER-033
  6
Continuous
 62
     4
100
AcDbLine
 10
161.7752200515099
 20
-135.805447478896
 30
0.0
 11
167.4145425158733
 21
-130.1661250145326
 31
0.0
  0
LINE
  5
369
330
1F
100
AcDbEntity
  8
LAYER-033
  6
Continuous
 62
     4
100
AcDbLine
 10
163.0558365927004
 20
-138.0603648436382
 30
0.0
 11
168.6951590570638
 21
-132.4210423792748
 31
0.0
  0
LINE
  5
36A
330
1F
100
AcDbEntity
  8
LAYER-033
  6
Continuous
 62
     4
100
AcDbLine
 10
164.336453133891
 20
-140.3152822083804
 30
0.0
 11
169.9757755982543
 21
-134.6759597440171
 31
0.0
  0
LINE
  5
36B
330
1F
100
AcDbEntity
  8
LAYER-033
  6
Continuous
 62
     4
100
AcDbLine
 10
165.6170696750815
 20
-142.5701995731226
 30
0.0
 11
171.2563921394448
 21
-136.9308771087593
 31
0.0
  0
LINE
  5
36C
330
1F
100
AcDbEntity
  8
LAYER-033
  6
Continuous
 62
     4
100
AcDbLine
 10
166.897686216272
 20
-144.8251169378649
 30
0.0
 11
172.5370086806353
 21
-139.1857944735015
 31
0.0
  0
LINE
  5
36D
330
1F
100
AcDbEntity
  8
LAYER-033
  6
Continuous
 62
     4
100
AcDbLine
 10
168.1783027574625
 20
-147.0800343026071
 30
0.0
 11
173.8176252218258
 21
-141.4407118382438
 31
0.0
  0
LINE
  5
36E
330
1F
100
AcDbEntity
  8
LAYER-033
  6
Continuous
 62
     4
100
AcDbLine
 10
170.7567573552843
 20
-148.037113610718
 30
0.0
 11
175.0982417630164
 21
-143.6956292033602
 31
0.0
  0
LINE
  5
36F
330
1F
100
AcDbEntity
  8
LAYER-033
  6
Continuous
 62
     4
100
AcDbLine
 10
174.2922912612171
 20
-148.037113610718
 30
0.0
 11
176.3788583042068
 21
-145.9505465677282
 31
0.0
  0
LINE
  5
370
330
1F
100
AcDbEntity
  8
LAYER-033
  6
Continuous
 62
     4
100
AcDbLine
 10
166.2509261485922
 20
-143.686297892097
 30
0.0
 11
170.6017418672131
 21
-148.037113610718
 31
0.0
  0
LINE
  5
371
330
1F
100
AcDbEntity
  8
LAYER-033
  6
Continuous
 62
     4
100
AcDbLine
 10
161.6038365717075
 20
-135.5036744092796
 30
0.0
 11
174.1372757731459
 21
-148.037113610718
 31
0.0
  0
LINE
  5
372
330
1F
100
AcDbEntity
  8
LAYER-033
  6
Continuous
 62
     4
100
AcDbLine
 10
156.9567469948228
 20
-127.3210509264622
 30
0.0
 11
177.4206687090247
 21
-147.784972640664
 31
0.0
  0
LINE
  5
373
330
1F
100
AcDbEntity
  8
LAYER-033
  6
Continuous
 62
     4
100
AcDbLine
 10
152.3096574179381
 20
-119.1384274436448
 30
0.0
 11
172.77357913214
 21
-139.6023491578466
 31
0.0
  0
LINE
  5
374
330
1F
100
AcDbEntity
  8
LAYER-033
  6
Continuous
 62
     4
100
AcDbLine
 10
147.6625678408681
 20
-110.9558039608273
 30
0.0
 11
168.1264895552552
 21
-131.4197256750292
 31
0.0
  0
LINE
  5
375
330
1F
100
AcDbEntity
  8
LAYER-033
  6
Continuous
 62
     4
100
AcDbLine
 10
143.0154782641688
 20
-102.77318047801
 30
0.0
 11
163.4793999783705
 21
-123.2371021922117
 31
0.0
  0
LINE
  5
376
330
1F
100
AcDbEntity
  8
LAYER-033
  6
Continuous
 62
     4
100
AcDbLine
 10
138.3683886962512
 20
-94.5905570109818
 30
0.0
 11
158.8323104014858
 21
-115.0544787093943
 31
0.0
  0
LINE
  5
377
330
1F
100
AcDbEntity
  8
LAYER-033
  6
Continuous
 62
     4
100
AcDbLine
 10
133.7212991103994
 20
-86.40793351237511
 30
0.0
 11
154.1852208246012
 21
-106.8718552265768
 31
0.0
  0
LINE
  5
378
330
1F
100
AcDbEntity
  8
LAYER-033
  6
Continuous
 62
     4
100
AcDbLine
 10
129.0742095335147
 20
-78.2253100295577
 30
0.0
 11
149.5381312477165
 21
-98.68923174375942
 31
0.0
  0
LINE
  5
379
330
1F
100
AcDbEntity
  8
LAYER-033
  6
Continuous
 62
     4
100
AcDbLine
 10
124.427119957
 20
-70.04268654674024
 30
0.0
 11
144.8910416708318
 21
-90.50660826094202
 31
0.0
  0
LINE
  5
37A
330
1F
100
AcDbEntity
  8
LAYER-033
  6
Continuous
 62
     4
100
AcDbLine
 10
119.7800303797453
 20
-61.86006306392284
 30
0.0
 11
140.2439520939471
 21
-82.32398477812455
 31
0.0
  0
LINE
  5
37B
330
1F
100
AcDbEntity
  8
LAYER-033
  6
Continuous
 62
     4
100
AcDbLine
 10
116.0117547943631
 20
-54.55625357260783
 30
0.0
 11
135.5968625170624
 21
-74.14136129530709
 31
0.0
  0
LINE
  5
37C
330
1F
100
AcDbEntity
  8
LAYER-033
  6
Continuous
 62
     4
100
AcDbLine
 10
114.5909809610549
 20
-49.59994583336686
 30
0.0
 11
130.9497729401777
 21
-65.95873781248969
 31
0.0
  0
LINE
  5
37D
330
1F
100
AcDbEntity
  8
LAYER-033
  6
Continuous
 62
     4
100
AcDbLine
 10
114.0821900939187
 20
-45.555621060298
 30
0.0
 11
126.302683363293
 21
-57.77611432967223
 31
0.0
  0
LINE
  5
37E
330
1F
100
AcDbEntity
  8
LAYER-033
  6
Continuous
 62
     4
100
AcDbLine
 10
114.0881986188514
 20
-42.0260956792979
 30
0.0
 11
122.8261639610772
 21
-50.76406102152373
 31
0.0
  0
LINE
  5
37F
330
1F
100
AcDbEntity
  8
LAYER-033
  6
Continuous
 62
     4
100
AcDbLine
 10
114.4508760175077
 20
-38.8532391720214
 30
0.0
 11
121.8563104046667
 21
-46.25867355918047
 31
0.0
  0
LINE
  5
380
330
1F
100
AcDbEntity
  8
LAYER-033
  6
Continuous
 62
     4
100
AcDbLine
 10
115.0884006850452
 20
-35.95522993362619
 30
0.0
 11
121.7582157841535
 21
-42.62504503280405
 31
0.0
  0
LINE
  5
381
330
1F
100
AcDbEntity
  8
LAYER-033
  6
Continuous
 62
     4
100
AcDbLine
 10
115.9524740990455
 20
-33.283769442
 30
0.0
 11
122.1544453334388
 21
-39.48574067608706
 31
0.0
  0
LINE
  5
382
330
1F
100
AcDbEntity
  8
LAYER-033
  6
Continuous
 62
     4
100
AcDbLine
 10
117.0124049077884
 20
-30.80816634450389
 30
0.0
 11
122.9004080553245
 21
-36.69616949204004
 31
0.0
  0
LINE
  5
383
330
1F
100
AcDbEntity
  8
LAYER-033
  6
Continuous
 62
     4
100
AcDbLine
 10
118.247953776347
 20
-28.5081813071298
 30
0.0
 11
123.9238976301535
 21
-34.18412516090365
 31
0.0
  0
LINE
  5
384
330
1F
100
AcDbEntity
  8
LAYER-033
  6
Continuous
 62
     4
100
AcDbLine
 10
119.6457189637027
 20
-26.37041258855265
 30
0.0
 11
125.1845982438225
 21
-31.90929186867248
 31
0.0
  0
LINE
  5
385
330
1F
100
AcDbEntity
  8
LAYER-033
  6
Continuous
 62
     4
100
AcDbLine
 10
121.1971835250444
 20
-24.38634324396168
 30
0.0
 11
126.6594849782234
 21
-29.84864469714069
 31
0.0
  0
LINE
  5
386
330
1F
100
AcDbEntity
  8
LAYER-033
  6
Continuous
 62
     4
100
AcDbLine
 10
122.897645278171
 20
-22.55127109115546
 30
0.0
 11
128.3366228231978
 21
-27.99024863618234
 31
0.0
  0
LINE
  5
387
330
1F
100
AcDbEntity
  8
LAYER-033
  6
Continuous
 62
     4
100
AcDbLine
 10
124.7456805650741
 20
-20.8637724721259
 30
0.0
 11
130.2125012610291
 21
-26.33059316808078
 31
0.0
  0
LINE
  5
388
330
1F
100
AcDbEntity
  8
LAYER-033
  6
Continuous
 62
     4
100
AcDbLine
 10
126.7429893605084
 20
-19.3255473616274
 30
0.0
 11
132.2913176173122
 21
-24.87387561843116
 31
0.0
  0
LINE
  5
389
330
1F
100
AcDbEntity
  8
LAYER-033
  6
Continuous
 62
     4
100
AcDbLine
 10
128.8945806251012
 20
-17.9416047202875
 30
0.0
 11
134.5858374368781
 21
-23.63286153206434
 31
0.0
  0
LINE
  5
38A
330
1F
100
AcDbEntity
  8
LAYER-033
  6
Continuous
 62
     4
100
AcDbLine
 10
131.2093472460203
 20
-16.72083743527389
 30
0.0
 11
137.1202810439406
 21
-22.63177123336021
 31
0.0
  0
LINE
  5
38B
330
1F
100
AcDbEntity
  8
LAYER-033
  6
Continuous
 62
     4
100
AcDbLine
 10
133.7011955557693
 20
-15.67715183909002
 30
0.0
 11
139.9369872127101
 21
-21.91294349603083
 31
0.0
  0
LINE
  5
38C
330
1F
100
AcDbEntity
  8
LAYER-033
  6
Continuous
 62
     4
100
AcDbLine
 10
136.3911034166177
 20
-14.83152579400564
 30
0.0
 11
143.1122432271639
 21
-21.55266560455186
 31
0.0
  0
LINE
  5
38D
330
1F
100
AcDbEntity
  8
LAYER-033
  6
Continuous
 62
     4
100
AcDbLine
 10
139.3109448411826
 20
-14.21583331263776
 30
0.0
 11
146.6287589655854
 21
-21.5336474370406
 31
0.0
  0
LINE
  5
38E
330
1F
100
AcDbEntity
  8
LAYER-033
  6
Continuous
 62
     4
100
AcDbLine
 10
142.5111229328139
 20
-13.8804774983364
 30
0.0
 11
150.1642928715181
 21
-21.5336474370406
 31
0.0
  0
LINE
  5
38F
330
1F
100
AcDbEntity
  8
LAYER-033
  6
Continuous
 62
     4
100
AcDbLine
 10
146.0080200138765
 20
-13.84184067346621
 30
0.0
 11
153.6998267774509
 21
-21.5336474370406
 31
0.0
  0
LINE
  5
390
330
1F
100
AcDbEntity
  8
LAYER-033
  6
Continuous
 62
     4
100
AcDbLine
 10
149.5435539198092
 20
-13.84184067346621
 30
0.0
 11
157.2353606833836
 21
-21.5336474370406
 31
0.0
  0
LINE
  5
391
330
1F
100
AcDbEntity
  8
LAYER-033
  6
Continuous
 62
     4
100
AcDbLine
 10
153.079087825742
 20
-13.84184067346621
 30
0.0
 11
160.7708945893164
 21
-21.5336474370406
 31
0.0
  0
LINE
  5
392
330
1F
100
AcDbEntity
  8
LAYER-033
  6
Continuous
 62
     4
100
AcDbLine
 10
156.6146217316747
 20
-13.84184067346621
 30
0.0
 11
164.3064284952491
 21
-21.5336474370406
 31
0.0
  0
LINE
  5
393
330
1F
100
AcDbEntity
  8
LAYER-033
  6
Continuous
 62
     4
100
AcDbLine
 10
160.1501556376075
 20
-13.84184067346621
 30
0.0
 11
167.8419624011819
 21
-21.5336474370406
 31
0.0
  0
LINE
  5
394
330
1F
100
AcDbEntity
  8
LAYER-033
  6
Continuous
 62
     4
100
AcDbLine
 10
163.6856895435402
 20
-13.84184067346621
 30
0.0
 11
171.3774963071146
 21
-21.5336474370406
 31
0.0
  0
LINE
  5
395
330
1F
100
AcDbEntity
  8
LAYER-033
  6
Continuous
 62
     4
100
AcDbLine
 10
167.221223449473
 20
-13.84184067346621
 30
0.0
 11
174.9130302130474
 21
-21.5336474370406
 31
0.0
  0
LINE
  5
396
330
1F
100
AcDbEntity
  8
LAYER-033
  6
Continuous
 62
     4
100
AcDbLine
 10
170.7567573554057
 20
-13.84184067346621
 30
0.0
 11
178.4485641189801
 21
-21.5336474370406
 31
0.0
  0
LINE
  5
397
330
1F
100
AcDbEntity
  8
LAYER-033
  6
Continuous
 62
     4
100
AcDbLine
 10
174.2922912613385
 20
-13.84184067346621
 30
0.0
 11
181.9840980249129
 21
-21.5336474370406
 31
0.0
  0
LINE
  5
398
330
1F
100
AcDbEntity
  8
LAYER-033
  6
Continuous
 62
     4
100
AcDbLine
 10
177.8278251791658
 20
-13.84184067346621
 30
0.0
 11
185.5196319308457
 21
-21.5336474370406
 31
0.0
  0
LINE
  5
399
330
1F
100
AcDbEntity
  8
LAYER-033
  6
Continuous
 62
     4
100
AcDbLine
 10
181.363359073204
 20
-13.84184067346621
 30
0.0
 11
189.0551658367784
 21
-21.5336474370406
 31
0.0
  0
LINE
  5
39A
330
1F
100
AcDbEntity
  8
LAYER-033
  6
Continuous
 62
     4
100
AcDbLine
 10
184.8988929791368
 20
-13.84184067346621
 30
0.0
 11
192.5906997427111
 21
-21.5336474370406
 31
0.0
  0
LINE
  5
39B
330
1F
100
AcDbEntity
  8
LAYER-033
  6
Continuous
 62
     4
100
AcDbLine
 10
188.4344268850695
 20
-13.84184067346621
 30
0.0
 11
196.1262336486439
 21
-21.5336474370406
 31
0.0
  0
LINE
  5
39C
330
1F
100
AcDbEntity
  8
LAYER-033
  6
Continuous
 62
     4
100
AcDbLine
 10
191.9699607910022
 20
-13.84184067346621
 30
0.0
 11
197.0044963278681
 21
-18.87637621033207
 31
0.0
  0
LINE
  5
39D
330
1F
100
AcDbEntity
  8
LAYER-033
  6
Continuous
 62
     4
100
AcDbLine
 10
195.505494696935
 20
-13.84184067346621
 30
0.0
 11
197.0044963278681
 21
-15.3408423043993
 31
0.0
  0
LINE
  5
39E
330
1F
100
AcDbEntity
  8
LAYER-006
  6
Continuous
 62
     1
100
AcDbLine
 10
-18.40962660020801
 20
-431.3157974773602
 30
0.0
 11
-503.409626600208
 21
-431.3157974773602
 31
0.0
  0
LINE
  5
39F
330
1F
100
AcDbEntity
  8
LAYER-007
  6
HIDDEN
 62
     1
100
AcDbLine
 10
-503.409626600208
 20
-425.3157974773602
 30
0.0
 11
-18.40962660020801
 21
-425.3157974773602
 31
0.0
  0
LINE
  5
3A0
330
1F
100
AcDbEntity
  8
LAYER-006
  6
Continuous
 62
     1
100
AcDbLine
 10
-503.409626600208
 20
-366.3157974773602
 30
0.0
 11
-18.40962660020801
 21
-366.3157974773602
 31
0.0
  0
LINE
  5
3A1
330
1F
100
AcDbEntity
  8
LAYER-006
  6
Continuous
 62
     1
100
AcDbLine
 10
-503.409626600208
 20
-136.3157974773602
 30
0.0
 11
-18.40962660020801
 21
-136.3157974773602
 31
0.0
  0
LINE
  5
3A2
330
1F
100
AcDbEntity
  8
LAYER-007
  6
HIDDEN
 62
     1
100
AcDbLine
 10
-503.409626600208
 20
-77.31579747736021
 30
0.0
 11
-18.40962660020801
 21
-77.31579747736021
 31
0.0
  0
LINE
  5
3A3
330
1F
100
AcDbEntity
  8
LAYER-006
  6
Continuous
 62
     1
100
AcDbLine
 10
-503.409626600208
 20
-71.31579747736021
 30
0.0
 11
-18.40962660020801
 21
-71.31579747736021
 31
0.0
  0
LINE
  5
3A4
330
1F
100
AcDbEntity
  8
LAYER-006
  6
Continuous
 62
     1
100
AcDbLine
 10
-18.40962660020801
 20
-39.66436620349816
 30
0.0
 11
-503.409626600208
 21
-39.66436620349816
 31
0.0
  0
LINE
  5
3A5
330
1F
100
AcDbEntity
  8
LAYER-006
  6
Continuous
 62
     1
100
AcDbLine
 10
-503.409626600208
 20
-25.92897736084535
 30
0.0
 11
-18.40962660020801
 21
-25.92897736084535
 31
0.0
  0
LINE
  5
3A6
330
1F
100
AcDbEntity
  8
LAYER-006
  6
Continuous
 62
     1
100
AcDbLine
 10
-18.95904215527082
 20
25.14626833558037
 30
0.0
 11
-504.1883417697546
 21
25.14626833558037
 31
0.0
  0
LINE
  5
3A7
330
1F
100
AcDbEntity
  8
LAYER-006
  6
Continuous
 62
     1
100
AcDbLine
 10
-504.1883417697546
 20
27.89334610411095
 30
0.0
 11
-18.95904215527088
 21
27.89334610411095
 31
0.0
  0
LINE
  5
3A8
330
1F
100
AcDbEntity
  8
LAYER-033
  6
Continuous
 62
     1
100
AcDbLine
 10
320.296542178922
 20
-14.95921456094811
 30
0.0
 11
301.804312887689
 21
-14.95921456094811
 31
0.0
  0
LINE
  5
3A9
330
1F
100
AcDbEntity
  8
LAYER-006
  6
Continuous
 62
     1
100
AcDbLine
 10
-450.909626600208
 20
-148.0371136107181
 30
0.0
 11
-70.90962660020801
 21
-148.0371136107181
 31
0.0
  0
LINE
  5
3AA
330
1F
100
AcDbEntity
  8
LAYER-006
  6
Continuous
 62
     1
100
AcDbLine
 10
-70.90962660020801
 20
-355.3274918973938
 30
0.0
 11
-450.909626600208
 21
-355.3274918973938
 31
0.0
  0
TEXT
  5
3AB
330
1F
100
AcDbEntity
  8
LAYER-033
  6
Continuous
 62
     7
100
AcDbText
 10
-189.9718281110802
 20
-608.6095046642289
 30
0.0
 40
15.0
  1
４００／４４０Ｖ　５０／６０Ｈｚ　　　２５０ｋＷ
  7
STRING_H
 11
-189.9718281110802
 21
-601.1095046642289
 31
0.0
100
AcDbText
 73
     2
  0
TEXT
  5
3AC
330
1F
100
AcDbEntity
  8
LAYER-033
  6
Continuous
 62
     7
100
AcDbText
 10
-189.9718281110802
 20
-628.6095046642289
 30
0.0
 40
15.0
  1
質　　量　　２０９㎏
  7
STRING_H
 11
-189.9718281110802
 21
-621.1095046642289
 31
0.0
100
AcDbText
 73
     2
  0
TEXT
  5
3AD
330
1F
100
AcDbEntity
  8
LAYER-033
  6
Continuous
 62
     7
100
AcDbText
 10
-189.9718281110802
 20
-588.6095046642289
 30
0.0
 40
15.0
  1
ＲＳ－１Ｐ(低　圧)
  7
STRING_H
 11
-189.9718281110802
 21
-581.1095046642289
 31
0.0
100
AcDbText
 73
     2
  0
DIMENSION
  5
3BD
330
1F
100
AcDbEntity
  8
LAYER-035
  6
Continuous
 62
     5
100
AcDbDimension
  2
*D02
 10
-60.90962660020801
 20
-469.0017956444202
 30
0.0
 11
-260.909626600208
 21
-469.0017956444202
 31
0.0
 70
   129
  1
<>
 71
     0
 42
0.0
  3
DIO_DIMSTYLE
100
AcDbAlignedDimension
 13
-460.909626600208
 23
-438.8608596539461
 33
0.0
 14
-60.90962660020801
 24
-438.8608596539461
 34
0.0
1001
ACAD
1000
DSTYLE
1002
{
1070
    41
1040
4.0
1070
    44
1040
1.0
1070
    42
1040
1.0
1070
     6
1000
_OPEN
1070
     7
1000
_OPEN
1070
   173
1070
     1
1070
   140
1040
10.0
1070
   178
1070
     5
1070
   147
1040
0.5
1002
}
  0
DIMENSION
  5
3C7
330
1F
100
AcDbEntity
  8
LAYER-035
  6
Continuous
 62
     5
100
AcDbDimension
  2
*D13
 10
484.0331993721535
 20
-494.6642602700668
 30
0.0
 11
314.0331993721535
 21
-494.6642602700668
 31
0.0
 70
   129
  1
<>
 71
     0
 42
0.0
  3
DIO_DIMSTYLE
100
AcDbAlignedDimension
 13
144.0331993721535
 23
-431.3157974773602
 33
0.0
 14
484.0331993721535
 24
-431.3157974773602
 34
0.0
1001
ACAD
1000
DSTYLE
1002
{
1070
    41
1040
4.0
1070
    44
1040
1.0
1070
    42
1040
1.0
1070
     6
1000
_OPEN
1070
     7
1000
_OPEN
1070
   173
1070
     1
1070
   140
1040
10.0
1070
   178
1070
     5
1070
   147
1040
0.5
1002
}
  0
DIMENSION
  5
3D1
330
1F
100
AcDbEntity
  8
LAYER-035
  6
Continuous
 62
     5
100
AcDbDimension
  2
*D24
 10
464.0331993721535
 20
-469.0017956444202
 30
0.0
 11
314.0331993721535
 21
-469.0017956444202
 31
0.0
 70
   129
  1
<>
 71
     0
 42
0.0
  3
DIO_DIMSTYLE
100
AcDbAlignedDimension
 13
164.0331993721535
 23
-438.0741112886718
 33
0.0
 14
464.0331993721535
 24
-438.0741112886718
 34
0.0
1001
ACAD
1000
DSTYLE
1002
{
1070
    41
1040
4.0
1070
    44
1040
1.0
1070
    42
1040
1.0
1070
     6
1000
_OPEN
1070
     7
1000
_OPEN
1070
   173
1070
     1
1070
   140
1040
10.0
1070
   178
1070
     5
1070
   147
1040
0.5
1002
}
  0
DIMENSION
  5
3DB
330
1F
100
AcDbEntity
  8
LAYER-035
  6
Continuous
 62
     5
100
AcDbDimension
  2
*D35
 10
164.0331993721535
 20
-320.4116313674398
 30
0.0
 11
295.4041205240893
 21
-320.4116313674398
 31
0.0
 70
   129
  1
<>
 71
     0
 42
0.0
  3
DIO_DIMSTYLE
100
AcDbAlignedDimension
 13
464.0331993721535
 23
-148.0371136107181
 33
0.0
 14
164.0331993721535
 24
-148.0371136107181
 34
0.0
1001
ACAD
1000
DSTYLE
1002
{
1070
    41
1040
4.0
1070
    44
1040
1.0
1070
    42
1040
1.0
1070
     6
1000
_OPEN
1070
     7
1000
_OPEN
1070
   173
1070
     1
1070
   140
1040
10.0
1070
   178
1070
     5
1070
   147
1040
0.5
1002
}
  0
DIMENSION
  5
3E5
330
1F
100
AcDbEntity
  8
LAYER-035
  6
Continuous
 62
     5
100
AcDbDimension
  2
*D46
 10
464.0331993721535
 20
-320.4116313674398
 30
0.0
 11
489.0331993721535
 21
-320.4116313674398
 31
0.0
 70
   128
  1
(<>)
 71
     0
 42
0.0
  3
DIO_DIMSTYLE
100
AcDbAlignedDimension
 13
514.0331993721535
 23
-43.84184067346621
 33
0.0
 14
464.0331993721535
 24
-148.0371136107181
 34
0.0
100
AcDbRotatedDimension
1001
ACAD
1000
DSTYLE
1002
{
1070
    41
1040
4.0
1070
    44
1040
1.0
1070
    42
1040
1.0
1070
     6
1000
_OPEN
1070
     7
1000
_OPEN
1070
   173
1070
     1
1070
   140
1040
10.0
1070
   178
1070
     5
1070
   147
1040
0.5
1002
}
  0
DIMENSION
  5
3EF
330
1F
100
AcDbEntity
  8
LAYER-035
  6
Continuous
 62
     5
100
AcDbDimension
  2
*D57
 10
164.0331993721535
 20
-320.4116313674398
 30
0.0
 11
139.0331993721535
 21
-320.4116313674398
 31
0.0
 70
   128
  1
(<>)
 71
     0
 42
0.0
  3
DIO_DIMSTYLE
100
AcDbAlignedDimension
 13
114.0331993721535
 23
-43.84184067346621
 33
0.0
 14
164.0331993721535
 24
-148.0371136107181
 34
0.0
 50
180.0
100
AcDbRotatedDimension
1001
ACAD
1000
DSTYLE
1002
{
1070
    41
1040
4.0
1070
    44
1040
1.0
1070
    42
1040
1.0
1070
     6
1000
_OPEN
1070
     7
1000
_OPEN
1070
   173
1070
     1
1070
   140
1040
10.0
1070
   178
1070
     5
1070
   147
1040
0.5
1002
}
  0
DIMENSION
  5
3F9
330
1F
100
AcDbEntity
  8
LAYER-035
  6
Continuous
 62
     5
100
AcDbDimension
  2
*D68
 10
-503.409626600208
 20
-494.6642602700668
 30
0.0
 11
-260.9096266002081
 21
-494.6642602700668
 31
0.0
 70
   128
  1
<>
 71
     0
 42
0.0
  3
DIO_DIMSTYLE
100
AcDbAlignedDimension
 13
-18.40962660020801
 23
-431.3157974773602
 33
0.0
 14
-503.409626600208
 24
-431.3157974773602
 34
0.0
100
AcDbRotatedDimension
1001
ACAD
1000
DSTYLE
1002
{
1070
    41
1040
4.0
1070
    44
1040
1.0
1070
    42
1040
1.0
1070
     6
1000
_OPEN
1070
     7
1000
_OPEN
1070
   173
1070
     1
1070
   140
1040
10.0
1070
   178
1070
     5
1070
   147
1040
0.5
1002
}
  0
DIMENSION
  5
403
330
1F
100
AcDbEntity
  8
LAYER-035
  6
Continuous
 62
     5
100
AcDbDimension
  2
*D79
 10
34.33827544862004
 20
-431.3157974773602
 30
0.0
 11
34.33827544862004
 21
-211.3157974773602
 31
0.0
 70
   128
  1
<>
 71
     0
 42
0.0
  3
DIO_DIMSTYLE
100
AcDbAlignedDimension
 13
-84.15722363713189
 23
8.684202522639794
 33
0.0
 14
-18.40962660020801
 24
-431.3157974773602
 34
0.0
 50
90.0
100
AcDbRotatedDimension
1001
ACAD
1000
DSTYLE
1002
{
1070
    41
1040
4.0
1070
    44
1040
1.0
1070
    42
1040
1.0
1070
     6
1000
_OPEN
1070
     7
1000
_OPEN
1070
   173
1070
     1
1070
   140
1040
10.0
1070
   178
1070
     5
1070
   147
1040
0.5
1002
}
  0
DIMENSION
  5
40F
330
1F
100
AcDbEntity
  8
LAYER-035
  6
Continuous
 62
     5
100
AcDbDimension
  2
*D810
 10
34.33827544862004
 20
8.684202522639794
 30
0.0
 11
34.33827544862004
 21
53.68420252263979
 31
0.0
 70
   128
  1
25±5
 71
     0
 42
0.0
  3
DIO_DIMSTYLE
100
AcDbAlignedDimension
 13
-25.00261324468039
 23
33.68420252263979
 33
0.0
 14
-84.15722363713189
 24
8.684202522639794
 34
0.0
 50
90.0
100
AcDbRotatedDimension
1001
ACAD
1000
DSTYLE
1002
{
1070
    41
1040
4.0
1070
    44
1040
1.0
1070
    42
1040
1.0
1070
     6
1000
_OPEN
1070
     7
1000
_OPEN
1070
   173
1070
     1
1070
   140
1040
10.0
1070
   178
1070
     5
1070
   147
1040
0.5
1002
}
  0
ENDSEC
  0
SECTION
  2
OBJECTS
  0
DICTIONARY
  5
C
330
0
100
AcDbDictionary
281
     1
  3
ACAD_GROUP
350
D
  3
ACAD_LAYOUT
350
1A
  3
ACAD_MLINESTYLE
350
17
  3
ACAD_PLOTSETTINGS
350
19
  3
ACAD_PLOTSTYLENAME
350
E
  0
DICTIONARY
  5
D
102
{ACAD_REACTORS
330
C
102
}
330
C
100
AcDbDictionary
281
     1
  0
DICTIONARY
  5
1A
102
{ACAD_REACTORS
330
C
102
}
330
C
100
AcDbDictionary
281
     1
  3
Model
350
22
  3
ﾚｲｱｳﾄ1
350
1E
  3
ﾚｲｱｳﾄ2
350
26
  0
DICTIONARY
  5
17
102
{ACAD_REACTORS
330
C
102
}
330
C
100
AcDbDictionary
281
     1
  3
Standard
350
18
  0
DICTIONARY
  5
19
102
{ACAD_REACTORS
330
C
102
}
330
C
100
AcDbDictionary
281
     1
  0
ACDBDICTIONARYWDFLT
  5
E
102
{ACAD_REACTORS
330
C
102
}
330
C
100
AcDbDictionary
281
     1
  3
Normal
350
F
100
AcDbDictionaryWithDefault
340
F
  0
LAYOUT
  5
22
102
{ACAD_REACTORS
330
1A
102
}
330
1A
100
AcDbPlotSettings
  1

  2
DWF ePlot.pc3
  4
ANSI_A_(8.50_x_11.00_Inches)
  6

 40
5.793749809265137
 41
17.79375076293945
 42
5.793746948242188
 43
17.79376220703125
 44
215.8999938964844
 45
279.3999938964844
 46
0.0
 47
0.0
 48
0.0
 49
0.0
140
0.0
141
0.0
142
1.0
143
39.26051453979704
 70
 11952
 72
     0
 73
     1
 74
     0
  7
acad.ctb
 75
     0
147
0.0254708837039396
148
-1793.922354682663
149
1.490346453088415
100
AcDbLayout
  1
Model
 70
     1
 71
     0
 10
-1000.0
 20
-750.0
 11
1000.0
 21
750.0
 12
0.0
 22
0.0
 32
0.0
 14
-1000.0
 24
-750.0
 34
0.0
 15
1000.0
 25
750.0
 35
0.0
146
0.0
 13
0.0
 23
0.0
 33
0.0
 16
1.0
 26
0.0
 36
0.0
 17
0.0
 27
1.0
 37
0.0
 76
     0
330
1F
  0
LAYOUT
  5
1E
102
{ACAD_REACTORS
330
1A
102
}
330
1A
100
AcDbPlotSettings
  1

  2
RICOH IPSiO NX700
  4

  6

 40
0.0
 41
0.0
 42
0.0
 43
0.0
 44
0.0
 45
0.0
 46
0.0
 47
0.0
 48
0.0
 49
0.0
140
0.0
141
0.0
142
1.0
143
1.0
 70
   688
 72
     0
 73
     0
 74
     5
  7
acad.ctb
 75
    16
147
1.0
148
0.0
149
0.0
100
AcDbLayout
  1
ﾚｲｱｳﾄ1
 70
     1
 71
     1
 10
-1000.0
 20
-750.0
 11
1000.0
 21
750.0
 12
0.0
 22
0.0
 32
0.0
 14
-1000.0
 24
-750.0
 34
0.0
 15
1000.0
 25
750.0
 35
0.0
146
0.0
 13
0.0
 23
0.0
 33
0.0
 16
1.0
 26
0.0
 36
0.0
 17
0.0
 27
1.0
 37
0.0
 76
     0
330
1B
  0
LAYOUT
  5
26
102
{ACAD_REACTORS
330
1A
102
}
330
1A
100
AcDbPlotSettings
  1

  2
RICOH IPSiO NX700
  4

  6

 40
0.0
 41
0.0
 42
0.0
 43
0.0
 44
0.0
 45
0.0
 46
0.0
 47
0.0
 48
0.0
 49
0.0
140
0.0
141
0.0
142
1.0
143
1.0
 70
   688
 72
     0
 73
     0
 74
     5
  7
acad.ctb
 75
    16
147
1.0
148
0.0
149
0.0
100
AcDbLayout
  1
ﾚｲｱｳﾄ2
 70
     1
 71
     2
 10
0.0
 20
0.0
 11
12.0
 21
9.0
 12
0.0
 22
0.0
 32
0.0
 14
0.0
 24
0.0
 34
0.0
 15
0.0
 25
0.0
 35
0.0
146
0.0
 13
0.0
 23
0.0
 33
0.0
 16
1.0
 26
0.0
 36
0.0
 17
0.0
 27
1.0
 37
0.0
 76
     0
330
23
  0
MLINESTYLE
  5
18
102
{ACAD_REACTORS
330
17
102
}
330
17
100
AcDbMlineStyle
  2
STANDARD
 70
     0
  3

 62
   256
 51
90.0
 52
90.0
 71
     2
 49
0.5
 62
   256
  6
BYLAYER
 49
-0.5
 62
   256
  6
BYLAYER
  0
ACDBPLACEHOLDER
  5
F
102
{ACAD_REACTORS
330
E
102
}
330
E
  0
ENDSEC
  0
EOF
