  0
SECTION
  2
HEADER
  9
$ACADVER
  1
AC1015
  9
$ACADMAINTVER
 70
     6
  9
$DWGCODEPAGE
  3
ANSI_932
  9
$INSBASE
 10
0.0
 20
0.0
 30
0.0
  9
$EXTMIN
 10
-1000.0
 20
-750.0
 30
0.0
  9
$EXTMAX
 10
1000.0
 20
750.0
 30
0.0
  9
$LIMMIN
 10
-1000.0
 20
-750.0
  9
$LIMMAX
 10
1000.0
 20
750.0
  9
$ORTHOMODE
 70
     0
  9
$REGENMODE
 70
     1
  9
$FILLMODE
 70
     1
  9
$QTEXTMODE
 70
     0
  9
$MIRRTEXT
 70
     1
  9
$LTSCALE
 40
4.0
  9
$ATTMODE
 70
     1
  9
$TEXTSIZE
 40
2.5
  9
$TRACEWID
 40
1.0
  9
$TEXTSTYLE
  7
Standard
  9
$CLAYER
  8
0
  9
$CELTYPE
  6
ByLayer
  9
$CECOLOR
 62
   256
  9
$CELTSCALE
 40
1.0
  9
$DISPSILH
 70
     0
  9
$DIMSCALE
 40
1.0
  9
$DIMASZ
 40
4.0
  9
$DIMEXO
 40
1.0
  9
$DIMDLI
 40
3.75
  9
$DIMRND
 40
0.1
  9
$DIMDLE
 40
0.0
  9
$DIMEXE
 40
1.0
  9
$DIMTP
 40
0.0
  9
$DIMTM
 40
0.0
  9
$DIMTXT
 40
2.5
  9
$DIMCEN
 40
2.5
  9
$DIMTSZ
 40
0.0
  9
$DIMTOL
 70
     0
  9
$DIMLIM
 70
     0
  9
$DIMTIH
 70
     0
  9
$DIMTOH
 70
     0
  9
$DIMSE1
 70
     0
  9
$DIMSE2
 70
     0
  9
$DIMTAD
 70
     1
  9
$DIMZIN
 70
     8
  9
$DIMBLK
  1

  9
$DIMASO
 70
     1
  9
$DIMSHO
 70
     1
  9
$DIMPOST
  1

  9
$DIMAPOST
  1

  9
$DIMALT
 70
     0
  9
$DIMALTD
 70
     3
  9
$DIMALTF
 40
0.03937007874016
  9
$DIMLFAC
 40
1.0
  9
$DIMTOFL
 70
     1
  9
$DIMTVP
 40
0.0
  9
$DIMTIX
 70
     0
  9
$DIMSOXD
 70
     0
  9
$DIMSAH
 70
     1
  9
$DIMBLK1
  1

  9
$DIMBLK2
  1

  9
$DIMSTYLE
  2
ISO-25
  9
$DIMCLRD
 70
     0
  9
$DIMCLRE
 70
     0
  9
$DIMCLRT
 70
     0
  9
$DIMTFAC
 40
1.0
  9
$DIMGAP
 40
0.5
  9
$DIMJUST
 70
     0
  9
$DIMSD1
 70
     0
  9
$DIMSD2
 70
     0
  9
$DIMTOLJ
 70
     0
  9
$DIMTZIN
 70
     8
  9
$DIMALTZ
 70
     0
  9
$DIMALTTZ
 70
     0
  9
$DIMUPT
 70
     1
  9
$DIMDEC
 70
     1
  9
$DIMTDEC
 70
     2
  9
$DIMALTU
 70
     2
  9
$DIMALTTD
 70
     3
  9
$DIMTXSTY
  7
Standard
  9
$DIMAUNIT
 70
     0
  9
$DIMADEC
 70
     1
  9
$DIMALTRND
 40
0.0
  9
$DIMAZIN
 70
     2
  9
$DIMDSEP
 70
    46
  9
$DIMATFIT
 70
     0
  9
$DIMFRAC
 70
     0
  9
$DIMLDRBLK
  1

  9
$DIMLUNIT
 70
     2
  9
$DIMLWD
 70
    -2
  9
$DIMLWE
 70
    -2
  9
$DIMTMOVE
 70
     0
  9
$LUNITS
 70
     2
  9
$LUPREC
 70
     4
  9
$SKETCHINC
 40
1.0
  9
$FILLETRAD
 40
10.0
  9
$AUNITS
 70
     0
  9
$AUPREC
 70
     0
  9
$MENU
  1
.
  9
$ELEVATION
 40
0.0
  9
$PELEVATION
 40
0.0
  9
$THICKNESS
 40
0.0
  9
$LIMCHECK
 70
     0
  9
$CHAMFERA
 40
10.0
  9
$CHAMFERB
 40
10.0
  9
$CHAMFERC
 40
20.0
  9
$CHAMFERD
 40
0.0
  9
$SKPOLY
 70
     0
  9
$TDCREATE
 40
2455091.0
  9
$TDUCREATE
 40
2451562.87528772
  9
$TDUPDATE
 40
2455505.0
  9
$TDUUPDATE
 40
2452026.917654526
  9
$TDINDWG
 40
0.0010008681
  9
$TDUSRTIMER
 40
0.0009680671
  9
$USRTIMER
 70
     1
  9
$ANGBASE
 50
0.0
  9
$ANGDIR
 70
     0
  9
$PDMODE
 70
     0
  9
$PDSIZE
 40
0.0
  9
$PLINEWID
 40
0.0
  9
$SPLFRAME
 70
     0
  9
$SPLINETYPE
 70
     6
  9
$SPLINESEGS
 70
     8
  9
$HANDSEED
  5
3CD
  9
$SURFTAB1
 70
     6
  9
$SURFTAB2
 70
     6
  9
$SURFTYPE
 70
     6
  9
$SURFU
 70
     6
  9
$SURFV
 70
     6
  9
$UCSBASE
  2

  9
$UCSNAME
  2

  9
$UCSORG
 10
0.0
 20
0.0
 30
0.0
  9
$UCSXDIR
 10
1.0
 20
0.0
 30
0.0
  9
$UCSYDIR
 10
0.0
 20
1.0
 30
0.0
  9
$UCSORTHOREF
  2

  9
$UCSORTHOVIEW
 70
     0
  9
$UCSORGTOP
 10
0.0
 20
0.0
 30
0.0
  9
$UCSORGBOTTOM
 10
0.0
 20
0.0
 30
0.0
  9
$UCSORGLEFT
 10
0.0
 20
0.0
 30
0.0
  9
$UCSORGRIGHT
 10
0.0
 20
0.0
 30
0.0
  9
$UCSORGFRONT
 10
0.0
 20
0.0
 30
0.0
  9
$UCSORGBACK
 10
0.0
 20
0.0
 30
0.0
  9
$PUCSBASE
  2

  9
$PUCSNAME
  2

  9
$PUCSORG
 10
0.0
 20
0.0
 30
0.0
  9
$PUCSXDIR
 10
1.0
 20
0.0
 30
0.0
  9
$PUCSYDIR
 10
0.0
 20
1.0
 30
0.0
  9
$PUCSORTHOREF
  2

  9
$PUCSORTHOVIEW
 70
     0
  9
$PUCSORGTOP
 10
0.0
 20
0.0
 30
0.0
  9
$PUCSORGBOTTOM
 10
0.0
 20
0.0
 30
0.0
  9
$PUCSORGLEFT
 10
0.0
 20
0.0
 30
0.0
  9
$PUCSORGRIGHT
 10
0.0
 20
0.0
 30
0.0
  9
$PUCSORGFRONT
 10
0.0
 20
0.0
 30
0.0
  9
$PUCSORGBACK
 10
0.0
 20
0.0
 30
0.0
  9
$USERI1
 70
     0
  9
$USERI2
 70
     0
  9
$USERI3
 70
     0
  9
$USERI4
 70
     0
  9
$USERI5
 70
     0
  9
$USERR1
 40
0.0
  9
$USERR2
 40
0.0
  9
$USERR3
 40
0.0
  9
$USERR4
 40
0.0
  9
$USERR5
 40
0.0
  9
$WORLDVIEW
 70
     1
  9
$SHADEDGE
 70
     3
  9
$SHADEDIF
 70
    70
  9
$TILEMODE
 70
     1
  9
$MAXACTVP
 70
    64
  9
$PINSBASE
 10
0.0
 20
0.0
 30
0.0
  9
$PLIMCHECK
 70
     0
  9
$PEXTMIN
 10
-1000.0
 20
-750.0
 30
0.0
  9
$PEXTMAX
 10
1000.0
 20
750.0
 30
0.0
  9
$PLIMMIN
 10
-1000.0
 20
-750.0
  9
$PLIMMAX
 10
1000.0
 20
750.0
  9
$UNITMODE
 70
     0
  9
$VISRETAIN
 70
     1
  9
$PLINEGEN
 70
     0
  9
$PSLTSCALE
 70
     1
  9
$TREEDEPTH
 70
  3020
  9
$CMLSTYLE
  2
Standard
  9
$CMLJUST
 70
     0
  9
$CMLSCALE
 40
20.0
  9
$PROXYGRAPHICS
 70
     1
  9
$MEASUREMENT
 70
     1
  9
$CELWEIGHT
370
    -1
  9
$ENDCAPS
280
     0
  9
$JOINSTYLE
280
     0
  9
$LWDISPLAY
290
     0
  9
$INSUNITS
 70
     4
  9
$HYPERLINKBASE
  1

  9
$STYLESHEET
  1

  9
$XEDIT
290
     1
  9
$CEPSNTYPE
380
     0
  9
$PSTYLEMODE
290
     1
  9
$FINGERPRINTGUID
  2
{B6423330-CE35-11D3-AA43-00E0292263AD}
  9
$VERSIONGUID
  2
{EAA0F794-BAE8-4B09-85E0-65C527BE2B8E}
  9
$EXTNAMES
290
     1
  9
$PSVPSCALE
 40
0.0
  9
$OLESTARTUP
290
     0
  0
ENDSEC
  0
SECTION
  2
CLASSES
  0
CLASS
  1
ACDBDICTIONARYWDFLT
  2
AcDbDictionaryWithDefault
  3
ObjectDBX Classes
 90
        0
280
     0
281
     0
  0
CLASS
  1
ACDBPLACEHOLDER
  2
AcDbPlaceHolder
  3
ObjectDBX Classes
 90
        0
280
     0
281
     0
  0
CLASS
  1
LAYOUT
  2
AcDbLayout
  3
ObjectDBX Classes
 90
        0
280
     0
281
     0
  0
ENDSEC
  0
SECTION
  2
TABLES
  0
TABLE
  2
VPORT
  5
8
330
0
100
AcDbSymbolTable
 70
     3
  0
VPORT
  5
30
330
8
100
AcDbSymbolTableRecord
100
AcDbViewportTableRecord
  2
*Active
 70
     0
 10
0.0
 20
0.0
 11
1.0
 21
1.0
 12
259.0560661764706
 22
148.5
 13
0.0
 23
0.0
 14
10.0
 24
10.0
 15
10.0
 25
10.0
 16
0.0
 26
0.0
 36
1.0
 17
0.0
 27
0.0
 37
0.0
 40
297.1173501144164
 41
1.268382352941176
 42
50.0
 43
0.0
 44
0.0
 50
0.0
 51
0.0
 71
     0
 72
   100
 73
     1
 74
     3
 75
     0
 76
     0
 77
     0
 78
     0
281
     0
 65
     1
110
0.0
120
0.0
130
0.0
111
1.0
121
0.0
131
0.0
112
0.0
122
1.0
132
0.0
 79
     0
146
0.0
  0
ENDTAB
  0
TABLE
  2
LTYPE
  5
5
330
0
100
AcDbSymbolTable
 70
    26
  0
LTYPE
  5
14
330
5
100
AcDbSymbolTableRecord
100
AcDbLinetypeTableRecord
  2
ByBlock
 70
     0
  3

 72
    65
 73
     0
 40
0.0
  0
LTYPE
  5
15
330
5
100
AcDbSymbolTableRecord
100
AcDbLinetypeTableRecord
  2
ByLayer
 70
     0
  3

 72
    65
 73
     0
 40
0.0
  0
LTYPE
  5
16
330
5
100
AcDbSymbolTableRecord
100
AcDbLinetypeTableRecord
  2
Continuous
 70
     0
  3
Solid line
 72
    65
 73
     0
 40
0.0
  0
LTYPE
  5
37
330
5
100
AcDbSymbolTableRecord
100
AcDbLinetypeTableRecord
  2
BORDER
 70
     0
  3
 __ __ . __ __ . __ __ . __ __ . __ __ . __ __
 72
    65
 73
     6
 40
1.75
 49
0.5
 74
     0
 49
-0.25
 74
     0
 49
0.5
 74
     0
 49
-0.25
 74
     0
 49
0.0
 74
     0
 49
-0.25
 74
     0
  0
LTYPE
  5
38
330
5
100
AcDbSymbolTableRecord
100
AcDbLinetypeTableRecord
  2
BORDER2
 70
     0
  3
__.__.__.__.__.__.__.__.__.__.__.__.__.__.__
 72
    65
 73
     6
 40
0.875
 49
0.25
 74
     0
 49
-0.125
 74
     0
 49
0.25
 74
     0
 49
-0.125
 74
     0
 49
0.0
 74
     0
 49
-0.125
 74
     0
  0
LTYPE
  5
39
330
5
100
AcDbSymbolTableRecord
100
AcDbLinetypeTableRecord
  2
BORDERX2
 70
     0
  3
____  ____  .  ____  ____  .  ____  ____  .
 72
    65
 73
     6
 40
3.5
 49
1.0
 74
     0
 49
-0.5
 74
     0
 49
1.0
 74
     0
 49
-0.5
 74
     0
 49
0.0
 74
     0
 49
-0.5
 74
     0
  0
LTYPE
  5
3A
330
5
100
AcDbSymbolTableRecord
100
AcDbLinetypeTableRecord
  2
CENTER
 70
     0
  3
____ _ ____ _ ____ _ ____ _ ____ _ ____ _ ____
 72
    65
 73
     4
 40
2.0
 49
1.25
 74
     0
 49
-0.25
 74
     0
 49
0.25
 74
     0
 49
-0.25
 74
     0
  0
LTYPE
  5
3B
330
5
100
AcDbSymbolTableRecord
100
AcDbLinetypeTableRecord
  2
CENTER2
 70
     0
  3
___ _ ___ _ ___ _ ___ _ ___ _ ___ _ ___ _ ___ 
 72
    65
 73
     4
 40
1.125
 49
0.75
 74
     0
 49
-0.125
 74
     0
 49
0.125
 74
     0
 49
-0.125
 74
     0
  0
LTYPE
  5
3C
330
5
100
AcDbSymbolTableRecord
100
AcDbLinetypeTableRecord
  2
CENTERX2
 70
     0
  3
________  __  ________  __  ________  __
 72
    65
 73
     4
 40
4.0
 49
2.5
 74
     0
 49
-0.5
 74
     0
 49
0.5
 74
     0
 49
-0.5
 74
     0
  0
LTYPE
  5
3D
330
5
100
AcDbSymbolTableRecord
100
AcDbLinetypeTableRecord
  2
DASHDOT
 70
     0
  3
__ . __ . __ . __ . __ . __ . __ . __ . __ .
 72
    65
 73
     4
 40
1.0
 49
0.5
 74
     0
 49
-0.25
 74
     0
 49
0.0
 74
     0
 49
-0.25
 74
     0
  0
LTYPE
  5
3E
330
5
100
AcDbSymbolTableRecord
100
AcDbLinetypeTableRecord
  2
DASHDOT2
 70
     0
  3
_._._._._._._._._._._._._._._._._._._._._._._.
 72
    65
 73
     4
 40
0.5
 49
0.25
 74
     0
 49
-0.125
 74
     0
 49
0.0
 74
     0
 49
-0.125
 74
     0
  0
LTYPE
  5
3F
330
5
100
AcDbSymbolTableRecord
100
AcDbLinetypeTableRecord
  2
DASHDOTX2
 70
     0
  3
____  .  ____  .  ____  .  ____  .  ____  .
 72
    65
 73
     4
 40
2.0
 49
1.0
 74
     0
 49
-0.5
 74
     0
 49
0.0
 74
     0
 49
-0.5
 74
     0
  0
LTYPE
  5
40
330
5
100
AcDbSymbolTableRecord
100
AcDbLinetypeTableRecord
  2
DASHED
 70
     0
  3
__ __ __ __ __ __ __ __ __ __ __ __ __ __ __
 72
    65
 73
     2
 40
0.75
 49
0.5
 74
     0
 49
-0.25
 74
     0
  0
LTYPE
  5
41
330
5
100
AcDbSymbolTableRecord
100
AcDbLinetypeTableRecord
  2
DASHED2
 70
     0
  3
_ _ _ _ _ _ _ _ _ _ _ _ _ _ _ _ _ _ _ _ _ _ _
 72
    65
 73
     2
 40
0.375
 49
0.25
 74
     0
 49
-0.125
 74
     0
  0
LTYPE
  5
42
330
5
100
AcDbSymbolTableRecord
100
AcDbLinetypeTableRecord
  2
DASHEDX2
 70
     0
  3
____  ____  ____  ____  ____  ____  ____  ____
 72
    65
 73
     2
 40
1.5
 49
1.0
 74
     0
 49
-0.5
 74
     0
  0
LTYPE
  5
43
330
5
100
AcDbSymbolTableRecord
100
AcDbLinetypeTableRecord
  2
DIVIDE
 70
     0
  3
____ . . ____ . . ____ . . ____ . . ____ . .
 72
    65
 73
     6
 40
1.25
 49
0.5
 74
     0
 49
-0.25
 74
     0
 49
0.0
 74
     0
 49
-0.25
 74
     0
 49
0.0
 74
     0
 49
-0.25
 74
     0
  0
LTYPE
  5
44
330
5
100
AcDbSymbolTableRecord
100
AcDbLinetypeTableRecord
  2
DIVIDE2
 70
     0
  3
__..__..__..__..__..__..__..__..__..__..__..__
 72
    65
 73
     6
 40
0.625
 49
0.25
 74
     0
 49
-0.125
 74
     0
 49
0.0
 74
     0
 49
-0.125
 74
     0
 49
0.0
 74
     0
 49
-0.125
 74
     0
  0
LTYPE
  5
45
330
5
100
AcDbSymbolTableRecord
100
AcDbLinetypeTableRecord
  2
DIVIDEX2
 70
     0
  3
________  .  .  ________  .  .  ________  .  .
 72
    65
 73
     6
 40
2.5
 49
1.0
 74
     0
 49
-0.5
 74
     0
 49
0.0
 74
     0
 49
-0.5
 74
     0
 49
0.0
 74
     0
 49
-0.5
 74
     0
  0
LTYPE
  5
46
330
5
100
AcDbSymbolTableRecord
100
AcDbLinetypeTableRecord
  2
DOT
 70
     0
  3
. . . . . . . . . . . . . . . . . . . . . . .
 72
    65
 73
     2
 40
0.25
 49
0.0
 74
     0
 49
-0.25
 74
     0
  0
LTYPE
  5
47
330
5
100
AcDbSymbolTableRecord
100
AcDbLinetypeTableRecord
  2
DOT2
 70
     0
  3
..............................................
 72
    65
 73
     2
 40
0.125
 49
0.0
 74
     0
 49
-0.125
 74
     0
  0
LTYPE
  5
48
330
5
100
AcDbSymbolTableRecord
100
AcDbLinetypeTableRecord
  2
DOTX2
 70
     0
  3
.  .  .  .  .  .  .  .  .  .  .  .  .  .  .  .
 72
    65
 73
     2
 40
0.5
 49
0.0
 74
     0
 49
-0.5
 74
     0
  0
LTYPE
  5
49
330
5
100
AcDbSymbolTableRecord
100
AcDbLinetypeTableRecord
  2
HIDDEN
 70
     0
  3
__ __ __ __ __ __ __ __ __ __ __ __ __ __ __
 72
    65
 73
     2
 40
0.375
 49
0.25
 74
     0
 49
-0.125
 74
     0
  0
LTYPE
  5
4A
330
5
100
AcDbSymbolTableRecord
100
AcDbLinetypeTableRecord
  2
HIDDEN2
 70
     0
  3
_ _ _ _ _ _ _ _ _ _ _ _ _ _ _ _ _ _ _ _ _ _ _
 72
    65
 73
     2
 40
0.1875
 49
0.125
 74
     0
 49
-0.0625
 74
     0
  0
LTYPE
  5
4B
330
5
100
AcDbSymbolTableRecord
100
AcDbLinetypeTableRecord
  2
HIDDENX2
 70
     0
  3
____ ____ ____ ____ ____ ____ ____ ____ ____
 72
    65
 73
     2
 40
0.75
 49
0.5
 74
     0
 49
-0.25
 74
     0
  0
LTYPE
  5
4C
330
5
100
AcDbSymbolTableRecord
100
AcDbLinetypeTableRecord
  2
PHANTOM
 70
     0
  3
______  __  __  ______  __  __  ______  __
 72
    65
 73
     6
 40
2.5
 49
1.25
 74
     0
 49
-0.25
 74
     0
 49
0.25
 74
     0
 49
-0.25
 74
     0
 49
0.25
 74
     0
 49
-0.25
 74
     0
  0
LTYPE
  5
4D
330
5
100
AcDbSymbolTableRecord
100
AcDbLinetypeTableRecord
  2
PHANTOM2
 70
     0
  3
___ _ _ ___ _ _ ___ _ _ ___ _ _ ___ _ _ ___ _
 72
    65
 73
     6
 40
1.25
 49
0.625
 74
     0
 49
-0.125
 74
     0
 49
0.125
 74
     0
 49
-0.125
 74
     0
 49
0.125
 74
     0
 49
-0.125
 74
     0
  0
LTYPE
  5
4E
330
5
100
AcDbSymbolTableRecord
100
AcDbLinetypeTableRecord
  2
PHANTOMX2
 70
     0
  3
____________    ____    ____    ____________
 72
    65
 73
     6
 40
5.0
 49
2.5
 74
     0
 49
-0.5
 74
     0
 49
0.5
 74
     0
 49
-0.5
 74
     0
 49
0.5
 74
     0
 49
-0.5
 74
     0
  0
LTYPE
  5
4F
330
5
100
AcDbSymbolTableRecord
100
AcDbLinetypeTableRecord
  2
CONTINUOUS2
 70
     0
  3
Solid line
 72
    65
 73
     0
 40
0.0
  0
ENDTAB
  0
TABLE
  2
LAYER
  5
2
330
0
100
AcDbSymbolTable
 70
   258
  0
LAYER
  5
10
330
2
100
AcDbSymbolTableRecord
100
AcDbLayerTableRecord
  2
0
 70
     0
 62
     7
  6
Continuous
370
    -3
390
F
  0
LAYER
  5
50
330
2
100
AcDbSymbolTableRecord
100
AcDbLayerTableRecord
  2
LAYER-001
 70
     0
 62
     7
  6
Continuous
370
    -3
390
F
  0
LAYER
  5
51
330
2
100
AcDbSymbolTableRecord
100
AcDbLayerTableRecord
  2
LAYER-002
 70
     0
 62
     7
  6
Continuous
370
    -3
390
F
  0
LAYER
  5
52
330
2
100
AcDbSymbolTableRecord
100
AcDbLayerTableRecord
  2
LAYER-003
 70
     0
 62
     7
  6
Continuous
370
    -3
390
F
  0
LAYER
  5
53
330
2
100
AcDbSymbolTableRecord
100
AcDbLayerTableRecord
  2
LAYER-004
 70
     0
 62
     7
  6
Continuous
370
    -3
390
F
  0
LAYER
  5
54
330
2
100
AcDbSymbolTableRecord
100
AcDbLayerTableRecord
  2
LAYER-005
 70
     0
 62
     7
  6
Continuous
370
    -3
390
F
  0
LAYER
  5
55
330
2
100
AcDbSymbolTableRecord
100
AcDbLayerTableRecord
  2
LAYER-006
 70
     0
 62
     7
  6
Continuous
370
    -3
390
F
  0
LAYER
  5
56
330
2
100
AcDbSymbolTableRecord
100
AcDbLayerTableRecord
  2
LAYER-007
 70
     0
 62
     7
  6
Continuous
370
    -3
390
F
  0
LAYER
  5
57
330
2
100
AcDbSymbolTableRecord
100
AcDbLayerTableRecord
  2
LAYER-008
 70
     0
 62
     7
  6
Continuous
370
    -3
390
F
  0
LAYER
  5
58
330
2
100
AcDbSymbolTableRecord
100
AcDbLayerTableRecord
  2
LAYER-009
 70
     0
 62
     7
  6
Continuous
370
    -3
390
F
  0
LAYER
  5
59
330
2
100
AcDbSymbolTableRecord
100
AcDbLayerTableRecord
  2
LAYER-010
 70
     0
 62
     7
  6
Continuous
370
    -3
390
F
  0
LAYER
  5
5A
330
2
100
AcDbSymbolTableRecord
100
AcDbLayerTableRecord
  2
LAYER-011
 70
     0
 62
     7
  6
Continuous
370
    -3
390
F
  0
LAYER
  5
5B
330
2
100
AcDbSymbolTableRecord
100
AcDbLayerTableRecord
  2
LAYER-012
 70
     0
 62
     7
  6
Continuous
370
    -3
390
F
  0
LAYER
  5
5C
330
2
100
AcDbSymbolTableRecord
100
AcDbLayerTableRecord
  2
LAYER-013
 70
     0
 62
     7
  6
Continuous
370
    -3
390
F
  0
LAYER
  5
5D
330
2
100
AcDbSymbolTableRecord
100
AcDbLayerTableRecord
  2
LAYER-014
 70
     0
 62
     7
  6
Continuous
370
    -3
390
F
  0
LAYER
  5
5E
330
2
100
AcDbSymbolTableRecord
100
AcDbLayerTableRecord
  2
LAYER-015
 70
     0
 62
    -7
  6
Continuous
370
    -3
390
F
  0
LAYER
  5
5F
330
2
100
AcDbSymbolTableRecord
100
AcDbLayerTableRecord
  2
LAYER-016
 70
     0
 62
     4
  6
Continuous
370
    -3
390
F
  0
LAYER
  5
60
330
2
100
AcDbSymbolTableRecord
100
AcDbLayerTableRecord
  2
LAYER-017
 70
     0
 62
     7
  6
Continuous
370
    -3
390
F
  0
LAYER
  5
61
330
2
100
AcDbSymbolTableRecord
100
AcDbLayerTableRecord
  2
LAYER-018
 70
     0
 62
     2
  6
Continuous
370
    -3
390
F
  0
LAYER
  5
62
330
2
100
AcDbSymbolTableRecord
100
AcDbLayerTableRecord
  2
LAYER-019
 70
     0
 62
     3
  6
Continuous
370
    -3
390
F
  0
LAYER
  5
63
330
2
100
AcDbSymbolTableRecord
100
AcDbLayerTableRecord
  2
LAYER-020
 70
     0
 62
     2
  6
Continuous
370
    -3
390
F
  0
LAYER
  5
64
330
2
100
AcDbSymbolTableRecord
100
AcDbLayerTableRecord
  2
LAYER-021
 70
     0
 62
     7
  6
Continuous
370
    -3
390
F
  0
LAYER
  5
65
330
2
100
AcDbSymbolTableRecord
100
AcDbLayerTableRecord
  2
LAYER-022
 70
     0
 62
     4
  6
Continuous
370
    -3
390
F
  0
LAYER
  5
66
330
2
100
AcDbSymbolTableRecord
100
AcDbLayerTableRecord
  2
LAYER-023
 70
     0
 62
     4
  6
Continuous
370
    -3
390
F
  0
LAYER
  5
67
330
2
100
AcDbSymbolTableRecord
100
AcDbLayerTableRecord
  2
LAYER-024
 70
     0
 62
     7
  6
Continuous
370
    -3
390
F
  0
LAYER
  5
68
330
2
100
AcDbSymbolTableRecord
100
AcDbLayerTableRecord
  2
LAYER-025
 70
     0
 62
     7
  6
Continuous
370
    -3
390
F
  0
LAYER
  5
69
330
2
100
AcDbSymbolTableRecord
100
AcDbLayerTableRecord
  2
LAYER-026
 70
     0
 62
    -7
  6
Continuous
370
    -3
390
F
  0
LAYER
  5
6A
330
2
100
AcDbSymbolTableRecord
100
AcDbLayerTableRecord
  2
LAYER-027
 70
     0
 62
     7
  6
Continuous
370
    -3
390
F
  0
LAYER
  5
6B
330
2
100
AcDbSymbolTableRecord
100
AcDbLayerTableRecord
  2
LAYER-028
 70
     0
 62
     7
  6
Continuous
370
    -3
390
F
  0
LAYER
  5
6C
330
2
100
AcDbSymbolTableRecord
100
AcDbLayerTableRecord
  2
LAYER-029
 70
     0
 62
     7
  6
Continuous
370
    -3
390
F
  0
LAYER
  5
6D
330
2
100
AcDbSymbolTableRecord
100
AcDbLayerTableRecord
  2
LAYER-030
 70
     0
 62
     2
  6
Continuous
370
    -3
390
F
  0
LAYER
  5
6E
330
2
100
AcDbSymbolTableRecord
100
AcDbLayerTableRecord
  2
LAYER-031
 70
     0
 62
     7
  6
Continuous
370
    -3
390
F
  0
LAYER
  5
6F
330
2
100
AcDbSymbolTableRecord
100
AcDbLayerTableRecord
  2
LAYER-032
 70
     0
 62
     2
  6
Continuous
370
    -3
390
F
  0
LAYER
  5
70
330
2
100
AcDbSymbolTableRecord
100
AcDbLayerTableRecord
  2
LAYER-033
 70
     0
 62
     7
  6
Continuous
370
    -3
390
F
  0
LAYER
  5
71
330
2
100
AcDbSymbolTableRecord
100
AcDbLayerTableRecord
  2
LAYER-034
 70
     0
 62
     7
  6
Continuous
370
    -3
390
F
  0
LAYER
  5
72
330
2
100
AcDbSymbolTableRecord
100
AcDbLayerTableRecord
  2
LAYER-035
 70
     0
 62
     3
  6
Continuous
370
    -3
390
F
  0
LAYER
  5
73
330
2
100
AcDbSymbolTableRecord
100
AcDbLayerTableRecord
  2
LAYER-036
 70
     0
 62
     2
  6
Continuous
370
    -3
390
F
  0
LAYER
  5
74
330
2
100
AcDbSymbolTableRecord
100
AcDbLayerTableRecord
  2
LAYER-037
 70
     0
 62
     7
  6
Continuous
370
    -3
390
F
  0
LAYER
  5
75
330
2
100
AcDbSymbolTableRecord
100
AcDbLayerTableRecord
  2
LAYER-038
 70
     0
 62
     7
  6
Continuous
370
    -3
390
F
  0
LAYER
  5
76
330
2
100
AcDbSymbolTableRecord
100
AcDbLayerTableRecord
  2
LAYER-039
 70
     0
 62
     7
  6
Continuous
370
    -3
390
F
  0
LAYER
  5
77
330
2
100
AcDbSymbolTableRecord
100
AcDbLayerTableRecord
  2
LAYER-040
 70
     0
 62
     7
  6
Continuous
370
    -3
390
F
  0
LAYER
  5
78
330
2
100
AcDbSymbolTableRecord
100
AcDbLayerTableRecord
  2
LAYER-041
 70
     0
 62
     7
  6
Continuous
370
    -3
390
F
  0
LAYER
  5
79
330
2
100
AcDbSymbolTableRecord
100
AcDbLayerTableRecord
  2
LAYER-042
 70
     0
 62
     7
  6
Continuous
370
    -3
390
F
  0
LAYER
  5
7A
330
2
100
AcDbSymbolTableRecord
100
AcDbLayerTableRecord
  2
LAYER-043
 70
     0
 62
     7
  6
Continuous
370
    -3
390
F
  0
LAYER
  5
7B
330
2
100
AcDbSymbolTableRecord
100
AcDbLayerTableRecord
  2
LAYER-044
 70
     0
 62
     7
  6
Continuous
370
    -3
390
F
  0
LAYER
  5
7C
330
2
100
AcDbSymbolTableRecord
100
AcDbLayerTableRecord
  2
LAYER-045
 70
     0
 62
     7
  6
Continuous
370
    -3
390
F
  0
LAYER
  5
7D
330
2
100
AcDbSymbolTableRecord
100
AcDbLayerTableRecord
  2
LAYER-046
 70
     0
 62
     7
  6
Continuous
370
    -3
390
F
  0
LAYER
  5
7E
330
2
100
AcDbSymbolTableRecord
100
AcDbLayerTableRecord
  2
LAYER-047
 70
     0
 62
     7
  6
Continuous
370
    -3
390
F
  0
LAYER
  5
7F
330
2
100
AcDbSymbolTableRecord
100
AcDbLayerTableRecord
  2
LAYER-048
 70
     0
 62
     2
  6
Continuous
370
    -3
390
F
  0
LAYER
  5
80
330
2
100
AcDbSymbolTableRecord
100
AcDbLayerTableRecord
  2
LAYER-049
 70
     0
 62
     3
  6
Continuous
370
    -3
390
F
  0
LAYER
  5
81
330
2
100
AcDbSymbolTableRecord
100
AcDbLayerTableRecord
  2
LAYER-050
 70
     0
 62
     7
  6
Continuous
370
    -3
390
F
  0
LAYER
  5
82
330
2
100
AcDbSymbolTableRecord
100
AcDbLayerTableRecord
  2
LAYER-051
 70
     0
 62
     2
  6
Continuous
370
    -3
390
F
  0
LAYER
  5
83
330
2
100
AcDbSymbolTableRecord
100
AcDbLayerTableRecord
  2
LAYER-052
 70
     0
 62
     7
  6
Continuous
370
    -3
390
F
  0
LAYER
  5
84
330
2
100
AcDbSymbolTableRecord
100
AcDbLayerTableRecord
  2
LAYER-053
 70
     0
 62
     7
  6
Continuous
370
    -3
390
F
  0
LAYER
  5
85
330
2
100
AcDbSymbolTableRecord
100
AcDbLayerTableRecord
  2
LAYER-054
 70
     0
 62
     7
  6
Continuous
370
    -3
390
F
  0
LAYER
  5
86
330
2
100
AcDbSymbolTableRecord
100
AcDbLayerTableRecord
  2
LAYER-055
 70
     0
 62
     7
  6
Continuous
370
    -3
390
F
  0
LAYER
  5
87
330
2
100
AcDbSymbolTableRecord
100
AcDbLayerTableRecord
  2
LAYER-056
 70
     0
 62
     7
  6
Continuous
370
    -3
390
F
  0
LAYER
  5
88
330
2
100
AcDbSymbolTableRecord
100
AcDbLayerTableRecord
  2
LAYER-057
 70
     0
 62
     7
  6
Continuous
370
    -3
390
F
  0
LAYER
  5
89
330
2
100
AcDbSymbolTableRecord
100
AcDbLayerTableRecord
  2
LAYER-058
 70
     0
 62
     7
  6
Continuous
370
    -3
390
F
  0
LAYER
  5
8A
330
2
100
AcDbSymbolTableRecord
100
AcDbLayerTableRecord
  2
LAYER-059
 70
     0
 62
     7
  6
Continuous
370
    -3
390
F
  0
LAYER
  5
8B
330
2
100
AcDbSymbolTableRecord
100
AcDbLayerTableRecord
  2
LAYER-060
 70
     0
 62
     7
  6
Continuous
370
    -3
390
F
  0
LAYER
  5
8C
330
2
100
AcDbSymbolTableRecord
100
AcDbLayerTableRecord
  2
LAYER-061
 70
     0
 62
     7
  6
Continuous
370
    -3
390
F
  0
LAYER
  5
8D
330
2
100
AcDbSymbolTableRecord
100
AcDbLayerTableRecord
  2
LAYER-062
 70
     0
 62
     7
  6
Continuous
370
    -3
390
F
  0
LAYER
  5
8E
330
2
100
AcDbSymbolTableRecord
100
AcDbLayerTableRecord
  2
LAYER-063
 70
     0
 62
     7
  6
Continuous
370
    -3
390
F
  0
LAYER
  5
8F
330
2
100
AcDbSymbolTableRecord
100
AcDbLayerTableRecord
  2
LAYER-064
 70
     0
 62
     2
  6
Continuous
370
    -3
390
F
  0
LAYER
  5
90
330
2
100
AcDbSymbolTableRecord
100
AcDbLayerTableRecord
  2
LAYER-065
 70
     0
 62
     7
  6
Continuous
370
    -3
390
F
  0
LAYER
  5
91
330
2
100
AcDbSymbolTableRecord
100
AcDbLayerTableRecord
  2
LAYER-066
 70
     0
 62
     2
  6
Continuous
370
    -3
390
F
  0
LAYER
  5
92
330
2
100
AcDbSymbolTableRecord
100
AcDbLayerTableRecord
  2
LAYER-067
 70
     0
 62
     2
  6
Continuous
370
    -3
390
F
  0
LAYER
  5
93
330
2
100
AcDbSymbolTableRecord
100
AcDbLayerTableRecord
  2
LAYER-068
 70
     0
 62
     7
  6
Continuous
370
    -3
390
F
  0
LAYER
  5
94
330
2
100
AcDbSymbolTableRecord
100
AcDbLayerTableRecord
  2
LAYER-069
 70
     0
 62
     7
  6
Continuous
370
    -3
390
F
  0
LAYER
  5
95
330
2
100
AcDbSymbolTableRecord
100
AcDbLayerTableRecord
  2
LAYER-070
 70
     0
 62
     7
  6
Continuous
370
    -3
390
F
  0
LAYER
  5
96
330
2
100
AcDbSymbolTableRecord
100
AcDbLayerTableRecord
  2
LAYER-071
 70
     0
 62
     7
  6
Continuous
370
    -3
390
F
  0
LAYER
  5
97
330
2
100
AcDbSymbolTableRecord
100
AcDbLayerTableRecord
  2
LAYER-072
 70
     0
 62
     7
  6
Continuous
370
    -3
390
F
  0
LAYER
  5
98
330
2
100
AcDbSymbolTableRecord
100
AcDbLayerTableRecord
  2
LAYER-073
 70
     0
 62
     7
  6
Continuous
370
    -3
390
F
  0
LAYER
  5
99
330
2
100
AcDbSymbolTableRecord
100
AcDbLayerTableRecord
  2
LAYER-074
 70
     0
 62
     7
  6
Continuous
370
    -3
390
F
  0
LAYER
  5
9A
330
2
100
AcDbSymbolTableRecord
100
AcDbLayerTableRecord
  2
LAYER-075
 70
     0
 62
     7
  6
Continuous
370
    -3
390
F
  0
LAYER
  5
9B
330
2
100
AcDbSymbolTableRecord
100
AcDbLayerTableRecord
  2
LAYER-076
 70
     0
 62
     7
  6
Continuous
370
    -3
390
F
  0
LAYER
  5
9C
330
2
100
AcDbSymbolTableRecord
100
AcDbLayerTableRecord
  2
LAYER-077
 70
     0
 62
     7
  6
Continuous
370
    -3
390
F
  0
LAYER
  5
9D
330
2
100
AcDbSymbolTableRecord
100
AcDbLayerTableRecord
  2
LAYER-078
 70
     0
 62
     7
  6
Continuous
370
    -3
390
F
  0
LAYER
  5
9E
330
2
100
AcDbSymbolTableRecord
100
AcDbLayerTableRecord
  2
LAYER-079
 70
     0
 62
     7
  6
Continuous
370
    -3
390
F
  0
LAYER
  5
9F
330
2
100
AcDbSymbolTableRecord
100
AcDbLayerTableRecord
  2
LAYER-080
 70
     0
 62
     2
  6
Continuous
370
    -3
390
F
  0
LAYER
  5
A0
330
2
100
AcDbSymbolTableRecord
100
AcDbLayerTableRecord
  2
LAYER-081
 70
     0
 62
     7
  6
Continuous
370
    -3
390
F
  0
LAYER
  5
A1
330
2
100
AcDbSymbolTableRecord
100
AcDbLayerTableRecord
  2
LAYER-082
 70
     0
 62
     7
  6
Continuous
370
    -3
390
F
  0
LAYER
  5
A2
330
2
100
AcDbSymbolTableRecord
100
AcDbLayerTableRecord
  2
LAYER-083
 70
     0
 62
     7
  6
Continuous
370
    -3
390
F
  0
LAYER
  5
A3
330
2
100
AcDbSymbolTableRecord
100
AcDbLayerTableRecord
  2
LAYER-084
 70
     0
 62
     7
  6
Continuous
370
    -3
390
F
  0
LAYER
  5
A4
330
2
100
AcDbSymbolTableRecord
100
AcDbLayerTableRecord
  2
LAYER-085
 70
     0
 62
     7
  6
Continuous
370
    -3
390
F
  0
LAYER
  5
A5
330
2
100
AcDbSymbolTableRecord
100
AcDbLayerTableRecord
  2
LAYER-086
 70
     0
 62
     7
  6
Continuous
370
    -3
390
F
  0
LAYER
  5
A6
330
2
100
AcDbSymbolTableRecord
100
AcDbLayerTableRecord
  2
LAYER-087
 70
     0
 62
     7
  6
Continuous
370
    -3
390
F
  0
LAYER
  5
A7
330
2
100
AcDbSymbolTableRecord
100
AcDbLayerTableRecord
  2
LAYER-088
 70
     0
 62
     7
  6
Continuous
370
    -3
390
F
  0
LAYER
  5
A8
330
2
100
AcDbSymbolTableRecord
100
AcDbLayerTableRecord
  2
LAYER-089
 70
     0
 62
     7
  6
Continuous
370
    -3
390
F
  0
LAYER
  5
A9
330
2
100
AcDbSymbolTableRecord
100
AcDbLayerTableRecord
  2
LAYER-090
 70
     0
 62
     7
  6
Continuous
370
    -3
390
F
  0
LAYER
  5
AA
330
2
100
AcDbSymbolTableRecord
100
AcDbLayerTableRecord
  2
LAYER-091
 70
     0
 62
     7
  6
Continuous
370
    -3
390
F
  0
LAYER
  5
AB
330
2
100
AcDbSymbolTableRecord
100
AcDbLayerTableRecord
  2
LAYER-092
 70
     0
 62
     7
  6
Continuous
370
    -3
390
F
  0
LAYER
  5
AC
330
2
100
AcDbSymbolTableRecord
100
AcDbLayerTableRecord
  2
LAYER-093
 70
     0
 62
     7
  6
Continuous
370
    -3
390
F
  0
LAYER
  5
AD
330
2
100
AcDbSymbolTableRecord
100
AcDbLayerTableRecord
  2
LAYER-094
 70
     0
 62
     7
  6
Continuous
370
    -3
390
F
  0
LAYER
  5
AE
330
2
100
AcDbSymbolTableRecord
100
AcDbLayerTableRecord
  2
LAYER-095
 70
     0
 62
     7
  6
Continuous
370
    -3
390
F
  0
LAYER
  5
AF
330
2
100
AcDbSymbolTableRecord
100
AcDbLayerTableRecord
  2
LAYER-096
 70
     0
 62
     7
  6
Continuous
370
    -3
390
F
  0
LAYER
  5
B0
330
2
100
AcDbSymbolTableRecord
100
AcDbLayerTableRecord
  2
LAYER-097
 70
     0
 62
     7
  6
Continuous
370
    -3
390
F
  0
LAYER
  5
B1
330
2
100
AcDbSymbolTableRecord
100
AcDbLayerTableRecord
  2
LAYER-098
 70
     0
 62
     7
  6
Continuous
370
    -3
390
F
  0
LAYER
  5
B2
330
2
100
AcDbSymbolTableRecord
100
AcDbLayerTableRecord
  2
LAYER-099
 70
     0
 62
     7
  6
Continuous
370
    -3
390
F
  0
LAYER
  5
B3
330
2
100
AcDbSymbolTableRecord
100
AcDbLayerTableRecord
  2
LAYER-100
 70
     0
 62
     7
  6
Continuous
370
    -3
390
F
  0
LAYER
  5
B4
330
2
100
AcDbSymbolTableRecord
100
AcDbLayerTableRecord
  2
LAYER-101
 70
     0
 62
     7
  6
Continuous
370
    -3
390
F
  0
LAYER
  5
B5
330
2
100
AcDbSymbolTableRecord
100
AcDbLayerTableRecord
  2
LAYER-102
 70
     0
 62
     7
  6
Continuous
370
    -3
390
F
  0
LAYER
  5
B6
330
2
100
AcDbSymbolTableRecord
100
AcDbLayerTableRecord
  2
LAYER-103
 70
     0
 62
     7
  6
Continuous
370
    -3
390
F
  0
LAYER
  5
B7
330
2
100
AcDbSymbolTableRecord
100
AcDbLayerTableRecord
  2
LAYER-104
 70
     0
 62
     7
  6
Continuous
370
    -3
390
F
  0
LAYER
  5
B8
330
2
100
AcDbSymbolTableRecord
100
AcDbLayerTableRecord
  2
LAYER-105
 70
     0
 62
     7
  6
Continuous
370
    -3
390
F
  0
LAYER
  5
B9
330
2
100
AcDbSymbolTableRecord
100
AcDbLayerTableRecord
  2
LAYER-106
 70
     0
 62
     7
  6
Continuous
370
    -3
390
F
  0
LAYER
  5
BA
330
2
100
AcDbSymbolTableRecord
100
AcDbLayerTableRecord
  2
LAYER-107
 70
     0
 62
     7
  6
Continuous
370
    -3
390
F
  0
LAYER
  5
BB
330
2
100
AcDbSymbolTableRecord
100
AcDbLayerTableRecord
  2
LAYER-108
 70
     0
 62
     7
  6
Continuous
370
    -3
390
F
  0
LAYER
  5
BC
330
2
100
AcDbSymbolTableRecord
100
AcDbLayerTableRecord
  2
LAYER-109
 70
     0
 62
     7
  6
Continuous
370
    -3
390
F
  0
LAYER
  5
BD
330
2
100
AcDbSymbolTableRecord
100
AcDbLayerTableRecord
  2
LAYER-110
 70
     0
 62
     7
  6
Continuous
370
    -3
390
F
  0
LAYER
  5
BE
330
2
100
AcDbSymbolTableRecord
100
AcDbLayerTableRecord
  2
LAYER-111
 70
     0
 62
     7
  6
Continuous
370
    -3
390
F
  0
LAYER
  5
BF
330
2
100
AcDbSymbolTableRecord
100
AcDbLayerTableRecord
  2
LAYER-112
 70
     0
 62
     7
  6
Continuous
370
    -3
390
F
  0
LAYER
  5
C0
330
2
100
AcDbSymbolTableRecord
100
AcDbLayerTableRecord
  2
LAYER-113
 70
     0
 62
     7
  6
Continuous
370
    -3
390
F
  0
LAYER
  5
C1
330
2
100
AcDbSymbolTableRecord
100
AcDbLayerTableRecord
  2
LAYER-114
 70
     0
 62
     7
  6
Continuous
370
    -3
390
F
  0
LAYER
  5
C2
330
2
100
AcDbSymbolTableRecord
100
AcDbLayerTableRecord
  2
LAYER-115
 70
     0
 62
     7
  6
Continuous
370
    -3
390
F
  0
LAYER
  5
C3
330
2
100
AcDbSymbolTableRecord
100
AcDbLayerTableRecord
  2
LAYER-116
 70
     0
 62
     7
  6
Continuous
370
    -3
390
F
  0
LAYER
  5
C4
330
2
100
AcDbSymbolTableRecord
100
AcDbLayerTableRecord
  2
LAYER-117
 70
     0
 62
     7
  6
Continuous
370
    -3
390
F
  0
LAYER
  5
C5
330
2
100
AcDbSymbolTableRecord
100
AcDbLayerTableRecord
  2
LAYER-118
 70
     0
 62
     7
  6
Continuous
370
    -3
390
F
  0
LAYER
  5
C6
330
2
100
AcDbSymbolTableRecord
100
AcDbLayerTableRecord
  2
LAYER-119
 70
     0
 62
     7
  6
Continuous
370
    -3
390
F
  0
LAYER
  5
C7
330
2
100
AcDbSymbolTableRecord
100
AcDbLayerTableRecord
  2
LAYER-120
 70
     0
 62
     7
  6
Continuous
370
    -3
390
F
  0
LAYER
  5
C8
330
2
100
AcDbSymbolTableRecord
100
AcDbLayerTableRecord
  2
LAYER-121
 70
     0
 62
     7
  6
Continuous
370
    -3
390
F
  0
LAYER
  5
C9
330
2
100
AcDbSymbolTableRecord
100
AcDbLayerTableRecord
  2
LAYER-122
 70
     0
 62
     7
  6
Continuous
370
    -3
390
F
  0
LAYER
  5
CA
330
2
100
AcDbSymbolTableRecord
100
AcDbLayerTableRecord
  2
LAYER-123
 70
     0
 62
     7
  6
Continuous
370
    -3
390
F
  0
LAYER
  5
CB
330
2
100
AcDbSymbolTableRecord
100
AcDbLayerTableRecord
  2
LAYER-124
 70
     0
 62
     7
  6
Continuous
370
    -3
390
F
  0
LAYER
  5
CC
330
2
100
AcDbSymbolTableRecord
100
AcDbLayerTableRecord
  2
LAYER-125
 70
     0
 62
     7
  6
Continuous
370
    -3
390
F
  0
LAYER
  5
CD
330
2
100
AcDbSymbolTableRecord
100
AcDbLayerTableRecord
  2
LAYER-126
 70
     0
 62
     7
  6
Continuous
370
    -3
390
F
  0
LAYER
  5
CE
330
2
100
AcDbSymbolTableRecord
100
AcDbLayerTableRecord
  2
LAYER-127
 70
     0
 62
     7
  6
Continuous
370
    -3
390
F
  0
LAYER
  5
CF
330
2
100
AcDbSymbolTableRecord
100
AcDbLayerTableRecord
  2
LAYER-128
 70
     0
 62
     7
  6
Continuous
370
    -3
390
F
  0
LAYER
  5
D0
330
2
100
AcDbSymbolTableRecord
100
AcDbLayerTableRecord
  2
LAYER-129
 70
     0
 62
     7
  6
Continuous
370
    -3
390
F
  0
LAYER
  5
D1
330
2
100
AcDbSymbolTableRecord
100
AcDbLayerTableRecord
  2
LAYER-130
 70
     0
 62
     7
  6
Continuous
370
    -3
390
F
  0
LAYER
  5
D2
330
2
100
AcDbSymbolTableRecord
100
AcDbLayerTableRecord
  2
LAYER-131
 70
     0
 62
     7
  6
Continuous
370
    -3
390
F
  0
LAYER
  5
D3
330
2
100
AcDbSymbolTableRecord
100
AcDbLayerTableRecord
  2
LAYER-132
 70
     0
 62
     7
  6
Continuous
370
    -3
390
F
  0
LAYER
  5
D4
330
2
100
AcDbSymbolTableRecord
100
AcDbLayerTableRecord
  2
LAYER-133
 70
     0
 62
     7
  6
Continuous
370
    -3
390
F
  0
LAYER
  5
D5
330
2
100
AcDbSymbolTableRecord
100
AcDbLayerTableRecord
  2
LAYER-134
 70
     0
 62
     7
  6
Continuous
370
    -3
390
F
  0
LAYER
  5
D6
330
2
100
AcDbSymbolTableRecord
100
AcDbLayerTableRecord
  2
LAYER-135
 70
     0
 62
    -4
  6
Continuous
370
    -3
390
F
  0
LAYER
  5
D7
330
2
100
AcDbSymbolTableRecord
100
AcDbLayerTableRecord
  2
LAYER-136
 70
     0
 62
    -3
  6
Continuous
370
    -3
390
F
  0
LAYER
  5
D8
330
2
100
AcDbSymbolTableRecord
100
AcDbLayerTableRecord
  2
LAYER-137
 70
     0
 62
    -1
  6
Continuous
370
    -3
390
F
  0
LAYER
  5
D9
330
2
100
AcDbSymbolTableRecord
100
AcDbLayerTableRecord
  2
LAYER-138
 70
     0
 62
     7
  6
Continuous
370
    -3
390
F
  0
LAYER
  5
DA
330
2
100
AcDbSymbolTableRecord
100
AcDbLayerTableRecord
  2
LAYER-139
 70
     0
 62
     7
  6
Continuous
370
    -3
390
F
  0
LAYER
  5
DB
330
2
100
AcDbSymbolTableRecord
100
AcDbLayerTableRecord
  2
LAYER-140
 70
     0
 62
     7
  6
Continuous
370
    -3
390
F
  0
LAYER
  5
DC
330
2
100
AcDbSymbolTableRecord
100
AcDbLayerTableRecord
  2
LAYER-141
 70
     0
 62
     7
  6
Continuous
370
    -3
390
F
  0
LAYER
  5
DD
330
2
100
AcDbSymbolTableRecord
100
AcDbLayerTableRecord
  2
LAYER-142
 70
     0
 62
     3
  6
Continuous
370
    -3
390
F
  0
LAYER
  5
DE
330
2
100
AcDbSymbolTableRecord
100
AcDbLayerTableRecord
  2
LAYER-143
 70
     0
 62
     7
  6
Continuous
370
    -3
390
F
  0
LAYER
  5
DF
330
2
100
AcDbSymbolTableRecord
100
AcDbLayerTableRecord
  2
LAYER-144
 70
     0
 62
     7
  6
Continuous
370
    -3
390
F
  0
LAYER
  5
E0
330
2
100
AcDbSymbolTableRecord
100
AcDbLayerTableRecord
  2
LAYER-145
 70
     0
 62
     3
  6
Continuous
370
    -3
390
F
  0
LAYER
  5
E1
330
2
100
AcDbSymbolTableRecord
100
AcDbLayerTableRecord
  2
LAYER-146
 70
     0
 62
     7
  6
Continuous
370
    -3
390
F
  0
LAYER
  5
E2
330
2
100
AcDbSymbolTableRecord
100
AcDbLayerTableRecord
  2
LAYER-147
 70
     0
 62
     7
  6
Continuous
370
    -3
390
F
  0
LAYER
  5
E3
330
2
100
AcDbSymbolTableRecord
100
AcDbLayerTableRecord
  2
LAYER-148
 70
     0
 62
     7
  6
Continuous
370
    -3
390
F
  0
LAYER
  5
E4
330
2
100
AcDbSymbolTableRecord
100
AcDbLayerTableRecord
  2
LAYER-149
 70
     0
 62
     7
  6
Continuous
370
    -3
390
F
  0
LAYER
  5
E5
330
2
100
AcDbSymbolTableRecord
100
AcDbLayerTableRecord
  2
LAYER-150
 70
     0
 62
     7
  6
Continuous
370
    -3
390
F
  0
LAYER
  5
E6
330
2
100
AcDbSymbolTableRecord
100
AcDbLayerTableRecord
  2
LAYER-151
 70
     0
 62
     7
  6
Continuous
370
    -3
390
F
  0
LAYER
  5
E7
330
2
100
AcDbSymbolTableRecord
100
AcDbLayerTableRecord
  2
LAYER-152
 70
     0
 62
     7
  6
Continuous
370
    -3
390
F
  0
LAYER
  5
E8
330
2
100
AcDbSymbolTableRecord
100
AcDbLayerTableRecord
  2
LAYER-153
 70
     0
 62
     7
  6
Continuous
370
    -3
390
F
  0
LAYER
  5
E9
330
2
100
AcDbSymbolTableRecord
100
AcDbLayerTableRecord
  2
LAYER-154
 70
     0
 62
     7
  6
Continuous
370
    -3
390
F
  0
LAYER
  5
EA
330
2
100
AcDbSymbolTableRecord
100
AcDbLayerTableRecord
  2
LAYER-155
 70
     0
 62
     7
  6
Continuous
370
    -3
390
F
  0
LAYER
  5
EB
330
2
100
AcDbSymbolTableRecord
100
AcDbLayerTableRecord
  2
LAYER-156
 70
     0
 62
     7
  6
Continuous
370
    -3
390
F
  0
LAYER
  5
EC
330
2
100
AcDbSymbolTableRecord
100
AcDbLayerTableRecord
  2
LAYER-157
 70
     0
 62
     7
  6
Continuous
370
    -3
390
F
  0
LAYER
  5
ED
330
2
100
AcDbSymbolTableRecord
100
AcDbLayerTableRecord
  2
LAYER-158
 70
     0
 62
     7
  6
Continuous
370
    -3
390
F
  0
LAYER
  5
EE
330
2
100
AcDbSymbolTableRecord
100
AcDbLayerTableRecord
  2
LAYER-159
 70
     0
 62
     7
  6
Continuous
370
    -3
390
F
  0
LAYER
  5
EF
330
2
100
AcDbSymbolTableRecord
100
AcDbLayerTableRecord
  2
LAYER-160
 70
     0
 62
     7
  6
Continuous
370
    -3
390
F
  0
LAYER
  5
F0
330
2
100
AcDbSymbolTableRecord
100
AcDbLayerTableRecord
  2
LAYER-161
 70
     0
 62
     7
  6
Continuous
370
    -3
390
F
  0
LAYER
  5
F1
330
2
100
AcDbSymbolTableRecord
100
AcDbLayerTableRecord
  2
LAYER-162
 70
     0
 62
     7
  6
Continuous
370
    -3
390
F
  0
LAYER
  5
F2
330
2
100
AcDbSymbolTableRecord
100
AcDbLayerTableRecord
  2
LAYER-163
 70
     0
 62
     7
  6
Continuous
370
    -3
390
F
  0
LAYER
  5
F3
330
2
100
AcDbSymbolTableRecord
100
AcDbLayerTableRecord
  2
LAYER-164
 70
     0
 62
     7
  6
Continuous
370
    -3
390
F
  0
LAYER
  5
F4
330
2
100
AcDbSymbolTableRecord
100
AcDbLayerTableRecord
  2
LAYER-165
 70
     0
 62
     7
  6
Continuous
370
    -3
390
F
  0
LAYER
  5
F5
330
2
100
AcDbSymbolTableRecord
100
AcDbLayerTableRecord
  2
LAYER-166
 70
     0
 62
     7
  6
Continuous
370
    -3
390
F
  0
LAYER
  5
F6
330
2
100
AcDbSymbolTableRecord
100
AcDbLayerTableRecord
  2
LAYER-167
 70
     0
 62
     7
  6
Continuous
370
    -3
390
F
  0
LAYER
  5
F7
330
2
100
AcDbSymbolTableRecord
100
AcDbLayerTableRecord
  2
LAYER-168
 70
     0
 62
     7
  6
Continuous
370
    -3
390
F
  0
LAYER
  5
F8
330
2
100
AcDbSymbolTableRecord
100
AcDbLayerTableRecord
  2
LAYER-169
 70
     0
 62
     7
  6
Continuous
370
    -3
390
F
  0
LAYER
  5
F9
330
2
100
AcDbSymbolTableRecord
100
AcDbLayerTableRecord
  2
LAYER-170
 70
     0
 62
     7
  6
Continuous
370
    -3
390
F
  0
LAYER
  5
FA
330
2
100
AcDbSymbolTableRecord
100
AcDbLayerTableRecord
  2
LAYER-171
 70
     0
 62
     7
  6
Continuous
370
    -3
390
F
  0
LAYER
  5
FB
330
2
100
AcDbSymbolTableRecord
100
AcDbLayerTableRecord
  2
LAYER-172
 70
     0
 62
     7
  6
Continuous
370
    -3
390
F
  0
LAYER
  5
FC
330
2
100
AcDbSymbolTableRecord
100
AcDbLayerTableRecord
  2
LAYER-173
 70
     0
 62
     7
  6
Continuous
370
    -3
390
F
  0
LAYER
  5
FD
330
2
100
AcDbSymbolTableRecord
100
AcDbLayerTableRecord
  2
LAYER-174
 70
     0
 62
     7
  6
Continuous
370
    -3
390
F
  0
LAYER
  5
FE
330
2
100
AcDbSymbolTableRecord
100
AcDbLayerTableRecord
  2
LAYER-175
 70
     0
 62
     7
  6
Continuous
370
    -3
390
F
  0
LAYER
  5
FF
330
2
100
AcDbSymbolTableRecord
100
AcDbLayerTableRecord
  2
LAYER-176
 70
     0
 62
     7
  6
Continuous
370
    -3
390
F
  0
LAYER
  5
100
330
2
100
AcDbSymbolTableRecord
100
AcDbLayerTableRecord
  2
LAYER-177
 70
     0
 62
     7
  6
Continuous
370
    -3
390
F
  0
LAYER
  5
101
330
2
100
AcDbSymbolTableRecord
100
AcDbLayerTableRecord
  2
LAYER-178
 70
     0
 62
     7
  6
Continuous
370
    -3
390
F
  0
LAYER
  5
102
330
2
100
AcDbSymbolTableRecord
100
AcDbLayerTableRecord
  2
LAYER-179
 70
     0
 62
     7
  6
Continuous
370
    -3
390
F
  0
LAYER
  5
103
330
2
100
AcDbSymbolTableRecord
100
AcDbLayerTableRecord
  2
LAYER-180
 70
     0
 62
     7
  6
Continuous
370
    -3
390
F
  0
LAYER
  5
104
330
2
100
AcDbSymbolTableRecord
100
AcDbLayerTableRecord
  2
LAYER-181
 70
     0
 62
     7
  6
Continuous
370
    -3
390
F
  0
LAYER
  5
105
330
2
100
AcDbSymbolTableRecord
100
AcDbLayerTableRecord
  2
LAYER-182
 70
     0
 62
     7
  6
Continuous
370
    -3
390
F
  0
LAYER
  5
106
330
2
100
AcDbSymbolTableRecord
100
AcDbLayerTableRecord
  2
LAYER-183
 70
     0
 62
     7
  6
Continuous
370
    -3
390
F
  0
LAYER
  5
107
330
2
100
AcDbSymbolTableRecord
100
AcDbLayerTableRecord
  2
LAYER-184
 70
     0
 62
     7
  6
Continuous
370
    -3
390
F
  0
LAYER
  5
108
330
2
100
AcDbSymbolTableRecord
100
AcDbLayerTableRecord
  2
LAYER-185
 70
     0
 62
     7
  6
Continuous
370
    -3
390
F
  0
LAYER
  5
109
330
2
100
AcDbSymbolTableRecord
100
AcDbLayerTableRecord
  2
LAYER-186
 70
     0
 62
     7
  6
Continuous
370
    -3
390
F
  0
LAYER
  5
10A
330
2
100
AcDbSymbolTableRecord
100
AcDbLayerTableRecord
  2
LAYER-187
 70
     0
 62
     7
  6
Continuous
370
    -3
390
F
  0
LAYER
  5
10B
330
2
100
AcDbSymbolTableRecord
100
AcDbLayerTableRecord
  2
LAYER-188
 70
     0
 62
     7
  6
Continuous
370
    -3
390
F
  0
LAYER
  5
10C
330
2
100
AcDbSymbolTableRecord
100
AcDbLayerTableRecord
  2
LAYER-189
 70
     0
 62
     7
  6
Continuous
370
    -3
390
F
  0
LAYER
  5
10D
330
2
100
AcDbSymbolTableRecord
100
AcDbLayerTableRecord
  2
LAYER-190
 70
     0
 62
     7
  6
Continuous
370
    -3
390
F
  0
LAYER
  5
10E
330
2
100
AcDbSymbolTableRecord
100
AcDbLayerTableRecord
  2
LAYER-191
 70
     0
 62
     7
  6
Continuous
370
    -3
390
F
  0
LAYER
  5
10F
330
2
100
AcDbSymbolTableRecord
100
AcDbLayerTableRecord
  2
LAYER-192
 70
     0
 62
     7
  6
Continuous
370
    -3
390
F
  0
LAYER
  5
110
330
2
100
AcDbSymbolTableRecord
100
AcDbLayerTableRecord
  2
LAYER-193
 70
     0
 62
     7
  6
Continuous
370
    -3
390
F
  0
LAYER
  5
111
330
2
100
AcDbSymbolTableRecord
100
AcDbLayerTableRecord
  2
LAYER-194
 70
     0
 62
     2
  6
Continuous
370
    -3
390
F
  0
LAYER
  5
112
330
2
100
AcDbSymbolTableRecord
100
AcDbLayerTableRecord
  2
LAYER-195
 70
     0
 62
     2
  6
Continuous
370
    -3
390
F
  0
LAYER
  5
113
330
2
100
AcDbSymbolTableRecord
100
AcDbLayerTableRecord
  2
LAYER-196
 70
     0
 62
     2
  6
Continuous
370
    -3
390
F
  0
LAYER
  5
114
330
2
100
AcDbSymbolTableRecord
100
AcDbLayerTableRecord
  2
LAYER-197
 70
     0
 62
     7
  6
Continuous
370
    -3
390
F
  0
LAYER
  5
115
330
2
100
AcDbSymbolTableRecord
100
AcDbLayerTableRecord
  2
LAYER-198
 70
     0
 62
     7
  6
Continuous
370
    -3
390
F
  0
LAYER
  5
116
330
2
100
AcDbSymbolTableRecord
100
AcDbLayerTableRecord
  2
LAYER-199
 70
     0
 62
     4
  6
Continuous
370
    -3
390
F
  0
LAYER
  5
117
330
2
100
AcDbSymbolTableRecord
100
AcDbLayerTableRecord
  2
LAYER-200
 70
     0
 62
     1
  6
Continuous
370
    -3
390
F
  0
LAYER
  5
118
330
2
100
AcDbSymbolTableRecord
100
AcDbLayerTableRecord
  2
LAYER-201
 70
     0
 62
     1
  6
Continuous
370
    -3
390
F
  0
LAYER
  5
119
330
2
100
AcDbSymbolTableRecord
100
AcDbLayerTableRecord
  2
LAYER-202
 70
     0
 62
     2
  6
Continuous
370
    -3
390
F
  0
LAYER
  5
11A
330
2
100
AcDbSymbolTableRecord
100
AcDbLayerTableRecord
  2
LAYER-203
 70
     0
 62
     2
  6
Continuous
370
    -3
390
F
  0
LAYER
  5
11B
330
2
100
AcDbSymbolTableRecord
100
AcDbLayerTableRecord
  2
LAYER-204
 70
     0
 62
     7
  6
Continuous
370
    -3
390
F
  0
LAYER
  5
11C
330
2
100
AcDbSymbolTableRecord
100
AcDbLayerTableRecord
  2
LAYER-205
 70
     0
 62
     7
  6
Continuous
370
    -3
390
F
  0
LAYER
  5
11D
330
2
100
AcDbSymbolTableRecord
100
AcDbLayerTableRecord
  2
LAYER-206
 70
     0
 62
     7
  6
Continuous
370
    -3
390
F
  0
LAYER
  5
11E
330
2
100
AcDbSymbolTableRecord
100
AcDbLayerTableRecord
  2
LAYER-207
 70
     0
 62
    -7
  6
Continuous
370
    -3
390
F
  0
LAYER
  5
11F
330
2
100
AcDbSymbolTableRecord
100
AcDbLayerTableRecord
  2
LAYER-208
 70
     0
 62
     2
  6
Continuous
370
    -3
390
F
  0
LAYER
  5
120
330
2
100
AcDbSymbolTableRecord
100
AcDbLayerTableRecord
  2
LAYER-209
 70
     0
 62
     7
  6
Continuous
370
    -3
390
F
  0
LAYER
  5
121
330
2
100
AcDbSymbolTableRecord
100
AcDbLayerTableRecord
  2
LAYER-210
 70
     0
 62
     2
  6
Continuous
290
     0
370
    -3
390
F
  0
LAYER
  5
122
330
2
100
AcDbSymbolTableRecord
100
AcDbLayerTableRecord
  2
LAYER-211
 70
     0
 62
     7
  6
Continuous
370
    -3
390
F
  0
LAYER
  5
123
330
2
100
AcDbSymbolTableRecord
100
AcDbLayerTableRecord
  2
LAYER-212
 70
     0
 62
     7
  6
Continuous
370
    -3
390
F
  0
LAYER
  5
124
330
2
100
AcDbSymbolTableRecord
100
AcDbLayerTableRecord
  2
LAYER-213
 70
     0
 62
     2
  6
Continuous
370
    -3
390
F
  0
LAYER
  5
125
330
2
100
AcDbSymbolTableRecord
100
AcDbLayerTableRecord
  2
LAYER-214
 70
     0
 62
     7
  6
Continuous
370
    -3
390
F
  0
LAYER
  5
126
330
2
100
AcDbSymbolTableRecord
100
AcDbLayerTableRecord
  2
LAYER-215
 70
     0
 62
     7
  6
Continuous
370
    -3
390
F
  0
LAYER
  5
127
330
2
100
AcDbSymbolTableRecord
100
AcDbLayerTableRecord
  2
LAYER-216
 70
     0
 62
     4
  6
Continuous
370
    -3
390
F
  0
LAYER
  5
128
330
2
100
AcDbSymbolTableRecord
100
AcDbLayerTableRecord
  2
LAYER-217
 70
     0
 62
     7
  6
Continuous
370
    -3
390
F
  0
LAYER
  5
129
330
2
100
AcDbSymbolTableRecord
100
AcDbLayerTableRecord
  2
LAYER-218
 70
     0
 62
     7
  6
Continuous
370
    -3
390
F
  0
LAYER
  5
12A
330
2
100
AcDbSymbolTableRecord
100
AcDbLayerTableRecord
  2
LAYER-219
 70
     0
 62
     7
  6
Continuous
370
    -3
390
F
  0
LAYER
  5
12B
330
2
100
AcDbSymbolTableRecord
100
AcDbLayerTableRecord
  2
LAYER-220
 70
     0
 62
     4
  6
Continuous
370
    -3
390
F
  0
LAYER
  5
12C
330
2
100
AcDbSymbolTableRecord
100
AcDbLayerTableRecord
  2
LAYER-221
 70
     0
 62
    -7
  6
Continuous
290
     0
370
    -3
390
F
  0
LAYER
  5
12D
330
2
100
AcDbSymbolTableRecord
100
AcDbLayerTableRecord
  2
LAYER-222
 70
     0
 62
    -4
  6
Continuous
290
     0
370
    -3
390
F
  0
LAYER
  5
12E
330
2
100
AcDbSymbolTableRecord
100
AcDbLayerTableRecord
  2
LAYER-223
 70
     0
 62
    -1
  6
Continuous
290
     0
370
    -3
390
F
  0
LAYER
  5
12F
330
2
100
AcDbSymbolTableRecord
100
AcDbLayerTableRecord
  2
LAYER-224
 70
     0
 62
    -1
  6
Continuous
290
     0
370
    -3
390
F
  0
LAYER
  5
130
330
2
100
AcDbSymbolTableRecord
100
AcDbLayerTableRecord
  2
LAYER-225
 70
     0
 62
     7
  6
Continuous
370
    -3
390
F
  0
LAYER
  5
131
330
2
100
AcDbSymbolTableRecord
100
AcDbLayerTableRecord
  2
LAYER-226
 70
     0
 62
     2
  6
Continuous
370
    -3
390
F
  0
LAYER
  5
132
330
2
100
AcDbSymbolTableRecord
100
AcDbLayerTableRecord
  2
LAYER-227
 70
     0
 62
     7
  6
Continuous
370
    -3
390
F
  0
LAYER
  5
133
330
2
100
AcDbSymbolTableRecord
100
AcDbLayerTableRecord
  2
LAYER-228
 70
     0
 62
     7
  6
Continuous
370
    -3
390
F
  0
LAYER
  5
134
330
2
100
AcDbSymbolTableRecord
100
AcDbLayerTableRecord
  2
LAYER-229
 70
     0
 62
     7
  6
Continuous
370
    -3
390
F
  0
LAYER
  5
135
330
2
100
AcDbSymbolTableRecord
100
AcDbLayerTableRecord
  2
LAYER-230
 70
     0
 62
     7
  6
Continuous
370
    -3
390
F
  0
LAYER
  5
136
330
2
100
AcDbSymbolTableRecord
100
AcDbLayerTableRecord
  2
LAYER-231
 70
     0
 62
     7
  6
Continuous
370
    -3
390
F
  0
LAYER
  5
137
330
2
100
AcDbSymbolTableRecord
100
AcDbLayerTableRecord
  2
LAYER-232
 70
     0
 62
     7
  6
Continuous
370
    -3
390
F
  0
LAYER
  5
138
330
2
100
AcDbSymbolTableRecord
100
AcDbLayerTableRecord
  2
LAYER-233
 70
     0
 62
     7
  6
Continuous
370
    -3
390
F
  0
LAYER
  5
139
330
2
100
AcDbSymbolTableRecord
100
AcDbLayerTableRecord
  2
LAYER-234
 70
     0
 62
     7
  6
Continuous
370
    -3
390
F
  0
LAYER
  5
13A
330
2
100
AcDbSymbolTableRecord
100
AcDbLayerTableRecord
  2
LAYER-235
 70
     0
 62
     7
  6
Continuous
370
    -3
390
F
  0
LAYER
  5
13B
330
2
100
AcDbSymbolTableRecord
100
AcDbLayerTableRecord
  2
LAYER-236
 70
     0
 62
     7
  6
Continuous
370
    -3
390
F
  0
LAYER
  5
13C
330
2
100
AcDbSymbolTableRecord
100
AcDbLayerTableRecord
  2
LAYER-237
 70
     0
 62
     7
  6
Continuous
370
    -3
390
F
  0
LAYER
  5
13D
330
2
100
AcDbSymbolTableRecord
100
AcDbLayerTableRecord
  2
LAYER-238
 70
     0
 62
     7
  6
Continuous
370
    -3
390
F
  0
LAYER
  5
13E
330
2
100
AcDbSymbolTableRecord
100
AcDbLayerTableRecord
  2
LAYER-239
 70
     0
 62
     7
  6
Continuous
370
    -3
390
F
  0
LAYER
  5
13F
330
2
100
AcDbSymbolTableRecord
100
AcDbLayerTableRecord
  2
LAYER-240
 70
     0
 62
     7
  6
Continuous
370
    -3
390
F
  0
LAYER
  5
140
330
2
100
AcDbSymbolTableRecord
100
AcDbLayerTableRecord
  2
LAYER-241
 70
     0
 62
     7
  6
Continuous
370
    -3
390
F
  0
LAYER
  5
141
330
2
100
AcDbSymbolTableRecord
100
AcDbLayerTableRecord
  2
LAYER-242
 70
     0
 62
     7
  6
Continuous
370
    -3
390
F
  0
LAYER
  5
142
330
2
100
AcDbSymbolTableRecord
100
AcDbLayerTableRecord
  2
LAYER-243
 70
     0
 62
     7
  6
Continuous
370
    -3
390
F
  0
LAYER
  5
143
330
2
100
AcDbSymbolTableRecord
100
AcDbLayerTableRecord
  2
LAYER-244
 70
     0
 62
     7
  6
Continuous
370
    -3
390
F
  0
LAYER
  5
144
330
2
100
AcDbSymbolTableRecord
100
AcDbLayerTableRecord
  2
LAYER-245
 70
     0
 62
     7
  6
Continuous
370
    -3
390
F
  0
LAYER
  5
145
330
2
100
AcDbSymbolTableRecord
100
AcDbLayerTableRecord
  2
LAYER-246
 70
     0
 62
     7
  6
Continuous
370
    -3
390
F
  0
LAYER
  5
146
330
2
100
AcDbSymbolTableRecord
100
AcDbLayerTableRecord
  2
LAYER-247
 70
     0
 62
     7
  6
Continuous
370
    -3
390
F
  0
LAYER
  5
147
330
2
100
AcDbSymbolTableRecord
100
AcDbLayerTableRecord
  2
LAYER-248
 70
     0
 62
     7
  6
Continuous
370
    -3
390
F
  0
LAYER
  5
148
330
2
100
AcDbSymbolTableRecord
100
AcDbLayerTableRecord
  2
LAYER-249
 70
     0
 62
     7
  6
Continuous
370
    -3
390
F
  0
LAYER
  5
149
330
2
100
AcDbSymbolTableRecord
100
AcDbLayerTableRecord
  2
LAYER-250
 70
     0
 62
     7
  6
Continuous
370
    -3
390
F
  0
LAYER
  5
14A
330
2
100
AcDbSymbolTableRecord
100
AcDbLayerTableRecord
  2
LAYER-251
 70
     0
 62
     7
  6
Continuous
370
    -3
390
F
  0
LAYER
  5
14B
330
2
100
AcDbSymbolTableRecord
100
AcDbLayerTableRecord
  2
LAYER-252
 70
     0
 62
     7
  6
Continuous
370
    -3
390
F
  0
LAYER
  5
14C
330
2
100
AcDbSymbolTableRecord
100
AcDbLayerTableRecord
  2
LAYER-253
 70
     0
 62
     7
  6
Continuous
370
    -3
390
F
  0
LAYER
  5
14D
330
2
100
AcDbSymbolTableRecord
100
AcDbLayerTableRecord
  2
LAYER-254
 70
     0
 62
     7
  6
Continuous
370
    -3
390
F
  0
LAYER
  5
14E
330
2
100
AcDbSymbolTableRecord
100
AcDbLayerTableRecord
  2
LAYER-255
 70
     0
 62
     7
  6
Continuous
370
    -3
390
F
  0
LAYER
  5
14F
330
2
100
AcDbSymbolTableRecord
100
AcDbLayerTableRecord
  2
LAYER-256
 70
     0
 62
     7
  6
Continuous
370
    -3
390
F
  0
LAYER
  5
150
330
2
100
AcDbSymbolTableRecord
100
AcDbLayerTableRecord
  2
SUPLINE
 70
     0
 62
    -7
  6
Continuous
290
     0
370
    -3
390
F
  0
ENDTAB
  0
TABLE
  2
STYLE
  5
3
330
0
100
AcDbSymbolTable
 70
     7
  0
STYLE
  5
11
330
3
100
AcDbSymbolTableRecord
100
AcDbTextStyleTableRecord
  2
Standard
 70
     0
 40
0.0
 41
1.0
 50
0.0
 71
     0
 42
2.5
  3
txt
  4

  0
STYLE
  5
31
330
3
100
AcDbSymbolTableRecord
100
AcDbTextStyleTableRecord
  2
STANDARD2
 70
     0
 40
0.0
 41
1.0
 50
0.0
 71
     0
 42
4.0
  3
txt.shx
  4
bigfont.shx
  0
STYLE
  5
32
330
3
100
AcDbSymbolTableRecord
100
AcDbTextStyleTableRecord
  2
STRING_H
 70
     0
 40
0.0
 41
1.0
 50
0.0
 71
     0
 42
4.0
  3
txt.shx
  4
bigfont.shx
  0
STYLE
  5
33
330
3
100
AcDbSymbolTableRecord
100
AcDbTextStyleTableRecord
  2
STRING_H_ITALIC
 70
     0
 40
0.0
 41
1.0
 50
15.0
 71
     0
 42
4.0
  3
txt.shx
  4
bigfont.shx
  0
STYLE
  5
34
330
3
100
AcDbSymbolTableRecord
100
AcDbTextStyleTableRecord
  2
STRING_V
 70
     4
 40
0.0
 41
1.0
 50
0.0
 71
     0
 42
4.0
  3
txt.shx
  4
bigfont.shx
  0
STYLE
  5
35
330
3
100
AcDbSymbolTableRecord
100
AcDbTextStyleTableRecord
  2
STRING_V_ITALIC
 70
     4
 40
0.0
 41
1.0
 50
15.0
 71
     0
 42
4.0
  3
txt.shx
  4
bigfont.shx
  0
STYLE
  5
36
330
3
100
AcDbSymbolTableRecord
100
AcDbTextStyleTableRecord
  2

 70
     1
 40
0.0
 41
1.0
 50
0.0
 71
     0
 42
0.2
  3
ltypeshp.shx
  4

  0
ENDTAB
  0
TABLE
  2
VIEW
  5
6
330
0
100
AcDbSymbolTable
 70
     0
  0
ENDTAB
  0
TABLE
  2
UCS
  5
7
330
0
100
AcDbSymbolTable
 70
     0
  0
ENDTAB
  0
TABLE
  2
APPID
  5
9
330
0
100
AcDbSymbolTable
 70
     1
  0
APPID
  5
12
330
9
100
AcDbSymbolTableRecord
100
AcDbRegAppTableRecord
  2
ACAD
 70
     0
  0
ENDTAB
  0
TABLE
  2
DIMSTYLE
  5
A
330
0
100
AcDbSymbolTable
 70
     2
100
AcDbDimStyleTable
  0
DIMSTYLE
105
27
330
A
100
AcDbSymbolTableRecord
100
AcDbDimStyleTableRecord
  2
ISO-25
 70
     0
 41
2.5
 42
0.625
 43
3.75
 44
1.25
 73
     0
 74
     0
 77
     1
 78
     8
140
2.5
141
2.5
143
0.03937007874016
147
0.625
171
     3
172
     1
271
     2
272
     2
274
     3
283
     0
284
     8
340
11
  0
DIMSTYLE
105
151
102
{ACAD_REACTORS
330
390
330
39A
330
3A4
330
3AE
330
3B8
330
3C2
330
3CC
102
}
330
A
100
AcDbSymbolTableRecord
100
AcDbDimStyleTableRecord
  2
DIO_DIMSTYLE
 70
     0
 41
4.0
 42
1.0
 43
3.75
 44
1.0
 45
0.1
 73
     0
 74
     0
 77
     1
 78
     8
 79
     2
140
3.0
141
2.5
143
0.03937007874016
147
0.5
171
     3
172
     1
173
     1
179
     1
271
     1
272
     1
274
     3
283
     0
284
     8
288
     1
289
     0
340
31
  0
ENDTAB
  0
TABLE
  2
BLOCK_RECORD
  5
1
330
0
100
AcDbSymbolTable
 70
     9
  0
BLOCK_RECORD
  5
1F
330
1
100
AcDbSymbolTableRecord
100
AcDbBlockTableRecord
  2
*Model_Space
340
22
  0
BLOCK_RECORD
  5
1B
330
1
100
AcDbSymbolTableRecord
100
AcDbBlockTableRecord
  2
*Paper_Space
340
1E
  0
BLOCK_RECORD
  5
23
330
1
100
AcDbSymbolTableRecord
100
AcDbBlockTableRecord
  2
*Paper_Space0
340
26
  0
BLOCK_RECORD
  5
381
330
1
100
AcDbSymbolTableRecord
100
AcDbBlockTableRecord
  2
_OPEN
340
0
102
{BLKREFS
331
38A
331
38B
331
394
331
395
331
39E
331
39F
331
3A8
331
3A9
331
3B2
331
3B3
331
3BC
331
3BD
331
3C6
331
3C7
102
}
  0
BLOCK_RECORD
  5
387
330
1
100
AcDbSymbolTableRecord
100
AcDbBlockTableRecord
  2
*D02
340
0
  0
BLOCK_RECORD
  5
391
330
1
100
AcDbSymbolTableRecord
100
AcDbBlockTableRecord
  2
*D13
340
0
  0
BLOCK_RECORD
  5
39B
330
1
100
AcDbSymbolTableRecord
100
AcDbBlockTableRecord
  2
*D24
340
0
  0
BLOCK_RECORD
  5
3A5
330
1
100
AcDbSymbolTableRecord
100
AcDbBlockTableRecord
  2
*D35
340
0
  0
BLOCK_RECORD
  5
3AF
330
1
100
AcDbSymbolTableRecord
100
AcDbBlockTableRecord
  2
*D46
340
0
  0
BLOCK_RECORD
  5
3B9
330
1
100
AcDbSymbolTableRecord
100
AcDbBlockTableRecord
  2
*D57
340
0
  0
BLOCK_RECORD
  5
3C3
330
1
100
AcDbSymbolTableRecord
100
AcDbBlockTableRecord
  2
*D68
340
0
  0
ENDTAB
  0
ENDSEC
  0
SECTION
  2
BLOCKS
  0
BLOCK
  5
20
330
1F
100
AcDbEntity
  8
0
100
AcDbBlockBegin
  2
*Model_Space
 70
     0
 71
     0
 10
0.0
 20
0.0
 30
0.0
  3
*Model_Space
  1

  0
ENDBLK
  5
21
330
1F
100
AcDbEntity
  8
0
100
AcDbBlockEnd
  0
BLOCK
  5
1C
330
1B
100
AcDbEntity
 67
     1
  8
0
100
AcDbBlockBegin
  2
*Paper_Space
 70
     0
 71
     0
 10
0.0
 20
0.0
 30
0.0
  3
*Paper_Space
  1

  0
ENDBLK
  5
1D
330
1B
100
AcDbEntity
 67
     1
  8
0
100
AcDbBlockEnd
  0
BLOCK
  5
24
330
23
100
AcDbEntity
  8
0
100
AcDbBlockBegin
  2
*Paper_Space0
 70
     0
 71
     0
 10
0.0
 20
0.0
 30
0.0
  3
*Paper_Space0
  1

  0
ENDBLK
  5
25
330
23
100
AcDbEntity
  8
0
100
AcDbBlockEnd
  0
BLOCK
  5
382
330
381
100
AcDbEntity
  8
0
100
AcDbBlockBegin
  2
_OPEN
 70
     0
 71
     0
 10
0.0
 20
0.0
 30
0.0
  3
_OPEN
  1

  0
LINE
  5
384
330
381
100
AcDbEntity
  8
LAYER-035
  6
Continuous
 62
     0
100
AcDbLine
 10
0.0
 20
0.0
 30
0.0
 11
-1.0
 21
0.0
 31
0.0
  0
LINE
  5
385
330
381
100
AcDbEntity
  8
LAYER-035
  6
Continuous
 62
     0
100
AcDbLine
 10
0.0
 20
0.0
 30
0.0
 11
-1.0
 21
0.1666250109338451
 31
0.0
  0
LINE
  5
386
330
381
100
AcDbEntity
  8
LAYER-035
  6
Continuous
 62
     0
100
AcDbLine
 10
0.0
 20
0.0
 30
0.0
 11
-1.0
 21
-0.1666250109338451
 31
0.0
  0
ENDBLK
  5
383
330
381
100
AcDbEntity
  8
0
100
AcDbBlockEnd
  0
BLOCK
  5
388
330
387
100
AcDbEntity
  8
0
100
AcDbBlockBegin
  2
*D02
 70
     1
 71
     0
 10
0.0
 20
0.0
 30
0.0
  3
*D02
  1

  0
INSERT
  5
38A
330
387
100
AcDbEntity
  8
LAYER-035
  6
Continuous
 62
     5
100
AcDbBlockReference
  2
_OPEN
 10
166.4531188339738
 20
-528.9213757087039
 30
0.0
 41
4.0
 42
4.0
 43
4.0
 50
180.0
  0
INSERT
  5
38B
330
387
100
AcDbEntity
  8
LAYER-035
  6
Continuous
 62
     5
100
AcDbBlockReference
  2
_OPEN
 10
541.4531188339738
 20
-528.9213757087039
 30
0.0
 41
4.0
 42
4.0
 43
4.0
  0
LINE
  5
38C
330
387
100
AcDbEntity
  8
LAYER-035
  6
Continuous
 62
     5
100
AcDbLine
 10
166.4531188339738
 20
-447.6746137921059
 30
0.0
 11
166.4531188339738
 21
-529.9213757087039
 31
0.0
  0
LINE
  5
38D
330
387
100
AcDbEntity
  8
LAYER-035
  6
Continuous
 62
     5
100
AcDbLine
 10
541.4531188339738
 20
-447.6746137921059
 30
0.0
 11
541.4531188339738
 21
-529.9213757087039
 31
0.0
  0
LINE
  5
38E
330
387
100
AcDbEntity
  8
LAYER-035
  6
Continuous
 62
     5
100
AcDbLine
 10
166.4531188339738
 20
-528.9213757087039
 30
0.0
 11
541.4531188339738
 21
-528.9213757087039
 31
0.0
  0
MTEXT
  5
38F
330
387
100
AcDbEntity
  8
LAYER-036
  6
Continuous
 62
     5
100
AcDbMText
 10
353.9531188339738
 20
-528.4213757087039
 30
0.0
 40
10.0
 41
0.0
 71
     8
 72
     1
  1
375
  7
STRING_H
 73
     1
 44
1.0
  0
ENDBLK
  5
389
330
387
100
AcDbEntity
  8
0
100
AcDbBlockEnd
  0
BLOCK
  5
392
330
391
100
AcDbEntity
  8
0
100
AcDbBlockBegin
  2
*D13
 70
     1
 71
     0
 10
0.0
 20
0.0
 30
0.0
  3
*D13
  1

  0
INSERT
  5
394
330
391
100
AcDbEntity
  8
LAYER-035
  6
Continuous
 62
     5
100
AcDbBlockReference
  2
_OPEN
 10
186.4531188339738
 20
-484.1077561897727
 30
0.0
 41
4.0
 42
4.0
 43
4.0
 50
180.0
  0
INSERT
  5
395
330
391
100
AcDbEntity
  8
LAYER-035
  6
Continuous
 62
     5
100
AcDbBlockReference
  2
_OPEN
 10
521.4531188339738
 20
-484.1077561897727
 30
0.0
 41
4.0
 42
4.0
 43
4.0
  0
LINE
  5
396
330
391
100
AcDbEntity
  8
LAYER-035
  6
Continuous
 62
     5
100
AcDbLine
 10
186.4531188339738
 20
-451.3967224167768
 30
0.0
 11
186.4531188339738
 21
-485.1077561897727
 31
0.0
  0
LINE
  5
397
330
391
100
AcDbEntity
  8
LAYER-035
  6
Continuous
 62
     5
100
AcDbLine
 10
521.4531188339738
 20
-451.3967224167768
 30
0.0
 11
521.4531188339738
 21
-485.1077561897727
 31
0.0
  0
LINE
  5
398
330
391
100
AcDbEntity
  8
LAYER-035
  6
Continuous
 62
     5
100
AcDbLine
 10
186.4531188339738
 20
-484.1077561897727
 30
0.0
 11
521.4531188339738
 21
-484.1077561897727
 31
0.0
  0
MTEXT
  5
399
330
391
100
AcDbEntity
  8
LAYER-036
  6
Continuous
 62
     5
100
AcDbMText
 10
353.9531188339738
 20
-483.6077561897727
 30
0.0
 40
10.0
 41
0.0
 71
     8
 72
     1
  1
335
  7
STRING_H
 73
     1
 44
1.0
  0
ENDBLK
  5
393
330
391
100
AcDbEntity
  8
0
100
AcDbBlockEnd
  0
BLOCK
  5
39C
330
39B
100
AcDbEntity
  8
0
100
AcDbBlockBegin
  2
*D24
 70
     1
 71
     0
 10
0.0
 20
0.0
 30
0.0
  3
*D24
  1

  0
INSERT
  5
39E
330
39B
100
AcDbEntity
  8
LAYER-035
  6
Continuous
 62
     5
100
AcDbBlockReference
  2
_OPEN
 10
558.9531188339738
 20
171.3915850036251
 30
0.0
 41
4.0
 42
4.0
 43
4.0
  0
INSERT
  5
39F
330
39B
100
AcDbEntity
  8
LAYER-035
  6
Continuous
 62
     5
100
AcDbBlockReference
  2
_OPEN
 10
148.9531188822656
 20
171.3915850036251
 30
0.0
 41
4.0
 42
4.0
 43
4.0
 50
180.0
  0
LINE
  5
3A0
330
39B
100
AcDbEntity
  8
LAYER-035
  6
Continuous
 62
     5
100
AcDbLine
 10
558.9531188339738
 20
140.9659542311875
 30
0.0
 11
558.9531188339738
 21
172.3915850036251
 31
0.0
  0
LINE
  5
3A1
330
39B
100
AcDbEntity
  8
LAYER-035
  6
Continuous
 62
     5
100
AcDbLine
 10
148.9531188339738
 20
140.9659542311875
 30
0.0
 11
148.9531188822656
 21
172.3915850036251
 31
0.0
  0
LINE
  5
3A2
330
39B
100
AcDbEntity
  8
LAYER-035
  6
Continuous
 62
     5
100
AcDbLine
 10
558.9531188339738
 20
171.3915850036251
 30
0.0
 11
148.9531188822656
 21
171.3915850036251
 31
0.0
  0
MTEXT
  5
3A3
330
39B
100
AcDbEntity
  8
LAYER-036
  6
Continuous
 62
     5
100
AcDbMText
 10
353.9531188581197
 20
171.8915850036251
 30
0.0
 40
10.0
 41
0.0
 71
     8
 72
     1
  1
410
  7
STRING_H
 73
     1
 44
1.0
  0
ENDBLK
  5
39D
330
39B
100
AcDbEntity
  8
0
100
AcDbBlockEnd
  0
BLOCK
  5
3A6
330
3A5
100
AcDbEntity
  8
0
100
AcDbBlockBegin
  2
*D35
 70
     1
 71
     0
 10
0.0
 20
0.0
 30
0.0
  3
*D35
  1

  0
INSERT
  5
3A8
330
3A5
100
AcDbEntity
  8
LAYER-035
  6
Continuous
 62
     5
100
AcDbBlockReference
  2
_OPEN
 10
24.92843655214756
 20
-528.9213757087039
 30
0.0
 41
4.0
 42
4.0
 43
4.0
  0
INSERT
  5
3A9
330
3A5
100
AcDbEntity
  8
LAYER-035
  6
Continuous
 62
     5
100
AcDbBlockReference
  2
_OPEN
 10
-595.0715634478524
 20
-528.9213757087039
 30
0.0
 41
4.0
 42
4.0
 43
4.0
 50
180.0
  0
LINE
  5
3AA
330
3A5
100
AcDbEntity
  8
LAYER-035
  6
Continuous
 62
     5
100
AcDbLine
 10
24.92843655214756
 20
-447.6746137921058
 30
0.0
 11
24.92843655214756
 21
-529.9213757087039
 31
0.0
  0
LINE
  5
3AB
330
3A5
100
AcDbEntity
  8
LAYER-035
  6
Continuous
 62
     5
100
AcDbLine
 10
-595.0715634478524
 20
-447.6746137921058
 30
0.0
 11
-595.0715634478524
 21
-529.9213757087039
 31
0.0
  0
LINE
  5
3AC
330
3A5
100
AcDbEntity
  8
LAYER-035
  6
Continuous
 62
     5
100
AcDbLine
 10
24.92843655214756
 20
-528.9213757087039
 30
0.0
 11
-595.0715634478524
 21
-528.9213757087039
 31
0.0
  0
MTEXT
  5
3AD
330
3A5
100
AcDbEntity
  8
LAYER-036
  6
Continuous
 62
     5
100
AcDbMText
 10
-285.0715634478524
 20
-528.4213757087039
 30
0.0
 40
10.0
 41
0.0
 71
     8
 72
     1
  1
620
  7
STRING_H
 73
     1
 44
1.0
  0
ENDBLK
  5
3A7
330
3A5
100
AcDbEntity
  8
0
100
AcDbBlockEnd
  0
BLOCK
  5
3B0
330
3AF
100
AcDbEntity
  8
0
100
AcDbBlockBegin
  2
*D46
 70
     1
 71
     0
 10
0.0
 20
0.0
 30
0.0
  3
*D46
  1

  0
INSERT
  5
3B2
330
3AF
100
AcDbEntity
  8
LAYER-035
  6
Continuous
 62
     5
100
AcDbBlockReference
  2
_OPEN
 10
75.42826055063813
 20
-446.6746137921058
 30
0.0
 41
4.0
 42
4.0
 43
4.0
 50
-90.0
  0
INSERT
  5
3B3
330
3AF
100
AcDbEntity
  8
LAYER-035
  6
Continuous
 62
     5
100
AcDbBlockReference
  2
_OPEN
 10
75.42826055063813
 20
113.3253862078942
 30
0.0
 41
4.0
 42
4.0
 43
4.0
 50
90.0
  0
LINE
  5
3B4
330
3AF
100
AcDbEntity
  8
LAYER-035
  6
Continuous
 62
     5
100
AcDbLine
 10
25.92843655214756
 20
-446.6746137921058
 30
0.0
 11
76.42826055063813
 21
-446.6746137921058
 31
0.0
  0
LINE
  5
3B5
330
3AF
100
AcDbEntity
  8
LAYER-035
  6
Continuous
 62
     5
100
AcDbLine
 10
0.4954857039999999
 20
113.3253862078942
 30
0.0
 11
76.42826055063813
 21
113.3253862078942
 31
0.0
  0
LINE
  5
3B6
330
3AF
100
AcDbEntity
  8
LAYER-035
  6
Continuous
 62
     5
100
AcDbLine
 10
75.42826055063813
 20
-446.6746137921058
 30
0.0
 11
75.42826055063813
 21
113.3253862078942
 31
0.0
  0
MTEXT
  5
3B7
330
3AF
100
AcDbEntity
  8
LAYER-036
  6
Continuous
 62
     5
100
AcDbMText
 10
74.92826055063813
 20
-166.6746137921058
 30
0.0
 40
10.0
 41
0.0
 71
     8
 72
     1
  1
560
  7
STRING_H
 11
6.123031769111886E-17
 21
1.0
 31
0.0
 73
     1
 44
1.0
  0
ENDBLK
  5
3B1
330
3AF
100
AcDbEntity
  8
0
100
AcDbBlockEnd
  0
BLOCK
  5
3BA
330
3B9
100
AcDbEntity
  8
0
100
AcDbBlockBegin
  2
*D57
 70
     1
 71
     0
 10
0.0
 20
0.0
 30
0.0
  3
*D57
  1

  0
INSERT
  5
3BC
330
3B9
100
AcDbEntity
  8
LAYER-035
  6
Continuous
 62
     5
100
AcDbBlockReference
  2
_OPEN
 10
538.9531188339738
 20
-162.9582131155559
 30
0.0
 41
4.0
 42
4.0
 43
4.0
  0
INSERT
  5
3BD
330
3B9
100
AcDbEntity
  8
LAYER-035
  6
Continuous
 62
     5
100
AcDbBlockReference
  2
_OPEN
 10
168.9531188339739
 20
-162.9582131155559
 30
0.0
 41
4.0
 42
4.0
 43
4.0
 50
180.0
  0
LINE
  5
3BE
330
3B9
100
AcDbEntity
  8
LAYER-035
  6
Continuous
 62
     5
100
AcDbLine
 10
538.9531188339738
 20
-95.39446505186811
 30
0.0
 11
538.9531188339738
 21
-163.9582131155559
 31
0.0
  0
LINE
  5
3BF
330
3B9
100
AcDbEntity
  8
LAYER-035
  6
Continuous
 62
     5
100
AcDbLine
 10
168.9531188339738
 20
-95.39446505186811
 30
0.0
 11
168.9531188339739
 21
-163.9582131155559
 31
0.0
  0
LINE
  5
3C0
330
3B9
100
AcDbEntity
  8
LAYER-035
  6
Continuous
 62
     5
100
AcDbLine
 10
538.9531188339738
 20
-162.9582131155559
 30
0.0
 11
168.9531188339739
 21
-162.9582131155559
 31
0.0
  0
MTEXT
  5
3C1
330
3B9
100
AcDbEntity
  8
LAYER-036
  6
Continuous
 62
     5
100
AcDbMText
 10
335.0125794497222
 20
-162.4582131155559
 30
0.0
 40
10.0
 41
0.0
 71
     8
 72
     1
  1
370
  7
STRING_H
 73
     1
 44
1.0
  0
ENDBLK
  5
3BB
330
3B9
100
AcDbEntity
  8
0
100
AcDbBlockEnd
  0
BLOCK
  5
3C4
330
3C3
100
AcDbEntity
  8
0
100
AcDbBlockBegin
  2
*D68
 70
     1
 71
     0
 10
0.0
 20
0.0
 30
0.0
  3
*D68
  1

  0
INSERT
  5
3C6
330
3C3
100
AcDbEntity
  8
LAYER-035
  6
Continuous
 62
     5
100
AcDbBlockReference
  2
_OPEN
 10
-545.0715634478526
 20
-484.1077561897727
 30
0.0
 41
4.0
 42
4.0
 43
4.0
 50
180.0
  0
INSERT
  5
3C7
330
3C3
100
AcDbEntity
  8
LAYER-035
  6
Continuous
 62
     5
100
AcDbBlockReference
  2
_OPEN
 10
-25.07156344785244
 20
-484.1077561897727
 30
0.0
 41
4.0
 42
4.0
 43
4.0
  0
LINE
  5
3C8
330
3C3
100
AcDbEntity
  8
LAYER-035
  6
Continuous
 62
     5
100
AcDbLine
 10
-545.0715634478524
 20
-453.8607755881252
 30
0.0
 11
-545.0715634478526
 21
-485.1077561897727
 31
0.0
  0
LINE
  5
3C9
330
3C3
100
AcDbEntity
  8
LAYER-035
  6
Continuous
 62
     5
100
AcDbLine
 10
-25.07156344785244
 20
-453.8607755881252
 30
0.0
 11
-25.07156344785244
 21
-485.1077561897727
 31
0.0
  0
LINE
  5
3CA
330
3C3
100
AcDbEntity
  8
LAYER-035
  6
Continuous
 62
     5
100
AcDbLine
 10
-545.0715634478526
 20
-484.1077561897727
 30
0.0
 11
-25.07156344785244
 21
-484.1077561897727
 31
0.0
  0
MTEXT
  5
3CB
330
3C3
100
AcDbEntity
  8
LAYER-036
  6
Continuous
 62
     5
100
AcDbMText
 10
-285.0715634478525
 20
-483.6077561897727
 30
0.0
 40
10.0
 41
0.0
 71
     8
 72
     1
  1
520
  7
STRING_H
 73
     1
 44
1.0
  0
ENDBLK
  5
3C5
330
3C3
100
AcDbEntity
  8
0
100
AcDbBlockEnd
  0
ENDSEC
  0
SECTION
  2
ENTITIES
  0
LINE
  5
152
330
1F
100
AcDbEntity
  8
LAYER-033
  6
Continuous
 62
     1
100
AcDbLine
 10
-189.9718281110802
 20
-588.6095046642289
 30
0.0
 11
-21.22182811108016
 21
-588.6095046642289
 31
0.0
  0
LINE
  5
153
330
1F
100
AcDbEntity
  8
LAYER-033
  6
Continuous
 62
     1
100
AcDbLine
 10
-189.9718281110802
 20
-608.6095046642289
 30
0.0
 11
260.0281718889198
 21
-608.6095046642289
 31
0.0
  0
LINE
  5
154
330
1F
100
AcDbEntity
  8
LAYER-033
  6
Continuous
 62
     1
100
AcDbLine
 10
-189.9718281110802
 20
-628.6095046642289
 30
0.0
 11
-4.971828111080157
 21
-628.6095046642289
 31
0.0
  0
LINE
  5
155
330
1F
100
AcDbEntity
  8
LAYER-006
  6
Continuous
 62
     1
100
AcDbLine
 10
148.9531188339738
 20
139.9659542311875
 30
0.0
 11
148.9531188339738
 21
35.64872257899856
 31
0.0
  0
LINE
  5
156
330
1F
100
AcDbEntity
  8
LAYER-006
  6
Continuous
 62
     1
100
AcDbLine
 10
148.9531188339738
 20
139.9659542311875
 30
0.0
 11
153.3381118715915
 21
139.9659542311875
 31
0.0
  0
LINE
  5
157
330
1F
100
AcDbEntity
  8
LAYER-008
  6
HIDDEN
 62
     4
100
AcDbLine
 10
174.3624609169115
 20
139.635344432692
 30
0.0
 11
174.3624609169115
 21
117.7103792455874
 31
0.0
  0
LINE
  5
158
330
1F
100
AcDbEntity
  8
LAYER-008
  6
HIDDEN
 62
     4
100
AcDbLine
 10
191.9024330673781
 20
139.635344432692
 30
0.0
 11
191.9024330673781
 21
108.9403931703546
 31
0.0
  0
LINE
  5
159
330
1F
100
AcDbEntity
  8
LAYER-008
  6
HIDDEN
 62
     4
100
AcDbLine
 10
191.9024330673781
 20
139.635344432692
 30
0.0
 11
174.3624609169115
 21
139.635344432692
 31
0.0
  0
LINE
  5
15A
330
1F
100
AcDbEntity
  8
LAYER-008
  6
HIDDEN
 62
     4
100
AcDbLine
 10
516.0038046005707
 20
139.635344432692
 30
0.0
 11
516.0038046005707
 21
108.9403931703546
 31
0.0
  0
LINE
  5
15B
330
1F
100
AcDbEntity
  8
LAYER-008
  6
HIDDEN
 62
     4
100
AcDbLine
 10
516.0038046005707
 20
139.635344432692
 30
0.0
 11
533.5437767510373
 21
139.635344432692
 31
0.0
  0
LINE
  5
15C
330
1F
100
AcDbEntity
  8
LAYER-008
  6
HIDDEN
 62
     4
100
AcDbLine
 10
533.5437767510373
 20
139.635344432692
 30
0.0
 11
533.5437767510373
 21
117.7103792455874
 31
0.0
  0
LINE
  5
15D
330
1F
100
AcDbEntity
  8
LAYER-006
  6
Continuous
 62
     1
100
AcDbLine
 10
558.9531188339738
 20
139.9659542311875
 30
0.0
 11
558.9531188339738
 21
35.64872257836231
 31
0.0
  0
LINE
  5
15E
330
1F
100
AcDbEntity
  8
LAYER-006
  6
Continuous
 62
     1
100
AcDbLine
 10
558.9531188339738
 20
139.9659542311875
 30
0.0
 11
554.5681257963572
 21
139.9659542311875
 31
0.0
  0
LINE
  5
15F
330
1F
100
AcDbEntity
  8
LAYER-001
  6
Continuous
 62
     1
100
AcDbLine
 10
-499.9824500980492
 20
109.2542113358942
 30
0.0
 11
-500.3042999912842
 21
109.2542113358942
 31
0.0
  0
CIRCLE
  5
160
330
1F
100
AcDbEntity
  8
LAYER-033
  6
Continuous
 62
     1
100
AcDbCircle
 10
-500.1433750443202
 20
91.42190748569033
 30
0.0
 40
9.646946094817892
  0
ARC
  5
161
330
1F
100
AcDbEntity
  8
LAYER-001
  6
Continuous
 62
     1
100
AcDbCircle
 10
-500.3042999912842
 20
88.79099234708309
 30
0.0
 40
20.46321898900765
100
AcDbArc
 50
90.0
 51
151.7668667176462
  0
ARC
  5
162
330
1F
100
AcDbEntity
  8
LAYER-001
  6
Continuous
 62
     1
100
AcDbCircle
 10
-499.9824500980492
 20
88.79099234708309
 30
0.0
 40
20.46321898900765
100
AcDbArc
 50
28.05792239815993
 51
90.0
  0
ARC
  5
163
330
1F
100
AcDbEntity
  8
LAYER-001
  6
Continuous
 62
     1
100
AcDbCircle
 10
-511.1205728856155
 20
74.75889535480837
 30
0.0
 40
9.646946094817892
100
AcDbArc
 50
221.6136868790328
 51
270.0
  0
ARC
  5
164
330
1F
100
AcDbEntity
  8
LAYER-001
  6
Continuous
 62
     1
100
AcDbCircle
 10
-489.1661772029808
 20
74.75889535480837
 30
0.0
 40
9.646946094817892
100
AcDbArc
 50
270.0
 51
318.6509913549832
  0
LINE
  5
165
330
1F
100
AcDbEntity
  8
LAYER-001
  6
Continuous
 62
     1
100
AcDbLine
 10
-518.3330105470435
 20
68.35231187389309
 30
0.0
 11
-518.3330105470435
 21
98.47132947953156
 31
0.0
  0
LINE
  5
166
330
1F
100
AcDbEntity
  8
LAYER-001
  6
Continuous
 62
     1
100
AcDbLine
 10
-481.9242213463776
 20
68.35231187389309
 30
0.0
 11
-481.9242213463776
 21
98.47132947953156
 31
0.0
  0
LINE
  5
167
330
1F
100
AcDbEntity
  8
LAYER-001
  6
Continuous
 62
     1
100
AcDbLine
 10
-489.1661772029808
 20
65.11194925999047
 30
0.0
 11
-511.1205728856155
 21
65.11194925999047
 31
0.0
  0
LINE
  5
168
330
1F
100
AcDbEntity
  8
LAYER-001
  6
Continuous
 62
     1
100
AcDbLine
 10
-511.1205728856155
 20
43.186984072
 30
0.0
 11
-511.1205728856155
 21
65.11194925999047
 31
0.0
  0
LINE
  5
169
330
1F
100
AcDbEntity
  8
LAYER-001
  6
Continuous
 62
     1
100
AcDbLine
 10
-489.1366590104675
 20
43.186984072
 30
0.0
 11
-511.1205728856155
 21
43.186984072
 31
0.0
  0
LINE
  5
16A
330
1F
100
AcDbEntity
  8
LAYER-001
  6
Continuous
 62
     1
100
AcDbLine
 10
-489.1366590104675
 20
43.186984072
 30
0.0
 11
-489.1366590104675
 21
65.11199442289308
 31
0.0
  0
LINE
  5
16B
330
1F
100
AcDbEntity
  8
LAYER-001
  6
CENTER
 62
     4
100
AcDbLine
 10
-500.128615944
 20
34.51148816860905
 30
0.0
 11
-500.128615944
 21
118.9322062412124
 31
0.0
  0
LINE
  5
16C
330
1F
100
AcDbEntity
  8
LAYER-001
  6
Continuous
 62
     1
100
AcDbLine
 10
-284.9106385018688
 20
109.2542113360902
 30
0.0
 11
-285.2324883951039
 21
109.2542113360902
 31
0.0
  0
LINE
  5
16D
330
1F
100
AcDbEntity
  8
LAYER-001
  6
CENTER
 62
     4
100
AcDbLine
 10
-314.2486946243258
 20
91.42190748569033
 30
0.0
 11
-256.6078243225424
 21
91.42190748569033
 31
0.0
  0
CIRCLE
  5
16E
330
1F
100
AcDbEntity
  8
LAYER-033
  6
Continuous
 62
     1
100
AcDbCircle
 10
-285.0715634478524
 20
91.42190748569033
 30
0.0
 40
9.646946094817892
  0
ARC
  5
16F
330
1F
100
AcDbEntity
  8
LAYER-001
  6
Continuous
 62
     1
100
AcDbCircle
 10
-285.2324883951039
 20
88.79099234708309
 30
0.0
 40
20.46321898900765
100
AcDbArc
 50
90.0
 51
151.766866718211
  0
ARC
  5
170
330
1F
100
AcDbEntity
  8
LAYER-001
  6
Continuous
 62
     1
100
AcDbCircle
 10
-284.9106385018688
 20
88.79099234708309
 30
0.0
 40
20.46321898900765
100
AcDbArc
 50
28.05792239815993
 51
90.0
  0
ARC
  5
171
330
1F
100
AcDbEntity
  8
LAYER-001
  6
Continuous
 62
     1
100
AcDbCircle
 10
-296.0487612904329
 20
74.75889535480837
 30
0.0
 40
9.646946094817892
100
AcDbArc
 50
221.6136868812861
 51
270.0
  0
ARC
  5
172
330
1F
100
AcDbEntity
  8
LAYER-001
  6
Continuous
 62
     1
100
AcDbCircle
 10
-274.0943656070435
 20
74.75889535480837
 30
0.0
 40
9.646946094817892
100
AcDbArc
 50
270.0
 51
318.6509913559373
  0
LINE
  5
173
330
1F
100
AcDbEntity
  8
LAYER-001
  6
Continuous
 62
     1
100
AcDbLine
 10
-303.2611989512897
 20
68.35231187389309
 30
0.0
 11
-303.2611989512897
 21
98.47132947953156
 31
0.0
  0
LINE
  5
174
330
1F
100
AcDbEntity
  8
LAYER-001
  6
Continuous
 62
     1
100
AcDbLine
 10
-266.8524097501972
 20
68.35231187389309
 30
0.0
 11
-266.8524097501972
 21
98.47132947953156
 31
0.0
  0
LINE
  5
175
330
1F
100
AcDbEntity
  8
LAYER-001
  6
Continuous
 62
     1
100
AcDbLine
 10
-274.0943656070435
 20
65.11194925999047
 30
0.0
 11
-296.0487612904329
 21
65.11194925999047
 31
0.0
  0
LINE
  5
176
330
1F
100
AcDbEntity
  8
LAYER-001
  6
Continuous
 62
     1
100
AcDbLine
 10
-296.0487612904329
 20
43.186984072
 30
0.0
 11
-296.0487612904329
 21
65.11194925999047
 31
0.0
  0
LINE
  5
177
330
1F
100
AcDbEntity
  8
LAYER-001
  6
Continuous
 62
     1
100
AcDbLine
 10
-274.0648474142873
 20
43.186984072
 30
0.0
 11
-296.0487612904329
 21
43.186984072
 31
0.0
  0
LINE
  5
178
330
1F
100
AcDbEntity
  8
LAYER-001
  6
Continuous
 62
     1
100
AcDbLine
 10
-274.0648474142873
 20
43.186984072
 30
0.0
 11
-274.0648474142873
 21
65.11199442271573
 31
0.0
  0
LINE
  5
179
330
1F
100
AcDbEntity
  8
LAYER-001
  6
Continuous
 62
     1
100
AcDbLine
 10
-71.1249262791049
 20
109.2542113358942
 30
0.0
 11
-71.44677617233992
 21
109.2542113358942
 31
0.0
  0
LINE
  5
17A
330
1F
100
AcDbEntity
  8
LAYER-001
  6
CENTER
 62
     4
100
AcDbLine
 10
-100.4629824056274
 20
91.42190748569033
 30
0.0
 11
-42.82211209888033
 21
91.42190748569033
 31
0.0
  0
CIRCLE
  5
17B
330
1F
100
AcDbEntity
  8
LAYER-033
  6
Continuous
 62
     1
100
AcDbCircle
 10
-71.28585122485242
 20
91.42190748569033
 30
0.0
 40
9.646946094817892
  0
ARC
  5
17C
330
1F
100
AcDbEntity
  8
LAYER-001
  6
Continuous
 62
     1
100
AcDbCircle
 10
-71.44677617233992
 20
88.79099234708309
 30
0.0
 40
20.46321898900765
100
AcDbArc
 50
90.0
 51
151.766866718211
  0
ARC
  5
17D
330
1F
100
AcDbEntity
  8
LAYER-001
  6
Continuous
 62
     1
100
AcDbCircle
 10
-71.1249262791049
 20
88.79099234708309
 30
0.0
 40
20.46321898900765
100
AcDbArc
 50
28.05792239815993
 51
90.0
  0
ARC
  5
17E
330
1F
100
AcDbEntity
  8
LAYER-001
  6
Continuous
 62
     1
100
AcDbCircle
 10
-82.26304906477799
 20
74.75889535480837
 30
0.0
 40
9.646946094817892
100
AcDbArc
 50
221.6136868698834
 51
270.0
  0
ARC
  5
17F
330
1F
100
AcDbEntity
  8
LAYER-001
  6
Continuous
 62
     1
100
AcDbCircle
 10
-60.30865338399997
 20
74.75889535480837
 30
0.0
 40
9.646946094817892
100
AcDbArc
 50
270.0
 51
318.65099135484
  0
LINE
  5
180
330
1F
100
AcDbEntity
  8
LAYER-001
  6
Continuous
 62
     1
100
AcDbLine
 10
-89.47548672852565
 20
68.35231187389309
 30
0.0
 11
-89.47548672852565
 21
98.47132947953156
 31
0.0
  0
LINE
  5
181
330
1F
100
AcDbEntity
  8
LAYER-001
  6
Continuous
 62
     1
100
AcDbLine
 10
-53.06669752743335
 20
68.35231187389309
 30
0.0
 11
-53.06669752743335
 21
98.47132947953156
 31
0.0
  0
LINE
  5
182
330
1F
100
AcDbEntity
  8
LAYER-001
  6
Continuous
 62
     1
100
AcDbLine
 10
-60.30865338399997
 20
65.11194925999047
 30
0.0
 11
-82.26304906477799
 21
65.11194925999047
 31
0.0
  0
LINE
  5
183
330
1F
100
AcDbEntity
  8
LAYER-001
  6
Continuous
 62
     1
100
AcDbLine
 10
-82.26304906477799
 20
43.186984072
 30
0.0
 11
-82.26304906477799
 21
65.11194925999047
 31
0.0
  0
LINE
  5
184
330
1F
100
AcDbEntity
  8
LAYER-001
  6
Continuous
 62
     1
100
AcDbLine
 10
-60.27913519152344
 20
43.186984072
 30
0.0
 11
-82.26304906477799
 21
43.186984072
 31
0.0
  0
LINE
  5
185
330
1F
100
AcDbEntity
  8
LAYER-001
  6
Continuous
 62
     1
100
AcDbLine
 10
-60.27913519152344
 20
43.186984072
 30
0.0
 11
-60.27913519152344
 21
65.11199442289308
 31
0.0
  0
LINE
  5
186
330
1F
100
AcDbEntity
  8
LAYER-001
  6
CENTER
 62
     4
100
AcDbLine
 10
-71.27109212902644
 20
34.51148816860905
 30
0.0
 11
-71.27109212902644
 21
118.9322062412124
 31
0.0
  0
LINE
  5
187
330
1F
100
AcDbEntity
  8
LAYER-008
  6
HIDDEN
 62
     4
100
AcDbLine
 10
187.5174400297603
 20
113.3253862078941
 30
0.0
 11
174.3624609169115
 21
117.7103792455874
 31
0.0
  0
LINE
  5
188
330
1F
100
AcDbEntity
  8
LAYER-007
  6
HIDDEN
 62
     4
100
AcDbLine
 10
187.5174400297603
 20
113.3253862078941
 30
0.0
 11
187.5174400297603
 21
99.29339971761181
 31
0.0
  0
LINE
  5
189
330
1F
100
AcDbEntity
  8
LAYER-007
  6
Continuous
 62
     1
100
AcDbLine
 10
244.5223495187768
 20
113.3253862078941
 30
0.0
 11
218.2123912934774
 21
113.3253862078941
 31
0.0
  0
LINE
  5
18A
330
1F
100
AcDbEntity
  8
LAYER-007
  6
Continuous
 62
     1
100
AcDbLine
 10
463.3838881491708
 20
113.3253862078941
 30
0.0
 11
489.6938463748709
 21
113.3253862078941
 31
0.0
  0
LINE
  5
18B
330
1F
100
AcDbEntity
  8
LAYER-033
  6
Continuous
 62
     1
100
AcDbLine
 10
463.3838881491708
 20
113.3253862078941
 30
0.0
 11
463.3838881491708
 21
69.47545583172769
 31
0.0
  0
LINE
  5
18C
330
1F
100
AcDbEntity
  8
LAYER-008
  6
HIDDEN
 62
     4
100
AcDbLine
 10
520.3887976384076
 20
113.3253862078941
 30
0.0
 11
533.5437767510373
 21
117.7103792455874
 31
0.0
  0
LINE
  5
18D
330
1F
100
AcDbEntity
  8
LAYER-007
  6
HIDDEN
 62
     4
100
AcDbLine
 10
520.3887976384076
 20
113.3253862078941
 30
0.0
 11
520.3887976384076
 21
99.29339971761181
 31
0.0
  0
LINE
  5
18E
330
1F
100
AcDbEntity
  8
LAYER-007
  6
Continuous
 62
     1
100
AcDbLine
 10
-567.8846153846155
 20
113.3253862078942
 30
0.0
 11
-567.8846153846155
 21
139.9659542311875
 31
0.0
  0
LINE
  5
18F
330
1F
100
AcDbEntity
  8
LAYER-007
  6
Continuous
 62
     1
100
AcDbLine
 10
-550.3446344641631
 20
113.3253862078942
 30
0.0
 11
-550.3446344641631
 21
-0.6844415401251922
 31
0.0
  0
LINE
  5
190
330
1F
100
AcDbEntity
  8
LAYER-007
  6
Continuous
 62
     1
100
AcDbLine
 10
-18.04448644700005
 20
113.3253862078942
 30
0.0
 11
-18.04448644700005
 21
-0.6844415401251922
 31
0.0
  0
LINE
  5
191
330
1F
100
AcDbEntity
  8
LAYER-007
  6
Continuous
 62
     1
100
AcDbLine
 10
-0.5045142960000001
 20
113.3253862078942
 30
0.0
 11
-0.5045142960000001
 21
139.9659542311875
 31
0.0
  0
LINE
  5
192
330
1F
100
AcDbEntity
  8
LAYER-007
  6
Continuous
 62
     1
100
AcDbLine
 10
191.9024330673781
 20
108.9403931703546
 30
0.0
 11
191.9024330673781
 21
99.29339971761181
 31
0.0
  0
LINE
  5
193
330
1F
100
AcDbEntity
  8
LAYER-007
  6
Continuous
 62
     1
100
AcDbLine
 10
196.2874261049947
 20
108.9403931703546
 30
0.0
 11
191.9024330673781
 21
108.9403931703546
 31
0.0
  0
LINE
  5
194
330
1F
100
AcDbEntity
  8
LAYER-007
  6
Continuous
 62
     1
100
AcDbLine
 10
196.2874261049947
 20
108.9403931703546
 30
0.0
 11
196.2874261049947
 21
99.29339971761181
 31
0.0
  0
LINE
  5
195
330
1F
100
AcDbEntity
  8
LAYER-007
  6
Continuous
 62
     1
100
AcDbLine
 10
511.6188115631744
 20
108.9403931703546
 30
0.0
 11
516.0038046005707
 21
108.9403931703546
 31
0.0
  0
LINE
  5
196
330
1F
100
AcDbEntity
  8
LAYER-007
  6
Continuous
 62
     1
100
AcDbLine
 10
511.6188115631744
 20
108.9403931703546
 30
0.0
 11
511.6188115631744
 21
99.29339971761181
 31
0.0
  0
LINE
  5
197
330
1F
100
AcDbEntity
  8
LAYER-007
  6
Continuous
 62
     1
100
AcDbLine
 10
516.0038046005707
 20
108.9403931703546
 30
0.0
 11
516.0038046005707
 21
99.29339971761181
 31
0.0
  0
LINE
  5
198
330
1F
100
AcDbEntity
  8
LAYER-006
  6
Continuous
 62
     1
100
AcDbLine
 10
213.8273982554604
 20
106.7478966511319
 30
0.0
 11
213.8273982554604
 21
99.29339971761181
 31
0.0
  0
LINE
  5
199
330
1F
100
AcDbEntity
  8
LAYER-006
  6
Continuous
 62
     1
100
AcDbLine
 10
218.2123912934774
 20
106.7478966511319
 30
0.0
 11
213.8273982554604
 21
106.7478966511319
 31
0.0
  0
LINE
  5
19A
330
1F
100
AcDbEntity
  8
LAYER-006
  6
Continuous
 62
     1
100
AcDbLine
 10
489.6938463750355
 20
106.7478966515458
 30
0.0
 11
494.0788394127078
 21
106.7478966515458
 31
0.0
  0
LINE
  5
19B
330
1F
100
AcDbEntity
  8
LAYER-006
  6
Continuous
 62
     1
100
AcDbLine
 10
494.0788394127078
 20
106.7478966515458
 30
0.0
 11
494.0788394127078
 21
99.29339971761181
 31
0.0
  0
LINE
  5
19C
330
1F
100
AcDbEntity
  8
LAYER-007
  6
Continuous
 62
     1
100
AcDbLine
 10
178.7474539545272
 20
103.2399066088932
 30
0.0
 11
178.7474539545272
 21
99.29339971761181
 31
0.0
  0
LINE
  5
19D
330
1F
100
AcDbEntity
  8
LAYER-007
  6
Continuous
 62
     1
100
AcDbLine
 10
187.5174400297603
 20
103.2399066088932
 30
0.0
 11
178.7474539545272
 21
103.2399066088932
 31
0.0
  0
LINE
  5
19E
330
1F
100
AcDbEntity
  8
LAYER-007
  6
Continuous
 62
     1
100
AcDbLine
 10
520.3887976384076
 20
103.2399066088932
 30
0.0
 11
529.1587837131476
 21
103.2399066088932
 31
0.0
  0
LINE
  5
19F
330
1F
100
AcDbEntity
  8
LAYER-007
  6
Continuous
 62
     1
100
AcDbLine
 10
529.1587837131476
 20
103.2399066088932
 30
0.0
 11
529.1587837131476
 21
99.29339971761181
 31
0.0
  0
LINE
  5
1A0
330
1F
100
AcDbEntity
  8
LAYER-007
  6
Continuous
 62
     1
100
AcDbLine
 10
253.2923355940102
 20
100.1704070951208
 30
0.0
 11
244.5223495187768
 21
100.1704070951208
 31
0.0
  0
LINE
  5
1A1
330
1F
100
AcDbEntity
  8
LAYER-007
  6
Continuous
 62
     1
100
AcDbLine
 10
454.613902073462
 20
100.1704070951208
 30
0.0
 11
463.3838881491708
 21
100.1704070951208
 31
0.0
  0
LINE
  5
1A2
330
1F
100
AcDbEntity
  8
LAYER-007
  6
Continuous
 62
     4
100
AcDbLine
 10
-559.1146205393965
 20
100.1704070950442
 30
0.0
 11
-559.1146205393965
 21
80.87642895954451
 31
0.0
  0
LINE
  5
1A3
330
1F
100
AcDbEntity
  8
LAYER-007
  6
Continuous
 62
     1
100
AcDbLine
 10
-500.128615944
 20
100.1704070950442
 30
0.0
 11
-508.0216034144773
 21
95.78541405742755
 31
0.0
  0
LINE
  5
1A4
330
1F
100
AcDbEntity
  8
LAYER-007
  6
Continuous
 62
     1
100
AcDbLine
 10
-285.0568043517904
 20
100.1704070950442
 30
0.0
 11
-292.9497918182966
 21
95.78541405742755
 31
0.0
  0
LINE
  5
1A5
330
1F
100
AcDbEntity
  8
LAYER-007
  6
Continuous
 62
     1
100
AcDbLine
 10
-71.27109212902644
 20
100.1704070950442
 30
0.0
 11
-79.16407959553249
 21
95.78541405742755
 31
0.0
  0
LINE
  5
1A6
330
1F
100
AcDbEntity
  8
LAYER-007
  6
Continuous
 62
     4
100
AcDbLine
 10
-9.274500371276304
 20
100.1704070950442
 30
0.0
 11
-9.274500371276304
 21
80.87642895954451
 31
0.0
  0
LINE
  5
1A7
330
1F
100
AcDbEntity
  8
LAYER-006
  6
Continuous
 62
     1
100
AcDbLine
 10
139.70952720072
 20
99.29339971761181
 30
0.0
 11
139.70952720072
 21
83.50743355217776
 31
0.0
  0
LINE
  5
1A8
330
1F
100
AcDbEntity
  8
LAYER-006
  6
Continuous
 62
     1
100
AcDbLine
 10
139.70952720072
 20
99.29339971761181
 30
0.0
 11
148.9531188339738
 21
99.29339971761181
 31
0.0
  0
LINE
  5
1A9
330
1F
100
AcDbEntity
  8
LAYER-006
  6
Continuous
 62
     1
100
AcDbLine
 10
153.3381118715915
 20
99.29339971761181
 30
0.0
 11
218.2123912934774
 21
99.29339971761181
 31
0.0
  0
LINE
  5
1AA
330
1F
100
AcDbEntity
  8
LAYER-006
  6
Continuous
 62
     1
100
AcDbLine
 10
554.5681257963572
 20
99.29339971761181
 30
0.0
 11
489.6938463750355
 21
99.29339971761181
 31
0.0
  0
LINE
  5
1AB
330
1F
100
AcDbEntity
  8
LAYER-006
  6
Continuous
 62
     1
100
AcDbLine
 10
568.1967104672276
 20
99.29339971761181
 30
0.0
 11
568.1967104672276
 21
83.50743355217776
 31
0.0
  0
LINE
  5
1AC
330
1F
100
AcDbEntity
  8
LAYER-006
  6
Continuous
 62
     1
100
AcDbLine
 10
568.1967104672276
 20
99.29339971761181
 30
0.0
 11
558.9531188339738
 21
99.29339971761181
 31
0.0
  0
LINE
  5
1AD
330
1F
100
AcDbEntity
  8
LAYER-007
  6
Continuous
 62
     1
100
AcDbLine
 10
253.2923355940102
 20
95.78541405652561
 30
0.0
 11
244.5223495187768
 21
95.78541405652561
 31
0.0
  0
LINE
  5
1AE
330
1F
100
AcDbEntity
  8
LAYER-007
  6
Continuous
 62
     1
100
AcDbLine
 10
454.613902073462
 20
95.78541405636224
 30
0.0
 11
463.3838881491708
 21
95.78541405636224
 31
0.0
  0
LINE
  5
1AF
330
1F
100
AcDbEntity
  8
LAYER-007
  6
Continuous
 62
     1
100
AcDbLine
 10
-508.0216034144773
 20
95.78541405742755
 30
0.0
 11
-508.0216034144773
 21
87.0154279821943
 31
0.0
  0
LINE
  5
1B0
330
1F
100
AcDbEntity
  8
LAYER-007
  6
Continuous
 62
     1
100
AcDbLine
 10
-492.2356372502468
 20
95.78541405742755
 30
0.0
 11
-500.128615944
 21
100.1704070950442
 31
0.0
  0
LINE
  5
1B1
330
1F
100
AcDbEntity
  8
LAYER-007
  6
Continuous
 62
     1
100
AcDbLine
 10
-292.9497918182966
 20
95.78541405742755
 30
0.0
 11
-292.9497918182966
 21
87.0154279821943
 31
0.0
  0
LINE
  5
1B2
330
1F
100
AcDbEntity
  8
LAYER-007
  6
Continuous
 62
     1
100
AcDbLine
 10
-277.1638256540666
 20
95.78541405742755
 30
0.0
 11
-285.0568043517904
 21
100.1704070950442
 31
0.0
  0
LINE
  5
1B3
330
1F
100
AcDbEntity
  8
LAYER-007
  6
Continuous
 62
     1
100
AcDbLine
 10
-79.16407959553249
 20
95.78541405742755
 30
0.0
 11
-79.16407959553249
 21
87.0154279821943
 31
0.0
  0
LINE
  5
1B4
330
1F
100
AcDbEntity
  8
LAYER-007
  6
Continuous
 62
     1
100
AcDbLine
 10
-63.3781134313025
 20
95.78541405742755
 30
0.0
 11
-71.27109212902644
 21
100.1704070950442
 31
0.0
  0
LINE
  5
1B5
330
1F
100
AcDbEntity
  8
LAYER-008
  6
CENTER
 62
     4
100
AcDbLine
 10
259.0768521672294
 20
91.40042101981089
 30
0.0
 11
166.2074818050714
 21
91.40042101981089
 31
0.0
  0
LINE
  5
1B6
330
1F
100
AcDbEntity
  8
LAYER-008
  6
CENTER
 62
     4
100
AcDbLine
 10
448.8293855030354
 20
91.40042101981089
 30
0.0
 11
544.1987558644621
 21
91.40042101981089
 31
0.0
  0
LINE
  5
1B7
330
1F
100
AcDbEntity
  8
LAYER-007
  6
Continuous
 62
     4
100
AcDbLine
 10
-563.4996223469991
 20
91.40042101981089
 30
0.0
 11
-554.7296275017795
 21
91.40042101981089
 31
0.0
  0
LINE
  5
1B8
330
1F
100
AcDbEntity
  8
LAYER-007
  6
Continuous
 62
     4
100
AcDbLine
 10
-4.889507333659822
 20
91.40042101981089
 30
0.0
 11
-13.65949340889324
 21
91.40042101981089
 31
0.0
  0
LINE
  5
1B9
330
1F
100
AcDbEntity
  8
LAYER-007
  6
Continuous
 62
     1
100
AcDbLine
 10
253.2923355940102
 20
87.01542798129231
 30
0.0
 11
244.5223495187768
 21
87.01542798129231
 31
0.0
  0
LINE
  5
1BA
330
1F
100
AcDbEntity
  8
LAYER-007
  6
Continuous
 62
     1
100
AcDbLine
 10
454.613902073462
 20
87.01542798129231
 30
0.0
 11
463.3838881491708
 21
87.01542798129231
 31
0.0
  0
LINE
  5
1BB
330
1F
100
AcDbEntity
  8
LAYER-007
  6
Continuous
 62
     1
100
AcDbLine
 10
-508.0216034144773
 20
87.0154279821943
 30
0.0
 11
-500.128615944
 21
82.63043494457764
 31
0.0
  0
LINE
  5
1BC
330
1F
100
AcDbEntity
  8
LAYER-007
  6
Continuous
 62
     1
100
AcDbLine
 10
-492.2356372502468
 20
87.0154279821943
 30
0.0
 11
-492.2356372502468
 21
95.78541405742755
 31
0.0
  0
LINE
  5
1BD
330
1F
100
AcDbEntity
  8
LAYER-007
  6
Continuous
 62
     1
100
AcDbLine
 10
-292.9497918182966
 20
87.0154279821943
 30
0.0
 11
-285.0568043517904
 21
82.63043494457764
 31
0.0
  0
LINE
  5
1BE
330
1F
100
AcDbEntity
  8
LAYER-007
  6
Continuous
 62
     1
100
AcDbLine
 10
-277.1638256540666
 20
87.0154279821943
 30
0.0
 11
-277.1638256540666
 21
95.78541405742755
 31
0.0
  0
LINE
  5
1BF
330
1F
100
AcDbEntity
  8
LAYER-007
  6
Continuous
 62
     1
100
AcDbLine
 10
-79.16407959553249
 20
87.0154279821943
 30
0.0
 11
-71.27109212902644
 21
82.63043494457764
 31
0.0
  0
LINE
  5
1C0
330
1F
100
AcDbEntity
  8
LAYER-007
  6
Continuous
 62
     1
100
AcDbLine
 10
-63.3781134313025
 20
87.0154279821943
 30
0.0
 11
-63.3781134313025
 21
95.78541405742755
 31
0.0
  0
LINE
  5
1C1
330
1F
100
AcDbEntity
  8
LAYER-006
  6
Continuous
 62
     1
100
AcDbLine
 10
139.70952720072
 20
83.50743355217776
 30
0.0
 11
148.9531188339738
 21
83.50743355217776
 31
0.0
  0
LINE
  5
1C2
330
1F
100
AcDbEntity
  8
LAYER-006
  6
Continuous
 62
     1
100
AcDbLine
 10
153.3381118715915
 20
83.50743355217776
 30
0.0
 11
218.2123912934774
 21
83.50743355217776
 31
0.0
  0
LINE
  5
1C3
330
1F
100
AcDbEntity
  8
LAYER-007
  6
Continuous
 62
     1
100
AcDbLine
 10
178.7474539545272
 20
83.50743355217776
 30
0.0
 11
178.7474539545272
 21
79.56093543289421
 31
0.0
  0
LINE
  5
1C4
330
1F
100
AcDbEntity
  8
LAYER-007
  6
HIDDEN
 62
     4
100
AcDbLine
 10
187.5174400297603
 20
83.50743355217776
 30
0.0
 11
187.5174400297603
 21
73.86044886942091
 31
0.0
  0
LINE
  5
1C5
330
1F
100
AcDbEntity
  8
LAYER-006
  6
Continuous
 62
     1
100
AcDbLine
 10
213.8273982554604
 20
83.50743355217776
 30
0.0
 11
213.8273982554604
 21
76.05294538822977
 31
0.0
  0
LINE
  5
1C6
330
1F
100
AcDbEntity
  8
LAYER-006
  6
Continuous
 62
     1
100
AcDbLine
 10
494.0788394127078
 20
83.50743355217776
 30
0.0
 11
494.0788394127078
 21
76.05294538822977
 31
0.0
  0
LINE
  5
1C7
330
1F
100
AcDbEntity
  8
LAYER-007
  6
HIDDEN
 62
     4
100
AcDbLine
 10
520.3887976384076
 20
83.50743355217776
 30
0.0
 11
520.3887976384076
 21
73.86044886942091
 31
0.0
  0
LINE
  5
1C8
330
1F
100
AcDbEntity
  8
LAYER-007
  6
Continuous
 62
     1
100
AcDbLine
 10
529.1587837131476
 20
83.50743355217776
 30
0.0
 11
529.1587837131476
 21
79.56093543289421
 31
0.0
  0
LINE
  5
1C9
330
1F
100
AcDbEntity
  8
LAYER-006
  6
Continuous
 62
     1
100
AcDbLine
 10
554.5681257963572
 20
83.50743355217776
 30
0.0
 11
489.6938463750355
 21
83.50743355217776
 31
0.0
  0
LINE
  5
1CA
330
1F
100
AcDbEntity
  8
LAYER-006
  6
Continuous
 62
     1
100
AcDbLine
 10
568.1967104672276
 20
83.50743355217776
 30
0.0
 11
558.9531188339738
 21
83.50743355217776
 31
0.0
  0
LINE
  5
1CB
330
1F
100
AcDbEntity
  8
LAYER-007
  6
Continuous
 62
     1
100
AcDbLine
 10
253.2923355940102
 20
82.63043494465478
 30
0.0
 11
253.2923355940102
 21
100.1704070951208
 31
0.0
  0
LINE
  5
1CC
330
1F
100
AcDbEntity
  8
LAYER-007
  6
Continuous
 62
     1
100
AcDbLine
 10
253.2923355940102
 20
82.63043494465478
 30
0.0
 11
244.5223495187768
 21
82.63043494465478
 31
0.0
  0
LINE
  5
1CD
330
1F
100
AcDbEntity
  8
LAYER-007
  6
Continuous
 62
     1
100
AcDbLine
 10
454.613902073462
 20
82.63043494465478
 30
0.0
 11
454.613902073462
 21
100.1704070951208
 31
0.0
  0
LINE
  5
1CE
330
1F
100
AcDbEntity
  8
LAYER-007
  6
Continuous
 62
     1
100
AcDbLine
 10
454.613902073462
 20
82.63043494465478
 30
0.0
 11
463.3838881491708
 21
82.63043494465478
 31
0.0
  0
LINE
  5
1CF
330
1F
100
AcDbEntity
  8
LAYER-007
  6
Continuous
 62
     1
100
AcDbLine
 10
-500.128615944
 20
82.63043494457764
 30
0.0
 11
-492.2356372502468
 21
87.0154279821943
 31
0.0
  0
LINE
  5
1D0
330
1F
100
AcDbEntity
  8
LAYER-007
  6
Continuous
 62
     1
100
AcDbLine
 10
-285.0568043517904
 20
82.63043494457764
 30
0.0
 11
-277.1638256540666
 21
87.0154279821943
 31
0.0
  0
LINE
  5
1D1
330
1F
100
AcDbEntity
  8
LAYER-007
  6
Continuous
 62
     1
100
AcDbLine
 10
-71.27109212902644
 20
82.63043494457764
 30
0.0
 11
-63.3781134313025
 21
87.0154279821943
 31
0.0
  0
LINE
  5
1D2
330
1F
100
AcDbEntity
  8
LAYER-007
  6
Continuous
 62
     1
100
AcDbLine
 10
187.5174400297603
 20
79.56093543289421
 30
0.0
 11
178.7474539545272
 21
79.56093543289421
 31
0.0
  0
LINE
  5
1D3
330
1F
100
AcDbEntity
  8
LAYER-007
  6
Continuous
 62
     1
100
AcDbLine
 10
520.3887976384076
 20
79.56093543289421
 30
0.0
 11
529.1587837131476
 21
79.56093543289421
 31
0.0
  0
LINE
  5
1D4
330
1F
100
AcDbEntity
  8
LAYER-006
  6
Continuous
 62
     1
100
AcDbLine
 10
218.2123912934774
 20
76.05294538822977
 30
0.0
 11
213.8273982554604
 21
76.05294538822977
 31
0.0
  0
LINE
  5
1D5
330
1F
100
AcDbEntity
  8
LAYER-006
  6
Continuous
 62
     1
100
AcDbLine
 10
489.6938463750355
 20
76.05294538822977
 30
0.0
 11
494.0788394127078
 21
76.05294538822977
 31
0.0
  0
LINE
  5
1D6
330
1F
100
AcDbEntity
  8
LAYER-007
  6
HIDDEN
 62
     4
100
AcDbLine
 10
191.9024330673781
 20
73.86044886942091
 30
0.0
 11
187.5174400297603
 21
73.86044886942091
 31
0.0
  0
LINE
  5
1D7
330
1F
100
AcDbEntity
  8
LAYER-007
  6
HIDDEN
 62
     4
100
AcDbLine
 10
516.0038046005707
 20
73.86044886942091
 30
0.0
 11
520.3887976384076
 21
73.86044886942091
 31
0.0
  0
LINE
  5
1D8
330
1F
100
AcDbEntity
  8
LAYER-007
  6
Continuous
 62
     1
100
AcDbLine
 10
191.9024330673781
 20
69.49698745953066
 30
0.0
 11
178.7474539545272
 21
65.11199442289308
 31
0.0
  0
LINE
  5
1D9
330
1F
100
AcDbEntity
  8
LAYER-007
  6
Continuous
 62
     1
100
AcDbLine
 10
244.5223495187768
 20
69.47545583172769
 30
0.0
 11
222.5973843306936
 21
69.47545583172769
 31
0.0
  0
LINE
  5
1DA
330
1F
100
AcDbEntity
  8
LAYER-007
  6
Continuous
 62
     1
100
AcDbLine
 10
463.3838881491708
 20
69.47545583172769
 30
0.0
 11
485.3088533374744
 21
69.47545583172769
 31
0.0
  0
LINE
  5
1DB
330
1F
100
AcDbEntity
  8
LAYER-007
  6
Continuous
 62
     1
100
AcDbLine
 10
516.0038046005707
 20
69.49698745953066
 30
0.0
 11
529.1587837131476
 21
65.11199442289308
 31
0.0
  0
LINE
  5
1DC
330
1F
100
AcDbEntity
  8
LAYER-008
  6
HIDDEN
 62
     4
100
AcDbLine
 10
183.1324469921449
 20
66.57365876843915
 30
0.0
 11
183.1324469921449
 21
43.186984072
 31
0.0
  0
LINE
  5
1DD
330
1F
100
AcDbEntity
  8
LAYER-008
  6
HIDDEN
 62
     4
100
AcDbLine
 10
524.7737906758039
 20
66.57365876848792
 30
0.0
 11
524.7737906758039
 21
43.186984072
 31
0.0
  0
LINE
  5
1DE
330
1F
100
AcDbEntity
  8
LAYER-001
  6
CENTER
 62
     5
100
AcDbLine
 10
-577.5315912973858
 20
48.42748048118142
 30
0.0
 11
-577.5315912973858
 21
-24.36340394325498
 31
0.0
  0
LINE
  5
1DF
330
1F
100
AcDbEntity
  8
LAYER-001
  6
CENTER
 62
     5
100
AcDbLine
 10
-586.3015773726191
 20
39.65749440594811
 30
0.0
 11
-568.7616052221526
 21
39.65749440594811
 31
0.0
  0
LINE
  5
1E0
330
1F
100
AcDbEntity
  8
LAYER-003
  6
Continuous
 62
     1
100
AcDbLine
 10
-581.9165843350033
 20
39.65749440594811
 30
0.0
 11
-581.9165843350033
 21
2.924719941337912
 31
0.0
  0
ARC
  5
1E1
330
1F
100
AcDbEntity
  8
LAYER-003
  6
Continuous
 62
     1
100
AcDbCircle
 10
-577.5315912973858
 20
39.65749440594811
 30
0.0
 40
4.384993037616646
100
AcDbArc
 50
0.0
 51
180.0
  0
LINE
  5
1E2
330
1F
100
AcDbEntity
  8
LAYER-003
  6
Continuous
 62
     1
100
AcDbLine
 10
-573.1465982597699
 20
39.65749440594811
 30
0.0
 11
-573.1465982597699
 21
2.924719941337912
 31
0.0
  0
LINE
  5
1E3
330
1F
100
AcDbEntity
  8
LAYER-001
  6
CENTER
 62
     5
100
AcDbLine
 10
-586.3015773726191
 20
22.11752225548156
 30
0.0
 11
-568.7616052221526
 21
22.11752225548156
 31
0.0
  0
LINE
  5
1E4
330
1F
100
AcDbEntity
  8
LAYER-003
  6
Continuous
 62
     1
100
AcDbLine
 10
-573.1465982597699
 20
8.213783656493433
 30
0.0
 11
-568.5937959240825
 21
7.436360347866753
 31
0.0
  0
LINE
  5
1E5
330
1F
100
AcDbEntity
  8
LAYER-003
  6
Continuous
 62
     1
100
AcDbLine
 10
-586.4693866711765
 20
7.436360347866753
 30
0.0
 11
-581.9165843350033
 21
8.213783656493433
 31
0.0
  0
LINE
  5
1E6
330
1F
100
AcDbEntity
  8
LAYER-003
  6
Continuous
 62
     1
100
AcDbLine
 10
-586.0495148178384
 20
7.208545927585078
 30
0.0
 11
-581.9165843350033
 21
7.208545927585078
 31
0.0
  0
LINE
  5
1E7
330
1F
100
AcDbEntity
  8
LAYER-003
  6
Continuous
 62
     1
100
AcDbLine
 10
-573.1465982597699
 20
7.208545927585078
 30
0.0
 11
-569.0136677769347
 21
7.208545927585078
 31
0.0
  0
LINE
  5
1E8
330
1F
100
AcDbEntity
  8
LAYER-003
  6
Continuous
 62
     1
100
AcDbLine
 10
-587.9214876395663
 20
5.860262300356339
 30
0.0
 11
-588.4940738914282
 21
-0.6844415401251922
 31
0.0
  0
ARC
  5
1E9
330
1F
100
AcDbEntity
  8
LAYER-003
  6
Continuous
 62
     1
100
AcDbCircle
 10
-586.1741810468964
 20
5.707387411087211
 30
0.0
 40
1.753997215046659
100
AcDbArc
 50
99.69015600001318
 51
175.0000059991908
  0
ARC
  5
1EA
330
1F
100
AcDbEntity
  8
LAYER-003
  6
Continuous
 62
     1
100
AcDbCircle
 10
-583.232082246288
 20
2.924719941337912
 30
0.0
 40
1.315497911284994
100
AcDbArc
 50
269.9999970148984
 51
0.0
  0
ARC
  5
1EB
330
1F
100
AcDbEntity
  8
LAYER-003
  6
Continuous
 62
     1
100
AcDbCircle
 10
-568.8890015478766
 20
5.707387411087211
 30
0.0
 40
1.753997215046659
100
AcDbArc
 50
55.0663816344732
 51
80.30984899999841
  0
ARC
  5
1EC
330
1F
100
AcDbEntity
  8
LAYER-003
  6
Continuous
 62
     1
100
AcDbCircle
 10
-571.8311003486147
 20
2.924719941337912
 30
0.0
 40
1.315497911284994
100
AcDbArc
 50
180.000005000018
 51
270.0000010056533
  0
LINE
  5
1ED
330
1F
100
AcDbEntity
  8
LAYER-003
  6
Continuous
 62
     1
100
AcDbLine
 10
-588.4940738914282
 20
-0.6844415401251922
 30
0.0
 11
-566.5691087033449
 21
-0.6844415401251922
 31
0.0
  0
LINE
  5
1EE
330
1F
100
AcDbEntity
  8
LAYER-001
  6
CENTER
 62
     5
100
AcDbLine
 10
7.388464401680949
 20
48.42748048118142
 30
0.0
 11
7.388464401680949
 21
-24.36340394325498
 31
0.0
  0
LINE
  5
1EF
330
1F
100
AcDbEntity
  8
LAYER-001
  6
CENTER
 62
     5
100
AcDbLine
 10
-1.381521673552356
 20
39.65749440594811
 30
0.0
 11
16.15845047691425
 21
39.65749440594811
 31
0.0
  0
LINE
  5
1F0
330
1F
100
AcDbEntity
  8
LAYER-003
  6
Continuous
 62
     1
100
AcDbLine
 10
3.003471364063671
 20
39.65749440594811
 30
0.0
 11
3.003471364063671
 21
2.924719941337912
 31
0.0
  0
ARC
  5
1F1
330
1F
100
AcDbEntity
  8
LAYER-003
  6
Continuous
 62
     1
100
AcDbCircle
 10
7.388464401680949
 20
39.65749440594811
 30
0.0
 40
4.384993037616646
100
AcDbArc
 50
0.0
 51
180.0000050000002
  0
LINE
  5
1F2
330
1F
100
AcDbEntity
  8
LAYER-003
  6
Continuous
 62
     1
100
AcDbLine
 10
11.77345743929698
 20
39.65749440594811
 30
0.0
 11
11.77345743929698
 21
2.924719941337912
 31
0.0
  0
LINE
  5
1F3
330
1F
100
AcDbEntity
  8
LAYER-001
  6
CENTER
 62
     5
100
AcDbLine
 10
-1.381521673552356
 20
22.11752225548156
 30
0.0
 11
16.15845047691425
 21
22.11752225548156
 31
0.0
  0
LINE
  5
1F4
330
1F
100
AcDbEntity
  8
LAYER-003
  6
Continuous
 62
     1
100
AcDbLine
 10
11.77345743929698
 20
8.213783656493433
 30
0.0
 11
16.32625977547025
 21
7.436360347866753
 31
0.0
  0
LINE
  5
1F5
330
1F
100
AcDbEntity
  8
LAYER-003
  6
Continuous
 62
     1
100
AcDbLine
 10
-0.5045142960000001
 20
7.614770209999989
 30
0.0
 11
3.003471364063671
 21
8.213783656493433
 31
0.0
  0
LINE
  5
1F6
330
1F
100
AcDbEntity
  8
LAYER-003
  6
Continuous
 62
     1
100
AcDbLine
 10
-0.5045142960000001
 20
7.208545927585078
 30
0.0
 11
3.003471364063671
 21
7.208545927585078
 31
0.0
  0
LINE
  5
1F7
330
1F
100
AcDbEntity
  8
LAYER-003
  6
Continuous
 62
     1
100
AcDbLine
 10
11.77345743929698
 20
7.208545927585078
 30
0.0
 11
15.90638792213235
 21
7.208545927585078
 31
0.0
  0
ARC
  5
1F8
330
1F
100
AcDbEntity
  8
LAYER-003
  6
Continuous
 62
     1
100
AcDbCircle
 10
16.03105415119035
 20
5.707387411087211
 30
0.0
 40
1.753997215046659
100
AcDbArc
 50
5.000000024198991
 51
80.30984899999474
  0
ARC
  5
1F9
330
1F
100
AcDbEntity
  8
LAYER-003
  6
Continuous
 62
     1
100
AcDbCircle
 10
1.687973452853044
 20
2.924719941337912
 30
0.0
 40
1.315497911284994
100
AcDbArc
 50
269.9999969992464
 51
0.0
  0
ARC
  5
1FA
330
1F
100
AcDbEntity
  8
LAYER-003
  6
Continuous
 62
     1
100
AcDbCircle
 10
13.08895535014756
 20
2.924719941337912
 30
0.0
 40
1.315497911284994
100
AcDbArc
 50
180.0000049656492
 51
270.0000010189285
  0
LINE
  5
1FB
330
1F
100
AcDbEntity
  8
LAYER-003
  6
Continuous
 62
     1
100
AcDbLine
 10
-3.574018192361336
 20
-0.6844415401251922
 30
0.0
 11
24.92843655214756
 21
-0.6844415401251922
 31
0.0
  0
LINE
  5
1FC
330
1F
100
AcDbEntity
  8
LAYER-003
  6
Continuous
 62
     1
100
AcDbLine
 10
18.35094699572187
 20
-0.6844415401251922
 30
0.0
 11
17.77836074361539
 21
5.860262300356339
 31
0.0
  0
LINE
  5
1FD
330
1F
100
AcDbEntity
  8
LAYER-001
  6
CENTER
 62
     5
100
AcDbLine
 10
258.9531188339738
 20
48.42748048118142
 30
0.0
 11
258.9531188339738
 21
-24.36340394325498
 31
0.0
  0
LINE
  5
1FE
330
1F
100
AcDbEntity
  8
LAYER-001
  6
CENTER
 62
     5
100
AcDbLine
 10
232.6431606100339
 20
22.11752225548156
 30
0.0
 11
285.2630770614336
 21
22.11752225548156
 31
0.0
  0
ARC
  5
1FF
330
1F
100
AcDbEntity
  8
LAYER-003
  6
Continuous
 62
     1
100
AcDbCircle
 10
258.9531188339738
 20
22.11752225548156
 30
0.0
 40
21.92496518808323
100
AcDbArc
 50
306.4760049967234
 51
233.5240040035275
  0
CIRCLE
  5
200
330
1F
100
AcDbEntity
  8
LAYER-003
  6
Continuous
 62
     1
100
AcDbCircle
 10
258.9531188339738
 20
22.11752225548156
 30
0.0
 40
13.15497911284994
  0
LINE
  5
201
330
1F
100
AcDbEntity
  8
LAYER-003
  6
Continuous
 62
     1
100
AcDbLine
 10
258.9531188339738
 20
8.962543142631603
 30
0.0
 11
267.8909142101892
 21
7.43636034786681
 31
0.0
  0
LINE
  5
202
330
1F
100
AcDbEntity
  8
LAYER-003
  6
Continuous
 62
     1
100
AcDbLine
 10
250.0153234619434
 20
7.43636034786681
 30
0.0
 11
258.9531188339738
 21
8.962543142631603
 31
0.0
  0
LINE
  5
203
330
1F
100
AcDbEntity
  8
LAYER-003
  6
Continuous
 62
     1
100
AcDbLine
 10
250.4351953153437
 20
7.208545927584567
 30
0.0
 11
267.4710423561845
 21
7.208545927584567
 31
0.0
  0
LINE
  5
204
330
1F
100
AcDbEntity
  8
LAYER-003
  6
Continuous
 62
     1
100
AcDbLine
 10
248.5632224939565
 20
5.860262300355828
 30
0.0
 11
247.9906362379343
 21
-0.6844415401251922
 31
0.0
  0
ARC
  5
205
330
1F
100
AcDbEntity
  8
LAYER-003
  6
Continuous
 62
     1
100
AcDbCircle
 10
250.3105290862229
 20
5.707387411087211
 30
0.0
 40
1.753997215046659
100
AcDbArc
 50
99.69015600000951
 51
175.0000060004141
  0
ARC
  5
206
330
1F
100
AcDbEntity
  8
LAYER-003
  6
Continuous
 62
     1
100
AcDbCircle
 10
267.5957085852426
 20
5.707387411087211
 30
0.0
 40
1.753997215046659
100
AcDbArc
 50
4.999999991304407
 51
80.30984898714605
  0
ARC
  5
207
330
1F
100
AcDbEntity
  8
LAYER-003
  6
Continuous
 62
     1
100
AcDbCircle
 10
242.7908439689738
 20
0.2563350367983617
 30
0.0
 40
5.261991645139976
100
AcDbArc
 50
355.000000002648
 51
53.52399497438765
  0
ARC
  5
208
330
1F
100
AcDbEntity
  8
LAYER-003
  6
Continuous
 62
     1
100
AcDbCircle
 10
275.1153937032442
 20
0.2563350367983617
 30
0.0
 40
5.261991645139976
100
AcDbArc
 50
126.4760060020903
 51
185.0000039958284
  0
LINE
  5
209
330
1F
100
AcDbEntity
  8
LAYER-003
  6
Continuous
 62
     1
100
AcDbLine
 10
247.9906362379343
 20
-0.6844415401251922
 30
0.0
 11
269.9156014300135
 21
-0.6844415401251922
 31
0.0
  0
LINE
  5
20A
330
1F
100
AcDbEntity
  8
LAYER-003
  6
Continuous
 62
     1
100
AcDbLine
 10
269.9156014300135
 20
-0.6844415401251922
 30
0.0
 11
269.3430151779124
 21
5.860262300355828
 31
0.0
  0
LINE
  5
20B
330
1F
100
AcDbEntity
  8
LAYER-001
  6
CENTER
 62
     5
100
AcDbLine
 10
448.9531188339738
 20
48.42748048118142
 30
0.0
 11
448.9531188339738
 21
-24.36340394325498
 31
0.0
  0
LINE
  5
20C
330
1F
100
AcDbEntity
  8
LAYER-001
  6
CENTER
 62
     5
100
AcDbLine
 10
422.6431606080089
 20
22.11752225548156
 30
0.0
 11
475.2630770596961
 21
22.11752225548156
 31
0.0
  0
ARC
  5
20D
330
1F
100
AcDbEntity
  8
LAYER-003
  6
Continuous
 62
     1
100
AcDbCircle
 10
448.9531188339738
 20
22.11752225548156
 30
0.0
 40
21.92496518808323
100
AcDbArc
 50
306.476004992905
 51
233.5240039998787
  0
CIRCLE
  5
20E
330
1F
100
AcDbEntity
  8
LAYER-003
  6
Continuous
 62
     1
100
AcDbCircle
 10
448.9531188339738
 20
22.11752225548156
 30
0.0
 40
13.15497911284994
  0
LINE
  5
20F
330
1F
100
AcDbEntity
  8
LAYER-003
  6
Continuous
 62
     1
100
AcDbLine
 10
448.9531188339738
 20
8.962543142631603
 30
0.0
 11
457.8909142084526
 21
7.436360347866753
 31
0.0
  0
LINE
  5
210
330
1F
100
AcDbEntity
  8
LAYER-003
  6
Continuous
 62
     1
100
AcDbLine
 10
440.0153234602069
 20
7.436360347866753
 30
0.0
 11
448.9531188339738
 21
8.962543142631603
 31
0.0
  0
LINE
  5
211
330
1F
100
AcDbEntity
  8
LAYER-003
  6
Continuous
 62
     1
100
AcDbLine
 10
440.4351953135445
 20
7.20854592758451
 30
0.0
 11
457.471042354448
 21
7.20854592758451
 31
0.0
  0
LINE
  5
212
330
1F
100
AcDbEntity
  8
LAYER-003
  6
Continuous
 62
     1
100
AcDbLine
 10
438.5632224918165
 20
5.860262300355771
 30
0.0
 11
437.9906362365975
 21
-0.6844415401251922
 31
0.0
  0
ARC
  5
213
330
1F
100
AcDbEntity
  8
LAYER-003
  6
Continuous
 62
     1
100
AcDbCircle
 10
440.3105290844865
 20
5.707387411087211
 30
0.0
 40
1.753997215046659
100
AcDbArc
 50
99.6901560050762
 51
175.0000060000053
  0
ARC
  5
214
330
1F
100
AcDbEntity
  8
LAYER-003
  6
Continuous
 62
     1
100
AcDbCircle
 10
457.5957085835059
 20
5.707387411087211
 30
0.0
 40
1.753997215046659
100
AcDbArc
 50
4.999999992367333
 51
80.30984897579759
  0
ARC
  5
215
330
1F
100
AcDbEntity
  8
LAYER-003
  6
Continuous
 62
     1
100
AcDbCircle
 10
432.7908439670564
 20
0.2563350367983048
 30
0.0
 40
5.261991645139976
100
AcDbArc
 50
355.0000000028203
 51
53.52399497280398
  0
ARC
  5
216
330
1F
100
AcDbEntity
  8
LAYER-003
  6
Continuous
 62
     1
100
AcDbCircle
 10
465.1153937010577
 20
0.2563350367983048
 30
0.0
 40
5.261991645139976
100
AcDbArc
 50
126.4760059981502
 51
185.0000039962554
  0
LINE
  5
217
330
1F
100
AcDbEntity
  8
LAYER-003
  6
Continuous
 62
     1
100
AcDbLine
 10
437.9906362365975
 20
-0.6844415401251922
 30
0.0
 11
459.9156014280379
 21
-0.6844415401251922
 31
0.0
  0
LINE
  5
218
330
1F
100
AcDbEntity
  8
LAYER-003
  6
Continuous
 62
     1
100
AcDbLine
 10
459.9156014280379
 20
-0.6844415401251922
 30
0.0
 11
459.3430151761759
 21
5.860262300355771
 31
0.0
  0
LINE
  5
219
330
1F
100
AcDbEntity
  8
LAYER-007
  6
Continuous
 62
     1
100
AcDbLine
 10
196.2874261049947
 20
43.186984072
 30
0.0
 11
178.7474539545272
 21
43.186984072
 31
0.0
  0
LINE
  5
21A
330
1F
100
AcDbEntity
  8
LAYER-007
  6
Continuous
 62
     1
100
AcDbLine
 10
511.6188115631744
 20
43.186984072
 30
0.0
 11
529.1587837131476
 21
43.186984072
 31
0.0
  0
LINE
  5
21B
330
1F
100
AcDbEntity
  8
LAYER-006
  6
Continuous
 62
     1
100
AcDbLine
 10
148.9531188339738
 20
35.64872257899856
 30
0.0
 11
153.3381118715915
 21
35.64872257899856
 31
0.0
  0
LINE
  5
21C
330
1F
100
AcDbEntity
  8
LAYER-006
  6
Continuous
 62
     1
100
AcDbLine
 10
153.3381118715915
 20
35.64872257899856
 30
0.0
 11
153.3381118715915
 21
139.9659542311875
 31
0.0
  0
LINE
  5
21D
330
1F
100
AcDbEntity
  8
LAYER-006
  6
Continuous
 62
     1
100
AcDbLine
 10
554.5681257963572
 20
35.64872257836231
 30
0.0
 11
554.5681257963572
 21
139.9659542311875
 31
0.0
  0
LINE
  5
21E
330
1F
100
AcDbEntity
  8
LAYER-006
  6
Continuous
 62
     1
100
AcDbLine
 10
558.9531188339738
 20
35.64872257836231
 30
0.0
 11
554.5681257963572
 21
35.64872257836231
 31
0.0
  0
LINE
  5
21F
330
1F
100
AcDbEntity
  8
LAYER-007
  6
Continuous
 62
     1
100
AcDbLine
 10
-567.8846153846155
 20
-0.6844415401251922
 30
0.0
 11
-567.8846153846155
 21
113.3253862078942
 31
0.0
  0
LINE
  5
220
330
1F
100
AcDbEntity
  8
LAYER-007
  6
Continuous
 62
     1
100
AcDbLine
 10
-0.5045142960000001
 20
-0.6844415401251922
 30
0.0
 11
-0.5045142960000001
 21
113.3253862078942
 31
0.0
  0
LINE
  5
221
330
1F
100
AcDbEntity
  8
LAYER-006
  6
Continuous
 62
     1
100
AcDbLine
 10
24.92843655214756
 20
-0.6844415401251922
 30
0.0
 11
24.92843655214756
 21
-446.6746137921058
 31
0.0
  0
LINE
  5
222
330
1F
100
AcDbEntity
  8
LAYER-007
  6
Continuous
 62
     4
100
AcDbLine
 10
-25.07156344785244
 20
-22.39845783480126
 30
0.0
 11
-25.07156344785244
 21
-53.09340909803564
 31
0.0
  0
LINE
  5
223
330
1F
100
AcDbEntity
  8
LAYER-007
  6
CENTER
 62
     4
100
AcDbLine
 10
-587.0715634478524
 20
-24.15245505
 30
0.0
 11
-587.0715634478524
 21
-53.09340909779871
 31
0.0
  0
LINE
  5
224
330
1F
100
AcDbEntity
  8
LAYER-007
  6
CENTER
 62
     4
100
AcDbLine
 10
16.92843655214756
 20
-24.15245505
 30
0.0
 11
16.92843655214756
 21
-53.09340909803564
 31
0.0
  0
LINE
  5
225
330
1F
100
AcDbEntity
  8
LAYER-007
  6
Continuous
 62
     4
100
AcDbLine
 10
-545.0715634478524
 20
-25.02946242703831
 30
0.0
 11
-545.0715634478524
 21
-52.21641049206284
 31
0.0
  0
LINE
  5
226
330
1F
100
AcDbEntity
  8
LAYER-006
  6
Continuous
 62
     1
100
AcDbLine
 10
208.2981484909737
 20
-25.90646980587962
 30
0.0
 11
208.2981484909737
 21
-52.21642803110592
 31
0.0
  0
LINE
  5
227
330
1F
100
AcDbEntity
  8
LAYER-006
  6
Continuous
 62
     1
100
AcDbLine
 10
221.4531188339738
 20
-25.90646980587962
 30
0.0
 11
208.2981484909737
 21
-25.90646980587962
 31
0.0
  0
LINE
  5
228
330
1F
100
AcDbEntity
  8
LAYER-006
  6
Continuous
 62
     1
100
AcDbLine
 10
486.4531188339738
 20
-25.90646980587957
 30
0.0
 11
499.6080979464741
 21
-25.90646980587957
 31
0.0
  0
LINE
  5
229
330
1F
100
AcDbEntity
  8
LAYER-006
  6
Continuous
 62
     1
100
AcDbLine
 10
499.6080979464741
 20
-25.90646980587957
 30
0.0
 11
499.6080979464741
 21
-52.21642803110592
 31
0.0
  0
LINE
  5
22A
330
1F
100
AcDbEntity
  8
LAYER-006
  6
Continuous
 62
     1
100
AcDbLine
 10
199.5281624158777
 20
-32.04545128746145
 30
0.0
 11
199.5281624158777
 21
-45.20043040031146
 31
0.0
  0
LINE
  5
22B
330
1F
100
AcDbEntity
  8
LAYER-006
  6
Continuous
 62
     1
100
AcDbLine
 10
221.4531188339738
 20
-32.04545128746145
 30
0.0
 11
199.5281624158777
 21
-32.04545128746145
 31
0.0
  0
LINE
  5
22C
330
1F
100
AcDbEntity
  8
LAYER-006
  6
Continuous
 62
     1
100
AcDbLine
 10
231.8381118715915
 20
-32.0454512874615
 30
0.0
 11
476.0681257963572
 21
-32.0454512874615
 31
0.0
  0
LINE
  5
22D
330
1F
100
AcDbEntity
  8
LAYER-006
  6
Continuous
 62
     1
100
AcDbLine
 10
486.4531188339738
 20
-32.0454512874615
 30
0.0
 11
508.3780840217676
 21
-32.0454512874615
 31
0.0
  0
LINE
  5
22E
330
1F
100
AcDbEntity
  8
LAYER-006
  6
Continuous
 62
     1
100
AcDbLine
 10
508.3780840217676
 20
-32.0454512874615
 30
0.0
 11
508.3780840217676
 21
-45.2004304003114
 31
0.0
  0
LINE
  5
22F
330
1F
100
AcDbEntity
  8
LAYER-007
  6
CENTER
 62
     4
100
AcDbLine
 10
-595.8415495230852
 20
-38.18444154012519
 30
0.0
 11
-578.3015773726197
 21
-38.18444154012519
 31
0.0
  0
LINE
  5
230
330
1F
100
AcDbEntity
  8
LAYER-007
  6
CENTER
 62
     4
100
AcDbLine
 10
-556.4725541156416
 20
-38.18444154012519
 30
0.0
 11
-532.7935829425253
 21
-38.18444154012519
 31
0.0
  0
CIRCLE
  5
231
330
1F
100
AcDbEntity
  8
LAYER-006
  6
Continuous
 62
     5
100
AcDbCircle
 10
-545.0715634478524
 20
-38.18444154012519
 30
0.0
 40
6.13898148267723
  0
LINE
  5
232
330
1F
100
AcDbEntity
  8
LAYER-007
  6
CENTER
 62
     4
100
AcDbLine
 10
-36.47254534565536
 20
-38.18444154012519
 30
0.0
 11
-12.7935741704548
 21
-38.18444154012519
 31
0.0
  0
CIRCLE
  5
233
330
1F
100
AcDbEntity
  8
LAYER-006
  6
Continuous
 62
     5
100
AcDbCircle
 10
-25.07156344785244
 20
-38.18444154012519
 30
0.0
 40
6.13898148267723
  0
LINE
  5
234
330
1F
100
AcDbEntity
  8
LAYER-007
  6
CENTER
 62
     4
100
AcDbLine
 10
8.158450476914823
 20
-38.18444154012519
 30
0.0
 11
25.69842262738166
 21
-38.18444154012519
 31
0.0
  0
LINE
  5
235
330
1F
100
AcDbEntity
  8
LAYER-006
  6
Continuous
 62
     1
100
AcDbLine
 10
221.4531188339738
 20
-45.20043040031146
 30
0.0
 11
199.5281624158777
 21
-45.20043040031146
 31
0.0
  0
LINE
  5
236
330
1F
100
AcDbEntity
  8
LAYER-006
  6
Continuous
 62
     1
100
AcDbLine
 10
231.8381118715915
 20
-45.2004304003114
 30
0.0
 11
476.0681257963572
 21
-45.2004304003114
 31
0.0
  0
LINE
  5
237
330
1F
100
AcDbEntity
  8
LAYER-006
  6
Continuous
 62
     1
100
AcDbLine
 10
486.4531188339738
 20
-45.2004304003114
 30
0.0
 11
508.3780840217676
 21
-45.2004304003114
 31
0.0
  0
LINE
  5
238
330
1F
100
AcDbEntity
  8
LAYER-006
  6
Continuous
 62
     1
100
AcDbLine
 10
221.4531188339738
 20
-52.21642803110592
 30
0.0
 11
208.2981484909737
 21
-52.21642803110592
 31
0.0
  0
LINE
  5
239
330
1F
100
AcDbEntity
  8
LAYER-006
  6
Continuous
 62
     1
100
AcDbLine
 10
486.4531188339738
 20
-52.21642803110592
 30
0.0
 11
499.6080979464741
 21
-52.21642803110592
 31
0.0
  0
LINE
  5
23A
330
1F
100
AcDbEntity
  8
LAYER-006
  6
Continuous
 62
     1
100
AcDbLine
 10
-520.0715634478524
 20
-75.68444154012519
 30
0.0
 11
-520.0715634478524
 21
-94.39446505186811
 31
0.0
  0
LINE
  5
23B
330
1F
100
AcDbEntity
  8
LAYER-006
  6
Continuous
 62
     1
100
AcDbLine
 10
-50.07156344785244
 20
-75.68444154012519
 30
0.0
 11
-50.07156344785244
 21
-94.39446505186811
 31
0.0
  0
LINE
  5
23C
330
1F
100
AcDbEntity
  8
LAYER-006
  6
Continuous
 62
     1
100
AcDbLine
 10
168.9531188339738
 20
-94.39446505186811
 30
0.0
 11
538.9531188339738
 21
-94.39446505186811
 31
0.0
  0
LINE
  5
23D
330
1F
100
AcDbEntity
  8
LAYER-033
  6
CENTER
 62
     5
100
AcDbLine
 10
16.92843655214756
 20
-308.4889693901259
 30
0.0
 11
16.92843655214756
 21
-323.6856060452266
 31
0.0
  0
LINE
  5
23E
330
1F
100
AcDbEntity
  8
LAYER-033
  6
HIDDEN
 62
     5
100
AcDbLine
 10
227.4531188339738
 20
-305.1248051236344
 30
0.0
 11
231.8381118715915
 21
-305.1248051236344
 31
0.0
  0
LINE
  5
23F
330
1F
100
AcDbEntity
  8
LAYER-033
  6
CENTER
 62
     5
100
AcDbLine
 10
9.33011822676292
 20
-316.087287717676
 30
0.0
 11
24.52675488193574
 21
-316.087287717676
 31
0.0
  0
CIRCLE
  5
240
330
1F
100
AcDbEntity
  8
LAYER-033
  6
Continuous
 62
     5
100
AcDbCircle
 10
16.92843655214756
 20
-316.087287717676
 30
0.0
 40
4.262686593279735
  0
LINE
  5
241
330
1F
100
AcDbEntity
  8
LAYER-033
  6
HIDDEN
 62
     5
100
AcDbLine
 10
227.4531188339738
 20
-327.0497703117176
 30
0.0
 11
231.8381118715915
 21
-327.0497703117176
 31
0.0
  0
LINE
  5
242
330
1F
100
AcDbEntity
  8
LAYER-006
  6
Continuous
 62
     1
100
AcDbLine
 10
-520.0715634478524
 20
-354.1346504116263
 30
0.0
 11
-520.0715634478524
 21
-371.6746137921058
 31
0.0
  0
LINE
  5
243
330
1F
100
AcDbEntity
  8
LAYER-006
  6
Continuous
 62
     1
100
AcDbLine
 10
-50.07156344785244
 20
-354.1346504116263
 30
0.0
 11
-50.07156344785244
 21
-371.6746137921058
 31
0.0
  0
LINE
  5
244
330
1F
100
AcDbEntity
  8
LAYER-006
  6
Continuous
 62
     1
100
AcDbLine
 10
538.9531188339738
 20
-354.1346504116263
 30
0.0
 11
168.9531188339738
 21
-354.1346504116263
 31
0.0
  0
LINE
  5
245
330
1F
100
AcDbEntity
  8
LAYER-007
  6
CENTER
 62
     4
100
AcDbLine
 10
-587.0715634478524
 20
-395.1426448417184
 30
0.0
 11
-587.0715634478524
 21
-424.0835988899879
 31
0.0
  0
LINE
  5
246
330
1F
100
AcDbEntity
  8
LAYER-007
  6
CENTER
 62
     4
100
AcDbLine
 10
16.92843655214756
 20
-395.1426448417184
 30
0.0
 11
16.92843655214756
 21
-424.0835988899879
 31
0.0
  0
LINE
  5
247
330
1F
100
AcDbEntity
  8
LAYER-007
  6
CENTER
 62
     4
100
AcDbLine
 10
-25.07156344785244
 20
-396.8966332867789
 30
0.0
 11
-25.07156344785244
 21
-423.2066002824644
 31
0.0
  0
LINE
  5
248
330
1F
100
AcDbEntity
  8
LAYER-006
  6
Continuous
 62
     1
100
AcDbLine
 10
202.2981484909738
 20
-396.896633286779
 30
0.0
 11
202.2981484909738
 21
-423.2066002824644
 31
0.0
  0
LINE
  5
249
330
1F
100
AcDbEntity
  8
LAYER-006
  6
Continuous
 62
     1
100
AcDbLine
 10
215.4531188339738
 20
-396.896633286779
 30
0.0
 11
202.2981484909738
 21
-396.896633286779
 31
0.0
  0
LINE
  5
24A
330
1F
100
AcDbEntity
  8
LAYER-006
  6
Continuous
 62
     1
100
AcDbLine
 10
492.4531188339738
 20
-396.8966332866378
 30
0.0
 11
505.6080979464741
 21
-396.8966332866378
 31
0.0
  0
LINE
  5
24B
330
1F
100
AcDbEntity
  8
LAYER-006
  6
Continuous
 62
     1
100
AcDbLine
 10
505.6080979464741
 20
-396.8966332866378
 30
0.0
 11
505.6080979464741
 21
-423.2066002824644
 31
0.0
  0
LINE
  5
24C
330
1F
100
AcDbEntity
  8
LAYER-006
  6
Continuous
 62
     1
100
AcDbLine
 10
193.5281624161
 20
-403.0356323094277
 30
0.0
 11
193.5281624161
 21
-416.1906114222782
 31
0.0
  0
LINE
  5
24D
330
1F
100
AcDbEntity
  8
LAYER-006
  6
Continuous
 62
     1
100
AcDbLine
 10
215.4531188339738
 20
-403.0356323094277
 30
0.0
 11
193.5281624161
 21
-403.0356323094277
 31
0.0
  0
LINE
  5
24E
330
1F
100
AcDbEntity
  8
LAYER-006
  6
Continuous
 62
     1
100
AcDbLine
 10
231.8381118715915
 20
-403.0356323094277
 30
0.0
 11
476.0681257963572
 21
-403.0356323094277
 31
0.0
  0
LINE
  5
24F
330
1F
100
AcDbEntity
  8
LAYER-006
  6
Continuous
 62
     1
100
AcDbLine
 10
492.4531188339738
 20
-403.0356323094277
 30
0.0
 11
514.378084022057
 21
-403.0356323094277
 31
0.0
  0
LINE
  5
250
330
1F
100
AcDbEntity
  8
LAYER-006
  6
Continuous
 62
     1
100
AcDbLine
 10
514.378084022057
 20
-403.0356323094277
 30
0.0
 11
514.378084022057
 21
-416.1906114222782
 31
0.0
  0
LINE
  5
251
330
1F
100
AcDbEntity
  8
LAYER-007
  6
CENTER
 62
     4
100
AcDbLine
 10
-595.8415495230852
 20
-409.1746137921058
 30
0.0
 11
-578.3015773726197
 21
-409.1746137921058
 31
0.0
  0
LINE
  5
252
330
1F
100
AcDbEntity
  8
LAYER-007
  6
CENTER
 62
     4
100
AcDbLine
 10
-36.47254534565536
 20
-409.1746137921058
 30
0.0
 11
-12.7935741704548
 21
-409.1746137921058
 31
0.0
  0
CIRCLE
  5
253
330
1F
100
AcDbEntity
  8
LAYER-006
  6
Continuous
 62
     5
100
AcDbCircle
 10
-25.07156344785244
 20
-409.1746137921058
 30
0.0
 40
6.13898148267723
  0
LINE
  5
254
330
1F
100
AcDbEntity
  8
LAYER-007
  6
CENTER
 62
     4
100
AcDbLine
 10
8.158450476914823
 20
-409.1746137921058
 30
0.0
 11
25.69842262738166
 21
-409.1746137921058
 31
0.0
  0
LINE
  5
255
330
1F
100
AcDbEntity
  8
LAYER-007
  6
CENTER
 62
     4
100
AcDbLine
 10
170.871349985
 20
-409.1746137921059
 30
0.0
 11
536.1578978471528
 21
-409.1746137921059
 31
0.0
  0
LINE
  5
256
330
1F
100
AcDbEntity
  8
LAYER-006
  6
Continuous
 62
     1
100
AcDbLine
 10
215.4531188339738
 20
-416.1906114222782
 30
0.0
 11
193.5281624161
 21
-416.1906114222782
 31
0.0
  0
LINE
  5
257
330
1F
100
AcDbEntity
  8
LAYER-006
  6
Continuous
 62
     1
100
AcDbLine
 10
231.8381118715915
 20
-416.1906114222782
 30
0.0
 11
476.0681257963572
 21
-416.1906114222782
 31
0.0
  0
LINE
  5
258
330
1F
100
AcDbEntity
  8
LAYER-006
  6
Continuous
 62
     1
100
AcDbLine
 10
492.4531188339738
 20
-416.1906114222782
 30
0.0
 11
514.378084022057
 21
-416.1906114222782
 31
0.0
  0
LINE
  5
259
330
1F
100
AcDbEntity
  8
LAYER-006
  6
Continuous
 62
     1
100
AcDbLine
 10
215.4531188339738
 20
-423.2066002824644
 30
0.0
 11
202.2981484909738
 21
-423.2066002824644
 31
0.0
  0
LINE
  5
25A
330
1F
100
AcDbEntity
  8
LAYER-006
  6
Continuous
 62
     1
100
AcDbLine
 10
492.4531188339738
 20
-423.2066002824644
 30
0.0
 11
505.6080979464741
 21
-423.2066002824644
 31
0.0
  0
LINE
  5
25B
330
1F
100
AcDbEntity
  8
LAYER-007
  6
HIDDEN
 62
     1
100
AcDbLine
 10
-32.31054493052966
 20
-440.6746137921058
 30
0.0
 11
-32.31054493052966
 21
-446.6746137921058
 31
0.0
  0
LINE
  5
25C
330
1F
100
AcDbEntity
  8
LAYER-007
  6
HIDDEN
 62
     1
100
AcDbLine
 10
-17.8325731951885
 20
-440.6746137921058
 30
0.0
 11
-17.8325731951885
 21
-446.6746137921058
 31
0.0
  0
LINE
  5
25D
330
1F
100
AcDbEntity
  8
LAYER-006
  6
Continuous
 62
     1
100
AcDbLine
 10
-595.0715634478524
 20
-446.6746137921058
 30
0.0
 11
-595.0715634478524
 21
-0.6844415401251922
 31
0.0
  0
LINE
  5
25E
330
1F
100
AcDbEntity
  8
LAYER-007
  6
PHANTOM
 62
     4
100
AcDbLine
 10
296.4531188339738
 20
-446.6746137921059
 30
0.0
 11
411.4531188339738
 21
-446.6746137921059
 31
0.0
  0
LINE
  5
25F
330
1F
100
AcDbEntity
  8
LAYER-007
  6
CENTER
 62
     4
100
AcDbLine
 10
-285.0715634478524
 20
134.9355575823464
 30
0.0
 11
-285.0715634478524
 21
-446.6746137921058
 31
0.0
  0
LINE
  5
260
330
1F
100
AcDbEntity
  8
LAYER-007
  6
Continuous
 62
     1
100
AcDbLine
 10
-66.88609909300703
 20
43.186984072
 30
0.0
 11
-66.88609909300703
 21
-94.39446505186811
 31
0.0
  0
LINE
  5
261
330
1F
100
AcDbEntity
  8
LAYER-007
  6
Continuous
 62
     1
100
AcDbLine
 10
-75.65608516824034
 20
43.186984072
 30
0.0
 11
-75.65608516824034
 21
-94.39446505186811
 31
0.0
  0
LINE
  5
262
330
1F
100
AcDbEntity
  8
LAYER-007
  6
Continuous
 62
     1
100
AcDbLine
 10
-280.671811315771
 20
43.186984072
 30
0.0
 11
-280.671811315771
 21
-94.39446505186811
 31
0.0
  0
LINE
  5
263
330
1F
100
AcDbEntity
  8
LAYER-007
  6
Continuous
 62
     1
100
AcDbLine
 10
-289.4417973910043
 20
43.186984072
 30
0.0
 11
-289.4417973910043
 21
-94.39446505186811
 31
0.0
  0
LINE
  5
264
330
1F
100
AcDbEntity
  8
LAYER-007
  6
Continuous
 62
     1
100
AcDbLine
 10
-495.7436229119513
 20
43.186984072
 30
0.0
 11
-495.7436229119513
 21
-94.39446505186811
 31
0.0
  0
LINE
  5
265
330
1F
100
AcDbEntity
  8
LAYER-007
  6
Continuous
 62
     1
100
AcDbLine
 10
-504.5136089871846
 20
43.186984072
 30
0.0
 11
-504.5136089871846
 21
-94.39446505186811
 31
0.0
  0
LINE
  5
266
330
1F
100
AcDbEntity
  8
LAYER-033
  6
Continuous
 62
     1
100
AcDbLine
 10
-50.07156344785244
 20
-384.1746137921058
 30
0.0
 11
-0.0715634478524407
 21
-384.1746137921058
 31
0.0
  0
LINE
  5
267
330
1F
100
AcDbEntity
  8
LAYER-006
  6
Continuous
 62
     1
100
AcDbLine
 10
-50.07156344785244
 20
-384.1746137921058
 30
0.0
 11
-50.07156344785244
 21
-446.6746137921058
 31
0.0
  0
LINE
  5
268
330
1F
100
AcDbEntity
  8
LAYER-006
  6
Continuous
 62
     1
100
AcDbLine
 10
-0.0715634478524407
 20
-384.1746137921058
 30
0.0
 11
-0.0715634478524407
 21
-446.6746137921058
 31
0.0
  0
LINE
  5
269
330
1F
100
AcDbEntity
  8
LAYER-033
  6
CENTER
 62
     4
100
AcDbLine
 10
-25.07156344785244
 20
-437.4125874125874
 30
0.0
 11
-25.07156344785244
 21
-452.8607755881252
 31
0.0
  0
LINE
  5
26A
330
1F
100
AcDbEntity
  8
LAYER-006
  6
Continuous
 62
     1
100
AcDbLine
 10
-520.0715634478524
 20
-384.1746137921058
 30
0.0
 11
-520.0715634478524
 21
-446.6746137921058
 31
0.0
  0
LINE
  5
26B
330
1F
100
AcDbEntity
  8
LAYER-033
  6
Continuous
 62
     1
100
AcDbLine
 10
-570.0715634478524
 20
-384.1746137921058
 30
0.0
 11
-520.0715634478524
 21
-384.1746137921058
 31
0.0
  0
CIRCLE
  5
26C
330
1F
100
AcDbEntity
  8
LAYER-006
  6
Continuous
 62
     5
100
AcDbCircle
 10
-545.0715634478524
 20
-409.1746137921058
 30
0.0
 40
6.13898148267723
  0
LINE
  5
26D
330
1F
100
AcDbEntity
  8
LAYER-007
  6
CENTER
 62
     4
100
AcDbLine
 10
-545.0715634478524
 20
-396.8966332867789
 30
0.0
 11
-545.0715634478524
 21
-423.2066002824644
 31
0.0
  0
LINE
  5
26E
330
1F
100
AcDbEntity
  8
LAYER-007
  6
CENTER
 62
     4
100
AcDbLine
 10
-556.4725453456554
 20
-409.1746137921058
 30
0.0
 11
-532.7935741704548
 21
-409.1746137921058
 31
0.0
  0
LINE
  5
26F
330
1F
100
AcDbEntity
  8
LAYER-033
  6
CENTER
 62
     4
100
AcDbLine
 10
-545.0715634478524
 20
-437.4125874125874
 30
0.0
 11
-545.0715634478524
 21
-452.8607755881252
 31
0.0
  0
LINE
  5
270
330
1F
100
AcDbEntity
  8
LAYER-007
  6
HIDDEN
 62
     1
100
AcDbLine
 10
-537.8325731948524
 20
-440.6746137921058
 30
0.0
 11
-537.8325731948524
 21
-446.6746137921058
 31
0.0
  0
LINE
  5
271
330
1F
100
AcDbEntity
  8
LAYER-007
  6
HIDDEN
 62
     1
100
AcDbLine
 10
-552.3105449305297
 20
-440.6746137921058
 30
0.0
 11
-552.3105449305297
 21
-446.6746137921058
 31
0.0
  0
LINE
  5
272
330
1F
100
AcDbEntity
  8
LAYER-006
  6
Continuous
 62
     1
100
AcDbLine
 10
-570.0715634478524
 20
-384.1746137921058
 30
0.0
 11
-570.0715634478524
 21
-446.6746137921058
 31
0.0
  0
LINE
  5
273
330
1F
100
AcDbEntity
  8
LAYER-033
  6
Continuous
 62
     5
100
AcDbLine
 10
8.928436552147559
 20
-327.0497703117176
 30
0.0
 11
24.92843655214756
 21
-327.0497703117176
 31
0.0
  0
LINE
  5
274
330
1F
100
AcDbEntity
  8
LAYER-033
  6
Continuous
 62
     5
100
AcDbLine
 10
8.928436552147559
 20
-305.1248051236344
 30
0.0
 11
24.92843655214756
 21
-305.1248051236344
 31
0.0
  0
LINE
  5
275
330
1F
100
AcDbEntity
  8
LAYER-007
  6
CENTER
 62
     4
100
AcDbLine
 10
353.9531188339738
 20
32.34842648252919
 30
0.0
 11
353.9531188339738
 21
-446.6746137921058
 31
0.0
  0
LINE
  5
276
330
1F
100
AcDbEntity
  8
LAYER-033
  6
Continuous
 62
     1
100
AcDbLine
 10
221.4531188339738
 20
-446.6746137921059
 30
0.0
 11
166.4531188339738
 21
-446.6746137921059
 31
0.0
  0
LINE
  5
277
330
1F
100
AcDbEntity
  8
LAYER-033
  6
Continuous
 62
     1
100
AcDbLine
 10
221.4531188339738
 20
-384.1746137921059
 30
0.0
 11
215.4531188339738
 21
-384.1746137921059
 31
0.0
  0
LINE
  5
278
330
1F
100
AcDbEntity
  8
LAYER-033
  6
Continuous
 62
     1
100
AcDbLine
 10
166.4531188339738
 20
-440.6746137921059
 30
0.0
 11
166.4531188339738
 21
-446.6746137921059
 31
0.0
  0
LINE
  5
279
330
1F
100
AcDbEntity
  8
LAYER-033
  6
Continuous
 62
     1
100
AcDbLine
 10
215.4531188339738
 20
-440.6746137921059
 30
0.0
 11
166.4531188339738
 21
-440.6746137921059
 31
0.0
  0
LINE
  5
27A
330
1F
100
AcDbEntity
  8
LAYER-033
  6
Continuous
 62
     1
100
AcDbLine
 10
215.4531188339738
 20
-384.1746137921059
 30
0.0
 11
215.4531188339738
 21
-440.6746137921059
 31
0.0
  0
LINE
  5
27B
330
1F
100
AcDbEntity
  8
LAYER-033
  6
Continuous
 62
     1
100
AcDbLine
 10
221.4531188339738
 20
-446.6746137921059
 30
0.0
 11
296.4531188339738
 21
-446.6746137921059
 31
0.0
  0
LINE
  5
27C
330
1F
100
AcDbEntity
  8
LAYER-033
  6
Continuous
 62
     1
100
AcDbLine
 10
221.4531188339738
 20
-371.6746137921059
 30
0.0
 11
221.4531188339738
 21
-446.6746137921059
 31
0.0
  0
LINE
  5
27D
330
1F
100
AcDbEntity
  8
LAYER-033
  6
Continuous
 62
     1
100
AcDbLine
 10
221.4531188339738
 20
-371.6746137921059
 30
0.0
 11
227.4531188339738
 21
-371.6746137921059
 31
0.0
  0
LINE
  5
27E
330
1F
100
AcDbEntity
  8
LAYER-033
  6
Continuous
 62
     1
100
AcDbLine
 10
296.4531188339738
 20
-440.6746137921059
 30
0.0
 11
296.4531188339738
 21
-446.6746137921059
 31
0.0
  0
LINE
  5
27F
330
1F
100
AcDbEntity
  8
LAYER-033
  6
Continuous
 62
     1
100
AcDbLine
 10
227.4531188339738
 20
-371.6746137921059
 30
0.0
 11
227.4531188339738
 21
-440.6746137921059
 31
0.0
  0
LINE
  5
280
330
1F
100
AcDbEntity
  8
LAYER-033
  6
Continuous
 62
     1
100
AcDbLine
 10
227.4531188339738
 20
-440.6746137921059
 30
0.0
 11
296.4531188339738
 21
-440.6746137921059
 31
0.0
  0
LINE
  5
281
330
1F
100
AcDbEntity
  8
LAYER-033
  6
HIDDEN
 62
     4
100
AcDbLine
 10
176.4531188339738
 20
-440.6746137921059
 30
0.0
 11
176.4531188339738
 21
-446.6746137921059
 31
0.0
  0
LINE
  5
282
330
1F
100
AcDbEntity
  8
LAYER-033
  6
HIDDEN
 62
     4
100
AcDbLine
 10
196.4531188339738
 20
-440.6746137921059
 30
0.0
 11
196.4531188339738
 21
-446.6746137921059
 31
0.0
  0
LINE
  5
283
330
1F
100
AcDbEntity
  8
LAYER-033
  6
CENTER
 62
     4
100
AcDbLine
 10
186.4531188339738
 20
-437.2049321500127
 30
0.0
 11
186.4531188339738
 21
-450.3967224167768
 31
0.0
  0
LINE
  5
284
330
1F
100
AcDbEntity
  8
LAYER-033
  6
Continuous
 62
     1
100
AcDbLine
 10
480.4531188339738
 20
-440.6746137921059
 30
0.0
 11
411.4531188339738
 21
-440.6746137921059
 31
0.0
  0
LINE
  5
285
330
1F
100
AcDbEntity
  8
LAYER-033
  6
Continuous
 62
     1
100
AcDbLine
 10
486.4531188339738
 20
-371.6746137921059
 30
0.0
 11
486.4531188339738
 21
-446.6746137921059
 31
0.0
  0
LINE
  5
286
330
1F
100
AcDbEntity
  8
LAYER-033
  6
Continuous
 62
     1
100
AcDbLine
 10
480.4531188339738
 20
-371.6746137921059
 30
0.0
 11
480.4531188339738
 21
-440.6746137921059
 31
0.0
  0
LINE
  5
287
330
1F
100
AcDbEntity
  8
LAYER-033
  6
Continuous
 62
     1
100
AcDbLine
 10
486.4531188339738
 20
-371.6746137921059
 30
0.0
 11
480.4531188339738
 21
-371.6746137921059
 31
0.0
  0
LINE
  5
288
330
1F
100
AcDbEntity
  8
LAYER-033
  6
Continuous
 62
     1
100
AcDbLine
 10
411.4531188339738
 20
-440.6746137921059
 30
0.0
 11
411.4531188339738
 21
-446.6746137921059
 31
0.0
  0
LINE
  5
289
330
1F
100
AcDbEntity
  8
LAYER-033
  6
Continuous
 62
     1
100
AcDbLine
 10
486.4531188339738
 20
-446.6746137921059
 30
0.0
 11
411.4531188339738
 21
-446.6746137921059
 31
0.0
  0
LINE
  5
28A
330
1F
100
AcDbEntity
  8
LAYER-033
  6
Continuous
 62
     1
100
AcDbLine
 10
486.4531188339738
 20
-446.6746137921059
 30
0.0
 11
541.4531188339738
 21
-446.6746137921059
 31
0.0
  0
LINE
  5
28B
330
1F
100
AcDbEntity
  8
LAYER-033
  6
Continuous
 62
     1
100
AcDbLine
 10
492.4531188339738
 20
-440.6746137921059
 30
0.0
 11
541.4531188339738
 21
-440.6746137921059
 31
0.0
  0
LINE
  5
28C
330
1F
100
AcDbEntity
  8
LAYER-033
  6
Continuous
 62
     1
100
AcDbLine
 10
492.4531188339738
 20
-384.1746137921059
 30
0.0
 11
492.4531188339738
 21
-440.6746137921059
 31
0.0
  0
LINE
  5
28D
330
1F
100
AcDbEntity
  8
LAYER-033
  6
Continuous
 62
     1
100
AcDbLine
 10
541.4531188339738
 20
-440.6746137921059
 30
0.0
 11
541.4531188339738
 21
-446.6746137921059
 31
0.0
  0
LINE
  5
28E
330
1F
100
AcDbEntity
  8
LAYER-033
  6
CENTER
 62
     4
100
AcDbLine
 10
521.4531188339738
 20
-437.2049321500127
 30
0.0
 11
521.4531188339738
 21
-450.3967224167768
 31
0.0
  0
LINE
  5
28F
330
1F
100
AcDbEntity
  8
LAYER-033
  6
HIDDEN
 62
     4
100
AcDbLine
 10
531.4531188339738
 20
-440.6746137921059
 30
0.0
 11
531.4531188339738
 21
-446.6746137921059
 31
0.0
  0
LINE
  5
290
330
1F
100
AcDbEntity
  8
LAYER-033
  6
HIDDEN
 62
     4
100
AcDbLine
 10
511.4531188339738
 20
-440.6746137921059
 30
0.0
 11
511.4531188339738
 21
-446.6746137921059
 31
0.0
  0
LINE
  5
291
330
1F
100
AcDbEntity
  8
LAYER-033
  6
Continuous
 62
     1
100
AcDbLine
 10
486.4531188339738
 20
-384.1746137921059
 30
0.0
 11
492.4531188339738
 21
-384.1746137921059
 31
0.0
  0
LINE
  5
292
330
1F
100
AcDbEntity
  8
LAYER-033
  6
Continuous
 62
     1
100
AcDbLine
 10
486.4531188339738
 20
-0.6844415401251922
 30
0.0
 11
411.4531188339738
 21
-0.6844415401251922
 31
0.0
  0
LINE
  5
293
330
1F
100
AcDbEntity
  8
LAYER-033
  6
Continuous
 62
     1
100
AcDbLine
 10
480.4531188339738
 20
-6.684441540125192
 30
0.0
 11
411.4531188339738
 21
-6.684441540125192
 31
0.0
  0
LINE
  5
294
330
1F
100
AcDbEntity
  8
LAYER-033
  6
Continuous
 62
     1
100
AcDbLine
 10
486.4531188339738
 20
-75.68444154012519
 30
0.0
 11
486.4531188339738
 21
-0.6844415401251922
 31
0.0
  0
LINE
  5
295
330
1F
100
AcDbEntity
  8
LAYER-033
  6
Continuous
 62
     1
100
AcDbLine
 10
480.4531188339738
 20
-75.68444154012519
 30
0.0
 11
480.4531188339738
 21
-6.684441540125192
 31
0.0
  0
LINE
  5
296
330
1F
100
AcDbEntity
  8
LAYER-033
  6
Continuous
 62
     1
100
AcDbLine
 10
486.4531188339738
 20
-75.68444154012519
 30
0.0
 11
480.4531188339738
 21
-75.68444154012519
 31
0.0
  0
LINE
  5
297
330
1F
100
AcDbEntity
  8
LAYER-033
  6
Continuous
 62
     1
100
AcDbLine
 10
411.4531188339738
 20
-6.684441540125192
 30
0.0
 11
411.4531188339738
 21
-0.6844415401251922
 31
0.0
  0
LINE
  5
298
330
1F
100
AcDbEntity
  8
LAYER-033
  6
Continuous
 62
     1
100
AcDbLine
 10
221.4531188339738
 20
-0.6844415401251922
 30
0.0
 11
296.4531188339738
 21
-0.6844415401251922
 31
0.0
  0
LINE
  5
299
330
1F
100
AcDbEntity
  8
LAYER-033
  6
Continuous
 62
     1
100
AcDbLine
 10
227.4531188339738
 20
-6.684441540125192
 30
0.0
 11
296.4531188339738
 21
-6.684441540125192
 31
0.0
  0
LINE
  5
29A
330
1F
100
AcDbEntity
  8
LAYER-033
  6
Continuous
 62
     1
100
AcDbLine
 10
221.4531188339738
 20
-75.68444154012519
 30
0.0
 11
221.4531188339738
 21
-0.6844415401251922
 31
0.0
  0
LINE
  5
29B
330
1F
100
AcDbEntity
  8
LAYER-033
  6
Continuous
 62
     1
100
AcDbLine
 10
227.4531188339738
 20
-75.68444154012519
 30
0.0
 11
227.4531188339738
 21
-6.684441540125192
 31
0.0
  0
LINE
  5
29C
330
1F
100
AcDbEntity
  8
LAYER-033
  6
Continuous
 62
     1
100
AcDbLine
 10
221.4531188339738
 20
-75.68444154012519
 30
0.0
 11
227.4531188339738
 21
-75.68444154012519
 31
0.0
  0
LINE
  5
29D
330
1F
100
AcDbEntity
  8
LAYER-033
  6
Continuous
 62
     1
100
AcDbLine
 10
296.4531188339738
 20
-6.684441540125192
 30
0.0
 11
296.4531188339738
 21
-0.6844415401251922
 31
0.0
  0
LINE
  5
29E
330
1F
100
AcDbEntity
  8
LAYER-006
  6
Continuous
 62
     1
100
AcDbLine
 10
480.4531188339738
 20
-6.684441540125192
 30
0.0
 11
480.4531188339738
 21
-440.6746137921059
 31
0.0
  0
LINE
  5
29F
330
1F
100
AcDbEntity
  8
LAYER-006
  6
Continuous
 62
     1
100
AcDbLine
 10
476.0681257963572
 20
-440.6746137921059
 30
0.0
 11
476.0681257963572
 21
-6.684441540125192
 31
0.0
  0
LINE
  5
2A0
330
1F
100
AcDbEntity
  8
LAYER-006
  6
Continuous
 62
     1
100
AcDbLine
 10
231.8381118715915
 20
-6.684441540125192
 30
0.0
 11
231.8381118715915
 21
-440.6746137921059
 31
0.0
  0
LINE
  5
2A1
330
1F
100
AcDbEntity
  8
LAYER-006
  6
Continuous
 62
     1
100
AcDbLine
 10
227.4531188339738
 20
-6.684441540125192
 30
0.0
 11
227.4531188339738
 21
-440.6746137921059
 31
0.0
  0
LINE
  5
2A2
330
1F
100
AcDbEntity
  8
LAYER-007
  6
Continuous
 62
     1
100
AcDbLine
 10
191.9024330673781
 20
43.186984072
 30
0.0
 11
191.9024330673781
 21
-94.39446505186811
 31
0.0
  0
LINE
  5
2A3
330
1F
100
AcDbEntity
  8
LAYER-007
  6
Continuous
 62
     1
100
AcDbLine
 10
183.1324469921449
 20
43.186984072
 30
0.0
 11
183.1324469921449
 21
-94.39446505186811
 31
0.0
  0
LINE
  5
2A4
330
1F
100
AcDbEntity
  8
LAYER-007
  6
Continuous
 62
     1
100
AcDbLine
 10
524.7737906758039
 20
43.186984072
 30
0.0
 11
524.7737906758039
 21
-94.39446505186811
 31
0.0
  0
LINE
  5
2A5
330
1F
100
AcDbEntity
  8
LAYER-007
  6
Continuous
 62
     1
100
AcDbLine
 10
516.0038046005707
 20
43.186984072
 30
0.0
 11
516.0038046005707
 21
-94.39446505186811
 31
0.0
  0
LINE
  5
2A6
330
1F
100
AcDbEntity
  8
LAYER-007
  6
Continuous
 62
     1
100
AcDbLine
 10
178.7474539545272
 20
65.11199442289308
 30
0.0
 11
178.7474539545272
 21
43.186984072
 31
0.0
  0
LINE
  5
2A7
330
1F
100
AcDbEntity
  8
LAYER-008
  6
HIDDEN
 62
     4
100
AcDbLine
 10
191.9024330673781
 20
69.49698745953066
 30
0.0
 11
191.9024330673781
 21
43.186984072
 31
0.0
  0
LINE
  5
2A8
330
1F
100
AcDbEntity
  8
LAYER-007
  6
Continuous
 62
     1
100
AcDbLine
 10
529.1587837131476
 20
65.11199442285806
 30
0.0
 11
529.1587837131476
 21
43.186984072
 31
0.0
  0
LINE
  5
2A9
330
1F
100
AcDbEntity
  8
LAYER-008
  6
HIDDEN
 62
     4
100
AcDbLine
 10
516.0038046005707
 20
69.49698745953066
 30
0.0
 11
516.0038046005707
 21
43.186984072
 31
0.0
  0
LINE
  5
2AA
330
1F
100
AcDbEntity
  8
LAYER-033
  6
Continuous
 62
     1
100
AcDbLine
 10
244.5223495187768
 20
113.3253862078941
 30
0.0
 11
244.5223495187768
 21
69.47545583172769
 31
0.0
  0
LINE
  5
2AB
330
1F
100
AcDbEntity
  8
LAYER-007
  6
Continuous
 62
     1
100
AcDbLine
 10
222.5973843306936
 20
113.3253862078941
 30
0.0
 11
222.5973843306936
 21
-0.6844415401251922
 31
0.0
  0
LINE
  5
2AC
330
1F
100
AcDbEntity
  8
LAYER-007
  6
Continuous
 62
     1
100
AcDbLine
 10
218.2123912934774
 20
113.3253862078941
 30
0.0
 11
218.2123912934774
 21
-25.90646980587962
 31
0.0
  0
LINE
  5
2AD
330
1F
100
AcDbEntity
  8
LAYER-007
  6
Continuous
 62
     1
100
AcDbLine
 10
196.2874261049947
 20
83.50743355217787
 30
0.0
 11
196.2874261049947
 21
43.186984072
 31
0.0
  0
LINE
  5
2AE
330
1F
100
AcDbEntity
  8
LAYER-007
  6
Continuous
 62
     1
100
AcDbLine
 10
489.6938463748709
 20
113.3253862078941
 30
0.0
 11
489.6938463748709
 21
-25.90646980587957
 31
0.0
  0
LINE
  5
2AF
330
1F
100
AcDbEntity
  8
LAYER-007
  6
Continuous
 62
     1
100
AcDbLine
 10
485.3088533374744
 20
113.3253862078941
 30
0.0
 11
485.3088533374744
 21
-0.6844415401251922
 31
0.0
  0
LINE
  5
2B0
330
1F
100
AcDbEntity
  8
LAYER-007
  6
Continuous
 62
     1
100
AcDbLine
 10
516.0038046005707
 20
83.50743355217787
 30
0.0
 11
516.0038046005707
 21
69.49698745953066
 31
0.0
  0
LINE
  5
2B1
330
1F
100
AcDbEntity
  8
LAYER-007
  6
Continuous
 62
     1
100
AcDbLine
 10
511.6188115631744
 20
83.50743355217787
 30
0.0
 11
511.6188115631744
 21
43.186984072
 31
0.0
  0
LINE
  5
2B2
330
1F
100
AcDbEntity
  8
LAYER-007
  6
Continuous
 62
     1
100
AcDbLine
 10
191.9024330673781
 20
83.50743355217776
 30
0.0
 11
191.9024330673781
 21
69.49698745953072
 31
0.0
  0
LINE
  5
2B3
330
1F
100
AcDbEntity
  8
LAYER-033
  6
Continuous
 62
     1
100
AcDbLine
 10
411.4531188339738
 20
-6.684441540125192
 30
0.0
 11
296.4531188339738
 21
-6.684441540125192
 31
0.0
  0
LINE
  5
2B4
330
1F
100
AcDbEntity
  8
LAYER-033
  6
Continuous
 62
     1
100
AcDbLine
 10
411.4531188339738
 20
-440.6746137921059
 30
0.0
 11
296.4531188339738
 21
-440.6746137921059
 31
0.0
  0
LINE
  5
2B5
330
1F
100
AcDbEntity
  8
LAYER-006
  6
Continuous
 62
     1
100
AcDbLine
 10
-66.88609909300703
 20
-75.68444154012519
 30
0.0
 11
24.92843655214756
 21
-75.68444154012519
 31
0.0
  0
LINE
  5
2B6
330
1F
100
AcDbEntity
  8
LAYER-007
  6
HIDDEN
 62
     1
100
AcDbLine
 10
-66.88609909300703
 20
-6.684441540125192
 30
0.0
 11
24.92843655214756
 21
-6.684441540125192
 31
0.0
  0
LINE
  5
2B7
330
1F
100
AcDbEntity
  8
LAYER-006
  6
Continuous
 62
     1
100
AcDbLine
 10
-66.88609909300703
 20
-0.6844415401251922
 30
0.0
 11
24.92843655214756
 21
-0.6844415401251922
 31
0.0
  0
LINE
  5
2B8
330
1F
100
AcDbEntity
  8
LAYER-007
  6
HIDDEN
 62
     1
100
AcDbLine
 10
-280.671811315771
 20
-6.684441540125192
 30
0.0
 11
-75.65608516824034
 21
-6.684441540125192
 31
0.0
  0
LINE
  5
2B9
330
1F
100
AcDbEntity
  8
LAYER-006
  6
Continuous
 62
     1
100
AcDbLine
 10
-280.671811315771
 20
-0.6844415401251922
 30
0.0
 11
-75.65608516824034
 21
-0.6844415401251922
 31
0.0
  0
LINE
  5
2BA
330
1F
100
AcDbEntity
  8
LAYER-006
  6
Continuous
 62
     1
100
AcDbLine
 10
-280.671811315771
 20
-75.68444154012519
 30
0.0
 11
-75.65608516824034
 21
-75.68444154012519
 31
0.0
  0
LINE
  5
2BB
330
1F
100
AcDbEntity
  8
LAYER-006
  6
Continuous
 62
     1
100
AcDbLine
 10
-595.0715634478524
 20
-371.6746137921058
 30
0.0
 11
24.92843655214756
 21
-371.6746137921058
 31
0.0
  0
LINE
  5
2BC
330
1F
100
AcDbEntity
  8
LAYER-007
  6
HIDDEN
 62
     1
100
AcDbLine
 10
-595.0715634478524
 20
-440.6746137921058
 30
0.0
 11
24.92843655214756
 21
-440.6746137921058
 31
0.0
  0
LINE
  5
2BD
330
1F
100
AcDbEntity
  8
LAYER-006
  6
Continuous
 62
     1
100
AcDbLine
 10
24.92843655214756
 20
-446.6746137921058
 30
0.0
 11
-595.0715634478524
 21
-446.6746137921058
 31
0.0
  0
LINE
  5
2BE
330
1F
100
AcDbEntity
  8
LAYER-006
  6
Continuous
 62
     1
100
AcDbLine
 10
-595.0715634478524
 20
-75.68444154012519
 30
0.0
 11
-504.5136089871846
 21
-75.68444154012519
 31
0.0
  0
LINE
  5
2BF
330
1F
100
AcDbEntity
  8
LAYER-007
  6
HIDDEN
 62
     1
100
AcDbLine
 10
-595.0715634478524
 20
-6.684441540125192
 30
0.0
 11
-504.5136089871846
 21
-6.684441540125192
 31
0.0
  0
LINE
  5
2C0
330
1F
100
AcDbEntity
  8
LAYER-006
  6
Continuous
 62
     1
100
AcDbLine
 10
-595.0715634478524
 20
-0.6844415401251922
 30
0.0
 11
-504.5136089871846
 21
-0.6844415401251922
 31
0.0
  0
LINE
  5
2C1
330
1F
100
AcDbEntity
  8
LAYER-007
  6
Continuous
 62
     1
100
AcDbLine
 10
-550.3446344641631
 20
69.47545583172769
 30
0.0
 11
-18.04448644700005
 21
69.47545583172769
 31
0.0
  0
LINE
  5
2C2
330
1F
100
AcDbEntity
  8
LAYER-007
  6
Continuous
 62
     1
100
AcDbLine
 10
-567.8846153846155
 20
113.3253862078942
 30
0.0
 11
-0.5045142960000248
 21
113.3253862078942
 31
0.0
  0
LINE
  5
2C3
330
1F
100
AcDbEntity
  8
LAYER-007
  6
Continuous
 62
     1
100
AcDbLine
 10
-567.8846153846155
 20
139.9659542311875
 30
0.0
 11
-0.5045142960000248
 21
139.9659542311875
 31
0.0
  0
LINE
  5
2C4
330
1F
100
AcDbEntity
  8
LAYER-007
  6
Continuous
 62
     1
100
AcDbLine
 10
-567.8846153846155
 20
35.64872257873287
 30
0.0
 11
-0.5045142960000248
 21
35.64872257873287
 31
0.0
  0
LINE
  5
2C5
330
1F
100
AcDbEntity
  8
LAYER-007
  6
HIDDEN
 62
     1
100
AcDbLine
 10
-495.7436229119513
 20
-6.684441540125192
 30
0.0
 11
-289.4417973910043
 21
-6.684441540125192
 31
0.0
  0
LINE
  5
2C6
330
1F
100
AcDbEntity
  8
LAYER-006
  6
Continuous
 62
     1
100
AcDbLine
 10
-495.7436229119513
 20
-0.6844415401251922
 30
0.0
 11
-289.4417973910043
 21
-0.6844415401251922
 31
0.0
  0
LINE
  5
2C7
330
1F
100
AcDbEntity
  8
LAYER-006
  6
Continuous
 62
     1
100
AcDbLine
 10
-495.7436229119513
 20
-75.68444154012519
 30
0.0
 11
-289.4417973910043
 21
-75.68444154012519
 31
0.0
  0
LINE
  5
2C8
330
1F
100
AcDbEntity
  8
LAYER-006
  6
Continuous
 62
     1
100
AcDbLine
 10
8.928436552147559
 20
-75.68444154012519
 30
0.0
 11
8.928436552147559
 21
-371.6746137921058
 31
0.0
  0
LINE
  5
2C9
330
1F
100
AcDbEntity
  8
LAYER-006
  6
Continuous
 62
     1
100
AcDbLine
 10
-35.07156344785244
 20
-94.39446505186811
 30
0.0
 11
-35.07156344785244
 21
-354.1346504116263
 31
0.0
  0
LINE
  5
2CA
330
1F
100
AcDbEntity
  8
LAYER-006
  6
Continuous
 62
     1
100
AcDbLine
 10
-195.8715634478525
 20
-94.39446505186811
 30
0.0
 11
-195.8715634478525
 21
-354.1346504116263
 31
0.0
  0
LINE
  5
2CB
330
1F
100
AcDbEntity
  8
LAYER-006
  6
Continuous
 62
     1
100
AcDbLine
 10
-204.6715634454003
 20
-94.39446505186811
 30
0.0
 11
-204.6715634454003
 21
-354.1346504116263
 31
0.0
  0
LINE
  5
2CC
330
1F
100
AcDbEntity
  8
LAYER-006
  6
Continuous
 62
     1
100
AcDbLine
 10
-365.4715634478524
 20
-94.39446505186811
 30
0.0
 11
-365.4715634478524
 21
-354.1346504116263
 31
0.0
  0
LINE
  5
2CD
330
1F
100
AcDbEntity
  8
LAYER-006
  6
Continuous
 62
     1
100
AcDbLine
 10
-374.2715634478524
 20
-94.39446505186811
 30
0.0
 11
-374.2715634478524
 21
-354.1346504116263
 31
0.0
  0
LINE
  5
2CE
330
1F
100
AcDbEntity
  8
LAYER-006
  6
Continuous
 62
     1
100
AcDbLine
 10
-535.0715634478524
 20
-354.1346504116263
 30
0.0
 11
-535.0715634478524
 21
-94.39446505186811
 31
0.0
  0
LINE
  5
2CF
330
1F
100
AcDbEntity
  8
LAYER-006
  6
Continuous
 62
     1
100
AcDbLine
 10
-579.0715634478524
 20
-75.68444154012519
 30
0.0
 11
-579.0715634478524
 21
-371.6746137921058
 31
0.0
  0
LINE
  5
2D0
330
1F
100
AcDbEntity
  8
LAYER-006
  6
Continuous
 62
     1
100
AcDbLine
 10
538.9531188339738
 20
-94.39446505186811
 30
0.0
 11
538.9531188339738
 21
-354.1346504116263
 31
0.0
  0
LINE
  5
2D1
330
1F
100
AcDbEntity
  8
LAYER-006
  6
Continuous
 62
     1
100
AcDbLine
 10
168.9531188339738
 20
-354.1346504116263
 30
0.0
 11
168.9531188339738
 21
-94.39446505186811
 31
0.0
  0
LINE
  5
2D2
330
1F
100
AcDbEntity
  8
LAYER-006
  6
Continuous
 62
     1
100
AcDbLine
 10
494.0788394127078
 20
103.2399066088932
 30
0.0
 11
511.6188115631744
 21
103.2399066088932
 31
0.0
  0
LINE
  5
2D3
330
1F
100
AcDbEntity
  8
LAYER-006
  6
Continuous
 62
     1
100
AcDbLine
 10
494.0788394127078
 20
79.56093543289421
 30
0.0
 11
511.6188115631744
 21
79.56093543289421
 31
0.0
  0
LINE
  5
2D4
330
1F
100
AcDbEntity
  8
LAYER-006
  6
Continuous
 62
     1
100
AcDbLine
 10
213.8273982554604
 20
103.2399066088932
 30
0.0
 11
196.2874261049947
 21
103.2399066088932
 31
0.0
  0
LINE
  5
2D5
330
1F
100
AcDbEntity
  8
LAYER-006
  6
Continuous
 62
     1
100
AcDbLine
 10
213.8273982554604
 20
79.56093543289421
 30
0.0
 11
196.2874261049947
 21
79.56093543289421
 31
0.0
  0
LINE
  5
2D6
330
1F
100
AcDbEntity
  8
LAYER-033
  6
Continuous
 62
     4
100
AcDbLine
 10
183.1324469921449
 20
39.65145016606726
 30
0.0
 11
186.6679808980776
 21
43.186984072
 31
0.0
  0
LINE
  5
2D7
330
1F
100
AcDbEntity
  8
LAYER-033
  6
Continuous
 62
     4
100
AcDbLine
 10
183.1324469921449
 20
36.1159162601345
 30
0.0
 11
190.2035148040104
 21
43.186984072
 31
0.0
  0
LINE
  5
2D8
330
1F
100
AcDbEntity
  8
LAYER-033
  6
Continuous
 62
     4
100
AcDbLine
 10
183.1324469921449
 20
32.58038235420173
 30
0.0
 11
191.9024330673781
 21
41.35036842943487
 31
0.0
  0
LINE
  5
2D9
330
1F
100
AcDbEntity
  8
LAYER-033
  6
Continuous
 62
     4
100
AcDbLine
 10
183.1324469921449
 20
29.04484844826902
 30
0.0
 11
191.9024330673781
 21
37.81483452350221
 31
0.0
  0
LINE
  5
2DA
330
1F
100
AcDbEntity
  8
LAYER-033
  6
Continuous
 62
     4
100
AcDbLine
 10
183.1324469921449
 20
25.50931454233626
 30
0.0
 11
191.9024330673781
 21
34.27930061756945
 31
0.0
  0
LINE
  5
2DB
330
1F
100
AcDbEntity
  8
LAYER-033
  6
Continuous
 62
     4
100
AcDbLine
 10
183.1324469921449
 20
21.97378063640349
 30
0.0
 11
191.9024330673781
 21
30.74376671163668
 31
0.0
  0
LINE
  5
2DC
330
1F
100
AcDbEntity
  8
LAYER-033
  6
Continuous
 62
     4
100
AcDbLine
 10
183.1324469921449
 20
18.43824673047072
 30
0.0
 11
191.9024330673781
 21
27.20823280570392
 31
0.0
  0
LINE
  5
2DD
330
1F
100
AcDbEntity
  8
LAYER-033
  6
Continuous
 62
     4
100
AcDbLine
 10
183.1324469921449
 20
14.90271282453796
 30
0.0
 11
191.9024330673781
 21
23.67269889977115
 31
0.0
  0
LINE
  5
2DE
330
1F
100
AcDbEntity
  8
LAYER-033
  6
Continuous
 62
     4
100
AcDbLine
 10
183.1324469921449
 20
11.36717891859541
 30
0.0
 11
191.9024330673781
 21
20.13716499383844
 31
0.0
  0
LINE
  5
2DF
330
1F
100
AcDbEntity
  8
LAYER-033
  6
Continuous
 62
     4
100
AcDbLine
 10
183.1324469921449
 20
7.831645012672482
 30
0.0
 11
191.9024330673781
 21
16.60163108790567
 31
0.0
  0
LINE
  5
2E0
330
1F
100
AcDbEntity
  8
LAYER-033
  6
Continuous
 62
     4
100
AcDbLine
 10
183.1324469921449
 20
4.296111106739716
 30
0.0
 11
191.9024330673781
 21
13.06609718197291
 31
0.0
  0
LINE
  5
2E1
330
1F
100
AcDbEntity
  8
LAYER-033
  6
Continuous
 62
     4
100
AcDbLine
 10
183.1324469921449
 20
0.7605772008070062
 30
0.0
 11
191.9024330673781
 21
9.530563276040141
 31
0.0
  0
LINE
  5
2E2
330
1F
100
AcDbEntity
  8
LAYER-033
  6
Continuous
 62
     4
100
AcDbLine
 10
183.1324469921449
 20
-2.77495670512576
 30
0.0
 11
191.9024330673781
 21
5.995029370107432
 31
0.0
  0
LINE
  5
2E3
330
1F
100
AcDbEntity
  8
LAYER-033
  6
Continuous
 62
     4
100
AcDbLine
 10
183.1324469921449
 20
-6.310490611058526
 30
0.0
 11
191.9024330673781
 21
2.459495464174665
 31
0.0
  0
LINE
  5
2E4
330
1F
100
AcDbEntity
  8
LAYER-033
  6
Continuous
 62
     4
100
AcDbLine
 10
183.1324469921449
 20
-9.846024516991292
 30
0.0
 11
191.9024330673781
 21
-1.076038441758101
 31
0.0
  0
LINE
  5
2E5
330
1F
100
AcDbEntity
  8
LAYER-033
  6
Continuous
 62
     4
100
AcDbLine
 10
183.1324469921449
 20
-13.381558422924
 30
0.0
 11
191.9024330673781
 21
-4.611572347690867
 31
0.0
  0
LINE
  5
2E6
330
1F
100
AcDbEntity
  8
LAYER-033
  6
Continuous
 62
     4
100
AcDbLine
 10
183.1324469921449
 20
-16.91709232885677
 30
0.0
 11
191.9024330673781
 21
-8.147106253623633
 31
0.0
  0
LINE
  5
2E7
330
1F
100
AcDbEntity
  8
LAYER-033
  6
Continuous
 62
     4
100
AcDbLine
 10
183.1324469921449
 20
-20.45262623478953
 30
0.0
 11
191.9024330673781
 21
-11.68264015955634
 31
0.0
  0
LINE
  5
2E8
330
1F
100
AcDbEntity
  8
LAYER-033
  6
Continuous
 62
     4
100
AcDbLine
 10
183.1324469921449
 20
-23.98816014072224
 30
0.0
 11
191.9024330673781
 21
-15.21817406548911
 31
0.0
  0
LINE
  5
2E9
330
1F
100
AcDbEntity
  8
LAYER-033
  6
Continuous
 62
     4
100
AcDbLine
 10
183.1324469921449
 20
-27.52369404665501
 30
0.0
 11
191.9024330673781
 21
-18.75370797110588
 31
0.0
  0
LINE
  5
2EA
330
1F
100
AcDbEntity
  8
LAYER-033
  6
Continuous
 62
     4
100
AcDbLine
 10
183.1324469921449
 20
-31.05922795258778
 30
0.0
 11
191.9024330673781
 21
-22.28924187735458
 31
0.0
  0
LINE
  5
2EB
330
1F
100
AcDbEntity
  8
LAYER-033
  6
Continuous
 62
     4
100
AcDbLine
 10
183.1324469921449
 20
-34.59476185852054
 30
0.0
 11
191.9024330673781
 21
-25.82477578328735
 31
0.0
  0
LINE
  5
2EC
330
1F
100
AcDbEntity
  8
LAYER-033
  6
Continuous
 62
     4
100
AcDbLine
 10
183.1324469921449
 20
-38.13029576445331
 30
0.0
 11
191.9024330673781
 21
-29.36030968912519
 31
0.0
  0
LINE
  5
2ED
330
1F
100
AcDbEntity
  8
LAYER-033
  6
Continuous
 62
     4
100
AcDbLine
 10
183.1324469921449
 20
-41.66582967038607
 30
0.0
 11
191.9024330673781
 21
-32.89584359515283
 31
0.0
  0
LINE
  5
2EE
330
1F
100
AcDbEntity
  8
LAYER-033
  6
Continuous
 62
     4
100
AcDbLine
 10
183.1324469921449
 20
-45.20136357631878
 30
0.0
 11
191.9024330673781
 21
-36.43137750108559
 31
0.0
  0
LINE
  5
2EF
330
1F
100
AcDbEntity
  8
LAYER-033
  6
Continuous
 62
     4
100
AcDbLine
 10
183.1324469921449
 20
-48.73689748212519
 30
0.0
 11
191.9024330673781
 21
-39.96691138168478
 31
0.0
  0
LINE
  5
2F0
330
1F
100
AcDbEntity
  8
LAYER-033
  6
Continuous
 62
     4
100
AcDbLine
 10
183.1324469921449
 20
-52.27243138818432
 30
0.0
 11
191.9024330673781
 21
-43.50244531295112
 31
0.0
  0
LINE
  5
2F1
330
1F
100
AcDbEntity
  8
LAYER-033
  6
Continuous
 62
     4
100
AcDbLine
 10
183.1324469921449
 20
-55.80796529411703
 30
0.0
 11
191.9024330673781
 21
-47.03797921886809
 31
0.0
  0
LINE
  5
2F2
330
1F
100
AcDbEntity
  8
LAYER-033
  6
Continuous
 62
     4
100
AcDbLine
 10
183.1324469921449
 20
-59.34349920004979
 30
0.0
 11
191.9024330673781
 21
-50.5735131248166
 31
0.0
  0
LINE
  5
2F3
330
1F
100
AcDbEntity
  8
LAYER-033
  6
Continuous
 62
     4
100
AcDbLine
 10
183.1324469921449
 20
-62.87903310598256
 30
0.0
 11
191.9024330673781
 21
-54.10904708164645
 31
0.0
  0
LINE
  5
2F4
330
1F
100
AcDbEntity
  8
LAYER-033
  6
Continuous
 62
     4
100
AcDbLine
 10
183.1324469921449
 20
-66.41456701191532
 30
0.0
 11
191.9024330673781
 21
-57.64458093668213
 31
0.0
  0
LINE
  5
2F5
330
1F
100
AcDbEntity
  8
LAYER-033
  6
Continuous
 62
     4
100
AcDbLine
 10
183.1324469921449
 20
-69.95010091784803
 30
0.0
 11
191.9024330673781
 21
-61.1801148426149
 31
0.0
  0
LINE
  5
2F6
330
1F
100
AcDbEntity
  8
LAYER-033
  6
Continuous
 62
     4
100
AcDbLine
 10
183.1324469921449
 20
-73.4856348237808
 30
0.0
 11
191.9024330673781
 21
-64.71564874854761
 31
0.0
  0
LINE
  5
2F7
330
1F
100
AcDbEntity
  8
LAYER-033
  6
Continuous
 62
     4
100
AcDbLine
 10
183.1324469921449
 20
-77.02116872971357
 30
0.0
 11
191.9024330673781
 21
-68.25118265448037
 31
0.0
  0
LINE
  5
2F8
330
1F
100
AcDbEntity
  8
LAYER-033
  6
Continuous
 62
     4
100
AcDbLine
 10
183.1324469921449
 20
-80.55670263564633
 30
0.0
 11
191.9024330673781
 21
-71.78671656041308
 31
0.0
  0
LINE
  5
2F9
330
1F
100
AcDbEntity
  8
LAYER-033
  6
Continuous
 62
     4
100
AcDbLine
 10
183.1324469921449
 20
-84.09223654157904
 30
0.0
 11
191.9024330673781
 21
-75.32225046634585
 31
0.0
  0
LINE
  5
2FA
330
1F
100
AcDbEntity
  8
LAYER-033
  6
Continuous
 62
     4
100
AcDbLine
 10
183.1324469921449
 20
-87.62777044751181
 30
0.0
 11
191.9024330673781
 21
-78.85778437227862
 31
0.0
  0
LINE
  5
2FB
330
1F
100
AcDbEntity
  8
LAYER-033
  6
Continuous
 62
     4
100
AcDbLine
 10
183.1324469921449
 20
-91.16330435344457
 30
0.0
 11
191.9024330673781
 21
-82.39331827821138
 31
0.0
  0
LINE
  5
2FC
330
1F
100
AcDbEntity
  8
LAYER-033
  6
Continuous
 62
     4
100
AcDbLine
 10
183.4368201996541
 20
-94.39446505186811
 30
0.0
 11
191.9024330673781
 21
-85.92885218414415
 31
0.0
  0
LINE
  5
2FD
330
1F
100
AcDbEntity
  8
LAYER-033
  6
Continuous
 62
     4
100
AcDbLine
 10
186.9723541055869
 20
-94.39446505186811
 30
0.0
 11
191.9024330673781
 21
-89.46438609007691
 31
0.0
  0
LINE
  5
2FE
330
1F
100
AcDbEntity
  8
LAYER-033
  6
Continuous
 62
     4
100
AcDbLine
 10
190.5078880115196
 20
-94.39446505186811
 30
0.0
 11
191.9024330673781
 21
-92.99991999600962
 31
0.0
  0
LINE
  5
2FF
330
1F
100
AcDbEntity
  8
LAYER-033
  6
Continuous
 62
     4
100
AcDbLine
 10
183.1324469921449
 20
-90.85893114593534
 30
0.0
 11
186.6679808980776
 21
-94.39446505186811
 31
0.0
  0
LINE
  5
300
330
1F
100
AcDbEntity
  8
LAYER-033
  6
Continuous
 62
     4
100
AcDbLine
 10
183.1324469921449
 20
-87.32339724000258
 30
0.0
 11
190.2035148040104
 21
-94.39446505186811
 31
0.0
  0
LINE
  5
301
330
1F
100
AcDbEntity
  8
LAYER-033
  6
Continuous
 62
     4
100
AcDbLine
 10
183.1324469921449
 20
-83.78786333406981
 30
0.0
 11
191.9024330673781
 21
-92.557849409303
 31
0.0
  0
LINE
  5
302
330
1F
100
AcDbEntity
  8
LAYER-033
  6
Continuous
 62
     4
100
AcDbLine
 10
183.1324469921449
 20
-80.25232942813705
 30
0.0
 11
191.9024330673781
 21
-89.02231550337024
 31
0.0
  0
LINE
  5
303
330
1F
100
AcDbEntity
  8
LAYER-033
  6
Continuous
 62
     4
100
AcDbLine
 10
183.1324469921449
 20
-76.71679552220428
 30
0.0
 11
191.9024330673781
 21
-85.48678159743753
 31
0.0
  0
LINE
  5
304
330
1F
100
AcDbEntity
  8
LAYER-033
  6
Continuous
 62
     4
100
AcDbLine
 10
183.1324469921449
 20
-73.18126161627157
 30
0.0
 11
191.9024330673781
 21
-81.95124769150476
 31
0.0
  0
LINE
  5
305
330
1F
100
AcDbEntity
  8
LAYER-033
  6
Continuous
 62
     4
100
AcDbLine
 10
183.1324469921449
 20
-69.6457277103388
 30
0.0
 11
191.9024330673781
 21
-78.415713785572
 31
0.0
  0
LINE
  5
306
330
1F
100
AcDbEntity
  8
LAYER-033
  6
Continuous
 62
     4
100
AcDbLine
 10
183.1324469921449
 20
-66.1101938041059
 30
0.0
 11
191.9024330673781
 21
-74.88017987963929
 31
0.0
  0
LINE
  5
307
330
1F
100
AcDbEntity
  8
LAYER-033
  6
Continuous
 62
     4
100
AcDbLine
 10
183.1324469921449
 20
-62.57465989846844
 30
0.0
 11
191.9024330673781
 21
-71.34464597370152
 31
0.0
  0
LINE
  5
308
330
1F
100
AcDbEntity
  8
LAYER-033
  6
Continuous
 62
     4
100
AcDbLine
 10
183.1324469921449
 20
-59.03912599254056
 30
0.0
 11
191.9024330673781
 21
-67.80911206777375
 31
0.0
  0
LINE
  5
309
330
1F
100
AcDbEntity
  8
LAYER-033
  6
Continuous
 62
     4
100
AcDbLine
 10
183.1324469921449
 20
-55.5035920866078
 30
0.0
 11
191.9024330673781
 21
-64.27357816184099
 31
0.0
  0
LINE
  5
30A
330
1F
100
AcDbEntity
  8
LAYER-033
  6
Continuous
 62
     4
100
AcDbLine
 10
183.1324469921449
 20
-51.96805818067503
 30
0.0
 11
191.9024330673781
 21
-60.73804425590822
 31
0.0
  0
LINE
  5
30B
330
1F
100
AcDbEntity
  8
LAYER-033
  6
Continuous
 62
     4
100
AcDbLine
 10
183.1324469921449
 20
-48.43252427474232
 30
0.0
 11
191.9024330673781
 21
-57.20251034997551
 31
0.0
  0
LINE
  5
30C
330
1F
100
AcDbEntity
  8
LAYER-033
  6
Continuous
 62
     4
100
AcDbLine
 10
183.1324469921449
 20
-44.89699036880955
 30
0.0
 11
191.9024330673781
 21
-53.66697644404275
 31
0.0
  0
LINE
  5
30D
330
1F
100
AcDbEntity
  8
LAYER-033
  6
Continuous
 62
     4
100
AcDbLine
 10
183.1324469921449
 20
-41.36145646287685
 30
0.0
 11
191.9024330673781
 21
-50.13144253810998
 31
0.0
  0
LINE
  5
30E
330
1F
100
AcDbEntity
  8
LAYER-033
  6
Continuous
 62
     4
100
AcDbLine
 10
183.1324469921449
 20
-37.82592255694408
 30
0.0
 11
191.9024330673781
 21
-46.59590863217727
 31
0.0
  0
LINE
  5
30F
330
1F
100
AcDbEntity
  8
LAYER-033
  6
Continuous
 62
     4
100
AcDbLine
 10
183.1324469921449
 20
-34.29038865101131
 30
0.0
 11
191.9024330673781
 21
-43.0603747262445
 31
0.0
  0
LINE
  5
310
330
1F
100
AcDbEntity
  8
LAYER-033
  6
Continuous
 62
     4
100
AcDbLine
 10
183.1324469921449
 20
-30.75485474507855
 30
0.0
 11
191.9024330673781
 21
-39.52484082031174
 31
0.0
  0
LINE
  5
311
330
1F
100
AcDbEntity
  8
LAYER-033
  6
Continuous
 62
     4
100
AcDbLine
 10
183.1324469921449
 20
-27.21932083914578
 30
0.0
 11
191.9024330673781
 21
-35.98930691437897
 31
0.0
  0
LINE
  5
312
330
1F
100
AcDbEntity
  8
LAYER-033
  6
Continuous
 62
     4
100
AcDbLine
 10
183.1324469921449
 20
-23.68378693321307
 30
0.0
 11
191.9024330673781
 21
-32.45377300844626
 31
0.0
  0
LINE
  5
313
330
1F
100
AcDbEntity
  8
LAYER-033
  6
Continuous
 62
     4
100
AcDbLine
 10
183.1324469921449
 20
-20.14825302728031
 30
0.0
 11
191.9024330673781
 21
-28.9182391025135
 31
0.0
  0
LINE
  5
314
330
1F
100
AcDbEntity
  8
LAYER-033
  6
Continuous
 62
     4
100
AcDbLine
 10
183.1324469921449
 20
-16.61271912134754
 30
0.0
 11
191.9024330673781
 21
-25.38270519658073
 31
0.0
  0
LINE
  5
315
330
1F
100
AcDbEntity
  8
LAYER-033
  6
Continuous
 62
     4
100
AcDbLine
 10
183.1324469921449
 20
-13.07718521541477
 30
0.0
 11
191.9024330673781
 21
-21.84717129064796
 31
0.0
  0
LINE
  5
316
330
1F
100
AcDbEntity
  8
LAYER-033
  6
Continuous
 62
     4
100
AcDbLine
 10
183.1324469921449
 20
-9.541651309482063
 30
0.0
 11
191.9024330673781
 21
-18.31163738471525
 31
0.0
  0
LINE
  5
317
330
1F
100
AcDbEntity
  8
LAYER-033
  6
Continuous
 62
     4
100
AcDbLine
 10
183.1324469921449
 20
-6.006117403549297
 30
0.0
 11
191.9024330673781
 21
-14.77610347878249
 31
0.0
  0
LINE
  5
318
330
1F
100
AcDbEntity
  8
LAYER-033
  6
Continuous
 62
     4
100
AcDbLine
 10
183.1324469921449
 20
-2.470583497616531
 30
0.0
 11
191.9024330673781
 21
-11.24056957284972
 31
0.0
  0
LINE
  5
319
330
1F
100
AcDbEntity
  8
LAYER-033
  6
Continuous
 62
     4
100
AcDbLine
 10
183.1324469921449
 20
1.064950408316236
 30
0.0
 11
191.9024330673781
 21
-7.705035666916956
 31
0.0
  0
LINE
  5
31A
330
1F
100
AcDbEntity
  8
LAYER-033
  6
Continuous
 62
     4
100
AcDbLine
 10
183.1324469921449
 20
4.600484314248945
 30
0.0
 11
191.9024330673781
 21
-4.169501760999999
 31
0.0
  0
LINE
  5
31B
330
1F
100
AcDbEntity
  8
LAYER-033
  6
Continuous
 62
     4
100
AcDbLine
 10
183.1324469921449
 20
8.136018220181711
 30
0.0
 11
191.9024330673781
 21
-0.6339678550514805
 31
0.0
  0
LINE
  5
31C
330
1F
100
AcDbEntity
  8
LAYER-033
  6
Continuous
 62
     4
100
AcDbLine
 10
183.1324469921449
 20
11.67155212611448
 30
0.0
 11
191.9024330673781
 21
2.901566050881286
 31
0.0
  0
LINE
  5
31D
330
1F
100
AcDbEntity
  8
LAYER-033
  6
Continuous
 62
     4
100
AcDbLine
 10
183.1324469921449
 20
15.20708603200001
 30
0.0
 11
191.9024330673781
 21
6.437099956813995
 31
0.0
  0
LINE
  5
31E
330
1F
100
AcDbEntity
  8
LAYER-033
  6
Continuous
 62
     4
100
AcDbLine
 10
183.1324469921449
 20
18.74261993797995
 30
0.0
 11
191.9024330673781
 21
9.972633862746761
 31
0.0
  0
LINE
  5
31F
330
1F
100
AcDbEntity
  8
LAYER-033
  6
Continuous
 62
     4
100
AcDbLine
 10
183.1324469921449
 20
22.27815384391272
 30
0.0
 11
191.9024330673781
 21
13.50816776867953
 31
0.0
  0
LINE
  5
320
330
1F
100
AcDbEntity
  8
LAYER-033
  6
Continuous
 62
     4
100
AcDbLine
 10
183.1324469921449
 20
25.81368774984549
 30
0.0
 11
191.9024330673781
 21
17.04370167461229
 31
0.0
  0
LINE
  5
321
330
1F
100
AcDbEntity
  8
LAYER-033
  6
Continuous
 62
     4
100
AcDbLine
 10
183.1324469921449
 20
29.34922165577825
 30
0.0
 11
191.9024330673781
 21
20.57923558054506
 31
0.0
  0
LINE
  5
322
330
1F
100
AcDbEntity
  8
LAYER-033
  6
Continuous
 62
     4
100
AcDbLine
 10
183.1324469921449
 20
32.88475556171096
 30
0.0
 11
191.9024330673781
 21
24.11476948647777
 31
0.0
  0
LINE
  5
323
330
1F
100
AcDbEntity
  8
LAYER-033
  6
Continuous
 62
     4
100
AcDbLine
 10
183.1324469921449
 20
36.42028946764373
 30
0.0
 11
191.9024330673781
 21
27.65030339241054
 31
0.0
  0
LINE
  5
324
330
1F
100
AcDbEntity
  8
LAYER-033
  6
Continuous
 62
     4
100
AcDbLine
 10
183.1324469921449
 20
39.95582337357649
 30
0.0
 11
191.9024330673781
 21
31.1858372983433
 31
0.0
  0
LINE
  5
325
330
1F
100
AcDbEntity
  8
LAYER-033
  6
Continuous
 62
     4
100
AcDbLine
 10
183.4368201996541
 20
43.186984072
 30
0.0
 11
191.9024330673781
 21
34.72137120427601
 31
0.0
  0
LINE
  5
326
330
1F
100
AcDbEntity
  8
LAYER-033
  6
Continuous
 62
     4
100
AcDbLine
 10
186.9723541055869
 20
43.186984072
 30
0.0
 11
191.9024330673781
 21
38.25690511020878
 31
0.0
  0
LINE
  5
327
330
1F
100
AcDbEntity
  8
LAYER-033
  6
Continuous
 62
     4
100
AcDbLine
 10
190.5078880115196
 20
43.186984072
 30
0.0
 11
191.9024330673781
 21
41.79243901614154
 31
0.0
  0
LINE
  5
328
330
1F
100
AcDbEntity
  8
LAYER-007
  6
CENTER
 62
     4
100
AcDbLine
 10
198.7523870670776
 20
-38.18444154012519
 30
0.0
 11
509.7194220529991
 21
-38.18444154012519
 31
0.0
  0
LINE
  5
329
330
1F
100
AcDbEntity
  8
LAYER-033
  6
Continuous
 62
     4
100
AcDbLine
 10
516.0038046005707
 20
39.65145016606726
 30
0.0
 11
519.5393385065036
 21
43.186984072
 31
0.0
  0
LINE
  5
32A
330
1F
100
AcDbEntity
  8
LAYER-033
  6
Continuous
 62
     4
100
AcDbLine
 10
516.0038046005707
 20
36.1159162601345
 30
0.0
 11
523.0748724124362
 21
43.186984072
 31
0.0
  0
LINE
  5
32B
330
1F
100
AcDbEntity
  8
LAYER-033
  6
Continuous
 62
     4
100
AcDbLine
 10
516.0038046005707
 20
32.58038235420173
 30
0.0
 11
524.7737906758039
 21
41.35036842943487
 31
0.0
  0
LINE
  5
32C
330
1F
100
AcDbEntity
  8
LAYER-033
  6
Continuous
 62
     4
100
AcDbLine
 10
516.0038046005707
 20
29.04484844826902
 30
0.0
 11
524.7737906758039
 21
37.81483452350221
 31
0.0
  0
LINE
  5
32D
330
1F
100
AcDbEntity
  8
LAYER-033
  6
Continuous
 62
     4
100
AcDbLine
 10
516.0038046005707
 20
25.50931454233626
 30
0.0
 11
524.7737906758039
 21
34.27930061756945
 31
0.0
  0
LINE
  5
32E
330
1F
100
AcDbEntity
  8
LAYER-033
  6
Continuous
 62
     4
100
AcDbLine
 10
516.0038046005707
 20
21.97378063640349
 30
0.0
 11
524.7737906758039
 21
30.74376671163668
 31
0.0
  0
LINE
  5
32F
330
1F
100
AcDbEntity
  8
LAYER-033
  6
Continuous
 62
     4
100
AcDbLine
 10
516.0038046005707
 20
18.43824673047072
 30
0.0
 11
524.7737906758039
 21
27.20823280570392
 31
0.0
  0
LINE
  5
330
330
1F
100
AcDbEntity
  8
LAYER-033
  6
Continuous
 62
     4
100
AcDbLine
 10
516.0038046005707
 20
14.90271282453796
 30
0.0
 11
524.7737906758039
 21
23.67269889977115
 31
0.0
  0
LINE
  5
331
330
1F
100
AcDbEntity
  8
LAYER-033
  6
Continuous
 62
     4
100
AcDbLine
 10
516.0038046005707
 20
11.36717891859541
 30
0.0
 11
524.7737906758039
 21
20.13716499383844
 31
0.0
  0
LINE
  5
332
330
1F
100
AcDbEntity
  8
LAYER-033
  6
Continuous
 62
     4
100
AcDbLine
 10
516.0038046005707
 20
7.831645012672482
 30
0.0
 11
524.7737906758039
 21
16.60163108790567
 31
0.0
  0
LINE
  5
333
330
1F
100
AcDbEntity
  8
LAYER-033
  6
Continuous
 62
     4
100
AcDbLine
 10
516.0038046005707
 20
4.296111106739772
 30
0.0
 11
524.7737906758039
 21
13.06609718197296
 31
0.0
  0
LINE
  5
334
330
1F
100
AcDbEntity
  8
LAYER-033
  6
Continuous
 62
     4
100
AcDbLine
 10
516.0038046005707
 20
0.7605772008071199
 30
0.0
 11
524.7737906758039
 21
9.530563276040255
 31
0.0
  0
LINE
  5
335
330
1F
100
AcDbEntity
  8
LAYER-033
  6
Continuous
 62
     4
100
AcDbLine
 10
516.0038046005707
 20
-2.77495670512559
 30
0.0
 11
524.7737906758039
 21
5.995029370107545
 31
0.0
  0
LINE
  5
336
330
1F
100
AcDbEntity
  8
LAYER-033
  6
Continuous
 62
     4
100
AcDbLine
 10
516.0038046005707
 20
-6.310490611058299
 30
0.0
 11
524.7737906758039
 21
2.459495464174893
 31
0.0
  0
LINE
  5
337
330
1F
100
AcDbEntity
  8
LAYER-033
  6
Continuous
 62
     4
100
AcDbLine
 10
516.0038046005707
 20
-9.846024516990951
 30
0.0
 11
524.7737906758039
 21
-1.07603844175776
 31
0.0
  0
LINE
  5
338
330
1F
100
AcDbEntity
  8
LAYER-033
  6
Continuous
 62
     4
100
AcDbLine
 10
516.0038046005707
 20
-13.38155842292366
 30
0.0
 11
524.7737906758039
 21
-4.611572347690469
 31
0.0
  0
LINE
  5
339
330
1F
100
AcDbEntity
  8
LAYER-033
  6
Continuous
 62
     4
100
AcDbLine
 10
516.0038046005707
 20
-16.91709232885637
 30
0.0
 11
524.7737906758039
 21
-8.147106253623178
 31
0.0
  0
LINE
  5
33A
330
1F
100
AcDbEntity
  8
LAYER-033
  6
Continuous
 62
     4
100
AcDbLine
 10
516.0038046005707
 20
-20.45262623478908
 30
0.0
 11
524.7737906758039
 21
-11.68264015955589
 31
0.0
  0
LINE
  5
33B
330
1F
100
AcDbEntity
  8
LAYER-033
  6
Continuous
 62
     4
100
AcDbLine
 10
516.0038046005707
 20
-23.98816014072179
 30
0.0
 11
524.7737906758039
 21
-15.2181740654886
 31
0.0
  0
LINE
  5
33C
330
1F
100
AcDbEntity
  8
LAYER-033
  6
Continuous
 62
     4
100
AcDbLine
 10
516.0038046005707
 20
-27.52369404665444
 30
0.0
 11
524.7737906758039
 21
-18.75370797110588
 31
0.0
  0
LINE
  5
33D
330
1F
100
AcDbEntity
  8
LAYER-033
  6
Continuous
 62
     4
100
AcDbLine
 10
516.0038046005707
 20
-31.05922795258715
 30
0.0
 11
524.7737906758039
 21
-22.28924187735402
 31
0.0
  0
LINE
  5
33E
330
1F
100
AcDbEntity
  8
LAYER-033
  6
Continuous
 62
     4
100
AcDbLine
 10
516.0038046005707
 20
-34.59476185851986
 30
0.0
 11
524.7737906758039
 21
-25.82477578328667
 31
0.0
  0
LINE
  5
33F
330
1F
100
AcDbEntity
  8
LAYER-033
  6
Continuous
 62
     4
100
AcDbLine
 10
516.0038046005707
 20
-38.13029576445251
 30
0.0
 11
524.7737906758039
 21
-29.36030968912519
 31
0.0
  0
LINE
  5
340
330
1F
100
AcDbEntity
  8
LAYER-033
  6
Continuous
 62
     4
100
AcDbLine
 10
516.0038046005707
 20
-41.66582967038528
 30
0.0
 11
524.7737906758039
 21
-32.89584359515203
 31
0.0
  0
LINE
  5
341
330
1F
100
AcDbEntity
  8
LAYER-033
  6
Continuous
 62
     4
100
AcDbLine
 10
516.0038046005707
 20
-45.20136357631793
 30
0.0
 11
524.7737906758039
 21
-36.43137750108474
 31
0.0
  0
LINE
  5
342
330
1F
100
AcDbEntity
  8
LAYER-033
  6
Continuous
 62
     4
100
AcDbLine
 10
516.0038046005707
 20
-48.73689748212519
 30
0.0
 11
524.7737906758039
 21
-39.96691138168478
 31
0.0
  0
LINE
  5
343
330
1F
100
AcDbEntity
  8
LAYER-033
  6
Continuous
 62
     4
100
AcDbLine
 10
516.0038046005707
 20
-52.27243138818335
 30
0.0
 11
524.7737906758039
 21
-43.50244531295016
 31
0.0
  0
LINE
  5
344
330
1F
100
AcDbEntity
  8
LAYER-033
  6
Continuous
 62
     4
100
AcDbLine
 10
516.0038046005707
 20
-55.807965294116
 30
0.0
 11
524.7737906758039
 21
-47.03797921886809
 31
0.0
  0
LINE
  5
345
330
1F
100
AcDbEntity
  8
LAYER-033
  6
Continuous
 62
     4
100
AcDbLine
 10
516.0038046005707
 20
-59.34349920004871
 30
0.0
 11
524.7737906758039
 21
-50.57351312481552
 31
0.0
  0
LINE
  5
346
330
1F
100
AcDbEntity
  8
LAYER-033
  6
Continuous
 62
     4
100
AcDbLine
 10
516.0038046005707
 20
-62.87903310598142
 30
0.0
 11
524.7737906758039
 21
-54.10904708164645
 31
0.0
  0
LINE
  5
347
330
1F
100
AcDbEntity
  8
LAYER-033
  6
Continuous
 62
     4
100
AcDbLine
 10
516.0038046005707
 20
-66.41456701191407
 30
0.0
 11
524.7737906758039
 21
-57.64458093668088
 31
0.0
  0
LINE
  5
348
330
1F
100
AcDbEntity
  8
LAYER-033
  6
Continuous
 62
     4
100
AcDbLine
 10
516.0038046005707
 20
-69.95010091784678
 30
0.0
 11
524.7737906758039
 21
-61.18011484261365
 31
0.0
  0
LINE
  5
349
330
1F
100
AcDbEntity
  8
LAYER-033
  6
Continuous
 62
     4
100
AcDbLine
 10
516.0038046005707
 20
-73.48563482377949
 30
0.0
 11
524.7737906758039
 21
-64.7156487485463
 31
0.0
  0
LINE
  5
34A
330
1F
100
AcDbEntity
  8
LAYER-033
  6
Continuous
 62
     4
100
AcDbLine
 10
516.0038046005707
 20
-77.0211687297122
 30
0.0
 11
524.7737906758039
 21
-68.25118265447901
 31
0.0
  0
LINE
  5
34B
330
1F
100
AcDbEntity
  8
LAYER-033
  6
Continuous
 62
     4
100
AcDbLine
 10
516.0038046005707
 20
-80.55670263564491
 30
0.0
 11
524.7737906758039
 21
-71.78671656041172
 31
0.0
  0
LINE
  5
34C
330
1F
100
AcDbEntity
  8
LAYER-033
  6
Continuous
 62
     4
100
AcDbLine
 10
516.0038046005707
 20
-84.09223654157756
 30
0.0
 11
524.7737906758039
 21
-75.32225046634437
 31
0.0
  0
LINE
  5
34D
330
1F
100
AcDbEntity
  8
LAYER-033
  6
Continuous
 62
     4
100
AcDbLine
 10
516.0038046005707
 20
-87.62777044751027
 30
0.0
 11
524.7737906758039
 21
-78.85778437227708
 31
0.0
  0
LINE
  5
34E
330
1F
100
AcDbEntity
  8
LAYER-033
  6
Continuous
 62
     4
100
AcDbLine
 10
516.0038046005707
 20
-91.16330435310681
 30
0.0
 11
524.7737906758039
 21
-82.39331827820979
 31
0.0
  0
LINE
  5
34F
330
1F
100
AcDbEntity
  8
LAYER-033
  6
Continuous
 62
     4
100
AcDbLine
 10
516.3081778080782
 20
-94.39446505186811
 30
0.0
 11
524.7737906758039
 21
-85.9288521841425
 31
0.0
  0
LINE
  5
350
330
1F
100
AcDbEntity
  8
LAYER-033
  6
Continuous
 62
     4
100
AcDbLine
 10
519.8437117140111
 20
-94.39446505186811
 30
0.0
 11
524.7737906758039
 21
-89.46438609007515
 31
0.0
  0
LINE
  5
351
330
1F
100
AcDbEntity
  8
LAYER-033
  6
Continuous
 62
     4
100
AcDbLine
 10
523.3792456199437
 20
-94.39446505186811
 30
0.0
 11
524.7737906758039
 21
-92.99991999600786
 31
0.0
  0
LINE
  5
352
330
1F
100
AcDbEntity
  8
LAYER-033
  6
Continuous
 62
     4
100
AcDbLine
 10
516.0038046005707
 20
-90.85893114593534
 30
0.0
 11
519.5393385065036
 21
-94.39446505186811
 31
0.0
  0
LINE
  5
353
330
1F
100
AcDbEntity
  8
LAYER-033
  6
Continuous
 62
     4
100
AcDbLine
 10
516.0038046005707
 20
-87.32339724000258
 30
0.0
 11
523.0748724124362
 21
-94.39446505186811
 31
0.0
  0
LINE
  5
354
330
1F
100
AcDbEntity
  8
LAYER-033
  6
Continuous
 62
     4
100
AcDbLine
 10
516.0038046005707
 20
-83.78786333406981
 30
0.0
 11
524.7737906758039
 21
-92.557849409303
 31
0.0
  0
LINE
  5
355
330
1F
100
AcDbEntity
  8
LAYER-033
  6
Continuous
 62
     4
100
AcDbLine
 10
516.0038046005707
 20
-80.25232942813705
 30
0.0
 11
524.7737906758039
 21
-89.02231550337024
 31
0.0
  0
LINE
  5
356
330
1F
100
AcDbEntity
  8
LAYER-033
  6
Continuous
 62
     4
100
AcDbLine
 10
516.0038046005707
 20
-76.71679552220428
 30
0.0
 11
524.7737906758039
 21
-85.48678159743753
 31
0.0
  0
LINE
  5
357
330
1F
100
AcDbEntity
  8
LAYER-033
  6
Continuous
 62
     4
100
AcDbLine
 10
516.0038046005707
 20
-73.18126161627157
 30
0.0
 11
524.7737906758039
 21
-81.95124769150476
 31
0.0
  0
LINE
  5
358
330
1F
100
AcDbEntity
  8
LAYER-033
  6
Continuous
 62
     4
100
AcDbLine
 10
516.0038046005707
 20
-69.6457277103388
 30
0.0
 11
524.7737906758039
 21
-78.415713785572
 31
0.0
  0
LINE
  5
359
330
1F
100
AcDbEntity
  8
LAYER-033
  6
Continuous
 62
     4
100
AcDbLine
 10
516.0038046005707
 20
-66.1101938041059
 30
0.0
 11
524.7737906758039
 21
-74.88017987963929
 31
0.0
  0
LINE
  5
35A
330
1F
100
AcDbEntity
  8
LAYER-033
  6
Continuous
 62
     4
100
AcDbLine
 10
516.0038046005707
 20
-62.57465989846844
 30
0.0
 11
524.7737906758039
 21
-71.34464597370152
 31
0.0
  0
LINE
  5
35B
330
1F
100
AcDbEntity
  8
LAYER-033
  6
Continuous
 62
     4
100
AcDbLine
 10
516.0038046005707
 20
-59.03912599254056
 30
0.0
 11
524.7737906758039
 21
-67.80911206777375
 31
0.0
  0
LINE
  5
35C
330
1F
100
AcDbEntity
  8
LAYER-033
  6
Continuous
 62
     4
100
AcDbLine
 10
516.0038046005707
 20
-55.50359208660791
 30
0.0
 11
524.7737906758039
 21
-64.27357816184104
 31
0.0
  0
LINE
  5
35D
330
1F
100
AcDbEntity
  8
LAYER-033
  6
Continuous
 62
     4
100
AcDbLine
 10
516.0038046005707
 20
-51.96805818067514
 30
0.0
 11
524.7737906758039
 21
-60.73804425590834
 31
0.0
  0
LINE
  5
35E
330
1F
100
AcDbEntity
  8
LAYER-033
  6
Continuous
 62
     4
100
AcDbLine
 10
516.0038046005707
 20
-48.43252427474249
 30
0.0
 11
524.7737906758039
 21
-57.20251034997568
 31
0.0
  0
LINE
  5
35F
330
1F
100
AcDbEntity
  8
LAYER-033
  6
Continuous
 62
     4
100
AcDbLine
 10
516.0038046005707
 20
-44.89699036880978
 30
0.0
 11
524.7737906758039
 21
-53.66697644404297
 31
0.0
  0
LINE
  5
360
330
1F
100
AcDbEntity
  8
LAYER-033
  6
Continuous
 62
     4
100
AcDbLine
 10
516.0038046005707
 20
-41.36145646287707
 30
0.0
 11
524.7737906758039
 21
-50.13144253811026
 31
0.0
  0
LINE
  5
361
330
1F
100
AcDbEntity
  8
LAYER-033
  6
Continuous
 62
     4
100
AcDbLine
 10
516.0038046005707
 20
-37.82592255694442
 30
0.0
 11
524.7737906758039
 21
-46.59590863217761
 31
0.0
  0
LINE
  5
362
330
1F
100
AcDbEntity
  8
LAYER-033
  6
Continuous
 62
     4
100
AcDbLine
 10
516.0038046005707
 20
-34.29038865101171
 30
0.0
 11
524.7737906758039
 21
-43.0603747262449
 31
0.0
  0
LINE
  5
363
330
1F
100
AcDbEntity
  8
LAYER-033
  6
Continuous
 62
     4
100
AcDbLine
 10
516.0038046005707
 20
-30.754854745079
 30
0.0
 11
524.7737906758039
 21
-39.52484082031219
 31
0.0
  0
LINE
  5
364
330
1F
100
AcDbEntity
  8
LAYER-033
  6
Continuous
 62
     4
100
AcDbLine
 10
516.0038046005707
 20
-27.21932083914629
 30
0.0
 11
524.7737906758039
 21
-35.98930691437954
 31
0.0
  0
LINE
  5
365
330
1F
100
AcDbEntity
  8
LAYER-033
  6
Continuous
 62
     4
100
AcDbLine
 10
516.0038046005707
 20
-23.68378693321364
 30
0.0
 11
524.7737906758039
 21
-32.45377300844683
 31
0.0
  0
LINE
  5
366
330
1F
100
AcDbEntity
  8
LAYER-033
  6
Continuous
 62
     4
100
AcDbLine
 10
516.0038046005707
 20
-20.14825302728093
 30
0.0
 11
524.7737906758039
 21
-28.91823910251412
 31
0.0
  0
LINE
  5
367
330
1F
100
AcDbEntity
  8
LAYER-033
  6
Continuous
 62
     4
100
AcDbLine
 10
516.0038046005707
 20
-16.61271912134822
 30
0.0
 11
524.7737906758039
 21
-25.38270519658141
 31
0.0
  0
LINE
  5
368
330
1F
100
AcDbEntity
  8
LAYER-033
  6
Continuous
 62
     4
100
AcDbLine
 10
516.0038046005707
 20
-13.07718521541551
 30
0.0
 11
524.7737906758039
 21
-21.8471712906487
 31
0.0
  0
LINE
  5
369
330
1F
100
AcDbEntity
  8
LAYER-033
  6
Continuous
 62
     4
100
AcDbLine
 10
516.0038046005707
 20
-9.541651309482859
 30
0.0
 11
524.7737906758039
 21
-18.31163738471605
 31
0.0
  0
LINE
  5
36A
330
1F
100
AcDbEntity
  8
LAYER-033
  6
Continuous
 62
     4
100
AcDbLine
 10
516.0038046005707
 20
-6.006117403550149
 30
0.0
 11
524.7737906758039
 21
-14.77610347878334
 31
0.0
  0
LINE
  5
36B
330
1F
100
AcDbEntity
  8
LAYER-033
  6
Continuous
 62
     4
100
AcDbLine
 10
516.0038046005707
 20
-2.47058349761744
 30
0.0
 11
524.7737906758039
 21
-11.24056957285063
 31
0.0
  0
LINE
  5
36C
330
1F
100
AcDbEntity
  8
LAYER-033
  6
Continuous
 62
     4
100
AcDbLine
 10
516.0038046005707
 20
1.064950408315269
 30
0.0
 11
524.7737906758039
 21
-7.705035666917979
 31
0.0
  0
LINE
  5
36D
330
1F
100
AcDbEntity
  8
LAYER-033
  6
Continuous
 62
     4
100
AcDbLine
 10
516.0038046005707
 20
4.600484314247922
 30
0.0
 11
524.7737906758039
 21
-4.169501760999999
 31
0.0
  0
LINE
  5
36E
330
1F
100
AcDbEntity
  8
LAYER-033
  6
Continuous
 62
     4
100
AcDbLine
 10
516.0038046005707
 20
8.136018220180631
 30
0.0
 11
524.7737906758039
 21
-0.6339678550525605
 31
0.0
  0
LINE
  5
36F
330
1F
100
AcDbEntity
  8
LAYER-033
  6
Continuous
 62
     4
100
AcDbLine
 10
516.0038046005707
 20
11.67155212611334
 30
0.0
 11
524.7737906758039
 21
2.901566050880149
 31
0.0
  0
LINE
  5
370
330
1F
100
AcDbEntity
  8
LAYER-033
  6
Continuous
 62
     4
100
AcDbLine
 10
516.0038046005707
 20
15.20708603200001
 30
0.0
 11
524.7737906758039
 21
6.437099956812858
 31
0.0
  0
LINE
  5
371
330
1F
100
AcDbEntity
  8
LAYER-033
  6
Continuous
 62
     4
100
AcDbLine
 10
516.0038046005707
 20
18.7426199379787
 30
0.0
 11
524.7737906758039
 21
9.972633862745511
 31
0.0
  0
LINE
  5
372
330
1F
100
AcDbEntity
  8
LAYER-033
  6
Continuous
 62
     4
100
AcDbLine
 10
516.0038046005707
 20
22.27815384391141
 30
0.0
 11
524.7737906758039
 21
13.50816776867822
 31
0.0
  0
LINE
  5
373
330
1F
100
AcDbEntity
  8
LAYER-033
  6
Continuous
 62
     4
100
AcDbLine
 10
516.0038046005707
 20
25.81368774989319
 30
0.0
 11
524.7737906758039
 21
17.04370167461093
 31
0.0
  0
LINE
  5
374
330
1F
100
AcDbEntity
  8
LAYER-033
  6
Continuous
 62
     4
100
AcDbLine
 10
516.0038046005707
 20
29.34922165577683
 30
0.0
 11
524.7737906758039
 21
20.57923558054358
 31
0.0
  0
LINE
  5
375
330
1F
100
AcDbEntity
  8
LAYER-033
  6
Continuous
 62
     4
100
AcDbLine
 10
516.0038046005707
 20
32.88475556170948
 30
0.0
 11
524.7737906758039
 21
24.11476948647629
 31
0.0
  0
LINE
  5
376
330
1F
100
AcDbEntity
  8
LAYER-033
  6
Continuous
 62
     4
100
AcDbLine
 10
516.0038046005707
 20
36.42028946764219
 30
0.0
 11
524.7737906758039
 21
27.650303392409
 31
0.0
  0
LINE
  5
377
330
1F
100
AcDbEntity
  8
LAYER-033
  6
Continuous
 62
     4
100
AcDbLine
 10
516.0038046005707
 20
39.9558233735749
 30
0.0
 11
524.7737906758039
 21
31.18583729834171
 31
0.0
  0
LINE
  5
378
330
1F
100
AcDbEntity
  8
LAYER-033
  6
Continuous
 62
     4
100
AcDbLine
 10
516.3081778080782
 20
43.186984072
 30
0.0
 11
524.7737906758039
 21
34.72137120427442
 31
0.0
  0
LINE
  5
379
330
1F
100
AcDbEntity
  8
LAYER-033
  6
Continuous
 62
     4
100
AcDbLine
 10
519.8437117140111
 20
43.186984072
 30
0.0
 11
524.7737906758039
 21
38.25690511020707
 31
0.0
  0
LINE
  5
37A
330
1F
100
AcDbEntity
  8
LAYER-033
  6
Continuous
 62
     4
100
AcDbLine
 10
523.3792456199437
 20
43.186984072
 30
0.0
 11
524.7737906758039
 21
41.79243901613978
 31
0.0
  0
LINE
  5
37B
330
1F
100
AcDbEntity
  8
LAYER-001
  6
CENTER
 62
     4
100
AcDbLine
 10
-529.3205062207935
 20
91.42190748569033
 30
0.0
 11
-471.6796359190102
 21
91.42190748569033
 31
0.0
  0
LINE
  5
37C
330
1F
100
AcDbEntity
  8
LAYER-006
  6
Continuous
 62
     1
100
AcDbLine
 10
-535.0715634478524
 20
-94.39446505186811
 30
0.0
 11
-35.07156344785244
 21
-94.39446505186811
 31
0.0
  0
LINE
  5
37D
330
1F
100
AcDbEntity
  8
LAYER-006
  6
Continuous
 62
     1
100
AcDbLine
 10
-35.07156344785244
 20
-354.1346504116263
 30
0.0
 11
-535.0715634478524
 21
-354.1346504116263
 31
0.0
  0
TEXT
  5
37E
330
1F
100
AcDbEntity
  8
LAYER-033
  6
Continuous
 62
     7
100
AcDbText
 10
-189.9718281110802
 20
-608.6095046642289
 30
0.0
 40
15.0
  1
４００／４４０Ｖ　５０／６０Ｈｚ　　　５００ｋＷ
  7
STRING_H
 11
-189.9718281110802
 21
-601.1095046642289
 31
0.0
100
AcDbText
 73
     2
  0
TEXT
  5
37F
330
1F
100
AcDbEntity
  8
LAYER-033
  6
Continuous
 62
     7
100
AcDbText
 10
-189.9718281110802
 20
-628.6095046642289
 30
0.0
 40
15.0
  1
質　　量　　３６０㎏
  7
STRING_H
 11
-189.9718281110802
 21
-621.1095046642289
 31
0.0
100
AcDbText
 73
     2
  0
TEXT
  5
380
330
1F
100
AcDbEntity
  8
LAYER-033
  6
Continuous
 62
     7
100
AcDbText
 10
-189.9718281110802
 20
-588.6095046642289
 30
0.0
 40
15.0
  1
ＲＳ－１Ｐ(低　圧)
  7
STRING_H
 11
-189.9718281110802
 21
-581.1095046642289
 31
0.0
100
AcDbText
 73
     2
  0
DIMENSION
  5
390
330
1F
100
AcDbEntity
  8
LAYER-035
  6
Continuous
 62
     5
100
AcDbDimension
  2
*D02
 10
541.4531188339738
 20
-528.9213757087039
 30
0.0
 11
353.9531188339738
 21
-528.9213757087039
 31
0.0
 70
   129
  1
<>
 71
     0
 42
0.0
  3
DIO_DIMSTYLE
100
AcDbAlignedDimension
 13
166.4531188339738
 23
-446.6746137921059
 33
0.0
 14
541.4531188339738
 24
-446.6746137921059
 34
0.0
1001
ACAD
1000
DSTYLE
1002
{
1070
    41
1040
4.0
1070
    44
1040
1.0
1070
    42
1040
1.0
1070
     6
1000
_OPEN
1070
     7
1000
_OPEN
1070
   173
1070
     1
1070
   140
1040
10.0
1070
   178
1070
     5
1070
   147
1040
0.5
1002
}
  0
DIMENSION
  5
39A
330
1F
100
AcDbEntity
  8
LAYER-035
  6
Continuous
 62
     5
100
AcDbDimension
  2
*D13
 10
521.4531188339738
 20
-484.1077561897727
 30
0.0
 11
353.9531188339738
 21
-484.1077561897727
 31
0.0
 70
   129
  1
<>
 71
     0
 42
0.0
  3
DIO_DIMSTYLE
100
AcDbAlignedDimension
 13
186.4531188339738
 23
-450.3967224167768
 33
0.0
 14
521.4531188339738
 24
-450.3967224167768
 34
0.0
1001
ACAD
1000
DSTYLE
1002
{
1070
    41
1040
4.0
1070
    44
1040
1.0
1070
    42
1040
1.0
1070
     6
1000
_OPEN
1070
     7
1000
_OPEN
1070
   173
1070
     1
1070
   140
1040
10.0
1070
   178
1070
     5
1070
   147
1040
0.5
1002
}
  0
DIMENSION
  5
3A4
330
1F
100
AcDbEntity
  8
LAYER-035
  6
Continuous
 62
     5
100
AcDbDimension
  2
*D24
 10
148.9531188822656
 20
171.3915850036251
 30
0.0
 11
353.9531188581198
 21
171.3915850036251
 31
0.0
 70
   128
  1
<>
 71
     0
 42
0.0
  3
DIO_DIMSTYLE
100
AcDbAlignedDimension
 13
558.9531188339738
 23
139.9659542311875
 33
0.0
 14
148.9531188339738
 24
139.9659542311875
 34
0.0
100
AcDbRotatedDimension
1001
ACAD
1000
DSTYLE
1002
{
1070
    41
1040
4.0
1070
    44
1040
1.0
1070
    42
1040
1.0
1070
     6
1000
_OPEN
1070
     7
1000
_OPEN
1070
   173
1070
     1
1070
   140
1040
10.0
1070
   178
1070
     5
1070
   147
1040
0.5
1002
}
  0
DIMENSION
  5
3AE
330
1F
100
AcDbEntity
  8
LAYER-035
  6
Continuous
 62
     5
100
AcDbDimension
  2
*D35
 10
-595.0715634478524
 20
-528.9213757087039
 30
0.0
 11
-285.0715634478524
 21
-528.9213757087039
 31
0.0
 70
   129
  1
<>
 71
     0
 42
0.0
  3
DIO_DIMSTYLE
100
AcDbAlignedDimension
 13
24.92843655214756
 23
-446.6746137921058
 33
0.0
 14
-595.0715634478524
 24
-446.6746137921058
 34
0.0
1001
ACAD
1000
DSTYLE
1002
{
1070
    41
1040
4.0
1070
    44
1040
1.0
1070
    42
1040
1.0
1070
     6
1000
_OPEN
1070
     7
1000
_OPEN
1070
   173
1070
     1
1070
   140
1040
10.0
1070
   178
1070
     5
1070
   147
1040
0.5
1002
}
  0
DIMENSION
  5
3B8
330
1F
100
AcDbEntity
  8
LAYER-035
  6
Continuous
 62
     5
100
AcDbDimension
  2
*D46
 10
75.42826055063813
 20
113.3253862078942
 30
0.0
 11
75.42826055063813
 21
-166.6746137921058
 31
0.0
 70
   128
  1
<>
 71
     0
 42
0.0
  3
DIO_DIMSTYLE
100
AcDbAlignedDimension
 13
24.92843655214756
 23
-446.6746137921058
 33
0.0
 14
-0.5045142960000001
 24
113.3253862078942
 34
0.0
 50
270.0
100
AcDbRotatedDimension
1001
ACAD
1000
DSTYLE
1002
{
1070
    41
1040
4.0
1070
    44
1040
1.0
1070
    42
1040
1.0
1070
     6
1000
_OPEN
1070
     7
1000
_OPEN
1070
   173
1070
     1
1070
   140
1040
10.0
1070
   178
1070
     5
1070
   147
1040
0.5
1002
}
  0
DIMENSION
  5
3C2
330
1F
100
AcDbEntity
  8
LAYER-035
  6
Continuous
 62
     5
100
AcDbDimension
  2
*D57
 10
168.9531188339739
 20
-162.9582131155559
 30
0.0
 11
335.0125794497222
 21
-162.9582131155559
 31
0.0
 70
   128
  1
<>
 71
     0
 42
0.0
  3
DIO_DIMSTYLE
100
AcDbAlignedDimension
 13
538.9531188339738
 23
-94.39446505186811
 33
0.0
 14
168.9531188339738
 24
-94.39446505186811
 34
0.0
100
AcDbRotatedDimension
1001
ACAD
1000
DSTYLE
1002
{
1070
    41
1040
4.0
1070
    44
1040
1.0
1070
    42
1040
1.0
1070
     6
1000
_OPEN
1070
     7
1000
_OPEN
1070
   173
1070
     1
1070
   140
1040
10.0
1070
   178
1070
     5
1070
   147
1040
0.5
1002
}
  0
DIMENSION
  5
3CC
330
1F
100
AcDbEntity
  8
LAYER-035
  6
Continuous
 62
     5
100
AcDbDimension
  2
*D68
 10
-25.07156344785244
 20
-484.1077561897727
 30
0.0
 11
-285.0715634478524
 21
-484.1077561897727
 31
0.0
 70
   128
  1
<>
 71
     0
 42
0.0
  3
DIO_DIMSTYLE
100
AcDbAlignedDimension
 13
-545.0715634478524
 23
-452.8607755881252
 33
0.0
 14
-25.07156344785244
 24
-452.8607755881252
 34
0.0
 50
180.0
100
AcDbRotatedDimension
1001
ACAD
1000
DSTYLE
1002
{
1070
    41
1040
4.0
1070
    44
1040
1.0
1070
    42
1040
1.0
1070
     6
1000
_OPEN
1070
     7
1000
_OPEN
1070
   173
1070
     1
1070
   140
1040
10.0
1070
   178
1070
     5
1070
   147
1040
0.5
1002
}
  0
ENDSEC
  0
SECTION
  2
OBJECTS
  0
DICTIONARY
  5
C
330
0
100
AcDbDictionary
281
     1
  3
ACAD_GROUP
350
D
  3
ACAD_LAYOUT
350
1A
  3
ACAD_MLINESTYLE
350
17
  3
ACAD_PLOTSETTINGS
350
19
  3
ACAD_PLOTSTYLENAME
350
E
  0
DICTIONARY
  5
D
102
{ACAD_REACTORS
330
C
102
}
330
C
100
AcDbDictionary
281
     1
  0
DICTIONARY
  5
1A
102
{ACAD_REACTORS
330
C
102
}
330
C
100
AcDbDictionary
281
     1
  3
Model
350
22
  3
ﾚｲｱｳﾄ1
350
1E
  3
ﾚｲｱｳﾄ2
350
26
  0
DICTIONARY
  5
17
102
{ACAD_REACTORS
330
C
102
}
330
C
100
AcDbDictionary
281
     1
  3
Standard
350
18
  0
DICTIONARY
  5
19
102
{ACAD_REACTORS
330
C
102
}
330
C
100
AcDbDictionary
281
     1
  0
ACDBDICTIONARYWDFLT
  5
E
102
{ACAD_REACTORS
330
C
102
}
330
C
100
AcDbDictionary
281
     1
  3
Normal
350
F
100
AcDbDictionaryWithDefault
340
F
  0
LAYOUT
  5
22
102
{ACAD_REACTORS
330
1A
102
}
330
1A
100
AcDbPlotSettings
  1

  2
DWF ePlot.pc3
  4
ANSI_A_(8.50_x_11.00_Inches)
  6

 40
5.793749809265137
 41
17.79375076293945
 42
5.793746948242188
 43
17.79376220703125
 44
215.8999938964844
 45
279.3999938964844
 46
0.0
 47
0.0
 48
0.0
 49
0.0
140
0.0
141
0.0
142
1.0
143
39.26051453979704
 70
 11952
 72
     0
 73
     1
 74
     0
  7
acad.ctb
 75
     0
147
0.0254708837039396
148
-1793.922354682663
149
1.490346453088415
100
AcDbLayout
  1
Model
 70
     1
 71
     0
 10
-1000.0
 20
-750.0
 11
1000.0
 21
750.0
 12
0.0
 22
0.0
 32
0.0
 14
-1000.0
 24
-750.0
 34
0.0
 15
1000.0
 25
750.0
 35
0.0
146
0.0
 13
0.0
 23
0.0
 33
0.0
 16
1.0
 26
0.0
 36
0.0
 17
0.0
 27
1.0
 37
0.0
 76
     0
330
1F
  0
LAYOUT
  5
1E
102
{ACAD_REACTORS
330
1A
102
}
330
1A
100
AcDbPlotSettings
  1

  2
RICOH IPSiO NX700
  4

  6

 40
0.0
 41
0.0
 42
0.0
 43
0.0
 44
0.0
 45
0.0
 46
0.0
 47
0.0
 48
0.0
 49
0.0
140
0.0
141
0.0
142
1.0
143
1.0
 70
   688
 72
     0
 73
     0
 74
     5
  7
acad.ctb
 75
    16
147
1.0
148
0.0
149
0.0
100
AcDbLayout
  1
ﾚｲｱｳﾄ1
 70
     1
 71
     1
 10
-1000.0
 20
-750.0
 11
1000.0
 21
750.0
 12
0.0
 22
0.0
 32
0.0
 14
-1000.0
 24
-750.0
 34
0.0
 15
1000.0
 25
750.0
 35
0.0
146
0.0
 13
0.0
 23
0.0
 33
0.0
 16
1.0
 26
0.0
 36
0.0
 17
0.0
 27
1.0
 37
0.0
 76
     0
330
1B
  0
LAYOUT
  5
26
102
{ACAD_REACTORS
330
1A
102
}
330
1A
100
AcDbPlotSettings
  1

  2
RICOH IPSiO NX700
  4

  6

 40
0.0
 41
0.0
 42
0.0
 43
0.0
 44
0.0
 45
0.0
 46
0.0
 47
0.0
 48
0.0
 49
0.0
140
0.0
141
0.0
142
1.0
143
1.0
 70
   688
 72
     0
 73
     0
 74
     5
  7
acad.ctb
 75
    16
147
1.0
148
0.0
149
0.0
100
AcDbLayout
  1
ﾚｲｱｳﾄ2
 70
     1
 71
     2
 10
0.0
 20
0.0
 11
12.0
 21
9.0
 12
0.0
 22
0.0
 32
0.0
 14
0.0
 24
0.0
 34
0.0
 15
0.0
 25
0.0
 35
0.0
146
0.0
 13
0.0
 23
0.0
 33
0.0
 16
1.0
 26
0.0
 36
0.0
 17
0.0
 27
1.0
 37
0.0
 76
     0
330
23
  0
MLINESTYLE
  5
18
102
{ACAD_REACTORS
330
17
102
}
330
17
100
AcDbMlineStyle
  2
STANDARD
 70
     0
  3

 62
   256
 51
90.0
 52
90.0
 71
     2
 49
0.5
 62
   256
  6
BYLAYER
 49
-0.5
 62
   256
  6
BYLAYER
  0
ACDBPLACEHOLDER
  5
F
102
{ACAD_REACTORS
330
E
102
}
330
E
  0
ENDSEC
  0
EOF
