  0
SECTION
  2
HEADER
  9
$ACADVER
  1
AC1015
  9
$ACADMAINTVER
 70
     6
  9
$DWGCODEPAGE
  3
ANSI_932
  9
$INSBASE
 10
0.0
 20
0.0
 30
0.0
  9
$EXTMIN
 10
-594.5
 20
-420.5
 30
0.0
  9
$EXTMAX
 10
594.5
 20
420.5
 30
0.0
  9
$LIMMIN
 10
-594.5
 20
-420.5
  9
$LIMMAX
 10
594.5
 20
420.5
  9
$ORTHOMODE
 70
     0
  9
$REGENMODE
 70
     1
  9
$FILLMODE
 70
     1
  9
$QTEXTMODE
 70
     0
  9
$MIRRTEXT
 70
     1
  9
$LTSCALE
 40
4.0
  9
$ATTMODE
 70
     1
  9
$TEXTSIZE
 40
2.5
  9
$TRACEWID
 40
1.0
  9
$TEXTSTYLE
  7
Standard
  9
$CLAYER
  8
0
  9
$CELTYPE
  6
ByLayer
  9
$CECOLOR
 62
   256
  9
$CELTSCALE
 40
1.0
  9
$DISPSILH
 70
     0
  9
$DIMSCALE
 40
1.0
  9
$DIMASZ
 40
4.0
  9
$DIMEXO
 40
1.0
  9
$DIMDLI
 40
3.75
  9
$DIMRND
 40
0.1
  9
$DIMDLE
 40
0.0
  9
$DIMEXE
 40
1.0
  9
$DIMTP
 40
0.0
  9
$DIMTM
 40
0.0
  9
$DIMTXT
 40
2.5
  9
$DIMCEN
 40
2.5
  9
$DIMTSZ
 40
0.0
  9
$DIMTOL
 70
     0
  9
$DIMLIM
 70
     0
  9
$DIMTIH
 70
     0
  9
$DIMTOH
 70
     0
  9
$DIMSE1
 70
     0
  9
$DIMSE2
 70
     0
  9
$DIMTAD
 70
     1
  9
$DIMZIN
 70
     8
  9
$DIMBLK
  1

  9
$DIMASO
 70
     1
  9
$DIMSHO
 70
     1
  9
$DIMPOST
  1

  9
$DIMAPOST
  1

  9
$DIMALT
 70
     0
  9
$DIMALTD
 70
     3
  9
$DIMALTF
 40
0.03937007874016
  9
$DIMLFAC
 40
1.0
  9
$DIMTOFL
 70
     1
  9
$DIMTVP
 40
0.0
  9
$DIMTIX
 70
     0
  9
$DIMSOXD
 70
     0
  9
$DIMSAH
 70
     1
  9
$DIMBLK1
  1

  9
$DIMBLK2
  1

  9
$DIMSTYLE
  2
ISO-25
  9
$DIMCLRD
 70
     0
  9
$DIMCLRE
 70
     0
  9
$DIMCLRT
 70
     0
  9
$DIMTFAC
 40
1.0
  9
$DIMGAP
 40
0.5
  9
$DIMJUST
 70
     0
  9
$DIMSD1
 70
     0
  9
$DIMSD2
 70
     0
  9
$DIMTOLJ
 70
     0
  9
$DIMTZIN
 70
     8
  9
$DIMALTZ
 70
     0
  9
$DIMALTTZ
 70
     0
  9
$DIMUPT
 70
     1
  9
$DIMDEC
 70
     1
  9
$DIMTDEC
 70
     2
  9
$DIMALTU
 70
     2
  9
$DIMALTTD
 70
     3
  9
$DIMTXSTY
  7
Standard
  9
$DIMAUNIT
 70
     0
  9
$DIMADEC
 70
     1
  9
$DIMALTRND
 40
0.0
  9
$DIMAZIN
 70
     2
  9
$DIMDSEP
 70
    46
  9
$DIMATFIT
 70
     0
  9
$DIMFRAC
 70
     0
  9
$DIMLDRBLK
  1

  9
$DIMLUNIT
 70
     2
  9
$DIMLWD
 70
    -2
  9
$DIMLWE
 70
    -2
  9
$DIMTMOVE
 70
     0
  9
$LUNITS
 70
     2
  9
$LUPREC
 70
     4
  9
$SKETCHINC
 40
1.0
  9
$FILLETRAD
 40
10.0
  9
$AUNITS
 70
     0
  9
$AUPREC
 70
     0
  9
$MENU
  1
.
  9
$ELEVATION
 40
0.0
  9
$PELEVATION
 40
0.0
  9
$THICKNESS
 40
0.0
  9
$LIMCHECK
 70
     0
  9
$CHAMFERA
 40
10.0
  9
$CHAMFERB
 40
10.0
  9
$CHAMFERC
 40
20.0
  9
$CHAMFERD
 40
0.0
  9
$SKPOLY
 70
     0
  9
$TDCREATE
 40
2455091.0
  9
$TDUCREATE
 40
2451562.87528772
  9
$TDUPDATE
 40
2455111.0
  9
$TDUUPDATE
 40
2452026.917654526
  9
$TDINDWG
 40
0.0010008681
  9
$TDUSRTIMER
 40
0.0009680671
  9
$USRTIMER
 70
     1
  9
$ANGBASE
 50
0.0
  9
$ANGDIR
 70
     0
  9
$PDMODE
 70
     0
  9
$PDSIZE
 40
0.0
  9
$PLINEWID
 40
0.0
  9
$SPLFRAME
 70
     0
  9
$SPLINETYPE
 70
     6
  9
$SPLINESEGS
 70
     8
  9
$HANDSEED
  5
496
  9
$SURFTAB1
 70
     6
  9
$SURFTAB2
 70
     6
  9
$SURFTYPE
 70
     6
  9
$SURFU
 70
     6
  9
$SURFV
 70
     6
  9
$UCSBASE
  2

  9
$UCSNAME
  2

  9
$UCSORG
 10
0.0
 20
0.0
 30
0.0
  9
$UCSXDIR
 10
1.0
 20
0.0
 30
0.0
  9
$UCSYDIR
 10
0.0
 20
1.0
 30
0.0
  9
$UCSORTHOREF
  2

  9
$UCSORTHOVIEW
 70
     0
  9
$UCSORGTOP
 10
0.0
 20
0.0
 30
0.0
  9
$UCSORGBOTTOM
 10
0.0
 20
0.0
 30
0.0
  9
$UCSORGLEFT
 10
0.0
 20
0.0
 30
0.0
  9
$UCSORGRIGHT
 10
0.0
 20
0.0
 30
0.0
  9
$UCSORGFRONT
 10
0.0
 20
0.0
 30
0.0
  9
$UCSORGBACK
 10
0.0
 20
0.0
 30
0.0
  9
$PUCSBASE
  2

  9
$PUCSNAME
  2

  9
$PUCSORG
 10
0.0
 20
0.0
 30
0.0
  9
$PUCSXDIR
 10
1.0
 20
0.0
 30
0.0
  9
$PUCSYDIR
 10
0.0
 20
1.0
 30
0.0
  9
$PUCSORTHOREF
  2

  9
$PUCSORTHOVIEW
 70
     0
  9
$PUCSORGTOP
 10
0.0
 20
0.0
 30
0.0
  9
$PUCSORGBOTTOM
 10
0.0
 20
0.0
 30
0.0
  9
$PUCSORGLEFT
 10
0.0
 20
0.0
 30
0.0
  9
$PUCSORGRIGHT
 10
0.0
 20
0.0
 30
0.0
  9
$PUCSORGFRONT
 10
0.0
 20
0.0
 30
0.0
  9
$PUCSORGBACK
 10
0.0
 20
0.0
 30
0.0
  9
$USERI1
 70
     0
  9
$USERI2
 70
     0
  9
$USERI3
 70
     0
  9
$USERI4
 70
     0
  9
$USERI5
 70
     0
  9
$USERR1
 40
0.0
  9
$USERR2
 40
0.0
  9
$USERR3
 40
0.0
  9
$USERR4
 40
0.0
  9
$USERR5
 40
0.0
  9
$WORLDVIEW
 70
     1
  9
$SHADEDGE
 70
     3
  9
$SHADEDIF
 70
    70
  9
$TILEMODE
 70
     1
  9
$MAXACTVP
 70
    64
  9
$PINSBASE
 10
0.0
 20
0.0
 30
0.0
  9
$PLIMCHECK
 70
     0
  9
$PEXTMIN
 10
-594.5
 20
-420.5
 30
0.0
  9
$PEXTMAX
 10
594.5
 20
420.5
 30
0.0
  9
$PLIMMIN
 10
-594.5
 20
-420.5
  9
$PLIMMAX
 10
594.5
 20
420.5
  9
$UNITMODE
 70
     0
  9
$VISRETAIN
 70
     1
  9
$PLINEGEN
 70
     0
  9
$PSLTSCALE
 70
     1
  9
$TREEDEPTH
 70
  3020
  9
$CMLSTYLE
  2
Standard
  9
$CMLJUST
 70
     0
  9
$CMLSCALE
 40
20.0
  9
$PROXYGRAPHICS
 70
     1
  9
$MEASUREMENT
 70
     1
  9
$CELWEIGHT
370
    -1
  9
$ENDCAPS
280
     0
  9
$JOINSTYLE
280
     0
  9
$LWDISPLAY
290
     0
  9
$INSUNITS
 70
     4
  9
$HYPERLINKBASE
  1

  9
$STYLESHEET
  1

  9
$XEDIT
290
     1
  9
$CEPSNTYPE
380
     0
  9
$PSTYLEMODE
290
     1
  9
$FINGERPRINTGUID
  2
{B6423330-CE35-11D3-AA43-00E0292263AD}
  9
$VERSIONGUID
  2
{EAA0F794-BAE8-4B09-85E0-65C527BE2B8E}
  9
$EXTNAMES
290
     1
  9
$PSVPSCALE
 40
0.0
  9
$OLESTARTUP
290
     0
  0
ENDSEC
  0
SECTION
  2
CLASSES
  0
CLASS
  1
ACDBDICTIONARYWDFLT
  2
AcDbDictionaryWithDefault
  3
ObjectDBX Classes
 90
        0
280
     0
281
     0
  0
CLASS
  1
ACDBPLACEHOLDER
  2
AcDbPlaceHolder
  3
ObjectDBX Classes
 90
        0
280
     0
281
     0
  0
CLASS
  1
LAYOUT
  2
AcDbLayout
  3
ObjectDBX Classes
 90
        0
280
     0
281
     0
  0
ENDSEC
  0
SECTION
  2
TABLES
  0
TABLE
  2
VPORT
  5
8
330
0
100
AcDbSymbolTable
 70
     3
  0
VPORT
  5
30
330
8
100
AcDbSymbolTableRecord
100
AcDbViewportTableRecord
  2
*Active
 70
     0
 10
0.0
 20
0.0
 11
1.0
 21
1.0
 12
259.0560661764706
 22
148.5
 13
0.0
 23
0.0
 14
10.0
 24
10.0
 15
10.0
 25
10.0
 16
0.0
 26
0.0
 36
1.0
 17
0.0
 27
0.0
 37
0.0
 40
297.1173501144164
 41
1.268382352941176
 42
50.0
 43
0.0
 44
0.0
 50
0.0
 51
0.0
 71
     0
 72
   100
 73
     1
 74
     3
 75
     0
 76
     0
 77
     0
 78
     0
281
     0
 65
     1
110
0.0
120
0.0
130
0.0
111
1.0
121
0.0
131
0.0
112
0.0
122
1.0
132
0.0
 79
     0
146
0.0
  0
ENDTAB
  0
TABLE
  2
LTYPE
  5
5
330
0
100
AcDbSymbolTable
 70
    26
  0
LTYPE
  5
14
330
5
100
AcDbSymbolTableRecord
100
AcDbLinetypeTableRecord
  2
ByBlock
 70
     0
  3

 72
    65
 73
     0
 40
0.0
  0
LTYPE
  5
15
330
5
100
AcDbSymbolTableRecord
100
AcDbLinetypeTableRecord
  2
ByLayer
 70
     0
  3

 72
    65
 73
     0
 40
0.0
  0
LTYPE
  5
16
330
5
100
AcDbSymbolTableRecord
100
AcDbLinetypeTableRecord
  2
Continuous
 70
     0
  3
Solid line
 72
    65
 73
     0
 40
0.0
  0
LTYPE
  5
37
330
5
100
AcDbSymbolTableRecord
100
AcDbLinetypeTableRecord
  2
BORDER
 70
     0
  3
 __ __ . __ __ . __ __ . __ __ . __ __ . __ __
 72
    65
 73
     6
 40
1.75
 49
0.5
 74
     0
 49
-0.25
 74
     0
 49
0.5
 74
     0
 49
-0.25
 74
     0
 49
0.0
 74
     0
 49
-0.25
 74
     0
  0
LTYPE
  5
38
330
5
100
AcDbSymbolTableRecord
100
AcDbLinetypeTableRecord
  2
BORDER2
 70
     0
  3
__.__.__.__.__.__.__.__.__.__.__.__.__.__.__
 72
    65
 73
     6
 40
0.875
 49
0.25
 74
     0
 49
-0.125
 74
     0
 49
0.25
 74
     0
 49
-0.125
 74
     0
 49
0.0
 74
     0
 49
-0.125
 74
     0
  0
LTYPE
  5
39
330
5
100
AcDbSymbolTableRecord
100
AcDbLinetypeTableRecord
  2
BORDERX2
 70
     0
  3
____  ____  .  ____  ____  .  ____  ____  .
 72
    65
 73
     6
 40
3.5
 49
1.0
 74
     0
 49
-0.5
 74
     0
 49
1.0
 74
     0
 49
-0.5
 74
     0
 49
0.0
 74
     0
 49
-0.5
 74
     0
  0
LTYPE
  5
3A
330
5
100
AcDbSymbolTableRecord
100
AcDbLinetypeTableRecord
  2
CENTER
 70
     0
  3
____ _ ____ _ ____ _ ____ _ ____ _ ____ _ ____
 72
    65
 73
     4
 40
2.0
 49
1.25
 74
     0
 49
-0.25
 74
     0
 49
0.25
 74
     0
 49
-0.25
 74
     0
  0
LTYPE
  5
3B
330
5
100
AcDbSymbolTableRecord
100
AcDbLinetypeTableRecord
  2
CENTER2
 70
     0
  3
___ _ ___ _ ___ _ ___ _ ___ _ ___ _ ___ _ ___ 
 72
    65
 73
     4
 40
1.125
 49
0.75
 74
     0
 49
-0.125
 74
     0
 49
0.125
 74
     0
 49
-0.125
 74
     0
  0
LTYPE
  5
3C
330
5
100
AcDbSymbolTableRecord
100
AcDbLinetypeTableRecord
  2
CENTERX2
 70
     0
  3
________  __  ________  __  ________  __
 72
    65
 73
     4
 40
4.0
 49
2.5
 74
     0
 49
-0.5
 74
     0
 49
0.5
 74
     0
 49
-0.5
 74
     0
  0
LTYPE
  5
3D
330
5
100
AcDbSymbolTableRecord
100
AcDbLinetypeTableRecord
  2
DASHDOT
 70
     0
  3
__ . __ . __ . __ . __ . __ . __ . __ . __ .
 72
    65
 73
     4
 40
1.0
 49
0.5
 74
     0
 49
-0.25
 74
     0
 49
0.0
 74
     0
 49
-0.25
 74
     0
  0
LTYPE
  5
3E
330
5
100
AcDbSymbolTableRecord
100
AcDbLinetypeTableRecord
  2
DASHDOT2
 70
     0
  3
_._._._._._._._._._._._._._._._._._._._._._._.
 72
    65
 73
     4
 40
0.5
 49
0.25
 74
     0
 49
-0.125
 74
     0
 49
0.0
 74
     0
 49
-0.125
 74
     0
  0
LTYPE
  5
3F
330
5
100
AcDbSymbolTableRecord
100
AcDbLinetypeTableRecord
  2
DASHDOTX2
 70
     0
  3
____  .  ____  .  ____  .  ____  .  ____  .
 72
    65
 73
     4
 40
2.0
 49
1.0
 74
     0
 49
-0.5
 74
     0
 49
0.0
 74
     0
 49
-0.5
 74
     0
  0
LTYPE
  5
40
330
5
100
AcDbSymbolTableRecord
100
AcDbLinetypeTableRecord
  2
DASHED
 70
     0
  3
__ __ __ __ __ __ __ __ __ __ __ __ __ __ __
 72
    65
 73
     2
 40
0.75
 49
0.5
 74
     0
 49
-0.25
 74
     0
  0
LTYPE
  5
41
330
5
100
AcDbSymbolTableRecord
100
AcDbLinetypeTableRecord
  2
DASHED2
 70
     0
  3
_ _ _ _ _ _ _ _ _ _ _ _ _ _ _ _ _ _ _ _ _ _ _
 72
    65
 73
     2
 40
0.375
 49
0.25
 74
     0
 49
-0.125
 74
     0
  0
LTYPE
  5
42
330
5
100
AcDbSymbolTableRecord
100
AcDbLinetypeTableRecord
  2
DASHEDX2
 70
     0
  3
____  ____  ____  ____  ____  ____  ____  ____
 72
    65
 73
     2
 40
1.5
 49
1.0
 74
     0
 49
-0.5
 74
     0
  0
LTYPE
  5
43
330
5
100
AcDbSymbolTableRecord
100
AcDbLinetypeTableRecord
  2
DIVIDE
 70
     0
  3
____ . . ____ . . ____ . . ____ . . ____ . .
 72
    65
 73
     6
 40
1.25
 49
0.5
 74
     0
 49
-0.25
 74
     0
 49
0.0
 74
     0
 49
-0.25
 74
     0
 49
0.0
 74
     0
 49
-0.25
 74
     0
  0
LTYPE
  5
44
330
5
100
AcDbSymbolTableRecord
100
AcDbLinetypeTableRecord
  2
DIVIDE2
 70
     0
  3
__..__..__..__..__..__..__..__..__..__..__..__
 72
    65
 73
     6
 40
0.625
 49
0.25
 74
     0
 49
-0.125
 74
     0
 49
0.0
 74
     0
 49
-0.125
 74
     0
 49
0.0
 74
     0
 49
-0.125
 74
     0
  0
LTYPE
  5
45
330
5
100
AcDbSymbolTableRecord
100
AcDbLinetypeTableRecord
  2
DIVIDEX2
 70
     0
  3
________  .  .  ________  .  .  ________  .  .
 72
    65
 73
     6
 40
2.5
 49
1.0
 74
     0
 49
-0.5
 74
     0
 49
0.0
 74
     0
 49
-0.5
 74
     0
 49
0.0
 74
     0
 49
-0.5
 74
     0
  0
LTYPE
  5
46
330
5
100
AcDbSymbolTableRecord
100
AcDbLinetypeTableRecord
  2
DOT
 70
     0
  3
. . . . . . . . . . . . . . . . . . . . . . .
 72
    65
 73
     2
 40
0.25
 49
0.0
 74
     0
 49
-0.25
 74
     0
  0
LTYPE
  5
47
330
5
100
AcDbSymbolTableRecord
100
AcDbLinetypeTableRecord
  2
DOT2
 70
     0
  3
..............................................
 72
    65
 73
     2
 40
0.125
 49
0.0
 74
     0
 49
-0.125
 74
     0
  0
LTYPE
  5
48
330
5
100
AcDbSymbolTableRecord
100
AcDbLinetypeTableRecord
  2
DOTX2
 70
     0
  3
.  .  .  .  .  .  .  .  .  .  .  .  .  .  .  .
 72
    65
 73
     2
 40
0.5
 49
0.0
 74
     0
 49
-0.5
 74
     0
  0
LTYPE
  5
49
330
5
100
AcDbSymbolTableRecord
100
AcDbLinetypeTableRecord
  2
HIDDEN
 70
     0
  3
__ __ __ __ __ __ __ __ __ __ __ __ __ __ __
 72
    65
 73
     2
 40
0.375
 49
0.25
 74
     0
 49
-0.125
 74
     0
  0
LTYPE
  5
4A
330
5
100
AcDbSymbolTableRecord
100
AcDbLinetypeTableRecord
  2
HIDDEN2
 70
     0
  3
_ _ _ _ _ _ _ _ _ _ _ _ _ _ _ _ _ _ _ _ _ _ _
 72
    65
 73
     2
 40
0.1875
 49
0.125
 74
     0
 49
-0.0625
 74
     0
  0
LTYPE
  5
4B
330
5
100
AcDbSymbolTableRecord
100
AcDbLinetypeTableRecord
  2
HIDDENX2
 70
     0
  3
____ ____ ____ ____ ____ ____ ____ ____ ____
 72
    65
 73
     2
 40
0.75
 49
0.5
 74
     0
 49
-0.25
 74
     0
  0
LTYPE
  5
4C
330
5
100
AcDbSymbolTableRecord
100
AcDbLinetypeTableRecord
  2
PHANTOM
 70
     0
  3
______  __  __  ______  __  __  ______  __
 72
    65
 73
     6
 40
2.5
 49
1.25
 74
     0
 49
-0.25
 74
     0
 49
0.25
 74
     0
 49
-0.25
 74
     0
 49
0.25
 74
     0
 49
-0.25
 74
     0
  0
LTYPE
  5
4D
330
5
100
AcDbSymbolTableRecord
100
AcDbLinetypeTableRecord
  2
PHANTOM2
 70
     0
  3
___ _ _ ___ _ _ ___ _ _ ___ _ _ ___ _ _ ___ _
 72
    65
 73
     6
 40
1.25
 49
0.625
 74
     0
 49
-0.125
 74
     0
 49
0.125
 74
     0
 49
-0.125
 74
     0
 49
0.125
 74
     0
 49
-0.125
 74
     0
  0
LTYPE
  5
4E
330
5
100
AcDbSymbolTableRecord
100
AcDbLinetypeTableRecord
  2
PHANTOMX2
 70
     0
  3
____________    ____    ____    ____________
 72
    65
 73
     6
 40
5.0
 49
2.5
 74
     0
 49
-0.5
 74
     0
 49
0.5
 74
     0
 49
-0.5
 74
     0
 49
0.5
 74
     0
 49
-0.5
 74
     0
  0
LTYPE
  5
4F
330
5
100
AcDbSymbolTableRecord
100
AcDbLinetypeTableRecord
  2
CONTINUOUS2
 70
     0
  3
Solid line
 72
    65
 73
     0
 40
0.0
  0
ENDTAB
  0
TABLE
  2
LAYER
  5
2
330
0
100
AcDbSymbolTable
 70
   514
  0
LAYER
  5
10
330
2
100
AcDbSymbolTableRecord
100
AcDbLayerTableRecord
  2
0
 70
     0
 62
     7
  6
Continuous
370
    -3
390
F
  0
LAYER
  5
50
330
2
100
AcDbSymbolTableRecord
100
AcDbLayerTableRecord
  2
LAYER-001
 70
     0
 62
     7
  6
Continuous
370
    -3
390
F
  0
LAYER
  5
51
330
2
100
AcDbSymbolTableRecord
100
AcDbLayerTableRecord
  2
LAYER-002
 70
     0
 62
     7
  6
Continuous
370
    -3
390
F
  0
LAYER
  5
52
330
2
100
AcDbSymbolTableRecord
100
AcDbLayerTableRecord
  2
LAYER-003
 70
     0
 62
     7
  6
Continuous
370
    -3
390
F
  0
LAYER
  5
53
330
2
100
AcDbSymbolTableRecord
100
AcDbLayerTableRecord
  2
LAYER-004
 70
     0
 62
     7
  6
Continuous
370
    -3
390
F
  0
LAYER
  5
54
330
2
100
AcDbSymbolTableRecord
100
AcDbLayerTableRecord
  2
LAYER-005
 70
     0
 62
     7
  6
Continuous
370
    -3
390
F
  0
LAYER
  5
55
330
2
100
AcDbSymbolTableRecord
100
AcDbLayerTableRecord
  2
LAYER-006
 70
     0
 62
     7
  6
Continuous
370
    -3
390
F
  0
LAYER
  5
56
330
2
100
AcDbSymbolTableRecord
100
AcDbLayerTableRecord
  2
LAYER-007
 70
     0
 62
     7
  6
Continuous
370
    -3
390
F
  0
LAYER
  5
57
330
2
100
AcDbSymbolTableRecord
100
AcDbLayerTableRecord
  2
LAYER-008
 70
     0
 62
     7
  6
Continuous
370
    -3
390
F
  0
LAYER
  5
58
330
2
100
AcDbSymbolTableRecord
100
AcDbLayerTableRecord
  2
LAYER-009
 70
     0
 62
     7
  6
Continuous
370
    -3
390
F
  0
LAYER
  5
59
330
2
100
AcDbSymbolTableRecord
100
AcDbLayerTableRecord
  2
LAYER-010
 70
     0
 62
     7
  6
Continuous
370
    -3
390
F
  0
LAYER
  5
5A
330
2
100
AcDbSymbolTableRecord
100
AcDbLayerTableRecord
  2
LAYER-011
 70
     0
 62
     7
  6
Continuous
370
    -3
390
F
  0
LAYER
  5
5B
330
2
100
AcDbSymbolTableRecord
100
AcDbLayerTableRecord
  2
LAYER-012
 70
     0
 62
     7
  6
Continuous
370
    -3
390
F
  0
LAYER
  5
5C
330
2
100
AcDbSymbolTableRecord
100
AcDbLayerTableRecord
  2
LAYER-013
 70
     0
 62
     7
  6
Continuous
370
    -3
390
F
  0
LAYER
  5
5D
330
2
100
AcDbSymbolTableRecord
100
AcDbLayerTableRecord
  2
LAYER-014
 70
     0
 62
     7
  6
Continuous
370
    -3
390
F
  0
LAYER
  5
5E
330
2
100
AcDbSymbolTableRecord
100
AcDbLayerTableRecord
  2
LAYER-015
 70
     0
 62
    -7
  6
Continuous
370
    -3
390
F
  0
LAYER
  5
5F
330
2
100
AcDbSymbolTableRecord
100
AcDbLayerTableRecord
  2
LAYER-016
 70
     0
 62
     4
  6
Continuous
370
    -3
390
F
  0
LAYER
  5
60
330
2
100
AcDbSymbolTableRecord
100
AcDbLayerTableRecord
  2
LAYER-017
 70
     0
 62
     7
  6
Continuous
370
    -3
390
F
  0
LAYER
  5
61
330
2
100
AcDbSymbolTableRecord
100
AcDbLayerTableRecord
  2
LAYER-018
 70
     0
 62
     2
  6
Continuous
370
    -3
390
F
  0
LAYER
  5
62
330
2
100
AcDbSymbolTableRecord
100
AcDbLayerTableRecord
  2
LAYER-019
 70
     0
 62
     3
  6
Continuous
370
    -3
390
F
  0
LAYER
  5
63
330
2
100
AcDbSymbolTableRecord
100
AcDbLayerTableRecord
  2
LAYER-020
 70
     0
 62
     2
  6
Continuous
370
    -3
390
F
  0
LAYER
  5
64
330
2
100
AcDbSymbolTableRecord
100
AcDbLayerTableRecord
  2
LAYER-021
 70
     0
 62
     7
  6
Continuous
370
    -3
390
F
  0
LAYER
  5
65
330
2
100
AcDbSymbolTableRecord
100
AcDbLayerTableRecord
  2
LAYER-022
 70
     0
 62
     4
  6
Continuous
370
    -3
390
F
  0
LAYER
  5
66
330
2
100
AcDbSymbolTableRecord
100
AcDbLayerTableRecord
  2
LAYER-023
 70
     0
 62
     4
  6
Continuous
370
    -3
390
F
  0
LAYER
  5
67
330
2
100
AcDbSymbolTableRecord
100
AcDbLayerTableRecord
  2
LAYER-024
 70
     0
 62
     7
  6
Continuous
370
    -3
390
F
  0
LAYER
  5
68
330
2
100
AcDbSymbolTableRecord
100
AcDbLayerTableRecord
  2
LAYER-025
 70
     0
 62
     7
  6
Continuous
370
    -3
390
F
  0
LAYER
  5
69
330
2
100
AcDbSymbolTableRecord
100
AcDbLayerTableRecord
  2
LAYER-026
 70
     0
 62
    -7
  6
Continuous
370
    -3
390
F
  0
LAYER
  5
6A
330
2
100
AcDbSymbolTableRecord
100
AcDbLayerTableRecord
  2
LAYER-027
 70
     0
 62
     7
  6
Continuous
370
    -3
390
F
  0
LAYER
  5
6B
330
2
100
AcDbSymbolTableRecord
100
AcDbLayerTableRecord
  2
LAYER-028
 70
     0
 62
     7
  6
Continuous
370
    -3
390
F
  0
LAYER
  5
6C
330
2
100
AcDbSymbolTableRecord
100
AcDbLayerTableRecord
  2
LAYER-029
 70
     0
 62
     7
  6
Continuous
370
    -3
390
F
  0
LAYER
  5
6D
330
2
100
AcDbSymbolTableRecord
100
AcDbLayerTableRecord
  2
LAYER-030
 70
     0
 62
     2
  6
Continuous
370
    -3
390
F
  0
LAYER
  5
6E
330
2
100
AcDbSymbolTableRecord
100
AcDbLayerTableRecord
  2
LAYER-031
 70
     0
 62
     7
  6
Continuous
370
    -3
390
F
  0
LAYER
  5
6F
330
2
100
AcDbSymbolTableRecord
100
AcDbLayerTableRecord
  2
LAYER-032
 70
     0
 62
     2
  6
Continuous
370
    -3
390
F
  0
LAYER
  5
70
330
2
100
AcDbSymbolTableRecord
100
AcDbLayerTableRecord
  2
LAYER-033
 70
     0
 62
     7
  6
Continuous
370
    -3
390
F
  0
LAYER
  5
71
330
2
100
AcDbSymbolTableRecord
100
AcDbLayerTableRecord
  2
LAYER-034
 70
     0
 62
     7
  6
Continuous
370
    -3
390
F
  0
LAYER
  5
72
330
2
100
AcDbSymbolTableRecord
100
AcDbLayerTableRecord
  2
LAYER-035
 70
     0
 62
     3
  6
Continuous
370
    -3
390
F
  0
LAYER
  5
73
330
2
100
AcDbSymbolTableRecord
100
AcDbLayerTableRecord
  2
LAYER-036
 70
     0
 62
     2
  6
Continuous
370
    -3
390
F
  0
LAYER
  5
74
330
2
100
AcDbSymbolTableRecord
100
AcDbLayerTableRecord
  2
LAYER-037
 70
     0
 62
     7
  6
Continuous
370
    -3
390
F
  0
LAYER
  5
75
330
2
100
AcDbSymbolTableRecord
100
AcDbLayerTableRecord
  2
LAYER-038
 70
     0
 62
     7
  6
Continuous
370
    -3
390
F
  0
LAYER
  5
76
330
2
100
AcDbSymbolTableRecord
100
AcDbLayerTableRecord
  2
LAYER-039
 70
     0
 62
     7
  6
Continuous
370
    -3
390
F
  0
LAYER
  5
77
330
2
100
AcDbSymbolTableRecord
100
AcDbLayerTableRecord
  2
LAYER-040
 70
     0
 62
     7
  6
Continuous
370
    -3
390
F
  0
LAYER
  5
78
330
2
100
AcDbSymbolTableRecord
100
AcDbLayerTableRecord
  2
LAYER-041
 70
     0
 62
     7
  6
Continuous
370
    -3
390
F
  0
LAYER
  5
79
330
2
100
AcDbSymbolTableRecord
100
AcDbLayerTableRecord
  2
LAYER-042
 70
     0
 62
     7
  6
Continuous
370
    -3
390
F
  0
LAYER
  5
7A
330
2
100
AcDbSymbolTableRecord
100
AcDbLayerTableRecord
  2
LAYER-043
 70
     0
 62
     7
  6
Continuous
370
    -3
390
F
  0
LAYER
  5
7B
330
2
100
AcDbSymbolTableRecord
100
AcDbLayerTableRecord
  2
LAYER-044
 70
     0
 62
     7
  6
Continuous
370
    -3
390
F
  0
LAYER
  5
7C
330
2
100
AcDbSymbolTableRecord
100
AcDbLayerTableRecord
  2
LAYER-045
 70
     0
 62
     7
  6
Continuous
370
    -3
390
F
  0
LAYER
  5
7D
330
2
100
AcDbSymbolTableRecord
100
AcDbLayerTableRecord
  2
LAYER-046
 70
     0
 62
     7
  6
Continuous
370
    -3
390
F
  0
LAYER
  5
7E
330
2
100
AcDbSymbolTableRecord
100
AcDbLayerTableRecord
  2
LAYER-047
 70
     0
 62
     7
  6
Continuous
370
    -3
390
F
  0
LAYER
  5
7F
330
2
100
AcDbSymbolTableRecord
100
AcDbLayerTableRecord
  2
LAYER-048
 70
     0
 62
     2
  6
Continuous
370
    -3
390
F
  0
LAYER
  5
80
330
2
100
AcDbSymbolTableRecord
100
AcDbLayerTableRecord
  2
LAYER-049
 70
     0
 62
     3
  6
Continuous
370
    -3
390
F
  0
LAYER
  5
81
330
2
100
AcDbSymbolTableRecord
100
AcDbLayerTableRecord
  2
LAYER-050
 70
     0
 62
     7
  6
Continuous
370
    -3
390
F
  0
LAYER
  5
82
330
2
100
AcDbSymbolTableRecord
100
AcDbLayerTableRecord
  2
LAYER-051
 70
     0
 62
     2
  6
Continuous
370
    -3
390
F
  0
LAYER
  5
83
330
2
100
AcDbSymbolTableRecord
100
AcDbLayerTableRecord
  2
LAYER-052
 70
     0
 62
     7
  6
Continuous
370
    -3
390
F
  0
LAYER
  5
84
330
2
100
AcDbSymbolTableRecord
100
AcDbLayerTableRecord
  2
LAYER-053
 70
     0
 62
     7
  6
Continuous
370
    -3
390
F
  0
LAYER
  5
85
330
2
100
AcDbSymbolTableRecord
100
AcDbLayerTableRecord
  2
LAYER-054
 70
     0
 62
     7
  6
Continuous
370
    -3
390
F
  0
LAYER
  5
86
330
2
100
AcDbSymbolTableRecord
100
AcDbLayerTableRecord
  2
LAYER-055
 70
     0
 62
     7
  6
Continuous
370
    -3
390
F
  0
LAYER
  5
87
330
2
100
AcDbSymbolTableRecord
100
AcDbLayerTableRecord
  2
LAYER-056
 70
     0
 62
     7
  6
Continuous
370
    -3
390
F
  0
LAYER
  5
88
330
2
100
AcDbSymbolTableRecord
100
AcDbLayerTableRecord
  2
LAYER-057
 70
     0
 62
     7
  6
Continuous
370
    -3
390
F
  0
LAYER
  5
89
330
2
100
AcDbSymbolTableRecord
100
AcDbLayerTableRecord
  2
LAYER-058
 70
     0
 62
     7
  6
Continuous
370
    -3
390
F
  0
LAYER
  5
8A
330
2
100
AcDbSymbolTableRecord
100
AcDbLayerTableRecord
  2
LAYER-059
 70
     0
 62
     7
  6
Continuous
370
    -3
390
F
  0
LAYER
  5
8B
330
2
100
AcDbSymbolTableRecord
100
AcDbLayerTableRecord
  2
LAYER-060
 70
     0
 62
     7
  6
Continuous
370
    -3
390
F
  0
LAYER
  5
8C
330
2
100
AcDbSymbolTableRecord
100
AcDbLayerTableRecord
  2
LAYER-061
 70
     0
 62
     7
  6
Continuous
370
    -3
390
F
  0
LAYER
  5
8D
330
2
100
AcDbSymbolTableRecord
100
AcDbLayerTableRecord
  2
LAYER-062
 70
     0
 62
     7
  6
Continuous
370
    -3
390
F
  0
LAYER
  5
8E
330
2
100
AcDbSymbolTableRecord
100
AcDbLayerTableRecord
  2
LAYER-063
 70
     0
 62
     7
  6
Continuous
370
    -3
390
F
  0
LAYER
  5
8F
330
2
100
AcDbSymbolTableRecord
100
AcDbLayerTableRecord
  2
LAYER-064
 70
     0
 62
     2
  6
Continuous
370
    -3
390
F
  0
LAYER
  5
90
330
2
100
AcDbSymbolTableRecord
100
AcDbLayerTableRecord
  2
LAYER-065
 70
     0
 62
     7
  6
Continuous
370
    -3
390
F
  0
LAYER
  5
91
330
2
100
AcDbSymbolTableRecord
100
AcDbLayerTableRecord
  2
LAYER-066
 70
     0
 62
     2
  6
Continuous
370
    -3
390
F
  0
LAYER
  5
92
330
2
100
AcDbSymbolTableRecord
100
AcDbLayerTableRecord
  2
LAYER-067
 70
     0
 62
     2
  6
Continuous
370
    -3
390
F
  0
LAYER
  5
93
330
2
100
AcDbSymbolTableRecord
100
AcDbLayerTableRecord
  2
LAYER-068
 70
     0
 62
     7
  6
Continuous
370
    -3
390
F
  0
LAYER
  5
94
330
2
100
AcDbSymbolTableRecord
100
AcDbLayerTableRecord
  2
LAYER-069
 70
     0
 62
     7
  6
Continuous
370
    -3
390
F
  0
LAYER
  5
95
330
2
100
AcDbSymbolTableRecord
100
AcDbLayerTableRecord
  2
LAYER-070
 70
     0
 62
     7
  6
Continuous
370
    -3
390
F
  0
LAYER
  5
96
330
2
100
AcDbSymbolTableRecord
100
AcDbLayerTableRecord
  2
LAYER-071
 70
     0
 62
     7
  6
Continuous
370
    -3
390
F
  0
LAYER
  5
97
330
2
100
AcDbSymbolTableRecord
100
AcDbLayerTableRecord
  2
LAYER-072
 70
     0
 62
     7
  6
Continuous
370
    -3
390
F
  0
LAYER
  5
98
330
2
100
AcDbSymbolTableRecord
100
AcDbLayerTableRecord
  2
LAYER-073
 70
     0
 62
     7
  6
Continuous
370
    -3
390
F
  0
LAYER
  5
99
330
2
100
AcDbSymbolTableRecord
100
AcDbLayerTableRecord
  2
LAYER-074
 70
     0
 62
     7
  6
Continuous
370
    -3
390
F
  0
LAYER
  5
9A
330
2
100
AcDbSymbolTableRecord
100
AcDbLayerTableRecord
  2
LAYER-075
 70
     0
 62
     7
  6
Continuous
370
    -3
390
F
  0
LAYER
  5
9B
330
2
100
AcDbSymbolTableRecord
100
AcDbLayerTableRecord
  2
LAYER-076
 70
     0
 62
     7
  6
Continuous
370
    -3
390
F
  0
LAYER
  5
9C
330
2
100
AcDbSymbolTableRecord
100
AcDbLayerTableRecord
  2
LAYER-077
 70
     0
 62
     7
  6
Continuous
370
    -3
390
F
  0
LAYER
  5
9D
330
2
100
AcDbSymbolTableRecord
100
AcDbLayerTableRecord
  2
LAYER-078
 70
     0
 62
     7
  6
Continuous
370
    -3
390
F
  0
LAYER
  5
9E
330
2
100
AcDbSymbolTableRecord
100
AcDbLayerTableRecord
  2
LAYER-079
 70
     0
 62
     7
  6
Continuous
370
    -3
390
F
  0
LAYER
  5
9F
330
2
100
AcDbSymbolTableRecord
100
AcDbLayerTableRecord
  2
LAYER-080
 70
     0
 62
     2
  6
Continuous
370
    -3
390
F
  0
LAYER
  5
A0
330
2
100
AcDbSymbolTableRecord
100
AcDbLayerTableRecord
  2
LAYER-081
 70
     0
 62
     7
  6
Continuous
370
    -3
390
F
  0
LAYER
  5
A1
330
2
100
AcDbSymbolTableRecord
100
AcDbLayerTableRecord
  2
LAYER-082
 70
     0
 62
     7
  6
Continuous
370
    -3
390
F
  0
LAYER
  5
A2
330
2
100
AcDbSymbolTableRecord
100
AcDbLayerTableRecord
  2
LAYER-083
 70
     0
 62
     7
  6
Continuous
370
    -3
390
F
  0
LAYER
  5
A3
330
2
100
AcDbSymbolTableRecord
100
AcDbLayerTableRecord
  2
LAYER-084
 70
     0
 62
     7
  6
Continuous
370
    -3
390
F
  0
LAYER
  5
A4
330
2
100
AcDbSymbolTableRecord
100
AcDbLayerTableRecord
  2
LAYER-085
 70
     0
 62
     7
  6
Continuous
370
    -3
390
F
  0
LAYER
  5
A5
330
2
100
AcDbSymbolTableRecord
100
AcDbLayerTableRecord
  2
LAYER-086
 70
     0
 62
     7
  6
Continuous
370
    -3
390
F
  0
LAYER
  5
A6
330
2
100
AcDbSymbolTableRecord
100
AcDbLayerTableRecord
  2
LAYER-087
 70
     0
 62
     7
  6
Continuous
370
    -3
390
F
  0
LAYER
  5
A7
330
2
100
AcDbSymbolTableRecord
100
AcDbLayerTableRecord
  2
LAYER-088
 70
     0
 62
     7
  6
Continuous
370
    -3
390
F
  0
LAYER
  5
A8
330
2
100
AcDbSymbolTableRecord
100
AcDbLayerTableRecord
  2
LAYER-089
 70
     0
 62
     7
  6
Continuous
370
    -3
390
F
  0
LAYER
  5
A9
330
2
100
AcDbSymbolTableRecord
100
AcDbLayerTableRecord
  2
LAYER-090
 70
     0
 62
     7
  6
Continuous
370
    -3
390
F
  0
LAYER
  5
AA
330
2
100
AcDbSymbolTableRecord
100
AcDbLayerTableRecord
  2
LAYER-091
 70
     0
 62
     7
  6
Continuous
370
    -3
390
F
  0
LAYER
  5
AB
330
2
100
AcDbSymbolTableRecord
100
AcDbLayerTableRecord
  2
LAYER-092
 70
     0
 62
     7
  6
Continuous
370
    -3
390
F
  0
LAYER
  5
AC
330
2
100
AcDbSymbolTableRecord
100
AcDbLayerTableRecord
  2
LAYER-093
 70
     0
 62
     7
  6
Continuous
370
    -3
390
F
  0
LAYER
  5
AD
330
2
100
AcDbSymbolTableRecord
100
AcDbLayerTableRecord
  2
LAYER-094
 70
     0
 62
     7
  6
Continuous
370
    -3
390
F
  0
LAYER
  5
AE
330
2
100
AcDbSymbolTableRecord
100
AcDbLayerTableRecord
  2
LAYER-095
 70
     0
 62
     7
  6
Continuous
370
    -3
390
F
  0
LAYER
  5
AF
330
2
100
AcDbSymbolTableRecord
100
AcDbLayerTableRecord
  2
LAYER-096
 70
     0
 62
     7
  6
Continuous
370
    -3
390
F
  0
LAYER
  5
B0
330
2
100
AcDbSymbolTableRecord
100
AcDbLayerTableRecord
  2
LAYER-097
 70
     0
 62
     7
  6
Continuous
370
    -3
390
F
  0
LAYER
  5
B1
330
2
100
AcDbSymbolTableRecord
100
AcDbLayerTableRecord
  2
LAYER-098
 70
     0
 62
     7
  6
Continuous
370
    -3
390
F
  0
LAYER
  5
B2
330
2
100
AcDbSymbolTableRecord
100
AcDbLayerTableRecord
  2
LAYER-099
 70
     0
 62
     7
  6
Continuous
370
    -3
390
F
  0
LAYER
  5
B3
330
2
100
AcDbSymbolTableRecord
100
AcDbLayerTableRecord
  2
LAYER-100
 70
     0
 62
     7
  6
Continuous
370
    -3
390
F
  0
LAYER
  5
B4
330
2
100
AcDbSymbolTableRecord
100
AcDbLayerTableRecord
  2
LAYER-101
 70
     0
 62
     7
  6
Continuous
370
    -3
390
F
  0
LAYER
  5
B5
330
2
100
AcDbSymbolTableRecord
100
AcDbLayerTableRecord
  2
LAYER-102
 70
     0
 62
     7
  6
Continuous
370
    -3
390
F
  0
LAYER
  5
B6
330
2
100
AcDbSymbolTableRecord
100
AcDbLayerTableRecord
  2
LAYER-103
 70
     0
 62
     7
  6
Continuous
370
    -3
390
F
  0
LAYER
  5
B7
330
2
100
AcDbSymbolTableRecord
100
AcDbLayerTableRecord
  2
LAYER-104
 70
     0
 62
     7
  6
Continuous
370
    -3
390
F
  0
LAYER
  5
B8
330
2
100
AcDbSymbolTableRecord
100
AcDbLayerTableRecord
  2
LAYER-105
 70
     0
 62
     7
  6
Continuous
370
    -3
390
F
  0
LAYER
  5
B9
330
2
100
AcDbSymbolTableRecord
100
AcDbLayerTableRecord
  2
LAYER-106
 70
     0
 62
     7
  6
Continuous
370
    -3
390
F
  0
LAYER
  5
BA
330
2
100
AcDbSymbolTableRecord
100
AcDbLayerTableRecord
  2
LAYER-107
 70
     0
 62
     7
  6
Continuous
370
    -3
390
F
  0
LAYER
  5
BB
330
2
100
AcDbSymbolTableRecord
100
AcDbLayerTableRecord
  2
LAYER-108
 70
     0
 62
     7
  6
Continuous
370
    -3
390
F
  0
LAYER
  5
BC
330
2
100
AcDbSymbolTableRecord
100
AcDbLayerTableRecord
  2
LAYER-109
 70
     0
 62
     7
  6
Continuous
370
    -3
390
F
  0
LAYER
  5
BD
330
2
100
AcDbSymbolTableRecord
100
AcDbLayerTableRecord
  2
LAYER-110
 70
     0
 62
     7
  6
Continuous
370
    -3
390
F
  0
LAYER
  5
BE
330
2
100
AcDbSymbolTableRecord
100
AcDbLayerTableRecord
  2
LAYER-111
 70
     0
 62
     7
  6
Continuous
370
    -3
390
F
  0
LAYER
  5
BF
330
2
100
AcDbSymbolTableRecord
100
AcDbLayerTableRecord
  2
LAYER-112
 70
     0
 62
     7
  6
Continuous
370
    -3
390
F
  0
LAYER
  5
C0
330
2
100
AcDbSymbolTableRecord
100
AcDbLayerTableRecord
  2
LAYER-113
 70
     0
 62
     7
  6
Continuous
370
    -3
390
F
  0
LAYER
  5
C1
330
2
100
AcDbSymbolTableRecord
100
AcDbLayerTableRecord
  2
LAYER-114
 70
     0
 62
     7
  6
Continuous
370
    -3
390
F
  0
LAYER
  5
C2
330
2
100
AcDbSymbolTableRecord
100
AcDbLayerTableRecord
  2
LAYER-115
 70
     0
 62
     7
  6
Continuous
370
    -3
390
F
  0
LAYER
  5
C3
330
2
100
AcDbSymbolTableRecord
100
AcDbLayerTableRecord
  2
LAYER-116
 70
     0
 62
     7
  6
Continuous
370
    -3
390
F
  0
LAYER
  5
C4
330
2
100
AcDbSymbolTableRecord
100
AcDbLayerTableRecord
  2
LAYER-117
 70
     0
 62
     7
  6
Continuous
370
    -3
390
F
  0
LAYER
  5
C5
330
2
100
AcDbSymbolTableRecord
100
AcDbLayerTableRecord
  2
LAYER-118
 70
     0
 62
     7
  6
Continuous
370
    -3
390
F
  0
LAYER
  5
C6
330
2
100
AcDbSymbolTableRecord
100
AcDbLayerTableRecord
  2
LAYER-119
 70
     0
 62
     7
  6
Continuous
370
    -3
390
F
  0
LAYER
  5
C7
330
2
100
AcDbSymbolTableRecord
100
AcDbLayerTableRecord
  2
LAYER-120
 70
     0
 62
     7
  6
Continuous
370
    -3
390
F
  0
LAYER
  5
C8
330
2
100
AcDbSymbolTableRecord
100
AcDbLayerTableRecord
  2
LAYER-121
 70
     0
 62
     7
  6
Continuous
370
    -3
390
F
  0
LAYER
  5
C9
330
2
100
AcDbSymbolTableRecord
100
AcDbLayerTableRecord
  2
LAYER-122
 70
     0
 62
     7
  6
Continuous
370
    -3
390
F
  0
LAYER
  5
CA
330
2
100
AcDbSymbolTableRecord
100
AcDbLayerTableRecord
  2
LAYER-123
 70
     0
 62
     7
  6
Continuous
370
    -3
390
F
  0
LAYER
  5
CB
330
2
100
AcDbSymbolTableRecord
100
AcDbLayerTableRecord
  2
LAYER-124
 70
     0
 62
     7
  6
Continuous
370
    -3
390
F
  0
LAYER
  5
CC
330
2
100
AcDbSymbolTableRecord
100
AcDbLayerTableRecord
  2
LAYER-125
 70
     0
 62
     7
  6
Continuous
370
    -3
390
F
  0
LAYER
  5
CD
330
2
100
AcDbSymbolTableRecord
100
AcDbLayerTableRecord
  2
LAYER-126
 70
     0
 62
     7
  6
Continuous
370
    -3
390
F
  0
LAYER
  5
CE
330
2
100
AcDbSymbolTableRecord
100
AcDbLayerTableRecord
  2
LAYER-127
 70
     0
 62
     7
  6
Continuous
370
    -3
390
F
  0
LAYER
  5
CF
330
2
100
AcDbSymbolTableRecord
100
AcDbLayerTableRecord
  2
LAYER-128
 70
     0
 62
     7
  6
Continuous
370
    -3
390
F
  0
LAYER
  5
D0
330
2
100
AcDbSymbolTableRecord
100
AcDbLayerTableRecord
  2
LAYER-129
 70
     0
 62
     7
  6
Continuous
370
    -3
390
F
  0
LAYER
  5
D1
330
2
100
AcDbSymbolTableRecord
100
AcDbLayerTableRecord
  2
LAYER-130
 70
     0
 62
     7
  6
Continuous
370
    -3
390
F
  0
LAYER
  5
D2
330
2
100
AcDbSymbolTableRecord
100
AcDbLayerTableRecord
  2
LAYER-131
 70
     0
 62
     7
  6
Continuous
370
    -3
390
F
  0
LAYER
  5
D3
330
2
100
AcDbSymbolTableRecord
100
AcDbLayerTableRecord
  2
LAYER-132
 70
     0
 62
     7
  6
Continuous
370
    -3
390
F
  0
LAYER
  5
D4
330
2
100
AcDbSymbolTableRecord
100
AcDbLayerTableRecord
  2
LAYER-133
 70
     0
 62
     7
  6
Continuous
370
    -3
390
F
  0
LAYER
  5
D5
330
2
100
AcDbSymbolTableRecord
100
AcDbLayerTableRecord
  2
LAYER-134
 70
     0
 62
     7
  6
Continuous
370
    -3
390
F
  0
LAYER
  5
D6
330
2
100
AcDbSymbolTableRecord
100
AcDbLayerTableRecord
  2
LAYER-135
 70
     0
 62
    -4
  6
Continuous
370
    -3
390
F
  0
LAYER
  5
D7
330
2
100
AcDbSymbolTableRecord
100
AcDbLayerTableRecord
  2
LAYER-136
 70
     0
 62
    -3
  6
Continuous
370
    -3
390
F
  0
LAYER
  5
D8
330
2
100
AcDbSymbolTableRecord
100
AcDbLayerTableRecord
  2
LAYER-137
 70
     0
 62
    -1
  6
Continuous
370
    -3
390
F
  0
LAYER
  5
D9
330
2
100
AcDbSymbolTableRecord
100
AcDbLayerTableRecord
  2
LAYER-138
 70
     0
 62
     7
  6
Continuous
370
    -3
390
F
  0
LAYER
  5
DA
330
2
100
AcDbSymbolTableRecord
100
AcDbLayerTableRecord
  2
LAYER-139
 70
     0
 62
     7
  6
Continuous
370
    -3
390
F
  0
LAYER
  5
DB
330
2
100
AcDbSymbolTableRecord
100
AcDbLayerTableRecord
  2
LAYER-140
 70
     0
 62
     7
  6
Continuous
370
    -3
390
F
  0
LAYER
  5
DC
330
2
100
AcDbSymbolTableRecord
100
AcDbLayerTableRecord
  2
LAYER-141
 70
     0
 62
     7
  6
Continuous
370
    -3
390
F
  0
LAYER
  5
DD
330
2
100
AcDbSymbolTableRecord
100
AcDbLayerTableRecord
  2
LAYER-142
 70
     0
 62
     3
  6
Continuous
370
    -3
390
F
  0
LAYER
  5
DE
330
2
100
AcDbSymbolTableRecord
100
AcDbLayerTableRecord
  2
LAYER-143
 70
     0
 62
     7
  6
Continuous
370
    -3
390
F
  0
LAYER
  5
DF
330
2
100
AcDbSymbolTableRecord
100
AcDbLayerTableRecord
  2
LAYER-144
 70
     0
 62
     7
  6
Continuous
370
    -3
390
F
  0
LAYER
  5
E0
330
2
100
AcDbSymbolTableRecord
100
AcDbLayerTableRecord
  2
LAYER-145
 70
     0
 62
     3
  6
Continuous
370
    -3
390
F
  0
LAYER
  5
E1
330
2
100
AcDbSymbolTableRecord
100
AcDbLayerTableRecord
  2
LAYER-146
 70
     0
 62
     7
  6
Continuous
370
    -3
390
F
  0
LAYER
  5
E2
330
2
100
AcDbSymbolTableRecord
100
AcDbLayerTableRecord
  2
LAYER-147
 70
     0
 62
     7
  6
Continuous
370
    -3
390
F
  0
LAYER
  5
E3
330
2
100
AcDbSymbolTableRecord
100
AcDbLayerTableRecord
  2
LAYER-148
 70
     0
 62
     7
  6
Continuous
370
    -3
390
F
  0
LAYER
  5
E4
330
2
100
AcDbSymbolTableRecord
100
AcDbLayerTableRecord
  2
LAYER-149
 70
     0
 62
     7
  6
Continuous
370
    -3
390
F
  0
LAYER
  5
E5
330
2
100
AcDbSymbolTableRecord
100
AcDbLayerTableRecord
  2
LAYER-150
 70
     0
 62
     7
  6
Continuous
370
    -3
390
F
  0
LAYER
  5
E6
330
2
100
AcDbSymbolTableRecord
100
AcDbLayerTableRecord
  2
LAYER-151
 70
     0
 62
     7
  6
Continuous
370
    -3
390
F
  0
LAYER
  5
E7
330
2
100
AcDbSymbolTableRecord
100
AcDbLayerTableRecord
  2
LAYER-152
 70
     0
 62
     7
  6
Continuous
370
    -3
390
F
  0
LAYER
  5
E8
330
2
100
AcDbSymbolTableRecord
100
AcDbLayerTableRecord
  2
LAYER-153
 70
     0
 62
     7
  6
Continuous
370
    -3
390
F
  0
LAYER
  5
E9
330
2
100
AcDbSymbolTableRecord
100
AcDbLayerTableRecord
  2
LAYER-154
 70
     0
 62
     7
  6
Continuous
370
    -3
390
F
  0
LAYER
  5
EA
330
2
100
AcDbSymbolTableRecord
100
AcDbLayerTableRecord
  2
LAYER-155
 70
     0
 62
     7
  6
Continuous
370
    -3
390
F
  0
LAYER
  5
EB
330
2
100
AcDbSymbolTableRecord
100
AcDbLayerTableRecord
  2
LAYER-156
 70
     0
 62
     7
  6
Continuous
370
    -3
390
F
  0
LAYER
  5
EC
330
2
100
AcDbSymbolTableRecord
100
AcDbLayerTableRecord
  2
LAYER-157
 70
     0
 62
     7
  6
Continuous
370
    -3
390
F
  0
LAYER
  5
ED
330
2
100
AcDbSymbolTableRecord
100
AcDbLayerTableRecord
  2
LAYER-158
 70
     0
 62
     7
  6
Continuous
370
    -3
390
F
  0
LAYER
  5
EE
330
2
100
AcDbSymbolTableRecord
100
AcDbLayerTableRecord
  2
LAYER-159
 70
     0
 62
     7
  6
Continuous
370
    -3
390
F
  0
LAYER
  5
EF
330
2
100
AcDbSymbolTableRecord
100
AcDbLayerTableRecord
  2
LAYER-160
 70
     0
 62
     7
  6
Continuous
370
    -3
390
F
  0
LAYER
  5
F0
330
2
100
AcDbSymbolTableRecord
100
AcDbLayerTableRecord
  2
LAYER-161
 70
     0
 62
     7
  6
Continuous
370
    -3
390
F
  0
LAYER
  5
F1
330
2
100
AcDbSymbolTableRecord
100
AcDbLayerTableRecord
  2
LAYER-162
 70
     0
 62
     7
  6
Continuous
370
    -3
390
F
  0
LAYER
  5
F2
330
2
100
AcDbSymbolTableRecord
100
AcDbLayerTableRecord
  2
LAYER-163
 70
     0
 62
     7
  6
Continuous
370
    -3
390
F
  0
LAYER
  5
F3
330
2
100
AcDbSymbolTableRecord
100
AcDbLayerTableRecord
  2
LAYER-164
 70
     0
 62
     7
  6
Continuous
370
    -3
390
F
  0
LAYER
  5
F4
330
2
100
AcDbSymbolTableRecord
100
AcDbLayerTableRecord
  2
LAYER-165
 70
     0
 62
     7
  6
Continuous
370
    -3
390
F
  0
LAYER
  5
F5
330
2
100
AcDbSymbolTableRecord
100
AcDbLayerTableRecord
  2
LAYER-166
 70
     0
 62
     7
  6
Continuous
370
    -3
390
F
  0
LAYER
  5
F6
330
2
100
AcDbSymbolTableRecord
100
AcDbLayerTableRecord
  2
LAYER-167
 70
     0
 62
     7
  6
Continuous
370
    -3
390
F
  0
LAYER
  5
F7
330
2
100
AcDbSymbolTableRecord
100
AcDbLayerTableRecord
  2
LAYER-168
 70
     0
 62
     7
  6
Continuous
370
    -3
390
F
  0
LAYER
  5
F8
330
2
100
AcDbSymbolTableRecord
100
AcDbLayerTableRecord
  2
LAYER-169
 70
     0
 62
     7
  6
Continuous
370
    -3
390
F
  0
LAYER
  5
F9
330
2
100
AcDbSymbolTableRecord
100
AcDbLayerTableRecord
  2
LAYER-170
 70
     0
 62
     7
  6
Continuous
370
    -3
390
F
  0
LAYER
  5
FA
330
2
100
AcDbSymbolTableRecord
100
AcDbLayerTableRecord
  2
LAYER-171
 70
     0
 62
     7
  6
Continuous
370
    -3
390
F
  0
LAYER
  5
FB
330
2
100
AcDbSymbolTableRecord
100
AcDbLayerTableRecord
  2
LAYER-172
 70
     0
 62
     7
  6
Continuous
370
    -3
390
F
  0
LAYER
  5
FC
330
2
100
AcDbSymbolTableRecord
100
AcDbLayerTableRecord
  2
LAYER-173
 70
     0
 62
     7
  6
Continuous
370
    -3
390
F
  0
LAYER
  5
FD
330
2
100
AcDbSymbolTableRecord
100
AcDbLayerTableRecord
  2
LAYER-174
 70
     0
 62
     7
  6
Continuous
370
    -3
390
F
  0
LAYER
  5
FE
330
2
100
AcDbSymbolTableRecord
100
AcDbLayerTableRecord
  2
LAYER-175
 70
     0
 62
     7
  6
Continuous
370
    -3
390
F
  0
LAYER
  5
FF
330
2
100
AcDbSymbolTableRecord
100
AcDbLayerTableRecord
  2
LAYER-176
 70
     0
 62
     7
  6
Continuous
370
    -3
390
F
  0
LAYER
  5
100
330
2
100
AcDbSymbolTableRecord
100
AcDbLayerTableRecord
  2
LAYER-177
 70
     0
 62
     7
  6
Continuous
370
    -3
390
F
  0
LAYER
  5
101
330
2
100
AcDbSymbolTableRecord
100
AcDbLayerTableRecord
  2
LAYER-178
 70
     0
 62
     7
  6
Continuous
370
    -3
390
F
  0
LAYER
  5
102
330
2
100
AcDbSymbolTableRecord
100
AcDbLayerTableRecord
  2
LAYER-179
 70
     0
 62
     7
  6
Continuous
370
    -3
390
F
  0
LAYER
  5
103
330
2
100
AcDbSymbolTableRecord
100
AcDbLayerTableRecord
  2
LAYER-180
 70
     0
 62
     7
  6
Continuous
370
    -3
390
F
  0
LAYER
  5
104
330
2
100
AcDbSymbolTableRecord
100
AcDbLayerTableRecord
  2
LAYER-181
 70
     0
 62
     7
  6
Continuous
370
    -3
390
F
  0
LAYER
  5
105
330
2
100
AcDbSymbolTableRecord
100
AcDbLayerTableRecord
  2
LAYER-182
 70
     0
 62
     7
  6
Continuous
370
    -3
390
F
  0
LAYER
  5
106
330
2
100
AcDbSymbolTableRecord
100
AcDbLayerTableRecord
  2
LAYER-183
 70
     0
 62
     7
  6
Continuous
370
    -3
390
F
  0
LAYER
  5
107
330
2
100
AcDbSymbolTableRecord
100
AcDbLayerTableRecord
  2
LAYER-184
 70
     0
 62
     7
  6
Continuous
370
    -3
390
F
  0
LAYER
  5
108
330
2
100
AcDbSymbolTableRecord
100
AcDbLayerTableRecord
  2
LAYER-185
 70
     0
 62
     7
  6
Continuous
370
    -3
390
F
  0
LAYER
  5
109
330
2
100
AcDbSymbolTableRecord
100
AcDbLayerTableRecord
  2
LAYER-186
 70
     0
 62
     7
  6
Continuous
370
    -3
390
F
  0
LAYER
  5
10A
330
2
100
AcDbSymbolTableRecord
100
AcDbLayerTableRecord
  2
LAYER-187
 70
     0
 62
     7
  6
Continuous
370
    -3
390
F
  0
LAYER
  5
10B
330
2
100
AcDbSymbolTableRecord
100
AcDbLayerTableRecord
  2
LAYER-188
 70
     0
 62
     7
  6
Continuous
370
    -3
390
F
  0
LAYER
  5
10C
330
2
100
AcDbSymbolTableRecord
100
AcDbLayerTableRecord
  2
LAYER-189
 70
     0
 62
     7
  6
Continuous
370
    -3
390
F
  0
LAYER
  5
10D
330
2
100
AcDbSymbolTableRecord
100
AcDbLayerTableRecord
  2
LAYER-190
 70
     0
 62
     7
  6
Continuous
370
    -3
390
F
  0
LAYER
  5
10E
330
2
100
AcDbSymbolTableRecord
100
AcDbLayerTableRecord
  2
LAYER-191
 70
     0
 62
     7
  6
Continuous
370
    -3
390
F
  0
LAYER
  5
10F
330
2
100
AcDbSymbolTableRecord
100
AcDbLayerTableRecord
  2
LAYER-192
 70
     0
 62
     7
  6
Continuous
370
    -3
390
F
  0
LAYER
  5
110
330
2
100
AcDbSymbolTableRecord
100
AcDbLayerTableRecord
  2
LAYER-193
 70
     0
 62
     7
  6
Continuous
370
    -3
390
F
  0
LAYER
  5
111
330
2
100
AcDbSymbolTableRecord
100
AcDbLayerTableRecord
  2
LAYER-194
 70
     0
 62
     2
  6
Continuous
370
    -3
390
F
  0
LAYER
  5
112
330
2
100
AcDbSymbolTableRecord
100
AcDbLayerTableRecord
  2
LAYER-195
 70
     0
 62
     2
  6
Continuous
370
    -3
390
F
  0
LAYER
  5
113
330
2
100
AcDbSymbolTableRecord
100
AcDbLayerTableRecord
  2
LAYER-196
 70
     0
 62
     2
  6
Continuous
370
    -3
390
F
  0
LAYER
  5
114
330
2
100
AcDbSymbolTableRecord
100
AcDbLayerTableRecord
  2
LAYER-197
 70
     0
 62
     7
  6
Continuous
370
    -3
390
F
  0
LAYER
  5
115
330
2
100
AcDbSymbolTableRecord
100
AcDbLayerTableRecord
  2
LAYER-198
 70
     0
 62
     7
  6
Continuous
370
    -3
390
F
  0
LAYER
  5
116
330
2
100
AcDbSymbolTableRecord
100
AcDbLayerTableRecord
  2
LAYER-199
 70
     0
 62
     4
  6
Continuous
370
    -3
390
F
  0
LAYER
  5
117
330
2
100
AcDbSymbolTableRecord
100
AcDbLayerTableRecord
  2
LAYER-200
 70
     0
 62
     1
  6
Continuous
370
    -3
390
F
  0
LAYER
  5
118
330
2
100
AcDbSymbolTableRecord
100
AcDbLayerTableRecord
  2
LAYER-201
 70
     0
 62
     1
  6
Continuous
370
    -3
390
F
  0
LAYER
  5
119
330
2
100
AcDbSymbolTableRecord
100
AcDbLayerTableRecord
  2
LAYER-202
 70
     0
 62
     2
  6
Continuous
370
    -3
390
F
  0
LAYER
  5
11A
330
2
100
AcDbSymbolTableRecord
100
AcDbLayerTableRecord
  2
LAYER-203
 70
     0
 62
     2
  6
Continuous
370
    -3
390
F
  0
LAYER
  5
11B
330
2
100
AcDbSymbolTableRecord
100
AcDbLayerTableRecord
  2
LAYER-204
 70
     0
 62
     7
  6
Continuous
370
    -3
390
F
  0
LAYER
  5
11C
330
2
100
AcDbSymbolTableRecord
100
AcDbLayerTableRecord
  2
LAYER-205
 70
     0
 62
     7
  6
Continuous
370
    -3
390
F
  0
LAYER
  5
11D
330
2
100
AcDbSymbolTableRecord
100
AcDbLayerTableRecord
  2
LAYER-206
 70
     0
 62
     7
  6
Continuous
370
    -3
390
F
  0
LAYER
  5
11E
330
2
100
AcDbSymbolTableRecord
100
AcDbLayerTableRecord
  2
LAYER-207
 70
     0
 62
    -7
  6
Continuous
370
    -3
390
F
  0
LAYER
  5
11F
330
2
100
AcDbSymbolTableRecord
100
AcDbLayerTableRecord
  2
LAYER-208
 70
     0
 62
     2
  6
Continuous
370
    -3
390
F
  0
LAYER
  5
120
330
2
100
AcDbSymbolTableRecord
100
AcDbLayerTableRecord
  2
LAYER-209
 70
     0
 62
     7
  6
Continuous
370
    -3
390
F
  0
LAYER
  5
121
330
2
100
AcDbSymbolTableRecord
100
AcDbLayerTableRecord
  2
LAYER-210
 70
     0
 62
     2
  6
Continuous
290
     0
370
    -3
390
F
  0
LAYER
  5
122
330
2
100
AcDbSymbolTableRecord
100
AcDbLayerTableRecord
  2
LAYER-211
 70
     0
 62
     7
  6
Continuous
370
    -3
390
F
  0
LAYER
  5
123
330
2
100
AcDbSymbolTableRecord
100
AcDbLayerTableRecord
  2
LAYER-212
 70
     0
 62
     7
  6
Continuous
370
    -3
390
F
  0
LAYER
  5
124
330
2
100
AcDbSymbolTableRecord
100
AcDbLayerTableRecord
  2
LAYER-213
 70
     0
 62
     2
  6
Continuous
370
    -3
390
F
  0
LAYER
  5
125
330
2
100
AcDbSymbolTableRecord
100
AcDbLayerTableRecord
  2
LAYER-214
 70
     0
 62
     7
  6
Continuous
370
    -3
390
F
  0
LAYER
  5
126
330
2
100
AcDbSymbolTableRecord
100
AcDbLayerTableRecord
  2
LAYER-215
 70
     0
 62
     7
  6
Continuous
370
    -3
390
F
  0
LAYER
  5
127
330
2
100
AcDbSymbolTableRecord
100
AcDbLayerTableRecord
  2
LAYER-216
 70
     0
 62
     4
  6
Continuous
370
    -3
390
F
  0
LAYER
  5
128
330
2
100
AcDbSymbolTableRecord
100
AcDbLayerTableRecord
  2
LAYER-217
 70
     0
 62
     7
  6
Continuous
370
    -3
390
F
  0
LAYER
  5
129
330
2
100
AcDbSymbolTableRecord
100
AcDbLayerTableRecord
  2
LAYER-218
 70
     0
 62
     7
  6
Continuous
370
    -3
390
F
  0
LAYER
  5
12A
330
2
100
AcDbSymbolTableRecord
100
AcDbLayerTableRecord
  2
LAYER-219
 70
     0
 62
     7
  6
Continuous
370
    -3
390
F
  0
LAYER
  5
12B
330
2
100
AcDbSymbolTableRecord
100
AcDbLayerTableRecord
  2
LAYER-220
 70
     0
 62
     4
  6
Continuous
370
    -3
390
F
  0
LAYER
  5
12C
330
2
100
AcDbSymbolTableRecord
100
AcDbLayerTableRecord
  2
LAYER-221
 70
     0
 62
    -7
  6
Continuous
290
     0
370
    -3
390
F
  0
LAYER
  5
12D
330
2
100
AcDbSymbolTableRecord
100
AcDbLayerTableRecord
  2
LAYER-222
 70
     0
 62
    -4
  6
Continuous
290
     0
370
    -3
390
F
  0
LAYER
  5
12E
330
2
100
AcDbSymbolTableRecord
100
AcDbLayerTableRecord
  2
LAYER-223
 70
     0
 62
    -1
  6
Continuous
290
     0
370
    -3
390
F
  0
LAYER
  5
12F
330
2
100
AcDbSymbolTableRecord
100
AcDbLayerTableRecord
  2
LAYER-224
 70
     0
 62
    -1
  6
Continuous
290
     0
370
    -3
390
F
  0
LAYER
  5
130
330
2
100
AcDbSymbolTableRecord
100
AcDbLayerTableRecord
  2
LAYER-225
 70
     0
 62
     7
  6
Continuous
370
    -3
390
F
  0
LAYER
  5
131
330
2
100
AcDbSymbolTableRecord
100
AcDbLayerTableRecord
  2
LAYER-226
 70
     0
 62
     2
  6
Continuous
370
    -3
390
F
  0
LAYER
  5
132
330
2
100
AcDbSymbolTableRecord
100
AcDbLayerTableRecord
  2
LAYER-227
 70
     0
 62
     7
  6
Continuous
370
    -3
390
F
  0
LAYER
  5
133
330
2
100
AcDbSymbolTableRecord
100
AcDbLayerTableRecord
  2
LAYER-228
 70
     0
 62
     7
  6
Continuous
370
    -3
390
F
  0
LAYER
  5
134
330
2
100
AcDbSymbolTableRecord
100
AcDbLayerTableRecord
  2
LAYER-229
 70
     0
 62
     7
  6
Continuous
370
    -3
390
F
  0
LAYER
  5
135
330
2
100
AcDbSymbolTableRecord
100
AcDbLayerTableRecord
  2
LAYER-230
 70
     0
 62
     7
  6
Continuous
370
    -3
390
F
  0
LAYER
  5
136
330
2
100
AcDbSymbolTableRecord
100
AcDbLayerTableRecord
  2
LAYER-231
 70
     0
 62
     7
  6
Continuous
370
    -3
390
F
  0
LAYER
  5
137
330
2
100
AcDbSymbolTableRecord
100
AcDbLayerTableRecord
  2
LAYER-232
 70
     0
 62
     7
  6
Continuous
370
    -3
390
F
  0
LAYER
  5
138
330
2
100
AcDbSymbolTableRecord
100
AcDbLayerTableRecord
  2
LAYER-233
 70
     0
 62
     7
  6
Continuous
370
    -3
390
F
  0
LAYER
  5
139
330
2
100
AcDbSymbolTableRecord
100
AcDbLayerTableRecord
  2
LAYER-234
 70
     0
 62
     7
  6
Continuous
370
    -3
390
F
  0
LAYER
  5
13A
330
2
100
AcDbSymbolTableRecord
100
AcDbLayerTableRecord
  2
LAYER-235
 70
     0
 62
     7
  6
Continuous
370
    -3
390
F
  0
LAYER
  5
13B
330
2
100
AcDbSymbolTableRecord
100
AcDbLayerTableRecord
  2
LAYER-236
 70
     0
 62
     7
  6
Continuous
370
    -3
390
F
  0
LAYER
  5
13C
330
2
100
AcDbSymbolTableRecord
100
AcDbLayerTableRecord
  2
LAYER-237
 70
     0
 62
     7
  6
Continuous
370
    -3
390
F
  0
LAYER
  5
13D
330
2
100
AcDbSymbolTableRecord
100
AcDbLayerTableRecord
  2
LAYER-238
 70
     0
 62
     7
  6
Continuous
370
    -3
390
F
  0
LAYER
  5
13E
330
2
100
AcDbSymbolTableRecord
100
AcDbLayerTableRecord
  2
LAYER-239
 70
     0
 62
     7
  6
Continuous
370
    -3
390
F
  0
LAYER
  5
13F
330
2
100
AcDbSymbolTableRecord
100
AcDbLayerTableRecord
  2
LAYER-240
 70
     0
 62
     7
  6
Continuous
370
    -3
390
F
  0
LAYER
  5
140
330
2
100
AcDbSymbolTableRecord
100
AcDbLayerTableRecord
  2
LAYER-241
 70
     0
 62
     7
  6
Continuous
370
    -3
390
F
  0
LAYER
  5
141
330
2
100
AcDbSymbolTableRecord
100
AcDbLayerTableRecord
  2
LAYER-242
 70
     0
 62
     7
  6
Continuous
370
    -3
390
F
  0
LAYER
  5
142
330
2
100
AcDbSymbolTableRecord
100
AcDbLayerTableRecord
  2
LAYER-243
 70
     0
 62
     7
  6
Continuous
370
    -3
390
F
  0
LAYER
  5
143
330
2
100
AcDbSymbolTableRecord
100
AcDbLayerTableRecord
  2
LAYER-244
 70
     0
 62
     7
  6
Continuous
370
    -3
390
F
  0
LAYER
  5
144
330
2
100
AcDbSymbolTableRecord
100
AcDbLayerTableRecord
  2
LAYER-245
 70
     0
 62
     7
  6
Continuous
370
    -3
390
F
  0
LAYER
  5
145
330
2
100
AcDbSymbolTableRecord
100
AcDbLayerTableRecord
  2
LAYER-246
 70
     0
 62
     7
  6
Continuous
370
    -3
390
F
  0
LAYER
  5
146
330
2
100
AcDbSymbolTableRecord
100
AcDbLayerTableRecord
  2
LAYER-247
 70
     0
 62
     7
  6
Continuous
370
    -3
390
F
  0
LAYER
  5
147
330
2
100
AcDbSymbolTableRecord
100
AcDbLayerTableRecord
  2
LAYER-248
 70
     0
 62
     7
  6
Continuous
370
    -3
390
F
  0
LAYER
  5
148
330
2
100
AcDbSymbolTableRecord
100
AcDbLayerTableRecord
  2
LAYER-249
 70
     0
 62
     7
  6
Continuous
370
    -3
390
F
  0
LAYER
  5
149
330
2
100
AcDbSymbolTableRecord
100
AcDbLayerTableRecord
  2
LAYER-250
 70
     0
 62
     7
  6
Continuous
370
    -3
390
F
  0
LAYER
  5
14A
330
2
100
AcDbSymbolTableRecord
100
AcDbLayerTableRecord
  2
LAYER-251
 70
     0
 62
     7
  6
Continuous
370
    -3
390
F
  0
LAYER
  5
14B
330
2
100
AcDbSymbolTableRecord
100
AcDbLayerTableRecord
  2
LAYER-252
 70
     0
 62
     7
  6
Continuous
370
    -3
390
F
  0
LAYER
  5
14C
330
2
100
AcDbSymbolTableRecord
100
AcDbLayerTableRecord
  2
LAYER-253
 70
     0
 62
     7
  6
Continuous
370
    -3
390
F
  0
LAYER
  5
14D
330
2
100
AcDbSymbolTableRecord
100
AcDbLayerTableRecord
  2
LAYER-254
 70
     0
 62
     7
  6
Continuous
370
    -3
390
F
  0
LAYER
  5
14E
330
2
100
AcDbSymbolTableRecord
100
AcDbLayerTableRecord
  2
LAYER-255
 70
     0
 62
     7
  6
Continuous
370
    -3
390
F
  0
LAYER
  5
14F
330
2
100
AcDbSymbolTableRecord
100
AcDbLayerTableRecord
  2
LAYER-256
 70
     0
 62
     7
  6
Continuous
370
    -3
390
F
  0
LAYER
  5
150
330
2
100
AcDbSymbolTableRecord
100
AcDbLayerTableRecord
  2
SUPLINE
 70
     0
 62
    -7
  6
Continuous
290
     0
370
    -3
390
F
  0
LAYER
  5
151
330
2
100
AcDbSymbolTableRecord
100
AcDbLayerTableRecord
  2
FRAMELAYER-001
 70
     0
 62
     7
  6
Continuous
370
    -3
390
F
  0
LAYER
  5
152
330
2
100
AcDbSymbolTableRecord
100
AcDbLayerTableRecord
  2
FRAMELAYER-002
 70
     0
 62
     7
  6
Continuous
370
    -3
390
F
  0
LAYER
  5
153
330
2
100
AcDbSymbolTableRecord
100
AcDbLayerTableRecord
  2
FRAMELAYER-003
 70
     0
 62
     7
  6
Continuous
370
    -3
390
F
  0
LAYER
  5
154
330
2
100
AcDbSymbolTableRecord
100
AcDbLayerTableRecord
  2
FRAMELAYER-004
 70
     0
 62
     7
  6
Continuous
370
    -3
390
F
  0
LAYER
  5
155
330
2
100
AcDbSymbolTableRecord
100
AcDbLayerTableRecord
  2
FRAMELAYER-005
 70
     0
 62
     7
  6
Continuous
370
    -3
390
F
  0
LAYER
  5
156
330
2
100
AcDbSymbolTableRecord
100
AcDbLayerTableRecord
  2
FRAMELAYER-006
 70
     0
 62
     7
  6
Continuous
370
    -3
390
F
  0
LAYER
  5
157
330
2
100
AcDbSymbolTableRecord
100
AcDbLayerTableRecord
  2
FRAMELAYER-007
 70
     0
 62
     7
  6
Continuous
370
    -3
390
F
  0
LAYER
  5
158
330
2
100
AcDbSymbolTableRecord
100
AcDbLayerTableRecord
  2
FRAMELAYER-008
 70
     0
 62
     7
  6
Continuous
370
    -3
390
F
  0
LAYER
  5
159
330
2
100
AcDbSymbolTableRecord
100
AcDbLayerTableRecord
  2
FRAMELAYER-009
 70
     0
 62
     7
  6
Continuous
370
    -3
390
F
  0
LAYER
  5
15A
330
2
100
AcDbSymbolTableRecord
100
AcDbLayerTableRecord
  2
FRAMELAYER-010
 70
     0
 62
     7
  6
Continuous
370
    -3
390
F
  0
LAYER
  5
15B
330
2
100
AcDbSymbolTableRecord
100
AcDbLayerTableRecord
  2
FRAMELAYER-011
 70
     0
 62
     7
  6
Continuous
370
    -3
390
F
  0
LAYER
  5
15C
330
2
100
AcDbSymbolTableRecord
100
AcDbLayerTableRecord
  2
FRAMELAYER-012
 70
     0
 62
     7
  6
Continuous
370
    -3
390
F
  0
LAYER
  5
15D
330
2
100
AcDbSymbolTableRecord
100
AcDbLayerTableRecord
  2
FRAMELAYER-013
 70
     0
 62
     7
  6
Continuous
370
    -3
390
F
  0
LAYER
  5
15E
330
2
100
AcDbSymbolTableRecord
100
AcDbLayerTableRecord
  2
FRAMELAYER-014
 70
     0
 62
     7
  6
Continuous
370
    -3
390
F
  0
LAYER
  5
15F
330
2
100
AcDbSymbolTableRecord
100
AcDbLayerTableRecord
  2
FRAMELAYER-015
 70
     0
 62
    -7
  6
Continuous
370
    -3
390
F
  0
LAYER
  5
160
330
2
100
AcDbSymbolTableRecord
100
AcDbLayerTableRecord
  2
FRAMELAYER-016
 70
     0
 62
     4
  6
Continuous
370
    -3
390
F
  0
LAYER
  5
161
330
2
100
AcDbSymbolTableRecord
100
AcDbLayerTableRecord
  2
FRAMELAYER-017
 70
     0
 62
     7
  6
Continuous
370
    -3
390
F
  0
LAYER
  5
162
330
2
100
AcDbSymbolTableRecord
100
AcDbLayerTableRecord
  2
FRAMELAYER-018
 70
     0
 62
     2
  6
Continuous
370
    -3
390
F
  0
LAYER
  5
163
330
2
100
AcDbSymbolTableRecord
100
AcDbLayerTableRecord
  2
FRAMELAYER-019
 70
     0
 62
     3
  6
Continuous
370
    -3
390
F
  0
LAYER
  5
164
330
2
100
AcDbSymbolTableRecord
100
AcDbLayerTableRecord
  2
FRAMELAYER-020
 70
     0
 62
     2
  6
Continuous
370
    -3
390
F
  0
LAYER
  5
165
330
2
100
AcDbSymbolTableRecord
100
AcDbLayerTableRecord
  2
FRAMELAYER-021
 70
     0
 62
     7
  6
Continuous
370
    -3
390
F
  0
LAYER
  5
166
330
2
100
AcDbSymbolTableRecord
100
AcDbLayerTableRecord
  2
FRAMELAYER-022
 70
     0
 62
     4
  6
Continuous
370
    -3
390
F
  0
LAYER
  5
167
330
2
100
AcDbSymbolTableRecord
100
AcDbLayerTableRecord
  2
FRAMELAYER-023
 70
     0
 62
     4
  6
Continuous
370
    -3
390
F
  0
LAYER
  5
168
330
2
100
AcDbSymbolTableRecord
100
AcDbLayerTableRecord
  2
FRAMELAYER-024
 70
     0
 62
     7
  6
Continuous
370
    -3
390
F
  0
LAYER
  5
169
330
2
100
AcDbSymbolTableRecord
100
AcDbLayerTableRecord
  2
FRAMELAYER-025
 70
     0
 62
     7
  6
Continuous
370
    -3
390
F
  0
LAYER
  5
16A
330
2
100
AcDbSymbolTableRecord
100
AcDbLayerTableRecord
  2
FRAMELAYER-026
 70
     0
 62
    -7
  6
Continuous
370
    -3
390
F
  0
LAYER
  5
16B
330
2
100
AcDbSymbolTableRecord
100
AcDbLayerTableRecord
  2
FRAMELAYER-027
 70
     0
 62
     7
  6
Continuous
370
    -3
390
F
  0
LAYER
  5
16C
330
2
100
AcDbSymbolTableRecord
100
AcDbLayerTableRecord
  2
FRAMELAYER-028
 70
     0
 62
     7
  6
Continuous
370
    -3
390
F
  0
LAYER
  5
16D
330
2
100
AcDbSymbolTableRecord
100
AcDbLayerTableRecord
  2
FRAMELAYER-029
 70
     0
 62
     7
  6
Continuous
370
    -3
390
F
  0
LAYER
  5
16E
330
2
100
AcDbSymbolTableRecord
100
AcDbLayerTableRecord
  2
FRAMELAYER-030
 70
     0
 62
     2
  6
Continuous
370
    -3
390
F
  0
LAYER
  5
16F
330
2
100
AcDbSymbolTableRecord
100
AcDbLayerTableRecord
  2
FRAMELAYER-031
 70
     0
 62
     7
  6
Continuous
370
    -3
390
F
  0
LAYER
  5
170
330
2
100
AcDbSymbolTableRecord
100
AcDbLayerTableRecord
  2
FRAMELAYER-032
 70
     0
 62
     2
  6
Continuous
370
    -3
390
F
  0
LAYER
  5
171
330
2
100
AcDbSymbolTableRecord
100
AcDbLayerTableRecord
  2
FRAMELAYER-033
 70
     0
 62
     7
  6
Continuous
370
    -3
390
F
  0
LAYER
  5
172
330
2
100
AcDbSymbolTableRecord
100
AcDbLayerTableRecord
  2
FRAMELAYER-034
 70
     0
 62
     7
  6
Continuous
370
    -3
390
F
  0
LAYER
  5
173
330
2
100
AcDbSymbolTableRecord
100
AcDbLayerTableRecord
  2
FRAMELAYER-035
 70
     0
 62
     3
  6
Continuous
370
    -3
390
F
  0
LAYER
  5
174
330
2
100
AcDbSymbolTableRecord
100
AcDbLayerTableRecord
  2
FRAMELAYER-036
 70
     0
 62
     2
  6
Continuous
370
    -3
390
F
  0
LAYER
  5
175
330
2
100
AcDbSymbolTableRecord
100
AcDbLayerTableRecord
  2
FRAMELAYER-037
 70
     0
 62
     7
  6
Continuous
370
    -3
390
F
  0
LAYER
  5
176
330
2
100
AcDbSymbolTableRecord
100
AcDbLayerTableRecord
  2
FRAMELAYER-038
 70
     0
 62
     7
  6
Continuous
370
    -3
390
F
  0
LAYER
  5
177
330
2
100
AcDbSymbolTableRecord
100
AcDbLayerTableRecord
  2
FRAMELAYER-039
 70
     0
 62
     7
  6
Continuous
370
    -3
390
F
  0
LAYER
  5
178
330
2
100
AcDbSymbolTableRecord
100
AcDbLayerTableRecord
  2
FRAMELAYER-040
 70
     0
 62
     7
  6
Continuous
370
    -3
390
F
  0
LAYER
  5
179
330
2
100
AcDbSymbolTableRecord
100
AcDbLayerTableRecord
  2
FRAMELAYER-041
 70
     0
 62
     7
  6
Continuous
370
    -3
390
F
  0
LAYER
  5
17A
330
2
100
AcDbSymbolTableRecord
100
AcDbLayerTableRecord
  2
FRAMELAYER-042
 70
     0
 62
     7
  6
Continuous
370
    -3
390
F
  0
LAYER
  5
17B
330
2
100
AcDbSymbolTableRecord
100
AcDbLayerTableRecord
  2
FRAMELAYER-043
 70
     0
 62
     7
  6
Continuous
370
    -3
390
F
  0
LAYER
  5
17C
330
2
100
AcDbSymbolTableRecord
100
AcDbLayerTableRecord
  2
FRAMELAYER-044
 70
     0
 62
     7
  6
Continuous
370
    -3
390
F
  0
LAYER
  5
17D
330
2
100
AcDbSymbolTableRecord
100
AcDbLayerTableRecord
  2
FRAMELAYER-045
 70
     0
 62
     7
  6
Continuous
370
    -3
390
F
  0
LAYER
  5
17E
330
2
100
AcDbSymbolTableRecord
100
AcDbLayerTableRecord
  2
FRAMELAYER-046
 70
     0
 62
     7
  6
Continuous
370
    -3
390
F
  0
LAYER
  5
17F
330
2
100
AcDbSymbolTableRecord
100
AcDbLayerTableRecord
  2
FRAMELAYER-047
 70
     0
 62
     7
  6
Continuous
370
    -3
390
F
  0
LAYER
  5
180
330
2
100
AcDbSymbolTableRecord
100
AcDbLayerTableRecord
  2
FRAMELAYER-048
 70
     0
 62
     2
  6
Continuous
370
    -3
390
F
  0
LAYER
  5
181
330
2
100
AcDbSymbolTableRecord
100
AcDbLayerTableRecord
  2
FRAMELAYER-049
 70
     0
 62
     3
  6
Continuous
370
    -3
390
F
  0
LAYER
  5
182
330
2
100
AcDbSymbolTableRecord
100
AcDbLayerTableRecord
  2
FRAMELAYER-050
 70
     0
 62
     7
  6
Continuous
370
    -3
390
F
  0
LAYER
  5
183
330
2
100
AcDbSymbolTableRecord
100
AcDbLayerTableRecord
  2
FRAMELAYER-051
 70
     0
 62
     2
  6
Continuous
370
    -3
390
F
  0
LAYER
  5
184
330
2
100
AcDbSymbolTableRecord
100
AcDbLayerTableRecord
  2
FRAMELAYER-052
 70
     0
 62
     7
  6
Continuous
370
    -3
390
F
  0
LAYER
  5
185
330
2
100
AcDbSymbolTableRecord
100
AcDbLayerTableRecord
  2
FRAMELAYER-053
 70
     0
 62
     7
  6
Continuous
370
    -3
390
F
  0
LAYER
  5
186
330
2
100
AcDbSymbolTableRecord
100
AcDbLayerTableRecord
  2
FRAMELAYER-054
 70
     0
 62
     7
  6
Continuous
370
    -3
390
F
  0
LAYER
  5
187
330
2
100
AcDbSymbolTableRecord
100
AcDbLayerTableRecord
  2
FRAMELAYER-055
 70
     0
 62
     7
  6
Continuous
370
    -3
390
F
  0
LAYER
  5
188
330
2
100
AcDbSymbolTableRecord
100
AcDbLayerTableRecord
  2
FRAMELAYER-056
 70
     0
 62
     7
  6
Continuous
370
    -3
390
F
  0
LAYER
  5
189
330
2
100
AcDbSymbolTableRecord
100
AcDbLayerTableRecord
  2
FRAMELAYER-057
 70
     0
 62
     7
  6
Continuous
370
    -3
390
F
  0
LAYER
  5
18A
330
2
100
AcDbSymbolTableRecord
100
AcDbLayerTableRecord
  2
FRAMELAYER-058
 70
     0
 62
     7
  6
Continuous
370
    -3
390
F
  0
LAYER
  5
18B
330
2
100
AcDbSymbolTableRecord
100
AcDbLayerTableRecord
  2
FRAMELAYER-059
 70
     0
 62
     7
  6
Continuous
370
    -3
390
F
  0
LAYER
  5
18C
330
2
100
AcDbSymbolTableRecord
100
AcDbLayerTableRecord
  2
FRAMELAYER-060
 70
     0
 62
     7
  6
Continuous
370
    -3
390
F
  0
LAYER
  5
18D
330
2
100
AcDbSymbolTableRecord
100
AcDbLayerTableRecord
  2
FRAMELAYER-061
 70
     0
 62
     7
  6
Continuous
370
    -3
390
F
  0
LAYER
  5
18E
330
2
100
AcDbSymbolTableRecord
100
AcDbLayerTableRecord
  2
FRAMELAYER-062
 70
     0
 62
     7
  6
Continuous
370
    -3
390
F
  0
LAYER
  5
18F
330
2
100
AcDbSymbolTableRecord
100
AcDbLayerTableRecord
  2
FRAMELAYER-063
 70
     0
 62
     7
  6
Continuous
370
    -3
390
F
  0
LAYER
  5
190
330
2
100
AcDbSymbolTableRecord
100
AcDbLayerTableRecord
  2
FRAMELAYER-064
 70
     0
 62
     2
  6
Continuous
370
    -3
390
F
  0
LAYER
  5
191
330
2
100
AcDbSymbolTableRecord
100
AcDbLayerTableRecord
  2
FRAMELAYER-065
 70
     0
 62
     7
  6
Continuous
370
    -3
390
F
  0
LAYER
  5
192
330
2
100
AcDbSymbolTableRecord
100
AcDbLayerTableRecord
  2
FRAMELAYER-066
 70
     0
 62
     2
  6
Continuous
370
    -3
390
F
  0
LAYER
  5
193
330
2
100
AcDbSymbolTableRecord
100
AcDbLayerTableRecord
  2
FRAMELAYER-067
 70
     0
 62
     2
  6
Continuous
370
    -3
390
F
  0
LAYER
  5
194
330
2
100
AcDbSymbolTableRecord
100
AcDbLayerTableRecord
  2
FRAMELAYER-068
 70
     0
 62
     7
  6
Continuous
370
    -3
390
F
  0
LAYER
  5
195
330
2
100
AcDbSymbolTableRecord
100
AcDbLayerTableRecord
  2
FRAMELAYER-069
 70
     0
 62
     7
  6
Continuous
370
    -3
390
F
  0
LAYER
  5
196
330
2
100
AcDbSymbolTableRecord
100
AcDbLayerTableRecord
  2
FRAMELAYER-070
 70
     0
 62
     7
  6
Continuous
370
    -3
390
F
  0
LAYER
  5
197
330
2
100
AcDbSymbolTableRecord
100
AcDbLayerTableRecord
  2
FRAMELAYER-071
 70
     0
 62
     7
  6
Continuous
370
    -3
390
F
  0
LAYER
  5
198
330
2
100
AcDbSymbolTableRecord
100
AcDbLayerTableRecord
  2
FRAMELAYER-072
 70
     0
 62
     7
  6
Continuous
370
    -3
390
F
  0
LAYER
  5
199
330
2
100
AcDbSymbolTableRecord
100
AcDbLayerTableRecord
  2
FRAMELAYER-073
 70
     0
 62
     7
  6
Continuous
370
    -3
390
F
  0
LAYER
  5
19A
330
2
100
AcDbSymbolTableRecord
100
AcDbLayerTableRecord
  2
FRAMELAYER-074
 70
     0
 62
     7
  6
Continuous
370
    -3
390
F
  0
LAYER
  5
19B
330
2
100
AcDbSymbolTableRecord
100
AcDbLayerTableRecord
  2
FRAMELAYER-075
 70
     0
 62
     7
  6
Continuous
370
    -3
390
F
  0
LAYER
  5
19C
330
2
100
AcDbSymbolTableRecord
100
AcDbLayerTableRecord
  2
FRAMELAYER-076
 70
     0
 62
     7
  6
Continuous
370
    -3
390
F
  0
LAYER
  5
19D
330
2
100
AcDbSymbolTableRecord
100
AcDbLayerTableRecord
  2
FRAMELAYER-077
 70
     0
 62
     7
  6
Continuous
370
    -3
390
F
  0
LAYER
  5
19E
330
2
100
AcDbSymbolTableRecord
100
AcDbLayerTableRecord
  2
FRAMELAYER-078
 70
     0
 62
     7
  6
Continuous
370
    -3
390
F
  0
LAYER
  5
19F
330
2
100
AcDbSymbolTableRecord
100
AcDbLayerTableRecord
  2
FRAMELAYER-079
 70
     0
 62
     7
  6
Continuous
370
    -3
390
F
  0
LAYER
  5
1A0
330
2
100
AcDbSymbolTableRecord
100
AcDbLayerTableRecord
  2
FRAMELAYER-080
 70
     0
 62
     2
  6
Continuous
370
    -3
390
F
  0
LAYER
  5
1A1
330
2
100
AcDbSymbolTableRecord
100
AcDbLayerTableRecord
  2
FRAMELAYER-081
 70
     0
 62
     7
  6
Continuous
370
    -3
390
F
  0
LAYER
  5
1A2
330
2
100
AcDbSymbolTableRecord
100
AcDbLayerTableRecord
  2
FRAMELAYER-082
 70
     0
 62
     7
  6
Continuous
370
    -3
390
F
  0
LAYER
  5
1A3
330
2
100
AcDbSymbolTableRecord
100
AcDbLayerTableRecord
  2
FRAMELAYER-083
 70
     0
 62
     7
  6
Continuous
370
    -3
390
F
  0
LAYER
  5
1A4
330
2
100
AcDbSymbolTableRecord
100
AcDbLayerTableRecord
  2
FRAMELAYER-084
 70
     0
 62
     7
  6
Continuous
370
    -3
390
F
  0
LAYER
  5
1A5
330
2
100
AcDbSymbolTableRecord
100
AcDbLayerTableRecord
  2
FRAMELAYER-085
 70
     0
 62
     7
  6
Continuous
370
    -3
390
F
  0
LAYER
  5
1A6
330
2
100
AcDbSymbolTableRecord
100
AcDbLayerTableRecord
  2
FRAMELAYER-086
 70
     0
 62
     7
  6
Continuous
370
    -3
390
F
  0
LAYER
  5
1A7
330
2
100
AcDbSymbolTableRecord
100
AcDbLayerTableRecord
  2
FRAMELAYER-087
 70
     0
 62
     7
  6
Continuous
370
    -3
390
F
  0
LAYER
  5
1A8
330
2
100
AcDbSymbolTableRecord
100
AcDbLayerTableRecord
  2
FRAMELAYER-088
 70
     0
 62
     7
  6
Continuous
370
    -3
390
F
  0
LAYER
  5
1A9
330
2
100
AcDbSymbolTableRecord
100
AcDbLayerTableRecord
  2
FRAMELAYER-089
 70
     0
 62
     7
  6
Continuous
370
    -3
390
F
  0
LAYER
  5
1AA
330
2
100
AcDbSymbolTableRecord
100
AcDbLayerTableRecord
  2
FRAMELAYER-090
 70
     0
 62
     7
  6
Continuous
370
    -3
390
F
  0
LAYER
  5
1AB
330
2
100
AcDbSymbolTableRecord
100
AcDbLayerTableRecord
  2
FRAMELAYER-091
 70
     0
 62
     7
  6
Continuous
370
    -3
390
F
  0
LAYER
  5
1AC
330
2
100
AcDbSymbolTableRecord
100
AcDbLayerTableRecord
  2
FRAMELAYER-092
 70
     0
 62
     7
  6
Continuous
370
    -3
390
F
  0
LAYER
  5
1AD
330
2
100
AcDbSymbolTableRecord
100
AcDbLayerTableRecord
  2
FRAMELAYER-093
 70
     0
 62
     7
  6
Continuous
370
    -3
390
F
  0
LAYER
  5
1AE
330
2
100
AcDbSymbolTableRecord
100
AcDbLayerTableRecord
  2
FRAMELAYER-094
 70
     0
 62
     7
  6
Continuous
370
    -3
390
F
  0
LAYER
  5
1AF
330
2
100
AcDbSymbolTableRecord
100
AcDbLayerTableRecord
  2
FRAMELAYER-095
 70
     0
 62
     7
  6
Continuous
370
    -3
390
F
  0
LAYER
  5
1B0
330
2
100
AcDbSymbolTableRecord
100
AcDbLayerTableRecord
  2
FRAMELAYER-096
 70
     0
 62
     7
  6
Continuous
370
    -3
390
F
  0
LAYER
  5
1B1
330
2
100
AcDbSymbolTableRecord
100
AcDbLayerTableRecord
  2
FRAMELAYER-097
 70
     0
 62
     7
  6
Continuous
370
    -3
390
F
  0
LAYER
  5
1B2
330
2
100
AcDbSymbolTableRecord
100
AcDbLayerTableRecord
  2
FRAMELAYER-098
 70
     0
 62
     7
  6
Continuous
370
    -3
390
F
  0
LAYER
  5
1B3
330
2
100
AcDbSymbolTableRecord
100
AcDbLayerTableRecord
  2
FRAMELAYER-099
 70
     0
 62
     7
  6
Continuous
370
    -3
390
F
  0
LAYER
  5
1B4
330
2
100
AcDbSymbolTableRecord
100
AcDbLayerTableRecord
  2
FRAMELAYER-100
 70
     0
 62
     7
  6
Continuous
370
    -3
390
F
  0
LAYER
  5
1B5
330
2
100
AcDbSymbolTableRecord
100
AcDbLayerTableRecord
  2
FRAMELAYER-101
 70
     0
 62
     7
  6
Continuous
370
    -3
390
F
  0
LAYER
  5
1B6
330
2
100
AcDbSymbolTableRecord
100
AcDbLayerTableRecord
  2
FRAMELAYER-102
 70
     0
 62
     7
  6
Continuous
370
    -3
390
F
  0
LAYER
  5
1B7
330
2
100
AcDbSymbolTableRecord
100
AcDbLayerTableRecord
  2
FRAMELAYER-103
 70
     0
 62
     7
  6
Continuous
370
    -3
390
F
  0
LAYER
  5
1B8
330
2
100
AcDbSymbolTableRecord
100
AcDbLayerTableRecord
  2
FRAMELAYER-104
 70
     0
 62
     7
  6
Continuous
370
    -3
390
F
  0
LAYER
  5
1B9
330
2
100
AcDbSymbolTableRecord
100
AcDbLayerTableRecord
  2
FRAMELAYER-105
 70
     0
 62
     7
  6
Continuous
370
    -3
390
F
  0
LAYER
  5
1BA
330
2
100
AcDbSymbolTableRecord
100
AcDbLayerTableRecord
  2
FRAMELAYER-106
 70
     0
 62
     7
  6
Continuous
370
    -3
390
F
  0
LAYER
  5
1BB
330
2
100
AcDbSymbolTableRecord
100
AcDbLayerTableRecord
  2
FRAMELAYER-107
 70
     0
 62
     7
  6
Continuous
370
    -3
390
F
  0
LAYER
  5
1BC
330
2
100
AcDbSymbolTableRecord
100
AcDbLayerTableRecord
  2
FRAMELAYER-108
 70
     0
 62
     7
  6
Continuous
370
    -3
390
F
  0
LAYER
  5
1BD
330
2
100
AcDbSymbolTableRecord
100
AcDbLayerTableRecord
  2
FRAMELAYER-109
 70
     0
 62
     7
  6
Continuous
370
    -3
390
F
  0
LAYER
  5
1BE
330
2
100
AcDbSymbolTableRecord
100
AcDbLayerTableRecord
  2
FRAMELAYER-110
 70
     0
 62
     7
  6
Continuous
370
    -3
390
F
  0
LAYER
  5
1BF
330
2
100
AcDbSymbolTableRecord
100
AcDbLayerTableRecord
  2
FRAMELAYER-111
 70
     0
 62
     7
  6
Continuous
370
    -3
390
F
  0
LAYER
  5
1C0
330
2
100
AcDbSymbolTableRecord
100
AcDbLayerTableRecord
  2
FRAMELAYER-112
 70
     0
 62
     7
  6
Continuous
370
    -3
390
F
  0
LAYER
  5
1C1
330
2
100
AcDbSymbolTableRecord
100
AcDbLayerTableRecord
  2
FRAMELAYER-113
 70
     0
 62
     7
  6
Continuous
370
    -3
390
F
  0
LAYER
  5
1C2
330
2
100
AcDbSymbolTableRecord
100
AcDbLayerTableRecord
  2
FRAMELAYER-114
 70
     0
 62
     7
  6
Continuous
370
    -3
390
F
  0
LAYER
  5
1C3
330
2
100
AcDbSymbolTableRecord
100
AcDbLayerTableRecord
  2
FRAMELAYER-115
 70
     0
 62
     7
  6
Continuous
370
    -3
390
F
  0
LAYER
  5
1C4
330
2
100
AcDbSymbolTableRecord
100
AcDbLayerTableRecord
  2
FRAMELAYER-116
 70
     0
 62
     7
  6
Continuous
370
    -3
390
F
  0
LAYER
  5
1C5
330
2
100
AcDbSymbolTableRecord
100
AcDbLayerTableRecord
  2
FRAMELAYER-117
 70
     0
 62
     7
  6
Continuous
370
    -3
390
F
  0
LAYER
  5
1C6
330
2
100
AcDbSymbolTableRecord
100
AcDbLayerTableRecord
  2
FRAMELAYER-118
 70
     0
 62
     7
  6
Continuous
370
    -3
390
F
  0
LAYER
  5
1C7
330
2
100
AcDbSymbolTableRecord
100
AcDbLayerTableRecord
  2
FRAMELAYER-119
 70
     0
 62
     7
  6
Continuous
370
    -3
390
F
  0
LAYER
  5
1C8
330
2
100
AcDbSymbolTableRecord
100
AcDbLayerTableRecord
  2
FRAMELAYER-120
 70
     0
 62
     7
  6
Continuous
370
    -3
390
F
  0
LAYER
  5
1C9
330
2
100
AcDbSymbolTableRecord
100
AcDbLayerTableRecord
  2
FRAMELAYER-121
 70
     0
 62
     7
  6
Continuous
370
    -3
390
F
  0
LAYER
  5
1CA
330
2
100
AcDbSymbolTableRecord
100
AcDbLayerTableRecord
  2
FRAMELAYER-122
 70
     0
 62
     7
  6
Continuous
370
    -3
390
F
  0
LAYER
  5
1CB
330
2
100
AcDbSymbolTableRecord
100
AcDbLayerTableRecord
  2
FRAMELAYER-123
 70
     0
 62
     7
  6
Continuous
370
    -3
390
F
  0
LAYER
  5
1CC
330
2
100
AcDbSymbolTableRecord
100
AcDbLayerTableRecord
  2
FRAMELAYER-124
 70
     0
 62
     7
  6
Continuous
370
    -3
390
F
  0
LAYER
  5
1CD
330
2
100
AcDbSymbolTableRecord
100
AcDbLayerTableRecord
  2
FRAMELAYER-125
 70
     0
 62
     7
  6
Continuous
370
    -3
390
F
  0
LAYER
  5
1CE
330
2
100
AcDbSymbolTableRecord
100
AcDbLayerTableRecord
  2
FRAMELAYER-126
 70
     0
 62
     7
  6
Continuous
370
    -3
390
F
  0
LAYER
  5
1CF
330
2
100
AcDbSymbolTableRecord
100
AcDbLayerTableRecord
  2
FRAMELAYER-127
 70
     0
 62
     7
  6
Continuous
370
    -3
390
F
  0
LAYER
  5
1D0
330
2
100
AcDbSymbolTableRecord
100
AcDbLayerTableRecord
  2
FRAMELAYER-128
 70
     0
 62
     7
  6
Continuous
370
    -3
390
F
  0
LAYER
  5
1D1
330
2
100
AcDbSymbolTableRecord
100
AcDbLayerTableRecord
  2
FRAMELAYER-129
 70
     0
 62
     7
  6
Continuous
370
    -3
390
F
  0
LAYER
  5
1D2
330
2
100
AcDbSymbolTableRecord
100
AcDbLayerTableRecord
  2
FRAMELAYER-130
 70
     0
 62
     7
  6
Continuous
370
    -3
390
F
  0
LAYER
  5
1D3
330
2
100
AcDbSymbolTableRecord
100
AcDbLayerTableRecord
  2
FRAMELAYER-131
 70
     0
 62
     7
  6
Continuous
370
    -3
390
F
  0
LAYER
  5
1D4
330
2
100
AcDbSymbolTableRecord
100
AcDbLayerTableRecord
  2
FRAMELAYER-132
 70
     0
 62
     7
  6
Continuous
370
    -3
390
F
  0
LAYER
  5
1D5
330
2
100
AcDbSymbolTableRecord
100
AcDbLayerTableRecord
  2
FRAMELAYER-133
 70
     0
 62
     7
  6
Continuous
370
    -3
390
F
  0
LAYER
  5
1D6
330
2
100
AcDbSymbolTableRecord
100
AcDbLayerTableRecord
  2
FRAMELAYER-134
 70
     0
 62
     7
  6
Continuous
370
    -3
390
F
  0
LAYER
  5
1D7
330
2
100
AcDbSymbolTableRecord
100
AcDbLayerTableRecord
  2
FRAMELAYER-135
 70
     0
 62
    -4
  6
Continuous
370
    -3
390
F
  0
LAYER
  5
1D8
330
2
100
AcDbSymbolTableRecord
100
AcDbLayerTableRecord
  2
FRAMELAYER-136
 70
     0
 62
    -3
  6
Continuous
370
    -3
390
F
  0
LAYER
  5
1D9
330
2
100
AcDbSymbolTableRecord
100
AcDbLayerTableRecord
  2
FRAMELAYER-137
 70
     0
 62
    -1
  6
Continuous
370
    -3
390
F
  0
LAYER
  5
1DA
330
2
100
AcDbSymbolTableRecord
100
AcDbLayerTableRecord
  2
FRAMELAYER-138
 70
     0
 62
     7
  6
Continuous
370
    -3
390
F
  0
LAYER
  5
1DB
330
2
100
AcDbSymbolTableRecord
100
AcDbLayerTableRecord
  2
FRAMELAYER-139
 70
     0
 62
     7
  6
Continuous
370
    -3
390
F
  0
LAYER
  5
1DC
330
2
100
AcDbSymbolTableRecord
100
AcDbLayerTableRecord
  2
FRAMELAYER-140
 70
     0
 62
     7
  6
Continuous
370
    -3
390
F
  0
LAYER
  5
1DD
330
2
100
AcDbSymbolTableRecord
100
AcDbLayerTableRecord
  2
FRAMELAYER-141
 70
     0
 62
     7
  6
Continuous
370
    -3
390
F
  0
LAYER
  5
1DE
330
2
100
AcDbSymbolTableRecord
100
AcDbLayerTableRecord
  2
FRAMELAYER-142
 70
     0
 62
     3
  6
Continuous
370
    -3
390
F
  0
LAYER
  5
1DF
330
2
100
AcDbSymbolTableRecord
100
AcDbLayerTableRecord
  2
FRAMELAYER-143
 70
     0
 62
     7
  6
Continuous
370
    -3
390
F
  0
LAYER
  5
1E0
330
2
100
AcDbSymbolTableRecord
100
AcDbLayerTableRecord
  2
FRAMELAYER-144
 70
     0
 62
     7
  6
Continuous
370
    -3
390
F
  0
LAYER
  5
1E1
330
2
100
AcDbSymbolTableRecord
100
AcDbLayerTableRecord
  2
FRAMELAYER-145
 70
     0
 62
     3
  6
Continuous
370
    -3
390
F
  0
LAYER
  5
1E2
330
2
100
AcDbSymbolTableRecord
100
AcDbLayerTableRecord
  2
FRAMELAYER-146
 70
     0
 62
     7
  6
Continuous
370
    -3
390
F
  0
LAYER
  5
1E3
330
2
100
AcDbSymbolTableRecord
100
AcDbLayerTableRecord
  2
FRAMELAYER-147
 70
     0
 62
     7
  6
Continuous
370
    -3
390
F
  0
LAYER
  5
1E4
330
2
100
AcDbSymbolTableRecord
100
AcDbLayerTableRecord
  2
FRAMELAYER-148
 70
     0
 62
     7
  6
Continuous
370
    -3
390
F
  0
LAYER
  5
1E5
330
2
100
AcDbSymbolTableRecord
100
AcDbLayerTableRecord
  2
FRAMELAYER-149
 70
     0
 62
     7
  6
Continuous
370
    -3
390
F
  0
LAYER
  5
1E6
330
2
100
AcDbSymbolTableRecord
100
AcDbLayerTableRecord
  2
FRAMELAYER-150
 70
     0
 62
     7
  6
Continuous
370
    -3
390
F
  0
LAYER
  5
1E7
330
2
100
AcDbSymbolTableRecord
100
AcDbLayerTableRecord
  2
FRAMELAYER-151
 70
     0
 62
     7
  6
Continuous
370
    -3
390
F
  0
LAYER
  5
1E8
330
2
100
AcDbSymbolTableRecord
100
AcDbLayerTableRecord
  2
FRAMELAYER-152
 70
     0
 62
     7
  6
Continuous
370
    -3
390
F
  0
LAYER
  5
1E9
330
2
100
AcDbSymbolTableRecord
100
AcDbLayerTableRecord
  2
FRAMELAYER-153
 70
     0
 62
     7
  6
Continuous
370
    -3
390
F
  0
LAYER
  5
1EA
330
2
100
AcDbSymbolTableRecord
100
AcDbLayerTableRecord
  2
FRAMELAYER-154
 70
     0
 62
     7
  6
Continuous
370
    -3
390
F
  0
LAYER
  5
1EB
330
2
100
AcDbSymbolTableRecord
100
AcDbLayerTableRecord
  2
FRAMELAYER-155
 70
     0
 62
     7
  6
Continuous
370
    -3
390
F
  0
LAYER
  5
1EC
330
2
100
AcDbSymbolTableRecord
100
AcDbLayerTableRecord
  2
FRAMELAYER-156
 70
     0
 62
     7
  6
Continuous
370
    -3
390
F
  0
LAYER
  5
1ED
330
2
100
AcDbSymbolTableRecord
100
AcDbLayerTableRecord
  2
FRAMELAYER-157
 70
     0
 62
     7
  6
Continuous
370
    -3
390
F
  0
LAYER
  5
1EE
330
2
100
AcDbSymbolTableRecord
100
AcDbLayerTableRecord
  2
FRAMELAYER-158
 70
     0
 62
     7
  6
Continuous
370
    -3
390
F
  0
LAYER
  5
1EF
330
2
100
AcDbSymbolTableRecord
100
AcDbLayerTableRecord
  2
FRAMELAYER-159
 70
     0
 62
     7
  6
Continuous
370
    -3
390
F
  0
LAYER
  5
1F0
330
2
100
AcDbSymbolTableRecord
100
AcDbLayerTableRecord
  2
FRAMELAYER-160
 70
     0
 62
     7
  6
Continuous
370
    -3
390
F
  0
LAYER
  5
1F1
330
2
100
AcDbSymbolTableRecord
100
AcDbLayerTableRecord
  2
FRAMELAYER-161
 70
     0
 62
     7
  6
Continuous
370
    -3
390
F
  0
LAYER
  5
1F2
330
2
100
AcDbSymbolTableRecord
100
AcDbLayerTableRecord
  2
FRAMELAYER-162
 70
     0
 62
     7
  6
Continuous
370
    -3
390
F
  0
LAYER
  5
1F3
330
2
100
AcDbSymbolTableRecord
100
AcDbLayerTableRecord
  2
FRAMELAYER-163
 70
     0
 62
     7
  6
Continuous
370
    -3
390
F
  0
LAYER
  5
1F4
330
2
100
AcDbSymbolTableRecord
100
AcDbLayerTableRecord
  2
FRAMELAYER-164
 70
     0
 62
     7
  6
Continuous
370
    -3
390
F
  0
LAYER
  5
1F5
330
2
100
AcDbSymbolTableRecord
100
AcDbLayerTableRecord
  2
FRAMELAYER-165
 70
     0
 62
     7
  6
Continuous
370
    -3
390
F
  0
LAYER
  5
1F6
330
2
100
AcDbSymbolTableRecord
100
AcDbLayerTableRecord
  2
FRAMELAYER-166
 70
     0
 62
     7
  6
Continuous
370
    -3
390
F
  0
LAYER
  5
1F7
330
2
100
AcDbSymbolTableRecord
100
AcDbLayerTableRecord
  2
FRAMELAYER-167
 70
     0
 62
     7
  6
Continuous
370
    -3
390
F
  0
LAYER
  5
1F8
330
2
100
AcDbSymbolTableRecord
100
AcDbLayerTableRecord
  2
FRAMELAYER-168
 70
     0
 62
     7
  6
Continuous
370
    -3
390
F
  0
LAYER
  5
1F9
330
2
100
AcDbSymbolTableRecord
100
AcDbLayerTableRecord
  2
FRAMELAYER-169
 70
     0
 62
     7
  6
Continuous
370
    -3
390
F
  0
LAYER
  5
1FA
330
2
100
AcDbSymbolTableRecord
100
AcDbLayerTableRecord
  2
FRAMELAYER-170
 70
     0
 62
     7
  6
Continuous
370
    -3
390
F
  0
LAYER
  5
1FB
330
2
100
AcDbSymbolTableRecord
100
AcDbLayerTableRecord
  2
FRAMELAYER-171
 70
     0
 62
     7
  6
Continuous
370
    -3
390
F
  0
LAYER
  5
1FC
330
2
100
AcDbSymbolTableRecord
100
AcDbLayerTableRecord
  2
FRAMELAYER-172
 70
     0
 62
     7
  6
Continuous
370
    -3
390
F
  0
LAYER
  5
1FD
330
2
100
AcDbSymbolTableRecord
100
AcDbLayerTableRecord
  2
FRAMELAYER-173
 70
     0
 62
     7
  6
Continuous
370
    -3
390
F
  0
LAYER
  5
1FE
330
2
100
AcDbSymbolTableRecord
100
AcDbLayerTableRecord
  2
FRAMELAYER-174
 70
     0
 62
     7
  6
Continuous
370
    -3
390
F
  0
LAYER
  5
1FF
330
2
100
AcDbSymbolTableRecord
100
AcDbLayerTableRecord
  2
FRAMELAYER-175
 70
     0
 62
     7
  6
Continuous
370
    -3
390
F
  0
LAYER
  5
200
330
2
100
AcDbSymbolTableRecord
100
AcDbLayerTableRecord
  2
FRAMELAYER-176
 70
     0
 62
     7
  6
Continuous
370
    -3
390
F
  0
LAYER
  5
201
330
2
100
AcDbSymbolTableRecord
100
AcDbLayerTableRecord
  2
FRAMELAYER-177
 70
     0
 62
     7
  6
Continuous
370
    -3
390
F
  0
LAYER
  5
202
330
2
100
AcDbSymbolTableRecord
100
AcDbLayerTableRecord
  2
FRAMELAYER-178
 70
     0
 62
     7
  6
Continuous
370
    -3
390
F
  0
LAYER
  5
203
330
2
100
AcDbSymbolTableRecord
100
AcDbLayerTableRecord
  2
FRAMELAYER-179
 70
     0
 62
     7
  6
Continuous
370
    -3
390
F
  0
LAYER
  5
204
330
2
100
AcDbSymbolTableRecord
100
AcDbLayerTableRecord
  2
FRAMELAYER-180
 70
     0
 62
     7
  6
Continuous
370
    -3
390
F
  0
LAYER
  5
205
330
2
100
AcDbSymbolTableRecord
100
AcDbLayerTableRecord
  2
FRAMELAYER-181
 70
     0
 62
     7
  6
Continuous
370
    -3
390
F
  0
LAYER
  5
206
330
2
100
AcDbSymbolTableRecord
100
AcDbLayerTableRecord
  2
FRAMELAYER-182
 70
     0
 62
     7
  6
Continuous
370
    -3
390
F
  0
LAYER
  5
207
330
2
100
AcDbSymbolTableRecord
100
AcDbLayerTableRecord
  2
FRAMELAYER-183
 70
     0
 62
     7
  6
Continuous
370
    -3
390
F
  0
LAYER
  5
208
330
2
100
AcDbSymbolTableRecord
100
AcDbLayerTableRecord
  2
FRAMELAYER-184
 70
     0
 62
     7
  6
Continuous
370
    -3
390
F
  0
LAYER
  5
209
330
2
100
AcDbSymbolTableRecord
100
AcDbLayerTableRecord
  2
FRAMELAYER-185
 70
     0
 62
     7
  6
Continuous
370
    -3
390
F
  0
LAYER
  5
20A
330
2
100
AcDbSymbolTableRecord
100
AcDbLayerTableRecord
  2
FRAMELAYER-186
 70
     0
 62
     7
  6
Continuous
370
    -3
390
F
  0
LAYER
  5
20B
330
2
100
AcDbSymbolTableRecord
100
AcDbLayerTableRecord
  2
FRAMELAYER-187
 70
     0
 62
     7
  6
Continuous
370
    -3
390
F
  0
LAYER
  5
20C
330
2
100
AcDbSymbolTableRecord
100
AcDbLayerTableRecord
  2
FRAMELAYER-188
 70
     0
 62
     7
  6
Continuous
370
    -3
390
F
  0
LAYER
  5
20D
330
2
100
AcDbSymbolTableRecord
100
AcDbLayerTableRecord
  2
FRAMELAYER-189
 70
     0
 62
     7
  6
Continuous
370
    -3
390
F
  0
LAYER
  5
20E
330
2
100
AcDbSymbolTableRecord
100
AcDbLayerTableRecord
  2
FRAMELAYER-190
 70
     0
 62
     7
  6
Continuous
370
    -3
390
F
  0
LAYER
  5
20F
330
2
100
AcDbSymbolTableRecord
100
AcDbLayerTableRecord
  2
FRAMELAYER-191
 70
     0
 62
     7
  6
Continuous
370
    -3
390
F
  0
LAYER
  5
210
330
2
100
AcDbSymbolTableRecord
100
AcDbLayerTableRecord
  2
FRAMELAYER-192
 70
     0
 62
     7
  6
Continuous
370
    -3
390
F
  0
LAYER
  5
211
330
2
100
AcDbSymbolTableRecord
100
AcDbLayerTableRecord
  2
FRAMELAYER-193
 70
     0
 62
     7
  6
Continuous
370
    -3
390
F
  0
LAYER
  5
212
330
2
100
AcDbSymbolTableRecord
100
AcDbLayerTableRecord
  2
FRAMELAYER-194
 70
     0
 62
     2
  6
Continuous
370
    -3
390
F
  0
LAYER
  5
213
330
2
100
AcDbSymbolTableRecord
100
AcDbLayerTableRecord
  2
FRAMELAYER-195
 70
     0
 62
     2
  6
Continuous
370
    -3
390
F
  0
LAYER
  5
214
330
2
100
AcDbSymbolTableRecord
100
AcDbLayerTableRecord
  2
FRAMELAYER-196
 70
     0
 62
     2
  6
Continuous
370
    -3
390
F
  0
LAYER
  5
215
330
2
100
AcDbSymbolTableRecord
100
AcDbLayerTableRecord
  2
FRAMELAYER-197
 70
     0
 62
     7
  6
Continuous
370
    -3
390
F
  0
LAYER
  5
216
330
2
100
AcDbSymbolTableRecord
100
AcDbLayerTableRecord
  2
FRAMELAYER-198
 70
     0
 62
     7
  6
Continuous
370
    -3
390
F
  0
LAYER
  5
217
330
2
100
AcDbSymbolTableRecord
100
AcDbLayerTableRecord
  2
FRAMELAYER-199
 70
     0
 62
     4
  6
Continuous
370
    -3
390
F
  0
LAYER
  5
218
330
2
100
AcDbSymbolTableRecord
100
AcDbLayerTableRecord
  2
FRAMELAYER-200
 70
     0
 62
     1
  6
Continuous
370
    -3
390
F
  0
LAYER
  5
219
330
2
100
AcDbSymbolTableRecord
100
AcDbLayerTableRecord
  2
FRAMELAYER-201
 70
     0
 62
     1
  6
Continuous
370
    -3
390
F
  0
LAYER
  5
21A
330
2
100
AcDbSymbolTableRecord
100
AcDbLayerTableRecord
  2
FRAMELAYER-202
 70
     0
 62
     2
  6
Continuous
370
    -3
390
F
  0
LAYER
  5
21B
330
2
100
AcDbSymbolTableRecord
100
AcDbLayerTableRecord
  2
FRAMELAYER-203
 70
     0
 62
     2
  6
Continuous
370
    -3
390
F
  0
LAYER
  5
21C
330
2
100
AcDbSymbolTableRecord
100
AcDbLayerTableRecord
  2
FRAMELAYER-204
 70
     0
 62
     7
  6
Continuous
370
    -3
390
F
  0
LAYER
  5
21D
330
2
100
AcDbSymbolTableRecord
100
AcDbLayerTableRecord
  2
FRAMELAYER-205
 70
     0
 62
     7
  6
Continuous
370
    -3
390
F
  0
LAYER
  5
21E
330
2
100
AcDbSymbolTableRecord
100
AcDbLayerTableRecord
  2
FRAMELAYER-206
 70
     0
 62
     7
  6
Continuous
370
    -3
390
F
  0
LAYER
  5
21F
330
2
100
AcDbSymbolTableRecord
100
AcDbLayerTableRecord
  2
FRAMELAYER-207
 70
     0
 62
    -7
  6
Continuous
370
    -3
390
F
  0
LAYER
  5
220
330
2
100
AcDbSymbolTableRecord
100
AcDbLayerTableRecord
  2
FRAMELAYER-208
 70
     0
 62
     2
  6
Continuous
370
    -3
390
F
  0
LAYER
  5
221
330
2
100
AcDbSymbolTableRecord
100
AcDbLayerTableRecord
  2
FRAMELAYER-209
 70
     0
 62
     7
  6
Continuous
370
    -3
390
F
  0
LAYER
  5
222
330
2
100
AcDbSymbolTableRecord
100
AcDbLayerTableRecord
  2
FRAMELAYER-210
 70
     0
 62
     2
  6
Continuous
290
     0
370
    -3
390
F
  0
LAYER
  5
223
330
2
100
AcDbSymbolTableRecord
100
AcDbLayerTableRecord
  2
FRAMELAYER-211
 70
     0
 62
     7
  6
Continuous
370
    -3
390
F
  0
LAYER
  5
224
330
2
100
AcDbSymbolTableRecord
100
AcDbLayerTableRecord
  2
FRAMELAYER-212
 70
     0
 62
     7
  6
Continuous
370
    -3
390
F
  0
LAYER
  5
225
330
2
100
AcDbSymbolTableRecord
100
AcDbLayerTableRecord
  2
FRAMELAYER-213
 70
     0
 62
     2
  6
Continuous
370
    -3
390
F
  0
LAYER
  5
226
330
2
100
AcDbSymbolTableRecord
100
AcDbLayerTableRecord
  2
FRAMELAYER-214
 70
     0
 62
     7
  6
Continuous
370
    -3
390
F
  0
LAYER
  5
227
330
2
100
AcDbSymbolTableRecord
100
AcDbLayerTableRecord
  2
FRAMELAYER-215
 70
     0
 62
     7
  6
Continuous
370
    -3
390
F
  0
LAYER
  5
228
330
2
100
AcDbSymbolTableRecord
100
AcDbLayerTableRecord
  2
FRAMELAYER-216
 70
     0
 62
     4
  6
Continuous
370
    -3
390
F
  0
LAYER
  5
229
330
2
100
AcDbSymbolTableRecord
100
AcDbLayerTableRecord
  2
FRAMELAYER-217
 70
     0
 62
     7
  6
Continuous
370
    -3
390
F
  0
LAYER
  5
22A
330
2
100
AcDbSymbolTableRecord
100
AcDbLayerTableRecord
  2
FRAMELAYER-218
 70
     0
 62
     7
  6
Continuous
370
    -3
390
F
  0
LAYER
  5
22B
330
2
100
AcDbSymbolTableRecord
100
AcDbLayerTableRecord
  2
FRAMELAYER-219
 70
     0
 62
     7
  6
Continuous
370
    -3
390
F
  0
LAYER
  5
22C
330
2
100
AcDbSymbolTableRecord
100
AcDbLayerTableRecord
  2
FRAMELAYER-220
 70
     0
 62
     4
  6
Continuous
370
    -3
390
F
  0
LAYER
  5
22D
330
2
100
AcDbSymbolTableRecord
100
AcDbLayerTableRecord
  2
FRAMELAYER-221
 70
     0
 62
    -7
  6
Continuous
290
     0
370
    -3
390
F
  0
LAYER
  5
22E
330
2
100
AcDbSymbolTableRecord
100
AcDbLayerTableRecord
  2
FRAMELAYER-222
 70
     0
 62
    -4
  6
Continuous
290
     0
370
    -3
390
F
  0
LAYER
  5
22F
330
2
100
AcDbSymbolTableRecord
100
AcDbLayerTableRecord
  2
FRAMELAYER-223
 70
     0
 62
    -1
  6
Continuous
290
     0
370
    -3
390
F
  0
LAYER
  5
230
330
2
100
AcDbSymbolTableRecord
100
AcDbLayerTableRecord
  2
FRAMELAYER-224
 70
     0
 62
    -1
  6
Continuous
290
     0
370
    -3
390
F
  0
LAYER
  5
231
330
2
100
AcDbSymbolTableRecord
100
AcDbLayerTableRecord
  2
FRAMELAYER-225
 70
     0
 62
     7
  6
Continuous
370
    -3
390
F
  0
LAYER
  5
232
330
2
100
AcDbSymbolTableRecord
100
AcDbLayerTableRecord
  2
FRAMELAYER-226
 70
     0
 62
     2
  6
Continuous
370
    -3
390
F
  0
LAYER
  5
233
330
2
100
AcDbSymbolTableRecord
100
AcDbLayerTableRecord
  2
FRAMELAYER-227
 70
     0
 62
     7
  6
Continuous
370
    -3
390
F
  0
LAYER
  5
234
330
2
100
AcDbSymbolTableRecord
100
AcDbLayerTableRecord
  2
FRAMELAYER-228
 70
     0
 62
     7
  6
Continuous
370
    -3
390
F
  0
LAYER
  5
235
330
2
100
AcDbSymbolTableRecord
100
AcDbLayerTableRecord
  2
FRAMELAYER-229
 70
     0
 62
     7
  6
Continuous
370
    -3
390
F
  0
LAYER
  5
236
330
2
100
AcDbSymbolTableRecord
100
AcDbLayerTableRecord
  2
FRAMELAYER-230
 70
     0
 62
     7
  6
Continuous
370
    -3
390
F
  0
LAYER
  5
237
330
2
100
AcDbSymbolTableRecord
100
AcDbLayerTableRecord
  2
FRAMELAYER-231
 70
     0
 62
     7
  6
Continuous
370
    -3
390
F
  0
LAYER
  5
238
330
2
100
AcDbSymbolTableRecord
100
AcDbLayerTableRecord
  2
FRAMELAYER-232
 70
     0
 62
     7
  6
Continuous
370
    -3
390
F
  0
LAYER
  5
239
330
2
100
AcDbSymbolTableRecord
100
AcDbLayerTableRecord
  2
FRAMELAYER-233
 70
     0
 62
     7
  6
Continuous
370
    -3
390
F
  0
LAYER
  5
23A
330
2
100
AcDbSymbolTableRecord
100
AcDbLayerTableRecord
  2
FRAMELAYER-234
 70
     0
 62
     7
  6
Continuous
370
    -3
390
F
  0
LAYER
  5
23B
330
2
100
AcDbSymbolTableRecord
100
AcDbLayerTableRecord
  2
FRAMELAYER-235
 70
     0
 62
     7
  6
Continuous
370
    -3
390
F
  0
LAYER
  5
23C
330
2
100
AcDbSymbolTableRecord
100
AcDbLayerTableRecord
  2
FRAMELAYER-236
 70
     0
 62
     7
  6
Continuous
370
    -3
390
F
  0
LAYER
  5
23D
330
2
100
AcDbSymbolTableRecord
100
AcDbLayerTableRecord
  2
FRAMELAYER-237
 70
     0
 62
     7
  6
Continuous
370
    -3
390
F
  0
LAYER
  5
23E
330
2
100
AcDbSymbolTableRecord
100
AcDbLayerTableRecord
  2
FRAMELAYER-238
 70
     0
 62
     7
  6
Continuous
370
    -3
390
F
  0
LAYER
  5
23F
330
2
100
AcDbSymbolTableRecord
100
AcDbLayerTableRecord
  2
FRAMELAYER-239
 70
     0
 62
     7
  6
Continuous
370
    -3
390
F
  0
LAYER
  5
240
330
2
100
AcDbSymbolTableRecord
100
AcDbLayerTableRecord
  2
FRAMELAYER-240
 70
     0
 62
     7
  6
Continuous
370
    -3
390
F
  0
LAYER
  5
241
330
2
100
AcDbSymbolTableRecord
100
AcDbLayerTableRecord
  2
FRAMELAYER-241
 70
     0
 62
     7
  6
Continuous
370
    -3
390
F
  0
LAYER
  5
242
330
2
100
AcDbSymbolTableRecord
100
AcDbLayerTableRecord
  2
FRAMELAYER-242
 70
     0
 62
     7
  6
Continuous
370
    -3
390
F
  0
LAYER
  5
243
330
2
100
AcDbSymbolTableRecord
100
AcDbLayerTableRecord
  2
FRAMELAYER-243
 70
     0
 62
     7
  6
Continuous
370
    -3
390
F
  0
LAYER
  5
244
330
2
100
AcDbSymbolTableRecord
100
AcDbLayerTableRecord
  2
FRAMELAYER-244
 70
     0
 62
     7
  6
Continuous
370
    -3
390
F
  0
LAYER
  5
245
330
2
100
AcDbSymbolTableRecord
100
AcDbLayerTableRecord
  2
FRAMELAYER-245
 70
     0
 62
     7
  6
Continuous
370
    -3
390
F
  0
LAYER
  5
246
330
2
100
AcDbSymbolTableRecord
100
AcDbLayerTableRecord
  2
FRAMELAYER-246
 70
     0
 62
     7
  6
Continuous
370
    -3
390
F
  0
LAYER
  5
247
330
2
100
AcDbSymbolTableRecord
100
AcDbLayerTableRecord
  2
FRAMELAYER-247
 70
     0
 62
     7
  6
Continuous
370
    -3
390
F
  0
LAYER
  5
248
330
2
100
AcDbSymbolTableRecord
100
AcDbLayerTableRecord
  2
FRAMELAYER-248
 70
     0
 62
     7
  6
Continuous
370
    -3
390
F
  0
LAYER
  5
249
330
2
100
AcDbSymbolTableRecord
100
AcDbLayerTableRecord
  2
FRAMELAYER-249
 70
     0
 62
     7
  6
Continuous
370
    -3
390
F
  0
LAYER
  5
24A
330
2
100
AcDbSymbolTableRecord
100
AcDbLayerTableRecord
  2
FRAMELAYER-250
 70
     0
 62
     7
  6
Continuous
370
    -3
390
F
  0
LAYER
  5
24B
330
2
100
AcDbSymbolTableRecord
100
AcDbLayerTableRecord
  2
FRAMELAYER-251
 70
     0
 62
     7
  6
Continuous
370
    -3
390
F
  0
LAYER
  5
24C
330
2
100
AcDbSymbolTableRecord
100
AcDbLayerTableRecord
  2
FRAMELAYER-252
 70
     0
 62
     7
  6
Continuous
370
    -3
390
F
  0
LAYER
  5
24D
330
2
100
AcDbSymbolTableRecord
100
AcDbLayerTableRecord
  2
FRAMELAYER-253
 70
     0
 62
     7
  6
Continuous
370
    -3
390
F
  0
LAYER
  5
24E
330
2
100
AcDbSymbolTableRecord
100
AcDbLayerTableRecord
  2
FRAMELAYER-254
 70
     0
 62
     7
  6
Continuous
370
    -3
390
F
  0
LAYER
  5
24F
330
2
100
AcDbSymbolTableRecord
100
AcDbLayerTableRecord
  2
FRAMELAYER-255
 70
     0
 62
     7
  6
Continuous
370
    -3
390
F
  0
LAYER
  5
250
330
2
100
AcDbSymbolTableRecord
100
AcDbLayerTableRecord
  2
FRAMELAYER-256
 70
     0
 62
     7
  6
Continuous
370
    -3
390
F
  0
ENDTAB
  0
TABLE
  2
STYLE
  5
3
330
0
100
AcDbSymbolTable
 70
     7
  0
STYLE
  5
11
330
3
100
AcDbSymbolTableRecord
100
AcDbTextStyleTableRecord
  2
Standard
 70
     0
 40
0.0
 41
1.0
 50
0.0
 71
     0
 42
2.5
  3
txt
  4

  0
STYLE
  5
31
330
3
100
AcDbSymbolTableRecord
100
AcDbTextStyleTableRecord
  2
STANDARD2
 70
     0
 40
0.0
 41
1.0
 50
0.0
 71
     0
 42
4.0
  3
MS Mincho.ttf
  4

1001
ACAD
1000
MS Mincho
1071
    32785
  0
STYLE
  5
32
330
3
100
AcDbSymbolTableRecord
100
AcDbTextStyleTableRecord
  2
STRING_H
 70
     0
 40
0.0
 41
1.0
 50
0.0
 71
     0
 42
4.0
  3
MS Mincho.ttf
  4

1001
ACAD
1000
MS Mincho
1071
    32785
  0
STYLE
  5
33
330
3
100
AcDbSymbolTableRecord
100
AcDbTextStyleTableRecord
  2
STRING_H_ITALIC
 70
     0
 40
0.0
 41
1.0
 50
15.0
 71
     0
 42
4.0
  3
MS Mincho.ttf
  4

1001
ACAD
1000
MS Mincho
1071
    32785
  0
STYLE
  5
34
330
3
100
AcDbSymbolTableRecord
100
AcDbTextStyleTableRecord
  2
STRING_V
 70
     0
 40
0.0
 41
1.0
 50
0.0
 71
     0
 42
4.0
  3
@MS Mincho.ttf
  4

1001
ACAD
1000
@MS Mincho
1071
    32785
  0
STYLE
  5
35
330
3
100
AcDbSymbolTableRecord
100
AcDbTextStyleTableRecord
  2
STRING_V_ITALIC
 70
     0
 40
0.0
 41
1.0
 50
15.0
 71
     0
 42
4.0
  3
@MS Mincho.ttf
  4

1001
ACAD
1000
@MS Mincho
1071
    32785
  0
STYLE
  5
36
330
3
100
AcDbSymbolTableRecord
100
AcDbTextStyleTableRecord
  2

 70
     1
 40
0.0
 41
1.0
 50
0.0
 71
     0
 42
0.2
  3
ltypeshp.shx
  4

  0
ENDTAB
  0
TABLE
  2
VIEW
  5
6
330
0
100
AcDbSymbolTable
 70
     0
  0
ENDTAB
  0
TABLE
  2
UCS
  5
7
330
0
100
AcDbSymbolTable
 70
     0
  0
ENDTAB
  0
TABLE
  2
APPID
  5
9
330
0
100
AcDbSymbolTable
 70
     1
  0
APPID
  5
12
330
9
100
AcDbSymbolTableRecord
100
AcDbRegAppTableRecord
  2
ACAD
 70
     0
  0
ENDTAB
  0
TABLE
  2
DIMSTYLE
  5
A
330
0
100
AcDbSymbolTable
 70
     2
100
AcDbDimStyleTable
  0
DIMSTYLE
105
27
330
A
100
AcDbSymbolTableRecord
100
AcDbDimStyleTableRecord
  2
ISO-25
 70
     0
 41
2.5
 42
0.625
 43
3.75
 44
1.25
 73
     0
 74
     0
 77
     1
 78
     8
140
2.5
141
2.5
143
0.03937007874016
147
0.625
171
     3
172
     1
271
     2
272
     2
274
     3
283
     0
284
     8
340
11
  0
DIMSTYLE
105
251
102
{ACAD_REACTORS
330
461
330
46B
330
477
330
481
330
48B
330
495
102
}
330
A
100
AcDbSymbolTableRecord
100
AcDbDimStyleTableRecord
  2
DIO_DIMSTYLE
 70
     0
 41
4.0
 42
1.0
 43
3.75
 44
1.0
 45
0.1
 73
     0
 74
     0
 77
     1
 78
     8
 79
     2
140
3.0
141
2.5
143
0.03937007874016
147
0.5
171
     3
172
     1
173
     1
179
     1
271
     1
272
     1
274
     3
283
     0
284
     8
288
     1
289
     0
340
31
  0
ENDTAB
  0
TABLE
  2
BLOCK_RECORD
  5
1
330
0
100
AcDbSymbolTable
 70
     8
  0
BLOCK_RECORD
  5
1F
330
1
100
AcDbSymbolTableRecord
100
AcDbBlockTableRecord
  2
*Model_Space
340
22
  0
BLOCK_RECORD
  5
1B
330
1
100
AcDbSymbolTableRecord
100
AcDbBlockTableRecord
  2
*Paper_Space
340
1E
  0
BLOCK_RECORD
  5
23
330
1
100
AcDbSymbolTableRecord
100
AcDbBlockTableRecord
  2
*Paper_Space0
340
26
  0
BLOCK_RECORD
  5
452
330
1
100
AcDbSymbolTableRecord
100
AcDbBlockTableRecord
  2
_OPEN
340
0
102
{BLKREFS
331
45B
331
45C
331
465
331
466
331
46F
331
470
331
47B
331
47C
331
485
331
486
331
48F
331
490
102
}
  0
BLOCK_RECORD
  5
458
330
1
100
AcDbSymbolTableRecord
100
AcDbBlockTableRecord
  2
*D02
340
0
  0
BLOCK_RECORD
  5
462
330
1
100
AcDbSymbolTableRecord
100
AcDbBlockTableRecord
  2
*D13
340
0
  0
BLOCK_RECORD
  5
46C
330
1
100
AcDbSymbolTableRecord
100
AcDbBlockTableRecord
  2
*D24
340
0
  0
BLOCK_RECORD
  5
478
330
1
100
AcDbSymbolTableRecord
100
AcDbBlockTableRecord
  2
*D35
340
0
  0
BLOCK_RECORD
  5
482
330
1
100
AcDbSymbolTableRecord
100
AcDbBlockTableRecord
  2
*D46
340
0
  0
BLOCK_RECORD
  5
48C
330
1
100
AcDbSymbolTableRecord
100
AcDbBlockTableRecord
  2
*D57
340
0
  0
ENDTAB
  0
ENDSEC
  0
SECTION
  2
BLOCKS
  0
BLOCK
  5
20
330
1F
100
AcDbEntity
  8
0
100
AcDbBlockBegin
  2
*Model_Space
 70
     0
 71
     0
 10
0.0
 20
0.0
 30
0.0
  3
*Model_Space
  1

  0
ENDBLK
  5
21
330
1F
100
AcDbEntity
  8
0
100
AcDbBlockEnd
  0
BLOCK
  5
1C
330
1B
100
AcDbEntity
 67
     1
  8
0
100
AcDbBlockBegin
  2
*Paper_Space
 70
     0
 71
     0
 10
0.0
 20
0.0
 30
0.0
  3
*Paper_Space
  1

  0
ENDBLK
  5
1D
330
1B
100
AcDbEntity
 67
     1
  8
0
100
AcDbBlockEnd
  0
BLOCK
  5
24
330
23
100
AcDbEntity
  8
0
100
AcDbBlockBegin
  2
*Paper_Space0
 70
     0
 71
     0
 10
0.0
 20
0.0
 30
0.0
  3
*Paper_Space0
  1

  0
ENDBLK
  5
25
330
23
100
AcDbEntity
  8
0
100
AcDbBlockEnd
  0
BLOCK
  5
453
330
452
100
AcDbEntity
  8
0
100
AcDbBlockBegin
  2
_OPEN
 70
     0
 71
     0
 10
0.0
 20
0.0
 30
0.0
  3
_OPEN
  1

  0
LINE
  5
455
330
452
100
AcDbEntity
  8
LAYER-035
  6
Continuous
 62
     0
100
AcDbLine
 10
0.0
 20
0.0
 30
0.0
 11
-1.0
 21
0.0
 31
0.0
  0
LINE
  5
456
330
452
100
AcDbEntity
  8
LAYER-035
  6
Continuous
 62
     0
100
AcDbLine
 10
0.0
 20
0.0
 30
0.0
 11
-1.0
 21
0.1666250109338451
 31
0.0
  0
LINE
  5
457
330
452
100
AcDbEntity
  8
LAYER-035
  6
Continuous
 62
     0
100
AcDbLine
 10
0.0
 20
0.0
 30
0.0
 11
-1.0
 21
-0.1666250109338451
 31
0.0
  0
ENDBLK
  5
454
330
452
100
AcDbEntity
  8
0
100
AcDbBlockEnd
  0
BLOCK
  5
459
330
458
100
AcDbEntity
  8
0
100
AcDbBlockBegin
  2
*D02
 70
     1
 71
     0
 10
0.0
 20
0.0
 30
0.0
  3
*D02
  1

  0
INSERT
  5
45B
330
458
100
AcDbEntity
  8
LAYER-035
  6
Continuous
 62
     5
100
AcDbBlockReference
  2
_OPEN
 10
232.2890048531374
 20
57.40624142136332
 30
0.0
 41
4.0
 42
4.0
 43
4.0
 50
90.0
  0
INSERT
  5
45C
330
458
100
AcDbEntity
  8
LAYER-035
  6
Continuous
 62
     5
100
AcDbBlockReference
  2
_OPEN
 10
232.2890048531374
 20
-57.5937585786367
 30
0.0
 41
4.0
 42
4.0
 43
4.0
 50
-90.0
  0
LINE
  5
45D
330
458
100
AcDbEntity
  8
LAYER-035
  6
Continuous
 62
     5
100
AcDbLine
 10
202.6101954664906
 20
57.40624142136332
 30
0.0
 11
233.2890048531374
 21
57.40624142136332
 31
0.0
  0
LINE
  5
45E
330
458
100
AcDbEntity
  8
LAYER-035
  6
Continuous
 62
     5
100
AcDbLine
 10
202.6101954664906
 20
-57.5937585786367
 30
0.0
 11
233.2890048531374
 21
-57.5937585786367
 31
0.0
  0
LINE
  5
45F
330
458
100
AcDbEntity
  8
LAYER-035
  6
Continuous
 62
     5
100
AcDbLine
 10
232.2890048531374
 20
57.40624142136332
 30
0.0
 11
232.2890048531374
 21
-57.5937585786367
 31
0.0
  0
MTEXT
  5
460
330
458
100
AcDbEntity
  8
LAYER-036
  6
Continuous
 62
     5
100
AcDbMText
 10
231.7890048531374
 20
-0.093758578636681
 30
0.0
 40
4.0
 41
0.0
 71
     8
 72
     1
  1
115
  7
STRING_H
 11
6.123031769111886E-17
 21
1.0
 31
0.0
 73
     1
 44
1.0
  0
ENDBLK
  5
45A
330
458
100
AcDbEntity
  8
0
100
AcDbBlockEnd
  0
BLOCK
  5
463
330
462
100
AcDbEntity
  8
0
100
AcDbBlockBegin
  2
*D13
 70
     1
 71
     0
 10
0.0
 20
0.0
 30
0.0
  3
*D13
  1

  0
INSERT
  5
465
330
462
100
AcDbEntity
  8
LAYER-035
  6
Continuous
 62
     5
100
AcDbBlockReference
  2
_OPEN
 10
195.0021082447144
 20
78.16879448606696
 30
0.0
 41
4.0
 42
4.0
 43
4.0
  0
INSERT
  5
466
330
462
100
AcDbEntity
  8
LAYER-035
  6
Continuous
 62
     5
100
AcDbBlockReference
  2
_OPEN
 10
145.0021082447143
 20
78.16879448606696
 30
0.0
 41
4.0
 42
4.0
 43
4.0
 50
180.0
  0
LINE
  5
467
330
462
100
AcDbEntity
  8
LAYER-035
  6
Continuous
 62
     5
100
AcDbLine
 10
195.0021082447144
 20
65.01432864313964
 30
0.0
 11
195.0021082447144
 21
79.16879448606696
 31
0.0
  0
LINE
  5
468
330
462
100
AcDbEntity
  8
LAYER-035
  6
Continuous
 62
     5
100
AcDbLine
 10
145.0021082447143
 20
65.01432864313964
 30
0.0
 11
145.0021082447143
 21
79.16879448606696
 31
0.0
  0
LINE
  5
469
330
462
100
AcDbEntity
  8
LAYER-035
  6
Continuous
 62
     5
100
AcDbLine
 10
195.0021082447144
 20
78.16879448606696
 30
0.0
 11
145.0021082447143
 21
78.16879448606696
 31
0.0
  0
MTEXT
  5
46A
330
462
100
AcDbEntity
  8
LAYER-036
  6
Continuous
 62
     5
100
AcDbMText
 10
170.0021082447143
 20
78.66879448606696
 30
0.0
 40
4.0
 41
0.0
 71
     8
 72
     1
  1
50
  7
STRING_H
 73
     1
 44
1.0
  0
ENDBLK
  5
464
330
462
100
AcDbEntity
  8
0
100
AcDbBlockEnd
  0
BLOCK
  5
46D
330
46C
100
AcDbEntity
  8
0
100
AcDbBlockBegin
  2
*D24
 70
     1
 71
     0
 10
0.0
 20
0.0
 30
0.0
  3
*D24
  1

  0
INSERT
  5
46F
330
46C
100
AcDbEntity
  8
LAYER-035
  6
Continuous
 62
     5
100
AcDbBlockReference
  2
_OPEN
 10
190.2521082447144
 20
70.72074388648062
 30
0.0
 41
4.0
 42
4.0
 43
4.0
  0
INSERT
  5
470
330
46C
100
AcDbEntity
  8
LAYER-035
  6
Continuous
 62
     5
100
AcDbBlockReference
  2
_OPEN
 10
199.7521082447144
 20
70.72074388648062
 30
0.0
 41
4.0
 42
4.0
 43
4.0
 50
180.0
  0
LINE
  5
471
330
46C
100
AcDbEntity
  8
LAYER-035
  6
Continuous
 62
     5
100
AcDbLine
 10
190.2521082447144
 20
67.57290932259789
 30
0.0
 11
190.2521082447144
 21
71.72074388648062
 31
0.0
  0
LINE
  5
472
330
46C
100
AcDbEntity
  8
LAYER-035
  6
Continuous
 62
     5
100
AcDbLine
 10
199.7521082447144
 20
67.57290932259789
 30
0.0
 11
199.7521082447144
 21
71.72074388648062
 31
0.0
  0
LINE
  5
473
330
46C
100
AcDbEntity
  8
LAYER-035
  6
Continuous
 62
     5
100
AcDbLine
 10
190.2521082447144
 20
70.72074388648062
 30
0.0
 11
199.7521082447144
 21
70.72074388648062
 31
0.0
  0
LINE
  5
474
330
46C
100
AcDbEntity
  8
LAYER-035
  6
Continuous
 62
     5
100
AcDbLine
 10
199.7521082447144
 20
70.72074388648062
 30
0.0
 11
214.8703600387833
 21
70.72074388648062
 31
0.0
  0
LINE
  5
475
330
46C
100
AcDbEntity
  8
LAYER-035
  6
Continuous
 62
     5
100
AcDbLine
 10
190.2521082447144
 20
70.72074388648062
 30
0.0
 11
182.2521082447144
 21
70.72074388648062
 31
0.0
  0
MTEXT
  5
476
330
46C
100
AcDbEntity
  8
LAYER-036
  6
Continuous
 62
     5
100
AcDbMText
 10
204.0703600387833
 20
71.22074388648062
 30
0.0
 40
4.0
 41
0.0
 71
     7
 72
     1
  1
9.5
  7
STRING_H
 73
     1
 44
1.0
  0
ENDBLK
  5
46E
330
46C
100
AcDbEntity
  8
0
100
AcDbBlockEnd
  0
BLOCK
  5
479
330
478
100
AcDbEntity
  8
0
100
AcDbBlockBegin
  2
*D35
 70
     1
 71
     0
 10
0.0
 20
0.0
 30
0.0
  3
*D35
  1

  0
INSERT
  5
47B
330
478
100
AcDbEntity
  8
LAYER-035
  6
Continuous
 62
     5
100
AcDbBlockReference
  2
_OPEN
 10
-260.0999890664816
 20
94.07249592659289
 30
0.0
 41
4.0
 42
4.0
 43
4.0
 50
180.0
  0
INSERT
  5
47C
330
478
100
AcDbEntity
  8
LAYER-035
  6
Continuous
 62
     5
100
AcDbBlockReference
  2
_OPEN
 10
-110.0999890664816
 20
94.07249592659289
 30
0.0
 41
4.0
 42
4.0
 43
4.0
  0
LINE
  5
47D
330
478
100
AcDbEntity
  8
LAYER-035
  6
Continuous
 62
     5
100
AcDbLine
 10
-260.0999890664816
 20
66.18401799029329
 30
0.0
 11
-260.0999890664816
 21
95.07249592659289
 31
0.0
  0
LINE
  5
47E
330
478
100
AcDbEntity
  8
LAYER-035
  6
Continuous
 62
     5
100
AcDbLine
 10
-110.0999890664816
 20
66.18401799029329
 30
0.0
 11
-110.0999890664816
 21
95.07249592659289
 31
0.0
  0
LINE
  5
47F
330
478
100
AcDbEntity
  8
LAYER-035
  6
Continuous
 62
     5
100
AcDbLine
 10
-260.0999890664816
 20
94.07249592659289
 30
0.0
 11
-110.0999890664816
 21
94.07249592659289
 31
0.0
  0
MTEXT
  5
480
330
478
100
AcDbEntity
  8
LAYER-036
  6
Continuous
 62
     5
100
AcDbMText
 10
-185.0999890664816
 20
94.57249592659289
 30
0.0
 40
4.0
 41
0.0
 71
     8
 72
     1
  1
150
  7
STRING_H
 73
     1
 44
1.0
  0
ENDBLK
  5
47A
330
478
100
AcDbEntity
  8
0
100
AcDbBlockEnd
  0
BLOCK
  5
483
330
482
100
AcDbEntity
  8
0
100
AcDbBlockBegin
  2
*D46
 70
     1
 71
     0
 10
0.0
 20
0.0
 30
0.0
  3
*D46
  1

  0
INSERT
  5
485
330
482
100
AcDbEntity
  8
LAYER-035
  6
Continuous
 62
     5
100
AcDbBlockReference
  2
_OPEN
 10
-88.209802681
 20
74.90624003247447
 30
0.0
 41
4.0
 42
4.0
 43
4.0
 50
90.0
  0
INSERT
  5
486
330
482
100
AcDbEntity
  8
LAYER-035
  6
Continuous
 62
     5
100
AcDbBlockReference
  2
_OPEN
 10
-88.209802681
 20
-75.09375718974783
 30
0.0
 41
4.0
 42
4.0
 43
4.0
 50
-90.0
  0
LINE
  5
487
330
482
100
AcDbEntity
  8
LAYER-035
  6
Continuous
 62
     5
100
AcDbLine
 10
-120.2110999718881
 20
74.90624003247447
 30
0.0
 11
-87.209802681
 21
74.90624003247447
 31
0.0
  0
LINE
  5
488
330
482
100
AcDbEntity
  8
LAYER-035
  6
Continuous
 62
     5
100
AcDbLine
 10
-120.2110971940536
 20
-75.09375718974783
 30
0.0
 11
-87.209802681
 21
-75.09375718974783
 31
0.0
  0
LINE
  5
489
330
482
100
AcDbEntity
  8
LAYER-035
  6
Continuous
 62
     5
100
AcDbLine
 10
-88.209802681
 20
74.90624003247447
 30
0.0
 11
-88.209802681
 21
-75.09375718974783
 31
0.0
  0
MTEXT
  5
48A
330
482
100
AcDbEntity
  8
LAYER-036
  6
Continuous
 62
     5
100
AcDbMText
 10
-88.709802681
 20
-0.093758578636681
 30
0.0
 40
4.0
 41
0.0
 71
     8
 72
     1
  1
150
  7
STRING_H
 11
6.123031769111886E-17
 21
1.0
 31
0.0
 73
     1
 44
1.0
  0
ENDBLK
  5
484
330
482
100
AcDbEntity
  8
0
100
AcDbBlockEnd
  0
BLOCK
  5
48D
330
48C
100
AcDbEntity
  8
0
100
AcDbBlockBegin
  2
*D57
 70
     1
 71
     0
 10
0.0
 20
0.0
 30
0.0
  3
*D57
  1

  0
INSERT
  5
48F
330
48C
100
AcDbEntity
  8
LAYER-035
  6
Continuous
 62
     5
100
AcDbBlockReference
  2
_OPEN
 10
65.83716814931445
 20
94.07249592659289
 30
0.0
 41
4.0
 42
4.0
 43
4.0
  0
INSERT
  5
490
330
48C
100
AcDbEntity
  8
LAYER-035
  6
Continuous
 62
     5
100
AcDbBlockReference
  2
_OPEN
 10
-59.16283185033566
 20
94.07249592659289
 30
0.0
 41
4.0
 42
4.0
 43
4.0
 50
180.0
  0
LINE
  5
491
330
48C
100
AcDbEntity
  8
LAYER-035
  6
Continuous
 62
     5
100
AcDbLine
 10
65.83716814931445
 20
67.57290932259789
 30
0.0
 11
65.83716814931445
 21
95.07249592659289
 31
0.0
  0
LINE
  5
492
330
48C
100
AcDbEntity
  8
LAYER-035
  6
Continuous
 62
     5
100
AcDbLine
 10
-59.16283185033566
 20
60.62846752733039
 30
0.0
 11
-59.16283185033566
 21
95.07249592659289
 31
0.0
  0
LINE
  5
493
330
48C
100
AcDbEntity
  8
LAYER-035
  6
Continuous
 62
     5
100
AcDbLine
 10
65.83716814931445
 20
94.07249592659289
 30
0.0
 11
-59.16283185033566
 21
94.07249592659289
 31
0.0
  0
MTEXT
  5
494
330
48C
100
AcDbEntity
  8
LAYER-036
  6
Continuous
 62
     5
100
AcDbMText
 10
3.337168149489393
 20
94.57249592659289
 30
0.0
 40
4.0
 41
0.0
 71
     8
 72
     1
  1
125
  7
STRING_H
 73
     1
 44
1.0
  0
ENDBLK
  5
48E
330
48C
100
AcDbEntity
  8
0
100
AcDbBlockEnd
  0
ENDSEC
  0
SECTION
  2
ENTITIES
  0
LINE
  5
252
330
1F
100
AcDbEntity
  8
LAYER-006
  6
Continuous
 62
     4
100
AcDbLine
 10
-248.4333281714198
 20
74.90624281025217
 30
0.0
 11
-252.5999919831484
 21
70.73957344343316
 31
0.0
  0
LINE
  5
253
330
1F
100
AcDbEntity
  8
LAYER-006
  6
Continuous
 62
     4
100
AcDbLine
 10
-222.8777719780154
 20
74.90624281025217
 30
0.0
 11
-227.0444357897441
 21
70.73957344296829
 31
0.0
  0
LINE
  5
254
330
1F
100
AcDbEntity
  8
LAYER-006
  6
Continuous
 62
     4
100
AcDbLine
 10
-197.3222157846112
 20
74.90624281025217
 30
0.0
 11
-201.4888795963398
 21
70.73957344296829
 31
0.0
  0
LINE
  5
255
330
1F
100
AcDbEntity
  8
LAYER-006
  6
Continuous
 62
     4
100
AcDbLine
 10
-171.766659591207
 20
74.90624281025217
 30
0.0
 11
-175.9333234029354
 21
70.73957344296829
 31
0.0
  0
LINE
  5
256
330
1F
100
AcDbEntity
  8
LAYER-006
  6
Continuous
 62
     4
100
AcDbLine
 10
-146.2111033978025
 20
74.90624281025217
 30
0.0
 11
-150.3777672095311
 21
70.73957344296829
 31
0.0
  0
LINE
  5
257
330
1F
100
AcDbEntity
  8
LAYER-006
  6
Continuous
 62
     4
100
AcDbLine
 10
-120.6555472043415
 20
74.90624281025217
 30
0.0
 11
-124.8222110160701
 21
70.73957344296829
 31
0.0
  0
LINE
  5
258
330
1F
100
AcDbEntity
  8
LAYER-006
  6
Continuous
 62
     4
100
AcDbLine
 10
-250.9333225695681
 20
74.35068448675756
 30
0.0
 11
-252.3222114327369
 21
72.96179562403844
 31
0.0
  0
LINE
  5
259
330
1F
100
AcDbEntity
  8
LAYER-006
  6
Continuous
 62
     4
100
AcDbLine
 10
-247.0444393082512
 20
74.35068448675756
 30
0.0
 11
-250.6555475744816
 21
70.73957344343316
 31
0.0
  0
LINE
  5
25A
330
1F
100
AcDbEntity
  8
LAYER-006
  6
Continuous
 62
     4
100
AcDbLine
 10
-225.3777663761638
 20
74.35068448675756
 30
0.0
 11
-226.7666552393326
 21
72.96179562403844
 31
0.0
  0
LINE
  5
25B
330
1F
100
AcDbEntity
  8
LAYER-006
  6
Continuous
 62
     4
100
AcDbLine
 10
-221.4888831148469
 20
74.35068448675756
 30
0.0
 11
-225.0999913814929
 21
70.73957344296829
 31
0.0
  0
LINE
  5
25C
330
1F
100
AcDbEntity
  8
LAYER-006
  6
Continuous
 62
     4
100
AcDbLine
 10
-199.8222101827595
 20
74.35068448720708
 30
0.0
 11
-201.2110990459284
 21
72.96179562403844
 31
0.0
  0
LINE
  5
25D
330
1F
100
AcDbEntity
  8
LAYER-006
  6
Continuous
 62
     4
100
AcDbLine
 10
-195.9333269214426
 20
74.35068448720708
 30
0.0
 11
-199.5444351879036
 21
70.73957344296829
 31
0.0
  0
LINE
  5
25E
330
1F
100
AcDbEntity
  8
LAYER-006
  6
Continuous
 62
     4
100
AcDbLine
 10
-174.2666539893551
 20
74.35068448720708
 30
0.0
 11
-175.6555428525239
 21
72.96179562403844
 31
0.0
  0
LINE
  5
25F
330
1F
100
AcDbEntity
  8
LAYER-006
  6
Continuous
 62
     4
100
AcDbLine
 10
-170.3777707280382
 20
74.35068448720708
 30
0.0
 11
-173.9888789944992
 21
70.73957344296829
 31
0.0
  0
LINE
  5
260
330
1F
100
AcDbEntity
  8
LAYER-006
  6
Continuous
 62
     4
100
AcDbLine
 10
-148.7110977959508
 20
74.35068448675756
 30
0.0
 11
-150.0999866591196
 21
72.96179562403844
 31
0.0
  0
LINE
  5
261
330
1F
100
AcDbEntity
  8
LAYER-006
  6
Continuous
 62
     4
100
AcDbLine
 10
-144.8222145346339
 20
74.35068448675756
 30
0.0
 11
-148.4333228010949
 21
70.73957344296829
 31
0.0
  0
LINE
  5
262
330
1F
100
AcDbEntity
  8
LAYER-006
  6
Continuous
 62
     4
100
AcDbLine
 10
-119.2666583411729
 20
74.35068448720708
 30
0.0
 11
-122.8777666076339
 21
70.73957344296829
 31
0.0
  0
LINE
  5
263
330
1F
100
AcDbEntity
  8
LAYER-006
  6
Continuous
 62
     4
100
AcDbLine
 10
-245.9333254399384
 20
73.51735394708354
 30
0.0
 11
-248.7111031662759
 21
70.73957344343316
 31
0.0
  0
LINE
  5
264
330
1F
100
AcDbEntity
  8
LAYER-006
  6
Continuous
 62
     4
100
AcDbLine
 10
-220.3777692465341
 20
73.51735394708354
 30
0.0
 11
-223.1555469728716
 21
70.73957344296829
 31
0.0
  0
LINE
  5
265
330
1F
100
AcDbEntity
  8
LAYER-006
  6
Continuous
 62
     4
100
AcDbLine
 10
-194.8222130531299
 20
73.51735394708354
 30
0.0
 11
-197.5999907794674
 21
70.73957344296829
 31
0.0
  0
LINE
  5
266
330
1F
100
AcDbEntity
  8
LAYER-006
  6
Continuous
 62
     4
100
AcDbLine
 10
-169.2666568597254
 20
73.51735394708354
 30
0.0
 11
-172.044434586063
 21
70.73957344296829
 31
0.0
  0
LINE
  5
267
330
1F
100
AcDbEntity
  8
LAYER-006
  6
Continuous
 62
     4
100
AcDbLine
 10
-143.7111006663212
 20
73.51735394708354
 30
0.0
 11
-146.4888783926587
 21
70.73957344296829
 31
0.0
  0
LINE
  5
268
330
1F
100
AcDbEntity
  8
LAYER-006
  6
Continuous
 62
     4
100
AcDbLine
 10
-118.1555444728602
 20
73.51735394708354
 30
0.0
 11
-120.9333221991976
 21
70.73957344296829
 31
0.0
  0
LINE
  5
269
330
1F
100
AcDbEntity
  8
LAYER-006
  6
Continuous
 62
     4
100
AcDbLine
 10
-245.0999921220371
 20
72.40624285654857
 30
0.0
 11
-246.766655980062
 21
70.73957344343316
 31
0.0
  0
LINE
  5
26A
330
1F
100
AcDbEntity
  8
LAYER-006
  6
Continuous
 62
     4
100
AcDbLine
 10
-219.5444359286328
 20
72.40624285654857
 30
0.0
 11
-221.2110997866576
 21
70.73957344296829
 31
0.0
  0
LINE
  5
26B
330
1F
100
AcDbEntity
  8
LAYER-006
  6
Continuous
 62
     4
100
AcDbLine
 10
-193.9888797352286
 20
72.40624285654857
 30
0.0
 11
-195.655543593812
 21
70.73957344296829
 31
0.0
  0
LINE
  5
26C
330
1F
100
AcDbEntity
  8
LAYER-006
  6
Continuous
 62
     4
100
AcDbLine
 10
-168.4333235418242
 20
72.40624285654857
 30
0.0
 11
-170.0999873998489
 21
70.73957344296829
 31
0.0
  0
LINE
  5
26D
330
1F
100
AcDbEntity
  8
LAYER-006
  6
Continuous
 62
     4
100
AcDbLine
 10
-142.8777673484199
 20
72.40624285654857
 30
0.0
 11
-144.5444312064446
 21
70.73957344296829
 31
0.0
  0
LINE
  5
26E
330
1F
100
AcDbEntity
  8
LAYER-006
  6
Continuous
 62
     4
100
AcDbLine
 10
-117.3222111549589
 20
72.40624285654857
 30
0.0
 11
-118.9888750129837
 21
70.73957344296829
 31
0.0
  0
LINE
  5
26F
330
1F
100
AcDbEntity
  8
LAYER-006
  6
Continuous
 62
     4
100
AcDbLine
 10
-244.8222143494035
 20
71.01735399337994
 30
0.0
 11
-248.7111031662759
 21
74.90624281025217
 31
0.0
  0
LINE
  5
270
330
1F
100
AcDbEntity
  8
LAYER-006
  6
Continuous
 62
     4
100
AcDbLine
 10
-219.2666581559992
 20
71.01735399337994
 30
0.0
 11
-223.1555469728716
 21
74.90624281025217
 31
0.0
  0
LINE
  5
271
330
1F
100
AcDbEntity
  8
LAYER-006
  6
Continuous
 62
     4
100
AcDbLine
 10
-193.7111019625949
 20
71.01735399337994
 30
0.0
 11
-197.5999907794674
 21
74.90624281025217
 31
0.0
  0
LINE
  5
272
330
1F
100
AcDbEntity
  8
LAYER-006
  6
Continuous
 62
     4
100
AcDbLine
 10
-168.1555457691905
 20
71.01735399337994
 30
0.0
 11
-172.044434586063
 21
74.90624281025217
 31
0.0
  0
LINE
  5
273
330
1F
100
AcDbEntity
  8
LAYER-006
  6
Continuous
 62
     4
100
AcDbLine
 10
-142.5999895760751
 20
71.01735399337994
 30
0.0
 11
-146.4888783926587
 21
74.90624281025217
 31
0.0
  0
LINE
  5
274
330
1F
100
AcDbEntity
  8
LAYER-006
  6
Continuous
 62
     4
100
AcDbLine
 10
-117.0444333823252
 20
71.01735399337994
 30
0.0
 11
-120.9333221991976
 21
74.90624281025217
 31
0.0
  0
LINE
  5
275
330
1F
100
AcDbEntity
  8
LAYER-006
  6
Continuous
 62
     4
100
AcDbLine
 10
-252.3222114327369
 20
70.73957344343316
 30
0.0
 11
-253.1555475284158
 21
71.57290676086959
 31
0.0
  0
LINE
  5
276
330
1F
100
AcDbEntity
  8
LAYER-006
  6
Continuous
 62
     4
100
AcDbLine
 10
-250.3777698020782
 20
70.73957344343316
 30
0.0
 11
-252.5999919831484
 21
72.68402062918224
 31
0.0
  0
ARC
  5
277
330
1F
100
AcDbEntity
  8
LAYER-006
  6
Continuous
 62
     1
100
AcDbCircle
 10
-248.9888809389096
 20
70.73957344343316
 30
0.0
 40
4.166666589506179
100
AcDbArc
 50
0.023338993608195
 51
179.9893830063902
  0
LINE
  5
278
330
1F
100
AcDbEntity
  8
LAYER-006
  6
Continuous
 62
     4
100
AcDbLine
 10
-248.4333281714198
 20
70.73957344343316
 30
0.0
 11
-251.7666586652471
 21
73.79513171971721
 31
0.0
  0
LINE
  5
279
330
1F
100
AcDbEntity
  8
LAYER-006
  6
Continuous
 62
     4
100
AcDbLine
 10
-246.488880985206
 20
70.73957344343316
 30
0.0
 11
-250.3777698020782
 21
74.62846225984069
 31
0.0
  0
LINE
  5
27A
330
1F
100
AcDbEntity
  8
LAYER-006
  6
Continuous
 62
     1
100
AcDbLine
 10
-244.8222143494035
 20
70.73957344343316
 30
0.0
 11
-253.1555475284158
 21
70.73957344343316
 31
0.0
  0
LINE
  5
27B
330
1F
100
AcDbEntity
  8
LAYER-006
  6
Continuous
 62
     4
100
AcDbLine
 10
-226.7666552393326
 20
70.73957344296829
 30
0.0
 11
-227.5999913350114
 21
71.57290676086959
 31
0.0
  0
LINE
  5
27C
330
1F
100
AcDbEntity
  8
LAYER-006
  6
Continuous
 62
     4
100
AcDbLine
 10
-224.8222136086739
 20
70.73957344296829
 30
0.0
 11
-227.0444357897441
 21
72.68402062918224
 31
0.0
  0
ARC
  5
27D
330
1F
100
AcDbEntity
  8
LAYER-006
  6
Continuous
 62
     1
100
AcDbCircle
 10
-223.4333247455053
 20
70.73957344296829
 30
0.0
 40
4.166666589506179
100
AcDbArc
 50
0.0233390000037225
 51
179.989382999999
  0
LINE
  5
27E
330
1F
100
AcDbEntity
  8
LAYER-006
  6
Continuous
 62
     4
100
AcDbLine
 10
-222.8777719780154
 20
70.73957344296829
 30
0.0
 11
-226.2111024718428
 21
73.79513171971721
 31
0.0
  0
LINE
  5
27F
330
1F
100
AcDbEntity
  8
LAYER-006
  6
Continuous
 62
     4
100
AcDbLine
 10
-220.9333247922003
 20
70.73957344296829
 30
0.0
 11
-224.8222136086739
 21
74.62846225984069
 31
0.0
  0
LINE
  5
280
330
1F
100
AcDbEntity
  8
LAYER-006
  6
Continuous
 62
     1
100
AcDbLine
 10
-219.2666581559992
 20
70.73957344296829
 30
0.0
 11
-227.5999913350114
 21
70.73957344296829
 31
0.0
  0
LINE
  5
281
330
1F
100
AcDbEntity
  8
LAYER-006
  6
Continuous
 62
     4
100
AcDbLine
 10
-201.2110990459284
 20
70.73957344296829
 30
0.0
 11
-202.0444351416072
 21
71.57290676086959
 31
0.0
  0
LINE
  5
282
330
1F
100
AcDbEntity
  8
LAYER-006
  6
Continuous
 62
     4
100
AcDbLine
 10
-199.2666574152697
 20
70.73957344296829
 30
0.0
 11
-201.4888795963398
 21
72.68402062918224
 31
0.0
  0
ARC
  5
283
330
1F
100
AcDbEntity
  8
LAYER-006
  6
Continuous
 62
     1
100
AcDbCircle
 10
-197.877768552101
 20
70.73957344296829
 30
0.0
 40
4.166666589506179
100
AcDbArc
 50
0.0233390000037225
 51
179.9893829999978
  0
LINE
  5
284
330
1F
100
AcDbEntity
  8
LAYER-006
  6
Continuous
 62
     4
100
AcDbLine
 10
-197.3222157846112
 20
70.73957344296829
 30
0.0
 11
-200.6555462784385
 21
73.79513171971721
 31
0.0
  0
LINE
  5
285
330
1F
100
AcDbEntity
  8
LAYER-006
  6
Continuous
 62
     4
100
AcDbLine
 10
-195.3777685983974
 20
70.73957344296829
 30
0.0
 11
-199.2666574152697
 21
74.62846225984069
 31
0.0
  0
LINE
  5
286
330
1F
100
AcDbEntity
  8
LAYER-006
  6
Continuous
 62
     1
100
AcDbLine
 10
-193.7111019625949
 20
70.73957344296829
 30
0.0
 11
-202.0444351416072
 21
70.73957344296829
 31
0.0
  0
LINE
  5
287
330
1F
100
AcDbEntity
  8
LAYER-006
  6
Continuous
 62
     4
100
AcDbLine
 10
-175.6555428525239
 20
70.73957344296829
 30
0.0
 11
-176.4888789482027
 21
71.57290676086959
 31
0.0
  0
LINE
  5
288
330
1F
100
AcDbEntity
  8
LAYER-006
  6
Continuous
 62
     4
100
AcDbLine
 10
-173.7111012218653
 20
70.73957344296829
 30
0.0
 11
-175.9333234029354
 21
72.68402062918224
 31
0.0
  0
ARC
  5
289
330
1F
100
AcDbEntity
  8
LAYER-006
  6
Continuous
 62
     1
100
AcDbCircle
 10
-172.3222123586967
 20
70.73957344296829
 30
0.0
 40
4.166666589506179
100
AcDbArc
 50
0.0233390000005532
 51
179.989382999999
  0
LINE
  5
28A
330
1F
100
AcDbEntity
  8
LAYER-006
  6
Continuous
 62
     4
100
AcDbLine
 10
-171.766659591207
 20
70.73957344296829
 30
0.0
 11
-175.0999900850342
 21
73.79513171971721
 31
0.0
  0
LINE
  5
28B
330
1F
100
AcDbEntity
  8
LAYER-006
  6
Continuous
 62
     4
100
AcDbLine
 10
-169.822212404993
 20
70.73957344296829
 30
0.0
 11
-173.7111012218653
 21
74.62846225984069
 31
0.0
  0
LINE
  5
28C
330
1F
100
AcDbEntity
  8
LAYER-006
  6
Continuous
 62
     1
100
AcDbLine
 10
-168.1555457691905
 20
70.73957344296829
 30
0.0
 11
-176.4888789482027
 21
70.73957344296829
 31
0.0
  0
LINE
  5
28D
330
1F
100
AcDbEntity
  8
LAYER-006
  6
Continuous
 62
     4
100
AcDbLine
 10
-150.0999866591196
 20
70.73957344296829
 30
0.0
 11
-150.9333227547984
 21
71.57290676086959
 31
0.0
  0
LINE
  5
28E
330
1F
100
AcDbEntity
  8
LAYER-006
  6
Continuous
 62
     4
100
AcDbLine
 10
-148.155545028461
 20
70.73957344296829
 30
0.0
 11
-150.3777672095311
 21
72.68402062918224
 31
0.0
  0
ARC
  5
28F
330
1F
100
AcDbEntity
  8
LAYER-006
  6
Continuous
 62
     1
100
AcDbCircle
 10
-146.7666561652924
 20
70.73957344296829
 30
0.0
 40
4.166666589506179
100
AcDbArc
 50
0.0233390000026852
 51
179.9893830001813
  0
LINE
  5
290
330
1F
100
AcDbEntity
  8
LAYER-006
  6
Continuous
 62
     4
100
AcDbLine
 10
-146.2111033978025
 20
70.73957344296829
 30
0.0
 11
-149.5444338916299
 21
73.79513171971721
 31
0.0
  0
LINE
  5
291
330
1F
100
AcDbEntity
  8
LAYER-006
  6
Continuous
 62
     4
100
AcDbLine
 10
-144.2666562115887
 20
70.73957344296829
 30
0.0
 11
-148.155545028461
 21
74.62846225984069
 31
0.0
  0
LINE
  5
292
330
1F
100
AcDbEntity
  8
LAYER-006
  6
Continuous
 62
     1
100
AcDbLine
 10
-142.5999895760751
 20
70.73957344296829
 30
0.0
 11
-150.9333227547984
 21
70.73957344296829
 31
0.0
  0
LINE
  5
293
330
1F
100
AcDbEntity
  8
LAYER-006
  6
Continuous
 62
     4
100
AcDbLine
 10
-124.5444304656586
 20
70.73957344296829
 30
0.0
 11
-125.3777665613375
 21
71.57290676086959
 31
0.0
  0
LINE
  5
294
330
1F
100
AcDbEntity
  8
LAYER-006
  6
Continuous
 62
     4
100
AcDbLine
 10
-122.599988835
 20
70.73957344296829
 30
0.0
 11
-124.8222110160701
 21
72.68402062918224
 31
0.0
  0
ARC
  5
295
330
1F
100
AcDbEntity
  8
LAYER-006
  6
Continuous
 62
     1
100
AcDbCircle
 10
-121.2110999718881
 20
70.73957344296829
 30
0.0
 40
4.166666589506179
100
AcDbArc
 50
0.0233390000034045
 51
179.9893829999989
  0
LINE
  5
296
330
1F
100
AcDbEntity
  8
LAYER-006
  6
Continuous
 62
     4
100
AcDbLine
 10
-120.6555472043415
 20
70.73957344296829
 30
0.0
 11
-123.9888776981688
 21
73.79513171971721
 31
0.0
  0
LINE
  5
297
330
1F
100
AcDbEntity
  8
LAYER-006
  6
Continuous
 62
     4
100
AcDbLine
 10
-118.7111000183428
 20
70.73957344296829
 30
0.0
 11
-122.599988835
 21
74.62846225984069
 31
0.0
  0
LINE
  5
298
330
1F
100
AcDbEntity
  8
LAYER-006
  6
Continuous
 62
     1
100
AcDbLine
 10
-117.0444333823252
 20
70.73957344296829
 30
0.0
 11
-125.3777665613375
 21
70.73957344296829
 31
0.0
  0
LINE
  5
299
330
1F
100
AcDbEntity
  8
LAYER-006
  6
Continuous
 62
     1
100
AcDbLine
 10
-54.99616510681226
 20
70.73957606642497
 30
0.0
 11
-54.99616510681226
 21
63.79513149337978
 31
0.0
  0
LINE
  5
29A
330
1F
100
AcDbEntity
  8
LAYER-006
  6
Continuous
 62
     1
100
AcDbLine
 10
-54.99616510681226
 20
70.73957606642497
 30
0.0
 11
-43.88505379024029
 21
70.73957606642497
 31
0.0
  0
LINE
  5
29B
330
1F
100
AcDbEntity
  8
LAYER-007
  6
HIDDEN
 62
     4
100
AcDbLine
 10
-48.05172053376701
 20
70.73957606642497
 30
0.0
 11
-48.05172053376701
 21
62.40624257910067
 31
0.0
  0
LINE
  5
29C
330
1F
100
AcDbEntity
  8
LAYER-007
  6
HIDDEN
 62
     4
100
AcDbLine
 10
-45.27394270471466
 20
70.73957606642497
 30
0.0
 11
-45.27394270471466
 21
63.23957592753614
 31
0.0
  0
LINE
  5
29D
330
1F
100
AcDbEntity
  8
LAYER-006
  6
Continuous
 62
     1
100
AcDbLine
 10
-43.88505379024029
 20
70.73957606642497
 30
0.0
 11
-43.88505379024029
 21
63.79513149337978
 31
0.0
  0
ARC
  5
29E
330
1F
100
AcDbEntity
  8
LAYER-006
  6
Continuous
 62
     1
100
AcDbCircle
 10
-42.49616487577707
 20
70.73957606642497
 30
0.0
 40
4.166666743827159
100
AcDbArc
 50
90.01166999362222
 51
180.0233390029179
  0
ARC
  5
29F
330
1F
100
AcDbEntity
  8
LAYER-006
  6
Continuous
 62
     1
100
AcDbCircle
 10
43.61494273779182
 20
66.57290932259789
 30
0.0
 40
8.333333487654318
100
AcDbArc
 50
269.9777129999999
 51
90.00105199999992
  0
LINE
  5
2A0
330
1F
100
AcDbEntity
  8
LAYER-006
  6
Continuous
 62
     1
100
AcDbLine
 10
63.83716814931444
 20
64.90624142136332
 30
0.0
 11
63.83716814931444
 21
29.90624142136332
 31
0.0
  0
LINE
  5
2A1
330
1F
100
AcDbEntity
  8
LAYER-006
  6
Continuous
 62
     1
100
AcDbLine
 10
63.83716814931444
 20
64.90624142136332
 30
0.0
 11
65.83716814931444
 21
64.90624142136332
 31
0.0
  0
LINE
  5
2A2
330
1F
100
AcDbEntity
  8
LAYER-006
  6
PHANTOM
 62
     1
100
AcDbLine
 10
149.7521082447144
 20
64.90624142136332
 30
0.0
 11
190.2521082447144
 21
64.90624142136332
 31
0.0
  0
LINE
  5
2A3
330
1F
100
AcDbEntity
  8
LAYER-006
  6
Continuous
 62
     1
100
AcDbLine
 10
-260.0999890664816
 20
65.18401799029329
 30
0.0
 11
-253.1555447506379
 21
65.18401799029329
 31
0.0
  0
LINE
  5
2A4
330
1F
100
AcDbEntity
  8
LAYER-006
  6
Continuous
 62
     1
100
AcDbLine
 10
-117.0444333823252
 20
65.18401799029329
 30
0.0
 11
-110.0999890664816
 21
65.18401799029329
 31
0.0
  0
LINE
  5
2A5
330
1F
100
AcDbEntity
  8
LAYER-006
  6
Continuous
 62
     1
100
AcDbLine
 10
-110.0999890664816
 20
65.18401799029329
 30
0.0
 11
-110.0999890664816
 21
41.57290453864746
 31
0.0
  0
LINE
  5
2A6
330
1F
100
AcDbEntity
  8
LAYER-007
  6
HIDDEN
 62
     4
100
AcDbLine
 10
-252.0444364378807
 20
64.0729096775363
 30
0.0
 11
-252.0444364378807
 21
70.73957344343316
 31
0.0
  0
LINE
  5
2A7
330
1F
100
AcDbEntity
  8
LAYER-007
  6
HIDDEN
 62
     4
100
AcDbLine
 10
-245.9333254399384
 20
64.0729096775363
 30
0.0
 11
-245.9333254399384
 21
70.73957344343316
 31
0.0
  0
LINE
  5
2A8
330
1F
100
AcDbEntity
  8
LAYER-007
  6
HIDDEN
 62
     4
100
AcDbLine
 10
-244.8222143494035
 20
64.0729096775363
 30
0.0
 11
-253.1555475284158
 21
64.0729096775363
 31
0.0
  0
LINE
  5
2A9
330
1F
100
AcDbEntity
  8
LAYER-007
  6
HIDDEN
 62
     4
100
AcDbLine
 10
-226.488880244361
 20
64.0729096775363
 30
0.0
 11
-226.488880244361
 21
70.73957344296829
 31
0.0
  0
LINE
  5
2AA
330
1F
100
AcDbEntity
  8
LAYER-007
  6
HIDDEN
 62
     4
100
AcDbLine
 10
-220.3777692465341
 20
64.0729096775363
 30
0.0
 11
-220.3777692465341
 21
70.73957344296829
 31
0.0
  0
LINE
  5
2AB
330
1F
100
AcDbEntity
  8
LAYER-007
  6
HIDDEN
 62
     4
100
AcDbLine
 10
-219.2666581559992
 20
64.0729096775363
 30
0.0
 11
-227.5999913350114
 21
64.0729096775363
 31
0.0
  0
LINE
  5
2AC
330
1F
100
AcDbEntity
  8
LAYER-007
  6
HIDDEN
 62
     4
100
AcDbLine
 10
-200.9333240510723
 20
64.0729096775363
 30
0.0
 11
-200.9333240510723
 21
70.73957344296829
 31
0.0
  0
LINE
  5
2AD
330
1F
100
AcDbEntity
  8
LAYER-007
  6
HIDDEN
 62
     4
100
AcDbLine
 10
-194.8222130531299
 20
64.0729096775363
 30
0.0
 11
-194.8222130531299
 21
70.73957344296829
 31
0.0
  0
LINE
  5
2AE
330
1F
100
AcDbEntity
  8
LAYER-007
  6
HIDDEN
 62
     4
100
AcDbLine
 10
-193.7111019625949
 20
64.0729096775363
 30
0.0
 11
-202.0444351416072
 21
64.0729096775363
 31
0.0
  0
LINE
  5
2AF
330
1F
100
AcDbEntity
  8
LAYER-007
  6
HIDDEN
 62
     4
100
AcDbLine
 10
-175.3777678576678
 20
64.0729096775363
 30
0.0
 11
-175.3777678576678
 21
70.73957344296829
 31
0.0
  0
LINE
  5
2B0
330
1F
100
AcDbEntity
  8
LAYER-007
  6
HIDDEN
 62
     4
100
AcDbLine
 10
-169.2666568597254
 20
64.0729096775363
 30
0.0
 11
-169.2666568597254
 21
70.73957344296829
 31
0.0
  0
LINE
  5
2B1
330
1F
100
AcDbEntity
  8
LAYER-007
  6
HIDDEN
 62
     4
100
AcDbLine
 10
-168.1555457691905
 20
64.0729096775363
 30
0.0
 11
-176.4888789482027
 21
64.0729096775363
 31
0.0
  0
LINE
  5
2B2
330
1F
100
AcDbEntity
  8
LAYER-007
  6
HIDDEN
 62
     4
100
AcDbLine
 10
-149.8222116642635
 20
64.0729096775363
 30
0.0
 11
-149.8222116642635
 21
70.73957344296829
 31
0.0
  0
LINE
  5
2B3
330
1F
100
AcDbEntity
  8
LAYER-007
  6
HIDDEN
 62
     4
100
AcDbLine
 10
-143.7111006663212
 20
64.0729096775363
 30
0.0
 11
-143.7111006663212
 21
70.73957344296829
 31
0.0
  0
LINE
  5
2B4
330
1F
100
AcDbEntity
  8
LAYER-007
  6
HIDDEN
 62
     4
100
AcDbLine
 10
-142.5999895760751
 20
64.0729096775363
 30
0.0
 11
-150.9333227547984
 21
64.0729096775363
 31
0.0
  0
LINE
  5
2B5
330
1F
100
AcDbEntity
  8
LAYER-007
  6
HIDDEN
 62
     4
100
AcDbLine
 10
-124.2666554708025
 20
64.0729096775363
 30
0.0
 11
-124.2666554708025
 21
70.73957344296829
 31
0.0
  0
LINE
  5
2B6
330
1F
100
AcDbEntity
  8
LAYER-007
  6
HIDDEN
 62
     4
100
AcDbLine
 10
-118.1555444728602
 20
64.0729096775363
 30
0.0
 11
-118.1555444728602
 21
70.73957344296829
 31
0.0
  0
LINE
  5
2B7
330
1F
100
AcDbEntity
  8
LAYER-007
  6
HIDDEN
 62
     4
100
AcDbLine
 10
-117.0444333823252
 20
64.0729096775363
 30
0.0
 11
-125.3777665613375
 21
64.0729096775363
 31
0.0
  0
LINE
  5
2B8
330
1F
100
AcDbEntity
  8
LAYER-006
  6
Continuous
 62
     1
100
AcDbLine
 10
-54.99616510681226
 20
63.79513149337978
 30
0.0
 11
-50.82949836328321
 21
62.40624257910067
 31
0.0
  0
LINE
  5
2B9
330
1F
100
AcDbEntity
  8
LAYER-006
  6
Continuous
 62
     1
100
AcDbLine
 10
-48.05172053376701
 20
62.40624257910067
 30
0.0
 11
-43.88505379024029
 21
63.79513149337978
 31
0.0
  0
LINE
  5
2BA
330
1F
100
AcDbEntity
  8
LAYER-006
  6
Continuous
 62
     1
100
AcDbLine
 10
-42.49616487577707
 20
62.40624257910067
 30
0.0
 11
-42.49616487577707
 21
42.96179499646613
 31
0.0
  0
LINE
  5
2BB
330
1F
100
AcDbEntity
  8
LAYER-006
  6
Continuous
 62
     1
100
AcDbLine
 10
-42.49616487577707
 20
62.40624257910067
 30
0.0
 11
-28.6072757292403
 21
62.40624257910067
 31
0.0
  0
LINE
  5
2BC
330
1F
100
AcDbEntity
  8
LAYER-006
  6
Continuous
 62
     1
100
AcDbLine
 10
-28.6072757292403
 20
62.40624257910067
 30
0.0
 11
-28.6072757292403
 21
42.96179499646613
 31
0.0
  0
LINE
  5
2BD
330
1F
100
AcDbEntity
  8
LAYER-006
  6
Continuous
 62
     1
100
AcDbLine
 10
-53.60727619220323
 20
61.01735366416164
 30
0.0
 11
-50.82949836328321
 21
61.01735366416164
 31
0.0
  0
LINE
  5
2BE
330
1F
100
AcDbEntity
  8
LAYER-006
  6
Continuous
 62
     1
100
AcDbLine
 10
-53.60727619220323
 20
61.01735366416164
 30
0.0
 11
-53.60727619220323
 21
55.46180078350325
 31
0.0
  0
LINE
  5
2BF
330
1F
100
AcDbEntity
  8
LAYER-006
  6
Continuous
 62
     1
100
AcDbLine
 10
-48.05172053376701
 20
61.01735366416164
 30
0.0
 11
-42.49616487577707
 21
61.01735366416164
 31
0.0
  0
LINE
  5
2C0
330
1F
100
AcDbEntity
  8
LAYER-006
  6
Continuous
 62
     1
100
AcDbLine
 10
-45.27394270471466
 20
61.01735366416164
 30
0.0
 11
-45.27394270471466
 21
55.46180078350325
 31
0.0
  0
LINE
  5
2C1
330
1F
100
AcDbEntity
  8
LAYER-006
  6
Continuous
 62
     1
100
AcDbLine
 10
-28.6072757292403
 20
61.01735366416164
 30
0.0
 11
-25.82949790002219
 21
61.01735366416164
 31
0.0
  0
LINE
  5
2C2
330
1F
100
AcDbEntity
  8
LAYER-006
  6
Continuous
 62
     1
100
AcDbLine
 10
-25.82949790002219
 20
61.01735366416164
 30
0.0
 11
-25.82949790002219
 21
55.46180078350325
 31
0.0
  0
LINE
  5
2C3
330
1F
100
AcDbEntity
  8
LAYER-006
  6
Continuous
 62
     1
100
AcDbLine
 10
-59.16283185033566
 20
59.62846752733039
 30
0.0
 11
-50.82949836328321
 21
59.62846752733039
 31
0.0
  0
LINE
  5
2C4
330
1F
100
AcDbEntity
  8
LAYER-006
  6
Continuous
 62
     1
100
AcDbLine
 10
-59.16283185033566
 20
59.62846752733039
 30
0.0
 11
-59.16283185033566
 21
56.85068969811228
 31
0.0
  0
LINE
  5
2C5
330
1F
100
AcDbEntity
  8
LAYER-006
  6
Continuous
 62
     1
100
AcDbLine
 10
-48.05172053376701
 20
59.62846752733039
 30
0.0
 11
-42.49616487577707
 21
59.62846752733039
 31
0.0
  0
LINE
  5
2C6
330
1F
100
AcDbEntity
  8
LAYER-006
  6
Continuous
 62
     1
100
AcDbLine
 10
-28.6072757292403
 20
59.62846752733039
 30
0.0
 11
-25.82949790002219
 21
59.62846752733039
 31
0.0
  0
LINE
  5
2C7
330
1F
100
AcDbEntity
  8
LAYER-006
  6
Continuous
 62
     1
100
AcDbLine
 10
-253.1555475284158
 20
58.23957367444983
 30
0.0
 11
-253.1555475284158
 21
70.73957344343316
 31
0.0
  0
ARC
  5
2C8
330
1F
100
AcDbEntity
  8
LAYER-006
  6
Continuous
 62
     1
100
AcDbCircle
 10
-248.9888809389096
 20
58.23957367444983
 30
0.0
 40
4.166666589506179
100
AcDbArc
 50
180.0
 51
0.0233389999982088
  0
CIRCLE
  5
2C9
330
1F
100
AcDbEntity
  8
LAYER-006
  6
Continuous
 62
     1
100
AcDbCircle
 10
-248.9888809389096
 20
58.23957367444983
 30
0.0
 40
1.388888863168726
  0
LINE
  5
2CA
330
1F
100
AcDbEntity
  8
LAYER-006
  6
Continuous
 62
     1
100
AcDbLine
 10
-244.8222143494035
 20
58.23957367444983
 30
0.0
 11
-244.8222143494035
 21
70.73957344343316
 31
0.0
  0
LINE
  5
2CB
330
1F
100
AcDbEntity
  8
LAYER-006
  6
Continuous
 62
     1
100
AcDbLine
 10
-227.5999913350114
 20
58.23957367444984
 30
0.0
 11
-227.5999913350114
 21
70.73957344296829
 31
0.0
  0
ARC
  5
2CC
330
1F
100
AcDbEntity
  8
LAYER-006
  6
Continuous
 62
     1
100
AcDbCircle
 10
-223.4333247455053
 20
58.23957367444984
 30
0.0
 40
4.166666589506179
100
AcDbArc
 50
180.0
 51
0.0233390000013776
  0
CIRCLE
  5
2CD
330
1F
100
AcDbEntity
  8
LAYER-006
  6
Continuous
 62
     1
100
AcDbCircle
 10
-223.4333247455053
 20
58.23957367444984
 30
0.0
 40
1.388888863168726
  0
LINE
  5
2CE
330
1F
100
AcDbEntity
  8
LAYER-006
  6
Continuous
 62
     1
100
AcDbLine
 10
-219.2666581559992
 20
58.23957367444984
 30
0.0
 11
-219.2666581559992
 21
70.73957344296829
 31
0.0
  0
LINE
  5
2CF
330
1F
100
AcDbEntity
  8
LAYER-006
  6
Continuous
 62
     1
100
AcDbLine
 10
-202.0444351416072
 20
58.23957367444984
 30
0.0
 11
-202.0444351416072
 21
70.73957344296829
 31
0.0
  0
ARC
  5
2D0
330
1F
100
AcDbEntity
  8
LAYER-006
  6
Continuous
 62
     1
100
AcDbCircle
 10
-197.877768552101
 20
58.23957367444984
 30
0.0
 40
4.166666589506179
100
AcDbArc
 50
180.0
 51
0.0233390000013776
  0
CIRCLE
  5
2D1
330
1F
100
AcDbEntity
  8
LAYER-006
  6
Continuous
 62
     1
100
AcDbCircle
 10
-197.877768552101
 20
58.23957367444984
 30
0.0
 40
1.388888863168726
  0
LINE
  5
2D2
330
1F
100
AcDbEntity
  8
LAYER-006
  6
Continuous
 62
     1
100
AcDbLine
 10
-193.7111019625949
 20
58.23957367444984
 30
0.0
 11
-193.7111019625949
 21
70.73957344296829
 31
0.0
  0
LINE
  5
2D3
330
1F
100
AcDbEntity
  8
LAYER-006
  6
Continuous
 62
     1
100
AcDbLine
 10
-176.4888789482027
 20
58.23957367444984
 30
0.0
 11
-176.4888789482027
 21
70.73957344296829
 31
0.0
  0
ARC
  5
2D4
330
1F
100
AcDbEntity
  8
LAYER-006
  6
Continuous
 62
     1
100
AcDbCircle
 10
-172.3222123586967
 20
58.23957367444984
 30
0.0
 40
4.166666589506179
100
AcDbArc
 50
180.0
 51
0.0233389999982082
  0
CIRCLE
  5
2D5
330
1F
100
AcDbEntity
  8
LAYER-006
  6
Continuous
 62
     1
100
AcDbCircle
 10
-172.3222123586967
 20
58.23957367444984
 30
0.0
 40
1.388888863168726
  0
LINE
  5
2D6
330
1F
100
AcDbEntity
  8
LAYER-006
  6
Continuous
 62
     1
100
AcDbLine
 10
-168.1555457691905
 20
58.23957367444984
 30
0.0
 11
-168.1555457691905
 21
70.73957344296829
 31
0.0
  0
LINE
  5
2D7
330
1F
100
AcDbEntity
  8
LAYER-006
  6
Continuous
 62
     1
100
AcDbLine
 10
-150.9333227547984
 20
58.23957367444984
 30
0.0
 11
-150.9333227547984
 21
70.73957344296829
 31
0.0
  0
ARC
  5
2D8
330
1F
100
AcDbEntity
  8
LAYER-006
  6
Continuous
 62
     1
100
AcDbCircle
 10
-146.7666561652924
 20
58.23957367444984
 30
0.0
 40
4.166666589506179
100
AcDbArc
 50
180.0
 51
0.0233390000003402
  0
CIRCLE
  5
2D9
330
1F
100
AcDbEntity
  8
LAYER-006
  6
Continuous
 62
     1
100
AcDbCircle
 10
-146.7666561652924
 20
58.23957367444984
 30
0.0
 40
1.388888863168726
  0
LINE
  5
2DA
330
1F
100
AcDbEntity
  8
LAYER-006
  6
Continuous
 62
     1
100
AcDbLine
 10
-142.5999895760751
 20
58.23957367444984
 30
0.0
 11
-142.5999895760751
 21
70.73957344296829
 31
0.0
  0
LINE
  5
2DB
330
1F
100
AcDbEntity
  8
LAYER-006
  6
Continuous
 62
     1
100
AcDbLine
 10
-125.3777665613375
 20
58.23957367444984
 30
0.0
 11
-125.3777665613375
 21
70.73957344296829
 31
0.0
  0
ARC
  5
2DC
330
1F
100
AcDbEntity
  8
LAYER-006
  6
Continuous
 62
     1
100
AcDbCircle
 10
-121.2110999718881
 20
58.23957367444984
 30
0.0
 40
4.166666589506179
100
AcDbArc
 50
180.0
 51
0.0233390000010596
  0
CIRCLE
  5
2DD
330
1F
100
AcDbEntity
  8
LAYER-006
  6
Continuous
 62
     1
100
AcDbCircle
 10
-121.2110999718881
 20
58.23957367444984
 30
0.0
 40
1.388888863168726
  0
LINE
  5
2DE
330
1F
100
AcDbEntity
  8
LAYER-006
  6
Continuous
 62
     1
100
AcDbLine
 10
-117.0444333823252
 20
58.23957367444984
 30
0.0
 11
-117.0444333823252
 21
70.73957344296829
 31
0.0
  0
LINE
  5
2DF
330
1F
100
AcDbEntity
  8
LAYER-006
  6
Continuous
 62
     1
100
AcDbLine
 10
43.61494273779182
 20
58.23957861272136
 30
0.0
 11
43.61494273779182
 21
-58.42709299221691
 31
0.0
  0
LINE
  5
2E0
330
1F
100
AcDbEntity
  8
LAYER-006
  6
Continuous
 62
     1
100
AcDbLine
 10
-59.16283185033566
 20
56.85068969811228
 30
0.0
 11
-50.82949836328321
 21
56.85068969811228
 31
0.0
  0
LINE
  5
2E1
330
1F
100
AcDbEntity
  8
LAYER-006
  6
Continuous
 62
     1
100
AcDbLine
 10
-48.05172053376701
 20
56.85068969811228
 30
0.0
 11
-42.49616487577707
 21
56.85068969811228
 31
0.0
  0
LINE
  5
2E2
330
1F
100
AcDbEntity
  8
LAYER-006
  6
Continuous
 62
     1
100
AcDbLine
 10
-28.6072757292403
 20
56.85068969811228
 30
0.0
 11
-25.82949790002219
 21
56.85068969811228
 31
0.0
  0
LINE
  5
2E3
330
1F
100
AcDbEntity
  8
LAYER-006
  6
Continuous
 62
     1
100
AcDbLine
 10
-53.60727619220323
 20
55.46180078350325
 30
0.0
 11
-50.82949836328321
 21
55.46180078350325
 31
0.0
  0
LINE
  5
2E4
330
1F
100
AcDbEntity
  8
LAYER-006
  6
Continuous
 62
     1
100
AcDbLine
 10
-48.05172053376701
 20
55.46180078350325
 30
0.0
 11
-42.49616487577707
 21
55.46180078350325
 31
0.0
  0
LINE
  5
2E5
330
1F
100
AcDbEntity
  8
LAYER-006
  6
Continuous
 62
     1
100
AcDbLine
 10
-28.6072757292403
 20
55.46180078350325
 30
0.0
 11
-25.82949790002219
 21
55.46180078350325
 31
0.0
  0
LINE
  5
2E6
330
1F
100
AcDbEntity
  8
LAYER-006
  6
Continuous
 62
     1
100
AcDbLine
 10
-50.82949836328321
 20
54.07291186889417
 30
0.0
 11
-50.82949836328321
 21
62.40624257910067
 31
0.0
  0
LINE
  5
2E7
330
1F
100
AcDbEntity
  8
LAYER-006
  6
Continuous
 62
     1
100
AcDbLine
 10
-50.82949836328321
 20
54.07291186889417
 30
0.0
 11
-48.05172053376701
 21
54.07291186889417
 31
0.0
  0
LINE
  5
2E8
330
1F
100
AcDbEntity
  8
LAYER-006
  6
Continuous
 62
     1
100
AcDbLine
 10
-49.44060944837609
 20
54.07291186889417
 30
0.0
 11
-49.44060944837609
 21
70.73957606642497
 31
0.0
  0
LINE
  5
2E9
330
1F
100
AcDbEntity
  8
LAYER-006
  6
Continuous
 62
     1
100
AcDbLine
 10
-48.05172053376701
 20
54.07291186889417
 30
0.0
 11
-48.05172053376701
 21
62.40624257910067
 31
0.0
  0
LINE
  5
2EA
330
1F
100
AcDbEntity
  8
LAYER-007
  6
Continuous
 62
     4
100
AcDbLine
 10
-250.1833225834569
 20
51.33569880229938
 30
0.0
 11
-251.1277697881894
 21
48.66903496279308
 31
0.0
  0
LINE
  5
2EB
330
1F
100
AcDbEntity
  8
LAYER-007
  6
Continuous
 62
     4
100
AcDbLine
 10
-246.7249865364395
 20
51.33569880229938
 30
0.0
 11
-247.8222142938479
 21
48.82181273774158
 31
0.0
  0
LINE
  5
2EC
330
1F
100
AcDbEntity
  8
LAYER-007
  6
Continuous
 62
     4
100
AcDbLine
 10
-224.6555469450939
 20
51.32181269144539
 30
0.0
 11
-224.1694386207626
 21
51.16903213906524
 31
0.0
  0
LINE
  5
2ED
330
1F
100
AcDbEntity
  8
LAYER-007
  6
Continuous
 62
     4
100
AcDbLine
 10
-221.4472164489518
 20
51.32181269144539
 30
0.0
 11
-226.0999941405671
 21
45.71069890646602
 31
0.0
  0
LINE
  5
2EE
330
1F
100
AcDbEntity
  8
LAYER-007
  6
Continuous
 62
     4
100
AcDbLine
 10
-149.0722116786039
 20
51.32181269144539
 30
0.0
 11
-148.9472089026896
 21
50.68292103660994
 31
0.0
  0
LINE
  5
2EF
330
1F
100
AcDbEntity
  8
LAYER-007
  6
Continuous
 62
     4
100
AcDbLine
 10
-144.7527645359202
 20
51.32181269144539
 30
0.0
 11
-144.4888756516039
 21
51.00236825291664
 31
0.0
  0
LINE
  5
2F0
330
1F
100
AcDbEntity
  8
LAYER-007
  6
Continuous
 62
     4
100
AcDbLine
 10
-120.2944305443624
 20
51.30792102503588
 30
0.0
 11
-119.5722083355146
 21
51.1829210275888
 31
0.0
  0
LINE
  5
2F1
330
1F
100
AcDbEntity
  8
LAYER-007
  6
Continuous
 62
     4
100
AcDbLine
 10
-199.6416574073519
 20
51.29403213679014
 30
0.0
 11
-199.322212969812
 21
51.14125436145582
 31
0.0
  0
LINE
  5
2F2
330
1F
100
AcDbEntity
  8
LAYER-007
  6
Continuous
 62
     4
100
AcDbLine
 10
-173.3360984510321
 20
51.29403213679014
 30
0.0
 11
-174.1833178797874
 21
49.26625439617797
 31
0.0
  0
LINE
  5
2F3
330
1F
100
AcDbEntity
  8
LAYER-007
  6
Continuous
 62
     4
100
AcDbLine
 10
-196.3638769134694
 20
51.22458769324575
 30
0.0
 11
-196.05832414135
 21
50.669034925936
 31
0.0
  0
LINE
  5
2F4
330
1F
100
AcDbEntity
  8
LAYER-007
  6
Continuous
 62
     4
100
AcDbLine
 10
-224.9749913836226
 20
51.16903213906524
 30
0.0
 11
-224.6555469450939
 21
51.32181269144539
 31
0.0
  0
LINE
  5
2F5
330
1F
100
AcDbEntity
  8
LAYER-007
  6
Continuous
 62
     4
100
AcDbLine
 10
-224.1694386207626
 20
51.16903213906524
 30
0.0
 11
-224.0166608462745
 21
49.23847939669223
 31
0.0
  0
LINE
  5
2F6
330
1F
100
AcDbEntity
  8
LAYER-007
  6
Continuous
 62
     4
100
AcDbLine
 10
-119.5722083355146
 20
51.1829210275888
 30
0.0
 11
-119.2111000088683
 21
50.7107015916512
 31
0.0
  0
LINE
  5
2F7
330
1F
100
AcDbEntity
  8
LAYER-007
  6
Continuous
 62
     4
100
AcDbLine
 10
-199.322212969812
 20
51.14125436145582
 30
0.0
 11
-199.1694324175946
 21
50.669034925936
 31
0.0
  0
LINE
  5
2F8
330
1F
100
AcDbEntity
  8
LAYER-007
  6
Continuous
 62
     4
100
AcDbLine
 10
-170.4611012820507
 20
51.05792102966569
 30
0.0
 11
-171.7805429242832
 21
48.4190349674227
 31
0.0
  0
LINE
  5
2F9
330
1F
100
AcDbEntity
  8
LAYER-007
  6
Continuous
 62
     4
100
AcDbLine
 10
-121.2527638599486
 20
51.07181269607501
 30
0.0
 11
-120.2944305443624
 21
51.30792102503588
 31
0.0
  0
LINE
  5
2FA
330
1F
100
AcDbEntity
  8
LAYER-007
  6
Continuous
 62
     4
100
AcDbLine
 10
-146.9888783833994
 20
51.00236825291664
 30
0.0
 11
-147.4749867077309
 21
47.3356988763735
 31
0.0
  0
LINE
  5
2FB
330
1F
100
AcDbEntity
  8
LAYER-007
  6
Continuous
 62
     4
100
AcDbLine
 10
-144.4888756516039
 20
51.00236825291664
 30
0.0
 11
-144.1138756588625
 21
50.84958770019019
 31
0.0
  0
LINE
  5
2FC
330
1F
100
AcDbEntity
  8
LAYER-007
  6
Continuous
 62
     4
100
AcDbLine
 10
-119.2111000088683
 20
50.7107015916512
 30
0.0
 11
-119.4611000042387
 21
49.86347660755985
 31
0.0
  0
LINE
  5
2FD
330
1F
100
AcDbEntity
  8
LAYER-007
  6
Continuous
 62
     4
100
AcDbLine
 10
-199.1694324175946
 20
50.669034925936
 30
0.0
 11
-199.6416574073519
 21
49.26625439617797
 31
0.0
  0
LINE
  5
2FE
330
1F
100
AcDbEntity
  8
LAYER-007
  6
Continuous
 62
     4
100
AcDbLine
 10
-196.05832414135
 20
50.669034925936
 30
0.0
 11
-195.7388769250435
 21
50.51625437302968
 31
0.0
  0
LINE
  5
2FF
330
1F
100
AcDbEntity
  8
LAYER-007
  6
Continuous
 62
     4
100
AcDbLine
 10
-148.9472089026896
 20
50.68292103660994
 30
0.0
 11
-149.2249866756905
 21
47.16903221279326
 31
0.0
  0
LINE
  5
300
330
1F
100
AcDbEntity
  8
LAYER-007
  6
Continuous
 62
     4
100
AcDbLine
 10
-195.7388769250435
 20
50.51625437302968
 30
0.0
 11
-195.2666574893439
 21
50.34958770944941
 31
0.0
  0
LINE
  5
301
330
1F
100
AcDbEntity
  8
LAYER-007
  6
Continuous
 62
     4
100
AcDbLine
 10
-121.863874959743
 20
50.46070159628081
 30
0.0
 11
-121.2527638599486
 21
51.07181269607501
 31
0.0
  0
LINE
  5
302
330
1F
100
AcDbEntity
  8
LAYER-007
  6
Continuous
 62
     4
100
AcDbLine
 10
-119.4611000042387
 20
49.86347660755985
 30
0.0
 11
-120.4194305420474
 21
49.01625440080758
 31
0.0
  0
LINE
  5
303
330
1F
100
AcDbEntity
  8
LAYER-007
  6
Continuous
 62
     4
100
AcDbLine
 10
-171.6694318152298
 20
49.5023655029166
 30
0.0
 11
-170.4611012820507
 21
51.05792102966569
 31
0.0
  0
LINE
  5
304
330
1F
100
AcDbEntity
  8
LAYER-007
  6
Continuous
 62
     4
100
AcDbLine
 10
-199.6416574073519
 20
49.26625439617797
 30
0.0
 11
-200.113876844025
 21
47.69680998079733
 31
0.0
  0
LINE
  5
305
330
1F
100
AcDbEntity
  8
LAYER-007
  6
Continuous
 62
     4
100
AcDbLine
 10
-196.8360991269469
 20
49.26625439617797
 30
0.0
 11
-196.3638769134694
 21
51.22458769324575
 31
0.0
  0
LINE
  5
306
330
1F
100
AcDbEntity
  8
LAYER-007
  6
Continuous
 62
     4
100
AcDbLine
 10
-174.1833178797874
 20
49.26625439617797
 30
0.0
 11
-174.2944317666186
 21
48.65514607416132
 31
0.0
  0
LINE
  5
307
330
1F
100
AcDbEntity
  8
LAYER-007
  6
Continuous
 62
     4
100
AcDbLine
 10
-224.0166608462745
 20
49.23847939669223
 30
0.0
 11
-223.6833275183357
 21
47.15514610208986
 31
0.0
  0
LINE
  5
308
330
1F
100
AcDbEntity
  8
LAYER-007
  6
Continuous
 62
     4
100
AcDbLine
 10
-120.4194305420474
 20
49.01625440080758
 30
0.0
 11
-121.5027666330968
 21
48.66903496279309
 31
0.0
  0
LINE
  5
309
330
1F
100
AcDbEntity
  8
LAYER-007
  6
Continuous
 62
     4
100
AcDbLine
 10
-120.2944305443624
 20
49.01625440080758
 30
0.0
 11
-119.8222083308849
 21
48.90514606953171
 31
0.0
  0
LINE
  5
30A
330
1F
100
AcDbEntity
  8
LAYER-007
  6
Continuous
 62
     4
100
AcDbLine
 10
-145.2388728602514
 20
48.93292106901747
 30
0.0
 11
-144.7527645359202
 21
51.32181269144539
 31
0.0
  0
LINE
  5
30B
330
1F
100
AcDbEntity
  8
LAYER-007
  6
Continuous
 62
     4
100
AcDbLine
 10
-119.8222083308849
 20
48.90514606953171
 30
0.0
 11
-119.6972083331997
 21
48.4190349674227
 31
0.0
  0
LINE
  5
30C
330
1F
100
AcDbEntity
  8
LAYER-007
  6
Continuous
 62
     4
100
AcDbLine
 10
-247.8222142938479
 20
48.82181273774158
 30
0.0
 11
-248.4611003934047
 21
46.15514334267995
 31
0.0
  0
LINE
  5
30D
330
1F
100
AcDbEntity
  8
LAYER-007
  6
Continuous
 62
     4
100
AcDbLine
 10
-172.3777679134266
 20
48.78014607184653
 30
0.0
 11
-171.6694318152298
 21
49.5023655029166
 31
0.0
  0
LINE
  5
30E
330
1F
100
AcDbEntity
  8
LAYER-007
  6
Continuous
 62
     4
100
AcDbLine
 10
-170.9472123841597
 20
48.78014607184653
 30
0.0
 11
-170.3499873952195
 21
49.14125439849279
 31
0.0
  0
LINE
  5
30F
330
1F
100
AcDbEntity
  8
LAYER-007
  6
Continuous
 62
     4
100
AcDbLine
 10
-251.1277697881894
 20
48.66903496279308
 30
0.0
 11
-251.5999892238891
 21
46.79403221973747
 31
0.0
  0
LINE
  5
310
330
1F
100
AcDbEntity
  8
LAYER-007
  6
Continuous
 62
     4
100
AcDbLine
 10
-121.5027666330968
 20
48.66903496279309
 30
0.0
 11
-120.2944305443624
 21
49.01625440080758
 31
0.0
  0
LINE
  5
311
330
1F
100
AcDbEntity
  8
LAYER-007
  6
Continuous
 62
     4
100
AcDbLine
 10
-174.2944317666186
 20
48.65514607416132
 30
0.0
 11
-173.9333234399725
 21
48.18292108290632
 31
0.0
  0
LINE
  5
312
330
1F
100
AcDbEntity
  8
LAYER-007
  6
Continuous
 62
     4
100
AcDbLine
 10
-171.7805429242832
 20
48.4190349674227
 30
0.0
 11
-173.5860984464025
 21
45.79403501647445
 31
0.0
  0
LINE
  5
313
330
1F
100
AcDbEntity
  8
LAYER-007
  6
Continuous
 62
     4
100
AcDbLine
 10
-119.6972083331997
 20
48.4190349674227
 30
0.0
 11
-120.5444305397328
 21
46.86347944067381
 31
0.0
  0
LINE
  5
314
330
1F
100
AcDbEntity
  8
LAYER-007
  6
Continuous
 62
     4
100
AcDbLine
 10
-172.9749873466083
 20
48.3079210810432
 30
0.0
 11
-172.3777679134266
 21
48.78014607184653
 31
0.0
  0
LINE
  5
315
330
1F
100
AcDbEntity
  8
LAYER-007
  6
Continuous
 62
     4
100
AcDbLine
 10
-172.0166512532441
 20
48.3079210810432
 30
0.0
 11
-170.9472123841597
 21
48.78014607184653
 31
0.0
  0
LINE
  5
316
330
1F
100
AcDbEntity
  8
LAYER-007
  6
Continuous
 62
     4
100
AcDbLine
 10
-173.9333234399725
 20
48.18292108290632
 30
0.0
 11
-172.9749873466083
 21
48.3079210810432
 31
0.0
  0
LINE
  5
317
330
1F
100
AcDbEntity
  8
LAYER-007
  6
Continuous
 62
     4
100
AcDbLine
 10
-119.6972083331997
 20
48.18292108290632
 30
0.0
 11
-119.2111000088683
 21
48.66903496279309
 31
0.0
  0
LINE
  5
318
330
1F
100
AcDbEntity
  8
LAYER-007
  6
Continuous
 62
     4
100
AcDbLine
 10
-172.9749873466083
 20
47.9468099761677
 30
0.0
 11
-172.0166512532441
 21
48.3079210810432
 31
0.0
  0
LINE
  5
319
330
1F
100
AcDbEntity
  8
LAYER-007
  6
Continuous
 62
     4
100
AcDbLine
 10
-248.2944337295476
 20
47.89125719941863
 30
0.0
 11
-246.7249865364395
 21
51.33569880229938
 31
0.0
  0
LINE
  5
31A
330
1F
100
AcDbEntity
  8
LAYER-007
  6
Continuous
 62
     4
100
AcDbLine
 10
-200.113876844025
 20
47.69680998079733
 30
0.0
 11
-200.419435172101
 21
46.46070167035492
 31
0.0
  0
LINE
  5
31B
330
1F
100
AcDbEntity
  8
LAYER-007
  6
Continuous
 62
     4
100
AcDbLine
 10
-197.6138768903214
 20
47.69680998079733
 30
0.0
 11
-196.8360991269469
 21
49.26625439617797
 31
0.0
  0
LINE
  5
31C
330
1F
100
AcDbEntity
  8
LAYER-007
  6
Continuous
 62
     4
100
AcDbLine
 10
-147.6277644826793
 20
47.65514331521908
 30
0.0
 11
-146.9888783833994
 21
51.00236825291664
 31
0.0
  0
LINE
  5
31D
330
1F
100
AcDbEntity
  8
LAYER-007
  6
Continuous
 62
     4
100
AcDbLine
 10
-120.7805444239431
 20
47.58569887174389
 30
0.0
 11
-119.6972083331997
 21
48.18292108290632
 31
0.0
  0
LINE
  5
31E
330
1F
100
AcDbEntity
  8
LAYER-007
  6
Continuous
 62
     4
100
AcDbLine
 10
-147.4749867077309
 20
47.3356988763735
 30
0.0
 11
-147.6277644826793
 21
46.05792112225809
 31
0.0
  0
LINE
  5
31F
330
1F
100
AcDbEntity
  8
LAYER-007
  6
Continuous
 62
     4
100
AcDbLine
 10
-149.2249866756905
 20
47.16903221279326
 30
0.0
 11
-149.3916533389036
 21
46.05792112225809
 31
0.0
  0
LINE
  5
320
330
1F
100
AcDbEntity
  8
LAYER-007
  6
Continuous
 62
     4
100
AcDbLine
 10
-223.6833275183357
 20
47.15514610208986
 30
0.0
 11
-223.2111025273984
 21
46.18292111994327
 31
0.0
  0
LINE
  5
321
330
1F
100
AcDbEntity
  8
LAYER-007
  6
Continuous
 62
     4
100
AcDbLine
 10
-173.9333234399725
 20
46.98847943835901
 30
0.0
 11
-172.9749873466083
 21
47.9468099761677
 31
0.0
  0
LINE
  5
322
330
1F
100
AcDbEntity
  8
LAYER-007
  6
Continuous
 62
     4
100
AcDbLine
 10
-120.5444305397328
 20
46.86347944067381
 30
0.0
 11
-121.9749860687965
 21
46.01625723414078
 31
0.0
  0
LINE
  5
323
330
1F
100
AcDbEntity
  8
LAYER-007
  6
Continuous
 62
     4
100
AcDbLine
 10
-251.5999892238891
 20
46.79403221973747
 30
0.0
 11
-251.4333225603089
 21
46.04403501140429
 31
0.0
  0
LINE
  5
324
330
1F
100
AcDbEntity
  8
LAYER-007
  6
Continuous
 62
     4
100
AcDbLine
 10
-249.0305448270269
 20
46.79403221973747
 30
0.0
 11
-248.2944337295476
 21
47.89125719941863
 31
0.0
  0
LINE
  5
325
330
1F
100
AcDbEntity
  8
LAYER-007
  6
Continuous
 62
     4
100
AcDbLine
 10
-122.6972110549431
 20
46.73847944298862
 30
0.0
 11
-120.7805444239431
 21
47.58569887174389
 31
0.0
  0
LINE
  5
326
330
1F
100
AcDbEntity
  8
LAYER-007
  6
Continuous
 62
     4
100
AcDbLine
 10
-200.419435172101
 20
46.46070167035492
 30
0.0
 11
-200.2666573967512
 21
46.14125445404822
 31
0.0
  0
LINE
  5
327
330
1F
100
AcDbEntity
  8
LAYER-007
  6
Continuous
 62
     4
100
AcDbLine
 10
-174.2944317666186
 20
46.3912544494186
 30
0.0
 11
-173.9333234399725
 21
46.98847943835901
 31
0.0
  0
LINE
  5
328
330
1F
100
AcDbEntity
  8
LAYER-007
  6
Continuous
 62
     4
100
AcDbLine
 10
-198.7111018700023
 20
46.29403500632867
 30
0.0
 11
-197.6138768903214
 21
47.69680998079733
 31
0.0
  0
LINE
  5
329
330
1F
100
AcDbEntity
  8
LAYER-007
  6
Continuous
 62
     4
100
AcDbLine
 10
-223.2111025273984
 20
46.18292111994327
 30
0.0
 11
-222.2388803231802
 21
45.71069890646602
 31
0.0
  0
LINE
  5
32A
330
1F
100
AcDbEntity
  8
LAYER-007
  6
Continuous
 62
     4
100
AcDbLine
 10
-248.4611003934047
 20
46.15514334267995
 30
0.0
 11
-248.1416559545988
 21
45.84959057056052
 31
0.0
  0
LINE
  5
32B
330
1F
100
AcDbEntity
  8
LAYER-007
  6
Continuous
 62
     4
100
AcDbLine
 10
-200.2666573967512
 20
46.14125445404822
 30
0.0
 11
-199.9055435145496
 21
45.83570168192878
 31
0.0
  0
LINE
  5
32C
330
1F
100
AcDbEntity
  8
LAYER-007
  6
Continuous
 62
     4
100
AcDbLine
 10
-149.3916533389036
 20
46.05792112225809
 30
0.0
 11
-149.0722116786039
 21
45.73847668372933
 31
0.0
  0
LINE
  5
32D
330
1F
100
AcDbEntity
  8
LAYER-007
  6
Continuous
 62
     4
100
AcDbLine
 10
-147.6277644826793
 20
46.05792112225809
 30
0.0
 11
-147.1972061573194
 21
45.73847668372933
 31
0.0
  0
LINE
  5
32E
330
1F
100
AcDbEntity
  8
LAYER-007
  6
Continuous
 62
     4
100
AcDbLine
 10
-146.2388756195107
 20
46.05792112225809
 30
0.0
 11
-145.2388728602514
 21
48.93292106901747
 31
0.0
  0
LINE
  5
32F
330
1F
100
AcDbEntity
  8
LAYER-007
  6
Continuous
 62
     4
100
AcDbLine
 10
-251.4333225603089
 20
46.04403501140429
 30
0.0
 11
-250.6555447969344
 21
45.84959057056052
 31
0.0
  0
LINE
  5
330
330
1F
100
AcDbEntity
  8
LAYER-007
  6
Continuous
 62
     4
100
AcDbLine
 10
-249.8638809227059
 20
46.00236834525215
 30
0.0
 11
-249.0305448270269
 21
46.79403221973747
 31
0.0
  0
LINE
  5
331
330
1F
100
AcDbEntity
  8
LAYER-007
  6
Continuous
 62
     4
100
AcDbLine
 10
-247.3499893033566
 20
46.00236834525215
 30
0.0
 11
-246.4194337642697
 21
46.47458778120871
 31
0.0
  0
LINE
  5
332
330
1F
100
AcDbEntity
  8
LAYER-007
  6
Continuous
 62
     4
100
AcDbLine
 10
-123.1833221575309
 20
46.01625723414078
 30
0.0
 11
-122.6972110549431
 21
46.73847944298862
 31
0.0
  0
LINE
  5
333
330
1F
100
AcDbEntity
  8
LAYER-007
  6
Continuous
 62
     4
100
AcDbLine
 10
-121.9749860687965
 20
46.01625723414078
 30
0.0
 11
-122.6972110549431
 21
45.7801433496244
 31
0.0
  0
LINE
  5
334
330
1F
100
AcDbEntity
  8
LAYER-007
  6
Continuous
 62
     4
100
AcDbLine
 10
-199.322212969812
 20
45.98847667909972
 30
0.0
 11
-198.7111018700023
 21
46.29403500632867
 31
0.0
  0
LINE
  5
335
330
1F
100
AcDbEntity
  8
LAYER-007
  6
Continuous
 62
     4
100
AcDbLine
 10
-174.1833178797874
 20
45.9051433473096
 30
0.0
 11
-174.2944317666186
 21
46.3912544494186
 31
0.0
  0
LINE
  5
336
330
1F
100
AcDbEntity
  8
LAYER-007
  6
Continuous
 62
     4
100
AcDbLine
 10
-148.3499866915272
 20
45.8912572364556
 30
0.0
 11
-147.6277644826793
 21
47.65514331521908
 31
0.0
  0
LINE
  5
337
330
1F
100
AcDbEntity
  8
LAYER-007
  6
Continuous
 62
     4
100
AcDbLine
 10
-221.4472164489518
 20
45.86347668125217
 30
0.0
 11
-220.7944386832625
 21
46.66903499983005
 31
0.0
  0
LINE
  5
338
330
1F
100
AcDbEntity
  8
LAYER-007
  6
Continuous
 62
     4
100
AcDbLine
 10
-250.6555447969344
 20
45.84959057056052
 30
0.0
 11
-249.8638809227059
 21
46.00236834525215
 31
0.0
  0
LINE
  5
339
330
1F
100
AcDbEntity
  8
LAYER-007
  6
Continuous
 62
     4
100
AcDbLine
 10
-248.1416559545988
 20
45.84959057056052
 30
0.0
 11
-247.3499893033566
 21
46.00236834525215
 31
0.0
  0
LINE
  5
33A
330
1F
100
AcDbEntity
  8
LAYER-007
  6
Continuous
 62
     4
100
AcDbLine
 10
-199.9055435145496
 20
45.83570168192878
 30
0.0
 11
-199.322212969812
 21
45.98847667909972
 31
0.0
  0
LINE
  5
33B
330
1F
100
AcDbEntity
  8
LAYER-007
  6
Continuous
 62
     4
100
AcDbLine
 10
-173.5860984464025
 20
45.79403501647445
 30
0.0
 11
-174.1833178797874
 21
45.9051433473096
 31
0.0
  0
LINE
  5
33C
330
1F
100
AcDbEntity
  8
LAYER-007
  6
Continuous
 62
     4
100
AcDbLine
 10
-122.6972110549431
 20
45.7801433496244
 30
0.0
 11
-123.1833221575309
 21
46.01625723414078
 31
0.0
  0
LINE
  5
33D
330
1F
100
AcDbEntity
  8
LAYER-007
  6
Continuous
 62
     4
100
AcDbLine
 10
-149.0722116786039
 20
45.73847668372933
 30
0.0
 11
-148.3499866915272
 21
45.8912572364556
 31
0.0
  0
LINE
  5
33E
330
1F
100
AcDbEntity
  8
LAYER-007
  6
Continuous
 62
     4
100
AcDbLine
 10
-147.1972061573194
 20
45.73847668372933
 30
0.0
 11
-146.2388756195107
 21
46.05792112225809
 31
0.0
  0
LINE
  5
33F
330
1F
100
AcDbEntity
  8
LAYER-007
  6
Continuous
 62
     4
100
AcDbLine
 10
-222.2388803231802
 20
45.71069890646602
 30
0.0
 11
-221.4472164489518
 21
45.86347668125217
 31
0.0
  0
LINE
  5
340
330
1F
100
AcDbEntity
  8
LAYER-006
  6
Continuous
 62
     1
100
AcDbLine
 10
-45.27394270471466
 20
42.96179499646613
 30
0.0
 11
-23.05172007089634
 21
42.96179499646613
 31
0.0
  0
LINE
  5
341
330
1F
100
AcDbEntity
  8
LAYER-006
  6
Continuous
 62
     1
100
AcDbLine
 10
-45.27394270471466
 20
42.96179499646613
 30
0.0
 11
-45.27394270471466
 21
-43.14931493151732
 31
0.0
  0
LINE
  5
342
330
1F
100
AcDbEntity
  8
LAYER-006
  6
PHANTOM
 62
     1
100
AcDbLine
 10
120.4095165703862
 20
29.90624142136332
 30
0.0
 11
219.1132208536509
 21
29.90624142136332
 31
0.0
  0
LINE
  5
343
330
1F
100
AcDbEntity
  8
LAYER-006
  6
Continuous
 62
     1
100
AcDbLine
 10
-260.0999890664816
 20
41.57290453864745
 30
0.0
 11
-260.0999890664816
 21
65.18401799029329
 31
0.0
  0
LINE
  5
344
330
1F
100
AcDbEntity
  8
LAYER-006
  6
Continuous
 62
     1
100
AcDbLine
 10
-257.32221134
 20
41.57290453864745
 30
0.0
 11
-257.32221134
 21
-41.76042447369848
 31
0.0
  0
LINE
  5
345
330
1F
100
AcDbEntity
  8
LAYER-006
  6
Continuous
 62
     1
100
AcDbLine
 10
-247.5999892979632
 20
41.57290453864745
 30
0.0
 11
-247.5999892979632
 21
-41.76042447369848
 31
0.0
  0
LINE
  5
346
330
1F
100
AcDbEntity
  8
LAYER-006
  6
Continuous
 62
     1
100
AcDbLine
 10
-122.5999860572224
 20
41.57290453864746
 30
0.0
 11
-122.5999860572224
 21
-41.76042447369846
 31
0.0
  0
LINE
  5
347
330
1F
100
AcDbEntity
  8
LAYER-006
  6
Continuous
 62
     1
100
AcDbLine
 10
-112.877766792819
 20
41.57290453864746
 30
0.0
 11
-112.877766792819
 21
-41.76042447369846
 31
0.0
  0
LINE
  5
348
330
1F
100
AcDbEntity
  8
LAYER-006
  6
Continuous
 62
     1
100
AcDbLine
 10
-45.27394270471466
 20
41.57290608185708
 30
0.0
 11
-23.05172007089634
 21
41.57290608185708
 31
0.0
  0
LINE
  5
349
330
1F
100
AcDbEntity
  8
LAYER-006
  6
Continuous
 62
     1
100
AcDbLine
 10
43.61494273779181
 20
27.90624142136332
 30
0.0
 11
65.83716814931444
 21
27.90624142136332
 31
0.0
  0
LINE
  5
34A
330
1F
100
AcDbEntity
  8
LAYER-006
  6
PHANTOM
 62
     1
100
AcDbLine
 10
219.1132208536509
 20
27.90624142136332
 30
0.0
 11
120.4095165703862
 21
27.90624142136332
 31
0.0
  0
LINE
  5
34B
330
1F
100
AcDbEntity
  8
LAYER-006
  6
Continuous
 62
     1
100
AcDbLine
 10
-247.5999892979632
 20
39.35068513535519
 30
0.0
 11
-219.8222148123662
 21
39.35068513535519
 31
0.0
  0
LINE
  5
34C
330
1F
100
AcDbEntity
  8
LAYER-006
  6
Continuous
 62
     1
100
AcDbLine
 10
50.55938731083711
 20
25.68402193575552
 30
0.0
 11
65.83716814931444
 21
25.68402193575552
 31
0.0
  0
LINE
  5
34D
330
1F
100
AcDbEntity
  8
LAYER-006
  6
Continuous
 62
     1
100
AcDbLine
 10
-247.5999892979632
 20
37.12846295428507
 30
0.0
 11
-222.5999925387037
 21
37.12846295428507
 31
0.0
  0
LINE
  5
34E
330
1F
100
AcDbEntity
  8
LAYER-006
  6
Continuous
 62
     1
100
AcDbLine
 10
52.22605678614588
 20
23.46179967238103
 30
0.0
 11
65.83716814931444
 21
23.46179967238103
 31
0.0
  0
LINE
  5
34F
330
1F
100
AcDbEntity
  8
LAYER-006
  6
Continuous
 62
     1
100
AcDbLine
 10
53.0593873571334
 20
22.07291075777195
 30
0.0
 11
65.83716814931444
 21
22.07291075777195
 31
0.0
  0
LINE
  5
350
330
1F
100
AcDbEntity
  8
LAYER-006
  6
Continuous
 62
     1
100
AcDbLine
 10
-247.5999892979632
 20
34.90624355099293
 30
0.0
 11
-225.3777702650413
 21
34.90624355099293
 31
0.0
  0
LINE
  5
351
330
1F
100
AcDbEntity
  8
LAYER-006
  6
Continuous
 62
     1
100
AcDbLine
 10
54.44827627174243
 20
19.85068571661961
 30
0.0
 11
65.83716814931444
 21
19.85068571661961
 31
0.0
  0
LINE
  5
352
330
1F
100
AcDbEntity
  8
LAYER-006
  6
Continuous
 62
     1
100
AcDbLine
 10
-247.5999892979632
 20
32.68401859214522
 30
0.0
 11
-228.1555452136009
 21
32.68401859214522
 31
0.0
  0
LINE
  5
353
330
1F
100
AcDbEntity
  8
LAYER-006
  6
Continuous
 62
     1
100
AcDbLine
 10
56.1149457458053
 20
17.62846623136332
 30
0.0
 11
65.83716814931444
 21
17.62846623136332
 31
0.0
  0
LINE
  5
354
330
1F
100
AcDbEntity
  8
LAYER-006
  6
Continuous
 62
     1
100
AcDbLine
 10
-247.5999892979632
 20
30.46179641107533
 30
0.0
 11
-230.9333229399385
 21
30.46179641107533
 31
0.0
  0
LINE
  5
355
330
1F
100
AcDbEntity
  8
LAYER-006
  6
Continuous
 62
     1
100
AcDbLine
 10
57.50383466166016
 20
15.40624396764849
 30
0.0
 11
65.83716814931444
 21
15.40624396764849
 31
0.0
  0
LINE
  5
356
330
1F
100
AcDbEntity
  8
LAYER-006
  6
Continuous
 62
     1
100
AcDbLine
 10
-247.5999892979632
 20
28.23957700825216
 30
0.0
 11
-233.7111006662759
 21
28.23957700825216
 31
0.0
  0
LINE
  5
357
330
1F
100
AcDbEntity
  8
LAYER-006
  6
Continuous
 62
     1
100
AcDbLine
 10
-212.8777691076339
 20
13.79513005305057
 30
0.0
 11
-157.3222118031071
 21
13.79513005305057
 31
0.0
  0
LINE
  5
358
330
1F
100
AcDbEntity
  8
LAYER-006
  6
Continuous
 62
     1
100
AcDbLine
 10
-157.3222118031071
 20
13.79513005305057
 30
0.0
 11
-157.3222118031071
 21
-13.98264998763716
 31
0.0
  0
LINE
  5
359
330
1F
100
AcDbEntity
  8
LAYER-006
  6
Continuous
 62
     1
100
AcDbLine
 10
-212.8777691076339
 20
-13.98264998763716
 30
0.0
 11
-212.8777691076339
 21
13.79513005305057
 31
0.0
  0
LINE
  5
35A
330
1F
100
AcDbEntity
  8
LAYER-006
  6
Continuous
 62
     1
100
AcDbLine
 10
-157.3222118031071
 20
-13.98264998763716
 30
0.0
 11
-212.8777691076339
 21
-13.98264998763716
 31
0.0
  0
LINE
  5
35B
330
1F
100
AcDbEntity
  8
LAYER-006
  6
Continuous
 62
     1
100
AcDbLine
 10
-122.5999860572224
 20
-28.42709138770671
 30
0.0
 11
-136.4888746894659
 21
-28.42709138770671
 31
0.0
  0
LINE
  5
35C
330
1F
100
AcDbEntity
  8
LAYER-006
  6
Continuous
 62
     1
100
AcDbLine
 10
-36.94060921689463
 20
-29.26042856320463
 30
0.0
 11
-45.27394270471466
 21
-29.26042856320463
 31
0.0
  0
LINE
  5
35D
330
1F
100
AcDbEntity
  8
LAYER-006
  6
Continuous
 62
     1
100
AcDbLine
 10
-122.5999860572224
 20
-30.64931634612631
 30
0.0
 11
-139.2666524152472
 21
-30.64931634612631
 31
0.0
  0
LINE
  5
35E
330
1F
100
AcDbEntity
  8
LAYER-006
  6
Continuous
 62
     1
100
AcDbLine
 10
-35.55172030228555
 20
-31.48264804880127
 30
0.0
 11
-45.27394270471466
 21
-31.48264804880127
 31
0.0
  0
LINE
  5
35F
330
1F
100
AcDbEntity
  8
LAYER-006
  6
Continuous
 62
     1
100
AcDbLine
 10
-122.5999860572224
 20
-32.87153574941861
 30
0.0
 11
-142.0444301415845
 21
-32.87153574941861
 31
0.0
  0
LINE
  5
360
330
1F
100
AcDbEntity
  8
LAYER-006
  6
Continuous
 62
     1
100
AcDbLine
 10
-33.88505360475465
 20
-33.70487031217579
 30
0.0
 11
-45.27394270471466
 21
-33.70487031217579
 31
0.0
  0
LINE
  5
361
330
1F
100
AcDbEntity
  8
LAYER-006
  6
Continuous
 62
     1
100
AcDbLine
 10
-122.5999860572224
 20
-35.09375793048852
 30
0.0
 11
-144.822207867922
 21
-35.09375793048852
 31
0.0
  0
LINE
  5
362
330
1F
100
AcDbEntity
  8
LAYER-006
  6
Continuous
 62
     1
100
AcDbLine
 10
-32.49616469030978
 20
-35.92709535332809
 30
0.0
 11
-45.27394270471466
 21
-35.92709535332809
 31
0.0
  0
LINE
  5
363
330
1F
100
AcDbEntity
  8
LAYER-006
  6
Continuous
 62
     1
100
AcDbLine
 10
-122.5999860572224
 20
-37.3159828893362
 30
0.0
 11
-147.5999883724266
 21
-37.3159828893362
 31
0.0
  0
LINE
  5
364
330
1F
100
AcDbEntity
  8
LAYER-006
  6
Continuous
 62
     1
100
AcDbLine
 10
-31.66283134138017
 20
-37.31598426793714
 30
0.0
 11
-45.27394270471466
 21
-37.31598426793714
 31
0.0
  0
LINE
  5
365
330
1F
100
AcDbEntity
  8
LAYER-006
  6
Continuous
 62
     1
100
AcDbLine
 10
-122.5999860572224
 20
-39.53820229262857
 30
0.0
 11
-150.3777660983747
 21
-39.53820229262857
 31
0.0
  0
LINE
  5
366
330
1F
100
AcDbEntity
  8
LAYER-006
  6
Continuous
 62
     1
100
AcDbLine
 10
-29.99616464384927
 20
-39.53820375353379
 30
0.0
 11
-45.27394270471466
 21
-39.53820375353379
 31
0.0
  0
LINE
  5
367
330
1F
100
AcDbEntity
  8
LAYER-006
  6
Continuous
 62
     1
100
AcDbLine
 10
-110.0999890664816
 20
-41.76042447369846
 30
0.0
 11
-110.0999890664816
 21
-65.37153514756686
 31
0.0
  0
LINE
  5
368
330
1F
100
AcDbEntity
  8
LAYER-006
  6
Continuous
 62
     1
100
AcDbLine
 10
-45.27394270471466
 20
-41.76042601690826
 30
0.0
 11
-23.05172007089634
 21
-41.76042601690826
 31
0.0
  0
LINE
  5
369
330
1F
100
AcDbEntity
  8
LAYER-006
  6
Continuous
 62
     1
100
AcDbLine
 10
43.61494273779181
 20
-30.09375857863668
 30
0.0
 11
65.83716814931444
 21
-30.09375857863668
 31
0.0
  0
LINE
  5
36A
330
1F
100
AcDbEntity
  8
LAYER-006
  6
PHANTOM
 62
     1
100
AcDbLine
 10
120.4095165703862
 20
-30.09375857863668
 30
0.0
 11
219.1132208536509
 21
-30.09375857863668
 31
0.0
  0
LINE
  5
36B
330
1F
100
AcDbEntity
  8
LAYER-006
  6
Continuous
 62
     1
100
AcDbLine
 10
-45.27394270471466
 20
-43.14931493151732
 30
0.0
 11
-23.05172007089634
 21
-43.14931493151732
 31
0.0
  0
LINE
  5
36C
330
1F
100
AcDbEntity
  8
LAYER-006
  6
PHANTOM
 62
     1
100
AcDbLine
 10
120.1687782415108
 20
-32.09375857863668
 30
0.0
 11
219.1132208536509
 21
-32.09375857863668
 31
0.0
  0
LINE
  5
36D
330
1F
100
AcDbEntity
  8
LAYER-006
  6
Continuous
 62
     1
100
AcDbLine
 10
-50.82949836328321
 20
-54.26042624838975
 30
0.0
 11
-50.82949836328321
 21
-62.59375973552882
 31
0.0
  0
LINE
  5
36E
330
1F
100
AcDbEntity
  8
LAYER-006
  6
Continuous
 62
     1
100
AcDbLine
 10
-50.82949836328321
 20
-54.26042624838975
 30
0.0
 11
-48.05172053376701
 21
-54.26042624838975
 31
0.0
  0
LINE
  5
36F
330
1F
100
AcDbEntity
  8
LAYER-006
  6
Continuous
 62
     1
100
AcDbLine
 10
-49.44060944837609
 20
-54.26042624838975
 30
0.0
 11
-49.44060944837609
 21
-70.92709322369836
 31
0.0
  0
LINE
  5
370
330
1F
100
AcDbEntity
  8
LAYER-006
  6
Continuous
 62
     1
100
AcDbLine
 10
-48.05172053376701
 20
-54.26042624838975
 30
0.0
 11
-48.05172053376701
 21
-62.59375973552882
 31
0.0
  0
LINE
  5
371
330
1F
100
AcDbEntity
  8
LAYER-006
  6
Continuous
 62
     1
100
AcDbLine
 10
-53.60727619220323
 20
-55.64931516299878
 30
0.0
 11
-50.82949836328321
 21
-55.64931516299878
 31
0.0
  0
LINE
  5
372
330
1F
100
AcDbEntity
  8
LAYER-006
  6
Continuous
 62
     1
100
AcDbLine
 10
-48.05172053376701
 20
-55.64931516299878
 30
0.0
 11
-42.49616487577707
 21
-55.64931516299878
 31
0.0
  0
LINE
  5
373
330
1F
100
AcDbEntity
  8
LAYER-006
  6
Continuous
 62
     1
100
AcDbLine
 10
-28.6072757292403
 20
-55.64931516299878
 30
0.0
 11
-25.82949790002219
 21
-55.64931516299878
 31
0.0
  0
LINE
  5
374
330
1F
100
AcDbEntity
  8
LAYER-006
  6
Continuous
 62
     1
100
AcDbLine
 10
-59.16283185033566
 20
-57.03820407760786
 30
0.0
 11
-50.82949836328321
 21
-57.03820407760786
 31
0.0
  0
LINE
  5
375
330
1F
100
AcDbEntity
  8
LAYER-006
  6
Continuous
 62
     1
100
AcDbLine
 10
-48.05172053376701
 20
-57.03820407760786
 30
0.0
 11
-42.49616487577707
 21
-57.03820407760786
 31
0.0
  0
LINE
  5
376
330
1F
100
AcDbEntity
  8
LAYER-006
  6
Continuous
 62
     1
100
AcDbLine
 10
-28.6072757292403
 20
-57.03820407760786
 30
0.0
 11
-25.82949790002219
 21
-57.03820407760786
 31
0.0
  0
LINE
  5
377
330
1F
100
AcDbEntity
  8
LAYER-006
  6
Continuous
 62
     1
100
AcDbLine
 10
-253.1555447506379
 20
-58.42709083172322
 30
0.0
 11
-253.1555447506379
 21
-70.92709060024163
 31
0.0
  0
ARC
  5
378
330
1F
100
AcDbEntity
  8
LAYER-006
  6
Continuous
 62
     1
100
AcDbCircle
 10
-248.9888781611318
 20
-58.42709083172322
 30
0.0
 40
4.166666589506179
100
AcDbArc
 50
0.0
 51
180.0233389999982
  0
CIRCLE
  5
379
330
1F
100
AcDbEntity
  8
LAYER-006
  6
Continuous
 62
     1
100
AcDbCircle
 10
-248.9888781611318
 20
-58.42709083172322
 30
0.0
 40
1.388888863168726
  0
LINE
  5
37A
330
1F
100
AcDbEntity
  8
LAYER-006
  6
Continuous
 62
     1
100
AcDbLine
 10
-244.8222115716258
 20
-58.42709083172322
 30
0.0
 11
-244.8222115716258
 21
-70.92709060024163
 31
0.0
  0
LINE
  5
37B
330
1F
100
AcDbEntity
  8
LAYER-006
  6
Continuous
 62
     1
100
AcDbLine
 10
-227.5999913350116
 20
-58.42709083172322
 30
0.0
 11
-227.5999913350116
 21
-70.92709060024163
 31
0.0
  0
ARC
  5
37C
330
1F
100
AcDbEntity
  8
LAYER-006
  6
Continuous
 62
     1
100
AcDbCircle
 10
-223.4333247455053
 20
-58.42709083172322
 30
0.0
 40
4.166666589506179
100
AcDbArc
 50
0.0
 51
180.0233390029161
  0
CIRCLE
  5
37D
330
1F
100
AcDbEntity
  8
LAYER-006
  6
Continuous
 62
     1
100
AcDbCircle
 10
-223.4333247455053
 20
-58.42709083172322
 30
0.0
 40
1.388888863168726
  0
LINE
  5
37E
330
1F
100
AcDbEntity
  8
LAYER-006
  6
Continuous
 62
     1
100
AcDbLine
 10
-219.2666581559993
 20
-58.42709083172322
 30
0.0
 11
-219.2666581559993
 21
-70.92709060024163
 31
0.0
  0
LINE
  5
37F
330
1F
100
AcDbEntity
  8
LAYER-006
  6
Continuous
 62
     1
100
AcDbLine
 10
-202.0444351416073
 20
-58.42709083172322
 30
0.0
 11
-202.0444351416073
 21
-70.92709060024163
 31
0.0
  0
ARC
  5
380
330
1F
100
AcDbEntity
  8
LAYER-006
  6
Continuous
 62
     1
100
AcDbCircle
 10
-197.877768552101
 20
-58.42709083172322
 30
0.0
 40
4.166666589506179
100
AcDbArc
 50
0.0
 51
180.0233390029161
  0
CIRCLE
  5
381
330
1F
100
AcDbEntity
  8
LAYER-006
  6
Continuous
 62
     1
100
AcDbCircle
 10
-197.877768552101
 20
-58.42709083172322
 30
0.0
 40
1.388888863168726
  0
LINE
  5
382
330
1F
100
AcDbEntity
  8
LAYER-006
  6
Continuous
 62
     1
100
AcDbLine
 10
-193.711101962595
 20
-58.42709083172322
 30
0.0
 11
-193.711101962595
 21
-70.92709060024163
 31
0.0
  0
LINE
  5
383
330
1F
100
AcDbEntity
  8
LAYER-006
  6
Continuous
 62
     1
100
AcDbLine
 10
-176.4888789482029
 20
-58.42709083172322
 30
0.0
 11
-176.4888789482029
 21
-70.92709060024163
 31
0.0
  0
ARC
  5
384
330
1F
100
AcDbEntity
  8
LAYER-006
  6
Continuous
 62
     1
100
AcDbCircle
 10
-172.3222123586967
 20
-58.42709083172322
 30
0.0
 40
4.166666589506179
100
AcDbArc
 50
0.0
 51
180.0233390029161
  0
CIRCLE
  5
385
330
1F
100
AcDbEntity
  8
LAYER-006
  6
Continuous
 62
     1
100
AcDbCircle
 10
-172.3222123586967
 20
-58.42709083172322
 30
0.0
 40
1.388888863168726
  0
LINE
  5
386
330
1F
100
AcDbEntity
  8
LAYER-006
  6
Continuous
 62
     1
100
AcDbLine
 10
-168.1555457691906
 20
-58.42709083172322
 30
0.0
 11
-168.1555457691906
 21
-70.92709060024163
 31
0.0
  0
LINE
  5
387
330
1F
100
AcDbEntity
  8
LAYER-006
  6
Continuous
 62
     1
100
AcDbLine
 10
-150.9333227547986
 20
-58.42709083172322
 30
0.0
 11
-150.9333227547986
 21
-70.92709060024163
 31
0.0
  0
ARC
  5
388
330
1F
100
AcDbEntity
  8
LAYER-006
  6
Continuous
 62
     1
100
AcDbCircle
 10
-146.7666561652924
 20
-58.42709083172322
 30
0.0
 40
4.166666589506179
100
AcDbArc
 50
0.0
 51
180.0233390029161
  0
CIRCLE
  5
389
330
1F
100
AcDbEntity
  8
LAYER-006
  6
Continuous
 62
     1
100
AcDbCircle
 10
-146.7666561652924
 20
-58.42709083172322
 30
0.0
 40
1.388888863168726
  0
LINE
  5
38A
330
1F
100
AcDbEntity
  8
LAYER-006
  6
Continuous
 62
     1
100
AcDbLine
 10
-142.5999895760751
 20
-58.42709083172322
 30
0.0
 11
-142.5999895760751
 21
-70.92709060024163
 31
0.0
  0
LINE
  5
38B
330
1F
100
AcDbEntity
  8
LAYER-006
  6
Continuous
 62
     1
100
AcDbLine
 10
-125.3777637835597
 20
-58.42709083172325
 30
0.0
 11
-125.3777637835597
 21
-70.92709060070669
 31
0.0
  0
ARC
  5
38C
330
1F
100
AcDbEntity
  8
LAYER-006
  6
Continuous
 62
     1
100
AcDbCircle
 10
-121.2110971940536
 20
-58.42709083172325
 30
0.0
 40
4.166666589506179
100
AcDbArc
 50
0.0
 51
180.0233389999982
  0
CIRCLE
  5
38D
330
1F
100
AcDbEntity
  8
LAYER-006
  6
Continuous
 62
     1
100
AcDbCircle
 10
-121.2110971940536
 20
-58.42709083172325
 30
0.0
 40
1.388888863168726
  0
LINE
  5
38E
330
1F
100
AcDbEntity
  8
LAYER-006
  6
Continuous
 62
     1
100
AcDbLine
 10
-117.0444306045475
 20
-58.42709083172325
 30
0.0
 11
-117.0444306045475
 21
-70.92709060070669
 31
0.0
  0
LINE
  5
38F
330
1F
100
AcDbEntity
  8
LAYER-006
  6
Continuous
 62
     1
100
AcDbLine
 10
-23.05172007090907
 20
-58.42709299221691
 30
0.0
 11
-23.05172007090907
 21
58.23957861272136
 31
0.0
  0
LINE
  5
390
330
1F
100
AcDbEntity
  8
LAYER-006
  6
Continuous
 62
     1
100
AcDbLine
 10
43.61494273779182
 20
-58.42709299221691
 30
0.0
 11
-11.94061384657037
 21
-58.42709299221691
 31
0.0
  0
LINE
  5
391
330
1F
100
AcDbEntity
  8
LAYER-006
  6
Continuous
 62
     1
100
AcDbLine
 10
-59.16283185033566
 20
-59.81598190682597
 30
0.0
 11
-50.82949836328321
 21
-59.81598190682597
 31
0.0
  0
LINE
  5
392
330
1F
100
AcDbEntity
  8
LAYER-006
  6
Continuous
 62
     1
100
AcDbLine
 10
-59.16283185033566
 20
-59.81598190682597
 30
0.0
 11
-59.16283185033566
 21
-57.03820407760786
 31
0.0
  0
LINE
  5
393
330
1F
100
AcDbEntity
  8
LAYER-006
  6
Continuous
 62
     1
100
AcDbLine
 10
-48.05172053376701
 20
-59.81598190682597
 30
0.0
 11
-42.49616487577707
 21
-59.81598190682597
 31
0.0
  0
LINE
  5
394
330
1F
100
AcDbEntity
  8
LAYER-006
  6
Continuous
 62
     1
100
AcDbLine
 10
-28.6072757292403
 20
-59.81598190682597
 30
0.0
 11
-25.82949790002219
 21
-59.81598190682597
 31
0.0
  0
LINE
  5
395
330
1F
100
AcDbEntity
  8
LAYER-006
  6
Continuous
 62
     1
100
AcDbLine
 10
-53.60727619220323
 20
-61.20487082143499
 30
0.0
 11
-50.82949836328321
 21
-61.20487082143499
 31
0.0
  0
LINE
  5
396
330
1F
100
AcDbEntity
  8
LAYER-006
  6
Continuous
 62
     1
100
AcDbLine
 10
-53.60727619220323
 20
-61.20487082143499
 30
0.0
 11
-53.60727619220323
 21
-55.64931516299878
 31
0.0
  0
LINE
  5
397
330
1F
100
AcDbEntity
  8
LAYER-006
  6
Continuous
 62
     1
100
AcDbLine
 10
-48.05172053376701
 20
-61.20487082143499
 30
0.0
 11
-42.49616487577707
 21
-61.20487082143499
 31
0.0
  0
LINE
  5
398
330
1F
100
AcDbEntity
  8
LAYER-006
  6
Continuous
 62
     1
100
AcDbLine
 10
-45.27394270471466
 20
-61.20487082143499
 30
0.0
 11
-45.27394270471466
 21
-55.64931516299878
 31
0.0
  0
LINE
  5
399
330
1F
100
AcDbEntity
  8
LAYER-006
  6
Continuous
 62
     1
100
AcDbLine
 10
-28.6072757292403
 20
-61.20487082143499
 30
0.0
 11
-25.82949790002219
 21
-61.20487082143499
 31
0.0
  0
LINE
  5
39A
330
1F
100
AcDbEntity
  8
LAYER-006
  6
Continuous
 62
     1
100
AcDbLine
 10
-25.82949790002219
 20
-61.20487082143499
 30
0.0
 11
-25.82949790002219
 21
-55.64931516299878
 31
0.0
  0
LINE
  5
39B
330
1F
100
AcDbEntity
  8
LAYER-006
  6
Continuous
 62
     1
100
AcDbLine
 10
-48.05172053376701
 20
-62.59375973552882
 30
0.0
 11
-43.88505379024029
 21
-63.9826486506531
 31
0.0
  0
LINE
  5
39C
330
1F
100
AcDbEntity
  8
LAYER-006
  6
Continuous
 62
     1
100
AcDbLine
 10
-42.49616487577707
 20
-62.59375973552882
 30
0.0
 11
-42.49616487577707
 21
-43.14931493151732
 31
0.0
  0
LINE
  5
39D
330
1F
100
AcDbEntity
  8
LAYER-006
  6
Continuous
 62
     1
100
AcDbLine
 10
-42.49616487577707
 20
-62.59375973552882
 30
0.0
 11
-28.6072757292403
 21
-62.59375973552882
 31
0.0
  0
LINE
  5
39E
330
1F
100
AcDbEntity
  8
LAYER-006
  6
Continuous
 62
     1
100
AcDbLine
 10
-28.6072757292403
 20
-62.59375973552882
 30
0.0
 11
-28.6072757292403
 21
-43.14931493151732
 31
0.0
  0
LINE
  5
39F
330
1F
100
AcDbEntity
  8
LAYER-006
  6
Continuous
 62
     1
100
AcDbLine
 10
-54.99616510681226
 20
-63.9826486506531
 30
0.0
 11
-50.82949836328321
 21
-62.59375973552882
 31
0.0
  0
LINE
  5
3A0
330
1F
100
AcDbEntity
  8
LAYER-007
  6
HIDDEN
 62
     4
100
AcDbLine
 10
-253.1555447506379
 20
-64.26042683480965
 30
0.0
 11
-244.8222115716258
 21
-64.26042683480965
 31
0.0
  0
LINE
  5
3A1
330
1F
100
AcDbEntity
  8
LAYER-007
  6
HIDDEN
 62
     4
100
AcDbLine
 10
-252.044433660103
 20
-64.26042683480965
 30
0.0
 11
-252.044433660103
 21
-70.92709060024163
 31
0.0
  0
LINE
  5
3A2
330
1F
100
AcDbEntity
  8
LAYER-007
  6
HIDDEN
 62
     4
100
AcDbLine
 10
-245.9333226621607
 20
-64.26042683480965
 30
0.0
 11
-245.9333226621607
 21
-70.92709060024163
 31
0.0
  0
LINE
  5
3A3
330
1F
100
AcDbEntity
  8
LAYER-007
  6
HIDDEN
 62
     4
100
AcDbLine
 10
-227.5999913350116
 20
-64.26042683480965
 30
0.0
 11
-219.2666581559993
 21
-64.26042683480965
 31
0.0
  0
LINE
  5
3A4
330
1F
100
AcDbEntity
  8
LAYER-007
  6
HIDDEN
 62
     4
100
AcDbLine
 10
-226.488880244361
 20
-64.26042683480965
 30
0.0
 11
-226.488880244361
 21
-70.92709060024163
 31
0.0
  0
LINE
  5
3A5
330
1F
100
AcDbEntity
  8
LAYER-007
  6
HIDDEN
 62
     4
100
AcDbLine
 10
-220.3777692465343
 20
-64.26042683480965
 30
0.0
 11
-220.3777692465343
 21
-70.92709060024163
 31
0.0
  0
LINE
  5
3A6
330
1F
100
AcDbEntity
  8
LAYER-007
  6
HIDDEN
 62
     4
100
AcDbLine
 10
-202.0444351416073
 20
-64.26042683480965
 30
0.0
 11
-193.711101962595
 21
-64.26042683480965
 31
0.0
  0
LINE
  5
3A7
330
1F
100
AcDbEntity
  8
LAYER-007
  6
HIDDEN
 62
     4
100
AcDbLine
 10
-200.9333240510724
 20
-64.26042683480965
 30
0.0
 11
-200.9333240510724
 21
-70.92709060024163
 31
0.0
  0
LINE
  5
3A8
330
1F
100
AcDbEntity
  8
LAYER-007
  6
HIDDEN
 62
     4
100
AcDbLine
 10
-194.82221305313
 20
-64.26042683480965
 30
0.0
 11
-194.82221305313
 21
-70.92709060024163
 31
0.0
  0
LINE
  5
3A9
330
1F
100
AcDbEntity
  8
LAYER-007
  6
HIDDEN
 62
     4
100
AcDbLine
 10
-176.4888789482029
 20
-64.26042683480965
 30
0.0
 11
-168.1555457691906
 21
-64.26042683480965
 31
0.0
  0
LINE
  5
3AA
330
1F
100
AcDbEntity
  8
LAYER-007
  6
HIDDEN
 62
     4
100
AcDbLine
 10
-175.3777678576679
 20
-64.26042683480965
 30
0.0
 11
-175.3777678576679
 21
-70.92709060024163
 31
0.0
  0
LINE
  5
3AB
330
1F
100
AcDbEntity
  8
LAYER-007
  6
HIDDEN
 62
     4
100
AcDbLine
 10
-169.2666568597255
 20
-64.26042683480965
 30
0.0
 11
-169.2666568597255
 21
-70.92709060024163
 31
0.0
  0
LINE
  5
3AC
330
1F
100
AcDbEntity
  8
LAYER-007
  6
HIDDEN
 62
     4
100
AcDbLine
 10
-150.9333227547986
 20
-64.26042683480965
 30
0.0
 11
-142.5999895760751
 21
-64.26042683480965
 31
0.0
  0
LINE
  5
3AD
330
1F
100
AcDbEntity
  8
LAYER-007
  6
HIDDEN
 62
     4
100
AcDbLine
 10
-149.8222116642636
 20
-64.26042683480965
 30
0.0
 11
-149.8222116642636
 21
-70.92709060024163
 31
0.0
  0
LINE
  5
3AE
330
1F
100
AcDbEntity
  8
LAYER-007
  6
HIDDEN
 62
     4
100
AcDbLine
 10
-143.7111006663213
 20
-64.26042683480965
 30
0.0
 11
-143.7111006663213
 21
-70.92709060024163
 31
0.0
  0
LINE
  5
3AF
330
1F
100
AcDbEntity
  8
LAYER-007
  6
HIDDEN
 62
     4
100
AcDbLine
 10
-125.3777637835597
 20
-64.26042683480965
 30
0.0
 11
-117.0444306045475
 21
-64.26042683480965
 31
0.0
  0
LINE
  5
3B0
330
1F
100
AcDbEntity
  8
LAYER-007
  6
HIDDEN
 62
     4
100
AcDbLine
 10
-124.2666526930248
 20
-64.26042683480965
 30
0.0
 11
-124.2666526930248
 21
-70.92709060070669
 31
0.0
  0
LINE
  5
3B1
330
1F
100
AcDbEntity
  8
LAYER-007
  6
HIDDEN
 62
     4
100
AcDbLine
 10
-118.1555416954198
 20
-64.26042683480965
 30
0.0
 11
-118.1555416954198
 21
-70.92709060070669
 31
0.0
  0
LINE
  5
3B2
330
1F
100
AcDbEntity
  8
LAYER-006
  6
Continuous
 62
     1
100
AcDbLine
 10
-260.0999890664816
 20
-65.37153514756686
 30
0.0
 11
-260.0999890664816
 21
-41.76042447369848
 31
0.0
  0
LINE
  5
3B3
330
1F
100
AcDbEntity
  8
LAYER-006
  6
Continuous
 62
     1
100
AcDbLine
 10
-260.0999890664816
 20
-65.37153514756686
 30
0.0
 11
-253.1555447506379
 21
-65.37153514756686
 31
0.0
  0
LINE
  5
3B4
330
1F
100
AcDbEntity
  8
LAYER-006
  6
Continuous
 62
     1
100
AcDbLine
 10
-117.0444333823252
 20
-65.37153514756686
 30
0.0
 11
-110.0999890664816
 21
-65.37153514756686
 31
0.0
  0
ARC
  5
3B5
330
1F
100
AcDbEntity
  8
LAYER-006
  6
Continuous
 62
     1
100
AcDbCircle
 10
43.61494273779182
 20
-66.76042647987121
 30
0.0
 40
8.333333487654318
100
AcDbArc
 50
269.9777129999999
 51
90.00105199999992
  0
LINE
  5
3B6
330
1F
100
AcDbEntity
  8
LAYER-006
  6
Continuous
 62
     1
100
AcDbLine
 10
63.83716814931444
 20
-65.09375857863668
 30
0.0
 11
65.83716814931444
 21
-65.09375857863668
 31
0.0
  0
LINE
  5
3B7
330
1F
100
AcDbEntity
  8
LAYER-006
  6
PHANTOM
 62
     1
100
AcDbLine
 10
149.7521082447142
 20
-65.09375857863668
 30
0.0
 11
190.2521082447142
 21
-65.09375857863668
 31
0.0
  0
LINE
  5
3B8
330
1F
100
AcDbEntity
  8
LAYER-006
  6
Continuous
 62
     1
100
AcDbLine
 10
-253.1555447506379
 20
-70.92709060024163
 30
0.0
 11
-244.8222115716258
 21
-70.92709060024163
 31
0.0
  0
LINE
  5
3B9
330
1F
100
AcDbEntity
  8
LAYER-006
  6
Continuous
 62
     4
100
AcDbLine
 10
-251.4888781148354
 20
-70.92709060024163
 30
0.0
 11
-247.5999892979632
 21
-74.81597941711405
 31
0.0
  0
LINE
  5
3BA
330
1F
100
AcDbEntity
  8
LAYER-006
  6
Continuous
 62
     4
100
AcDbLine
 10
-249.5444309286216
 20
-70.92709060024163
 30
0.0
 11
-246.2111004347943
 21
-73.98264887699057
 31
0.0
  0
ARC
  5
3BB
330
1F
100
AcDbEntity
  8
LAYER-006
  6
Continuous
 62
     1
100
AcDbCircle
 10
-248.9888781611318
 20
-70.92709060024163
 30
0.0
 40
4.166666589506179
100
AcDbArc
 50
180.023339000001
 51
359.9893829999994
  0
LINE
  5
3BC
330
1F
100
AcDbEntity
  8
LAYER-006
  6
Continuous
 62
     4
100
AcDbLine
 10
-247.5999892979632
 20
-70.92709060024163
 30
0.0
 11
-245.377767116893
 21
-72.87153778645561
 31
0.0
  0
LINE
  5
3BD
330
1F
100
AcDbEntity
  8
LAYER-006
  6
Continuous
 62
     4
100
AcDbLine
 10
-245.6555476674266
 20
-70.92709060024163
 30
0.0
 11
-244.8222115716258
 21
-71.76042391874825
 31
0.0
  0
LINE
  5
3BE
330
1F
100
AcDbEntity
  8
LAYER-006
  6
Continuous
 62
     1
100
AcDbLine
 10
-227.5999913350116
 20
-70.92709060024163
 30
0.0
 11
-219.2666581559993
 21
-70.92709060024163
 31
0.0
  0
LINE
  5
3BF
330
1F
100
AcDbEntity
  8
LAYER-006
  6
Continuous
 62
     4
100
AcDbLine
 10
-225.9333246992091
 20
-70.92709060024163
 30
0.0
 11
-222.0444358823368
 21
-74.81597941711405
 31
0.0
  0
LINE
  5
3C0
330
1F
100
AcDbEntity
  8
LAYER-006
  6
Continuous
 62
     4
100
AcDbLine
 10
-223.9888775129953
 20
-70.92709060024163
 30
0.0
 11
-220.6555470195896
 21
-73.98264887699057
 31
0.0
  0
ARC
  5
3C1
330
1F
100
AcDbEntity
  8
LAYER-006
  6
Continuous
 62
     1
100
AcDbCircle
 10
-223.4333247455053
 20
-70.92709060024163
 30
0.0
 40
4.166666589506179
100
AcDbArc
 50
180.023339000001
 51
359.9893830001809
  0
LINE
  5
3C2
330
1F
100
AcDbEntity
  8
LAYER-006
  6
Continuous
 62
     4
100
AcDbLine
 10
-222.0444358823368
 20
-70.92709060024163
 30
0.0
 11
-219.8222137012667
 21
-72.87153778645561
 31
0.0
  0
LINE
  5
3C3
330
1F
100
AcDbEntity
  8
LAYER-006
  6
Continuous
 62
     4
100
AcDbLine
 10
-220.0999942516781
 20
-70.92709060024163
 30
0.0
 11
-219.2666581559993
 21
-71.76042391874825
 31
0.0
  0
LINE
  5
3C4
330
1F
100
AcDbEntity
  8
LAYER-006
  6
Continuous
 62
     1
100
AcDbLine
 10
-202.0444351416073
 20
-70.92709060024163
 30
0.0
 11
-193.711101962595
 21
-70.92709060024163
 31
0.0
  0
LINE
  5
3C5
330
1F
100
AcDbEntity
  8
LAYER-006
  6
Continuous
 62
     4
100
AcDbLine
 10
-200.3777685058048
 20
-70.92709060024163
 30
0.0
 11
-196.4888796889325
 21
-74.81597941711405
 31
0.0
  0
LINE
  5
3C6
330
1F
100
AcDbEntity
  8
LAYER-006
  6
Continuous
 62
     4
100
AcDbLine
 10
-198.433321319591
 20
-70.92709060024163
 30
0.0
 11
-195.0999908257636
 21
-73.98264887699057
 31
0.0
  0
ARC
  5
3C7
330
1F
100
AcDbEntity
  8
LAYER-006
  6
Continuous
 62
     1
100
AcDbCircle
 10
-197.877768552101
 20
-70.92709060024163
 30
0.0
 40
4.166666589506179
100
AcDbArc
 50
180.023339000001
 51
359.9893829999986
  0
LINE
  5
3C8
330
1F
100
AcDbEntity
  8
LAYER-006
  6
Continuous
 62
     4
100
AcDbLine
 10
-196.4888796889325
 20
-70.92709060024163
 30
0.0
 11
-194.2666575078624
 21
-72.87153778645561
 31
0.0
  0
LINE
  5
3C9
330
1F
100
AcDbEntity
  8
LAYER-006
  6
Continuous
 62
     4
100
AcDbLine
 10
-194.5444380582738
 20
-70.92709060024163
 30
0.0
 11
-193.711101962595
 21
-71.76042391874825
 31
0.0
  0
LINE
  5
3CA
330
1F
100
AcDbEntity
  8
LAYER-006
  6
Continuous
 62
     1
100
AcDbLine
 10
-176.4888789482029
 20
-70.92709060024163
 30
0.0
 11
-168.1555457691906
 21
-70.92709060024163
 31
0.0
  0
LINE
  5
3CB
330
1F
100
AcDbEntity
  8
LAYER-006
  6
Continuous
 62
     4
100
AcDbLine
 10
-174.8222123124003
 20
-70.92709060024163
 30
0.0
 11
-170.9333234955281
 21
-74.81597941711405
 31
0.0
  0
LINE
  5
3CC
330
1F
100
AcDbEntity
  8
LAYER-006
  6
Continuous
 62
     4
100
AcDbLine
 10
-172.8777651261866
 20
-70.92709060024163
 30
0.0
 11
-169.5444346323592
 21
-73.98264887699057
 31
0.0
  0
ARC
  5
3CD
330
1F
100
AcDbEntity
  8
LAYER-006
  6
Continuous
 62
     1
100
AcDbCircle
 10
-172.3222123586967
 20
-70.92709060024163
 30
0.0
 40
4.166666589506179
100
AcDbArc
 50
180.023339000001
 51
359.9893830001809
  0
LINE
  5
3CE
330
1F
100
AcDbEntity
  8
LAYER-006
  6
Continuous
 62
     4
100
AcDbLine
 10
-170.9333234955281
 20
-70.92709060024163
 30
0.0
 11
-168.711101314458
 21
-72.87153778645561
 31
0.0
  0
LINE
  5
3CF
330
1F
100
AcDbEntity
  8
LAYER-006
  6
Continuous
 62
     4
100
AcDbLine
 10
-168.9888818648694
 20
-70.92709060024163
 30
0.0
 11
-168.1555457691906
 21
-71.76042391874825
 31
0.0
  0
LINE
  5
3D0
330
1F
100
AcDbEntity
  8
LAYER-006
  6
Continuous
 62
     1
100
AcDbLine
 10
-150.9333227547986
 20
-70.92709060024163
 30
0.0
 11
-142.5999895760751
 21
-70.92709060024163
 31
0.0
  0
LINE
  5
3D1
330
1F
100
AcDbEntity
  8
LAYER-006
  6
Continuous
 62
     4
100
AcDbLine
 10
-149.2666561189961
 20
-70.92709060024163
 30
0.0
 11
-145.3777673021238
 21
-74.81597941711405
 31
0.0
  0
LINE
  5
3D2
330
1F
100
AcDbEntity
  8
LAYER-006
  6
Continuous
 62
     4
100
AcDbLine
 10
-147.3222089327823
 20
-70.92709060024163
 30
0.0
 11
-143.9888784389549
 21
-73.98264887699057
 31
0.0
  0
ARC
  5
3D3
330
1F
100
AcDbEntity
  8
LAYER-006
  6
Continuous
 62
     1
100
AcDbCircle
 10
-146.7666561652924
 20
-70.92709060024163
 30
0.0
 40
4.166666589506179
100
AcDbArc
 50
180.023339000001
 51
359.9893830001802
  0
LINE
  5
3D4
330
1F
100
AcDbEntity
  8
LAYER-006
  6
Continuous
 62
     4
100
AcDbLine
 10
-145.3777673021238
 20
-70.92709060024163
 30
0.0
 11
-143.1555451210537
 21
-72.87153778645561
 31
0.0
  0
LINE
  5
3D5
330
1F
100
AcDbEntity
  8
LAYER-006
  6
Continuous
 62
     4
100
AcDbLine
 10
-143.4333256714651
 20
-70.92709060024163
 30
0.0
 11
-142.5999895760751
 21
-71.76042391874825
 31
0.0
  0
LINE
  5
3D6
330
1F
100
AcDbEntity
  8
LAYER-006
  6
Continuous
 62
     1
100
AcDbLine
 10
-125.3777637835597
 20
-70.92709060070669
 30
0.0
 11
-117.0444306045475
 21
-70.92709060070669
 31
0.0
  0
LINE
  5
3D7
330
1F
100
AcDbEntity
  8
LAYER-006
  6
Continuous
 62
     4
100
AcDbLine
 10
-123.7110971477572
 20
-70.92709060070669
 30
0.0
 11
-119.8222083308849
 21
-74.81597941711405
 31
0.0
  0
LINE
  5
3D8
330
1F
100
AcDbEntity
  8
LAYER-006
  6
Continuous
 62
     4
100
AcDbLine
 10
-121.7666499615434
 20
-70.92709060070669
 30
0.0
 11
-118.4333194677161
 21
-73.98264887699057
 31
0.0
  0
ARC
  5
3D9
330
1F
100
AcDbEntity
  8
LAYER-006
  6
Continuous
 62
     1
100
AcDbCircle
 10
-121.2110971940536
 20
-70.92709060070669
 30
0.0
 40
4.166666589506179
100
AcDbArc
 50
180.0233389936059
 51
359.9893830063938
  0
LINE
  5
3DA
330
1F
100
AcDbEntity
  8
LAYER-006
  6
Continuous
 62
     4
100
AcDbLine
 10
-119.8222083308849
 20
-70.92709060070669
 30
0.0
 11
-117.5999861498148
 21
-72.87153778645561
 31
0.0
  0
LINE
  5
3DB
330
1F
100
AcDbEntity
  8
LAYER-006
  6
Continuous
 62
     4
100
AcDbLine
 10
-117.8777667002263
 20
-70.92709060070669
 30
0.0
 11
-117.0444306045475
 21
-71.76042391874825
 31
0.0
  0
LINE
  5
3DC
330
1F
100
AcDbEntity
  8
LAYER-006
  6
Continuous
 62
     1
100
AcDbLine
 10
-54.99616510681226
 20
-70.92709322369836
 30
0.0
 11
-54.99616510681226
 21
-63.9826486506531
 31
0.0
  0
LINE
  5
3DD
330
1F
100
AcDbEntity
  8
LAYER-006
  6
Continuous
 62
     1
100
AcDbLine
 10
-54.99616510681226
 20
-70.92709322369836
 30
0.0
 11
-43.88505379024029
 21
-70.92709322369836
 31
0.0
  0
LINE
  5
3DE
330
1F
100
AcDbEntity
  8
LAYER-007
  6
HIDDEN
 62
     4
100
AcDbLine
 10
-48.05172053376701
 20
-70.92709322369836
 30
0.0
 11
-48.05172053376701
 21
-62.59375973552882
 31
0.0
  0
LINE
  5
3DF
330
1F
100
AcDbEntity
  8
LAYER-007
  6
HIDDEN
 62
     4
100
AcDbLine
 10
-45.27394270471466
 20
-70.92709322369836
 30
0.0
 11
-45.27394270471466
 21
-63.42709586258734
 31
0.0
  0
LINE
  5
3E0
330
1F
100
AcDbEntity
  8
LAYER-006
  6
Continuous
 62
     1
100
AcDbLine
 10
-43.88505379024029
 20
-70.92709322369836
 30
0.0
 11
-43.88505379024029
 21
-63.9826486506531
 31
0.0
  0
ARC
  5
3E1
330
1F
100
AcDbEntity
  8
LAYER-006
  6
Continuous
 62
     1
100
AcDbCircle
 10
-42.49616487577707
 20
-70.92709322369836
 30
0.0
 40
4.166666743827159
100
AcDbArc
 50
180.0233390000024
 51
269.9777130061363
  0
LINE
  5
3E2
330
1F
100
AcDbEntity
  8
LAYER-006
  6
Continuous
 62
     4
100
AcDbLine
 10
-253.1555447506379
 20
-71.20487115065328
 30
0.0
 11
-249.2666559337656
 21
-75.09375996752553
 31
0.0
  0
LINE
  5
3E3
330
1F
100
AcDbEntity
  8
LAYER-006
  6
Continuous
 62
     4
100
AcDbLine
 10
-227.5999913350116
 20
-71.20487115065328
 30
0.0
 11
-223.7111025181391
 21
-75.09375996752553
 31
0.0
  0
LINE
  5
3E4
330
1F
100
AcDbEntity
  8
LAYER-006
  6
Continuous
 62
     4
100
AcDbLine
 10
-202.0444351416073
 20
-71.20487115065328
 30
0.0
 11
-198.155546325
 21
-75.09375996752553
 31
0.0
  0
LINE
  5
3E5
330
1F
100
AcDbEntity
  8
LAYER-006
  6
Continuous
 62
     4
100
AcDbLine
 10
-176.4888789482029
 20
-71.20487115065328
 30
0.0
 11
-172.5999901313304
 21
-75.09375996752553
 31
0.0
  0
LINE
  5
3E6
330
1F
100
AcDbEntity
  8
LAYER-006
  6
Continuous
 62
     4
100
AcDbLine
 10
-150.9333227547986
 20
-71.20487115065328
 30
0.0
 11
-147.0444339379262
 21
-75.09375996752553
 31
0.0
  0
LINE
  5
3E7
330
1F
100
AcDbEntity
  8
LAYER-006
  6
Continuous
 62
     4
100
AcDbLine
 10
-125.3777637835597
 20
-71.20487115065325
 30
0.0
 11
-121.4888749666873
 21
-75.09375996752553
 31
0.0
  0
LINE
  5
3E8
330
1F
100
AcDbEntity
  8
LAYER-006
  6
Continuous
 62
     4
100
AcDbLine
 10
-252.8777669780043
 20
-72.59376001382191
 30
0.0
 11
-251.2111031199794
 21
-70.92709060024163
 31
0.0
  0
LINE
  5
3E9
330
1F
100
AcDbEntity
  8
LAYER-006
  6
Continuous
 62
     4
100
AcDbLine
 10
-227.3222135623779
 20
-72.59376001421703
 30
0.0
 11
-225.6555497043532
 21
-70.92709060024163
 31
0.0
  0
LINE
  5
3EA
330
1F
100
AcDbEntity
  8
LAYER-006
  6
Continuous
 62
     4
100
AcDbLine
 10
-201.7666573691293
 20
-72.59376001421703
 30
0.0
 11
-200.099993510812
 21
-70.92709060024163
 31
0.0
  0
LINE
  5
3EB
330
1F
100
AcDbEntity
  8
LAYER-006
  6
Continuous
 62
     4
100
AcDbLine
 10
-176.2111011755692
 20
-72.59376001421703
 30
0.0
 11
-174.5444373175444
 21
-70.92709060024163
 31
0.0
  0
LINE
  5
3EC
330
1F
100
AcDbEntity
  8
LAYER-006
  6
Continuous
 62
     4
100
AcDbLine
 10
-150.6555449821649
 20
-72.59376001421703
 30
0.0
 11
-148.9888811241401
 21
-70.92709060024163
 31
0.0
  0
LINE
  5
3ED
330
1F
100
AcDbEntity
  8
LAYER-006
  6
Continuous
 62
     4
100
AcDbLine
 10
-125.099986010926
 20
-72.59376001355017
 30
0.0
 11
-123.4333221529012
 21
-70.92709060070669
 31
0.0
  0
LINE
  5
3EE
330
1F
100
AcDbEntity
  8
LAYER-006
  6
Continuous
 62
     4
100
AcDbLine
 10
-252.044433660103
 20
-73.70487110435687
 30
0.0
 11
-249.2666559337656
 21
-70.92709060024163
 31
0.0
  0
LINE
  5
3EF
330
1F
100
AcDbEntity
  8
LAYER-006
  6
Continuous
 62
     4
100
AcDbLine
 10
-226.488880244361
 20
-73.70487110435687
 30
0.0
 11
-223.7111025181391
 21
-70.92709060024163
 31
0.0
  0
LINE
  5
3F0
330
1F
100
AcDbEntity
  8
LAYER-006
  6
Continuous
 62
     4
100
AcDbLine
 10
-200.9333240510724
 20
-73.70487110435687
 30
0.0
 11
-198.155546325
 21
-70.92709060024163
 31
0.0
  0
LINE
  5
3F1
330
1F
100
AcDbEntity
  8
LAYER-006
  6
Continuous
 62
     4
100
AcDbLine
 10
-175.3777678576679
 20
-73.70487110435687
 30
0.0
 11
-172.5999901313304
 21
-70.92709060024163
 31
0.0
  0
LINE
  5
3F2
330
1F
100
AcDbEntity
  8
LAYER-006
  6
Continuous
 62
     4
100
AcDbLine
 10
-149.8222116642636
 20
-73.70487110435687
 30
0.0
 11
-147.0444339379262
 21
-70.92709060024163
 31
0.0
  0
LINE
  5
3F3
330
1F
100
AcDbEntity
  8
LAYER-006
  6
Continuous
 62
     4
100
AcDbLine
 10
-124.2666526930248
 20
-73.7048711043569
 30
0.0
 11
-121.4888749666873
 21
-70.92709060070669
 31
0.0
  0
LINE
  5
3F4
330
1F
100
AcDbEntity
  8
LAYER-006
  6
Continuous
 62
     4
100
AcDbLine
 10
-250.9333197917903
 20
-74.53820164448038
 30
0.0
 11
-247.3222115253293
 21
-70.92709060024163
 31
0.0
  0
LINE
  5
3F5
330
1F
100
AcDbEntity
  8
LAYER-006
  6
Continuous
 62
     4
100
AcDbLine
 10
-247.0444365304734
 20
-74.53820164448038
 30
0.0
 11
-245.6555476674266
 21
-73.14931278131172
 31
0.0
  0
LINE
  5
3F6
330
1F
100
AcDbEntity
  8
LAYER-006
  6
Continuous
 62
     4
100
AcDbLine
 10
-225.3777663761639
 20
-74.53820164403089
 30
0.0
 11
-221.7666581097029
 21
-70.92709060024163
 31
0.0
  0
LINE
  5
3F7
330
1F
100
AcDbEntity
  8
LAYER-006
  6
Continuous
 62
     4
100
AcDbLine
 10
-221.488883114847
 20
-74.53820164403089
 30
0.0
 11
-220.0999942516781
 21
-73.14931278131175
 31
0.0
  0
LINE
  5
3F8
330
1F
100
AcDbEntity
  8
LAYER-006
  6
Continuous
 62
     4
100
AcDbLine
 10
-199.8222101827597
 20
-74.53820164448038
 30
0.0
 11
-196.2111019162986
 21
-70.92709060024163
 31
0.0
  0
LINE
  5
3F9
330
1F
100
AcDbEntity
  8
LAYER-006
  6
Continuous
 62
     4
100
AcDbLine
 10
-195.9333269214427
 20
-74.53820164448038
 30
0.0
 11
-194.5444380582738
 21
-73.14931278074059
 31
0.0
  0
LINE
  5
3FA
330
1F
100
AcDbEntity
  8
LAYER-006
  6
Continuous
 62
     4
100
AcDbLine
 10
-174.2666539893552
 20
-74.53820164403089
 30
0.0
 11
-170.6555457228942
 21
-70.92709060024163
 31
0.0
  0
LINE
  5
3FB
330
1F
100
AcDbEntity
  8
LAYER-006
  6
Continuous
 62
     4
100
AcDbLine
 10
-170.3777707280383
 20
-74.53820164403089
 30
0.0
 11
-168.9888818648694
 21
-73.14931278131175
 31
0.0
  0
LINE
  5
3FC
330
1F
100
AcDbEntity
  8
LAYER-006
  6
Continuous
 62
     4
100
AcDbLine
 10
-148.7110977959509
 20
-74.53820164448038
 30
0.0
 11
-145.0999895294899
 21
-70.92709060024163
 31
0.0
  0
LINE
  5
3FD
330
1F
100
AcDbEntity
  8
LAYER-006
  6
Continuous
 62
     4
100
AcDbLine
 10
-144.822214534634
 20
-74.53820164448038
 30
0.0
 11
-143.4333256714651
 21
-73.14931278074059
 31
0.0
  0
LINE
  5
3FE
330
1F
100
AcDbEntity
  8
LAYER-006
  6
Continuous
 62
     4
100
AcDbLine
 10
-123.1555388244198
 20
-74.53820164448038
 30
0.0
 11
-119.5444305584816
 21
-70.92709060070669
 31
0.0
  0
LINE
  5
3FF
330
1F
100
AcDbEntity
  8
LAYER-006
  6
Continuous
 62
     4
100
AcDbLine
 10
-119.2666555633951
 20
-74.53820164448038
 30
0.0
 11
-117.8777667002263
 21
-73.14931278131169
 31
0.0
  0
LINE
  5
400
330
1F
100
AcDbEntity
  8
LAYER-006
  6
Continuous
 62
     4
100
AcDbLine
 10
-249.5444309286216
 20
-75.09375996752553
 30
0.0
 11
-245.377767116893
 21
-70.92709060024163
 31
0.0
  0
LINE
  5
401
330
1F
100
AcDbEntity
  8
LAYER-006
  6
Continuous
 62
     4
100
AcDbLine
 10
-223.9888775129953
 20
-75.09375996752553
 30
0.0
 11
-219.8222137012667
 21
-70.92709060024163
 31
0.0
  0
LINE
  5
402
330
1F
100
AcDbEntity
  8
LAYER-006
  6
Continuous
 62
     4
100
AcDbLine
 10
-198.433321319591
 20
-75.09375996752553
 30
0.0
 11
-194.2666575078624
 21
-70.92709060024163
 31
0.0
  0
LINE
  5
403
330
1F
100
AcDbEntity
  8
LAYER-006
  6
Continuous
 62
     4
100
AcDbLine
 10
-172.8777651261866
 20
-75.09375996752553
 30
0.0
 11
-168.711101314458
 21
-70.92709060024163
 31
0.0
  0
LINE
  5
404
330
1F
100
AcDbEntity
  8
LAYER-006
  6
Continuous
 62
     4
100
AcDbLine
 10
-147.3222089327823
 20
-75.09375996752553
 30
0.0
 11
-143.1555451210537
 21
-70.92709060024163
 31
0.0
  0
LINE
  5
405
330
1F
100
AcDbEntity
  8
LAYER-006
  6
Continuous
 62
     4
100
AcDbLine
 10
-121.7666499615434
 20
-75.09375996752553
 30
0.0
 11
-117.5999861498148
 21
-70.92709060070669
 31
0.0
  0
LINE
  5
406
330
1F
100
AcDbEntity
  8
LAYER-007
  6
Continuous
 62
     1
100
AcDbLine
 10
157.3021082445687
 20
-83.9829027688543
 30
0.0
 11
182.7021082448595
 21
-83.9829027688543
 31
0.0
  0
LINE
  5
407
330
1F
100
AcDbEntity
  8
LAYER-033
  6
Continuous
 62
     1
100
AcDbLine
 10
-80.71560684896083
 20
-235.2017527596956
 30
0.0
 11
47.14319974896897
 21
-235.2017527596956
 31
0.0
  0
LINE
  5
408
330
1F
100
AcDbEntity
  8
LAYER-033
  6
Continuous
 62
     1
100
AcDbLine
 10
-80.71560684896083
 20
-243.287202861
 30
0.0
 11
-22.64859653968249
 21
-243.287202861
 31
0.0
  0
LINE
  5
409
330
1F
100
AcDbEntity
  8
LAYER-007
  6
CENTER
 62
     4
100
AcDbLine
 10
-59.16283185033566
 20
-58.42709299221691
 30
0.0
 11
-24.718386768
 21
-58.42709299221691
 31
0.0
  0
LINE
  5
40A
330
1F
100
AcDbEntity
  8
LAYER-007
  6
CENTER
 62
     4
100
AcDbLine
 10
-59.16283185033566
 20
58.23957861272136
 30
0.0
 11
-24.44060898541311
 21
58.23957861272136
 31
0.0
  0
LINE
  5
40B
330
1F
100
AcDbEntity
  8
LAYER-007
  6
CENTER
 62
     4
100
AcDbLine
 10
120.4095165703862
 20
-0.093758578636681
 30
0.0
 11
219.1132208536509
 21
-0.093758578636681
 31
0.0
  0
LINE
  5
40C
330
1F
100
AcDbEntity
  8
LAYER-007
  6
CENTER
 62
     4
100
AcDbLine
 10
170.0021082447143
 20
67.68401812918231
 30
0.0
 11
170.0021082447143
 21
-67.87153528645567
 31
0.0
  0
LINE
  5
40D
330
1F
100
AcDbEntity
  8
LAYER-006
  6
PHANTOM
 62
     1
100
AcDbLine
 10
120.4095165703862
 20
-65.09375857863668
 30
0.0
 11
140.2521082447142
 21
-65.09375857863668
 31
0.0
  0
ARC
  5
40E
330
1F
100
AcDbEntity
  8
LAYER-033
  6
PHANTOM
 62
     1
100
AcDbCircle
 10
145.0021082447143
 20
-55.92709067740216
 30
0.0
 40
4.75
100
AcDbArc
 50
0.0
 51
180.0
  0
ARC
  5
40F
330
1F
100
AcDbEntity
  8
LAYER-033
  6
PHANTOM
 62
     1
100
AcDbCircle
 10
195.0021082447144
 20
-55.92709067740216
 30
0.0
 40
4.75
100
AcDbArc
 50
0.0
 51
180.0
  0
LINE
  5
410
330
1F
100
AcDbEntity
  8
LAYER-006
  6
PHANTOM
 62
     1
100
AcDbLine
 10
199.7521082447142
 20
-65.09375857863668
 30
0.0
 11
219.3539615894803
 21
-65.09375857863668
 31
0.0
  0
LINE
  5
411
330
1F
100
AcDbEntity
  8
LAYER-006
  6
PHANTOM
 62
     1
100
AcDbLine
 10
199.7521082447144
 20
64.90624142136332
 30
0.0
 11
219.1132208536509
 21
64.90624142136332
 31
0.0
  0
ARC
  5
412
330
1F
100
AcDbEntity
  8
LAYER-033
  6
PHANTOM
 62
     1
100
AcDbCircle
 10
195.0021082447144
 20
55.73957352012874
 30
0.0
 40
4.75
100
AcDbArc
 50
180.0
 51
0.0
  0
ARC
  5
413
330
1F
100
AcDbEntity
  8
LAYER-033
  6
CENTER
 62
     1
100
AcDbCircle
 10
145.0021082447143
 20
55.73957352012874
 30
0.0
 40
4.75
100
AcDbArc
 50
180.0
 51
0.0
  0
LINE
  5
414
330
1F
100
AcDbEntity
  8
LAYER-006
  6
PHANTOM
 62
     1
100
AcDbLine
 10
120.4095165703862
 20
64.90624142136332
 30
0.0
 11
140.2521082447142
 21
64.90624142136332
 31
0.0
  0
LINE
  5
415
330
1F
100
AcDbEntity
  8
LAYER-033
  6
CENTER
 62
     5
100
AcDbLine
 10
138.3940210229379
 20
57.40624142136332
 30
0.0
 11
151.6101954664906
 21
57.40624142136332
 31
0.0
  0
LINE
  5
416
330
1F
100
AcDbEntity
  8
LAYER-033
  6
CENTER
 62
     5
100
AcDbLine
 10
145.0021082447143
 20
64.01432864313964
 30
0.0
 11
145.0021082447143
 21
50.79815419958698
 31
0.0
  0
LINE
  5
417
330
1F
100
AcDbEntity
  8
LAYER-033
  6
CENTER
 62
     5
100
AcDbLine
 10
195.0021082447144
 20
64.01432864313964
 30
0.0
 11
195.0021082447144
 21
50.79815419958698
 31
0.0
  0
LINE
  5
418
330
1F
100
AcDbEntity
  8
LAYER-033
  6
CENTER
 62
     5
100
AcDbLine
 10
188.394021022938
 20
57.40624142136332
 30
0.0
 11
201.6101954664906
 21
57.40624142136332
 31
0.0
  0
LINE
  5
419
330
1F
100
AcDbEntity
  8
LAYER-033
  6
CENTER
 62
     5
100
AcDbLine
 10
195.0021082447144
 20
-50.98567135686037
 30
0.0
 11
195.0021082447144
 21
-64.20184580041301
 31
0.0
  0
LINE
  5
41A
330
1F
100
AcDbEntity
  8
LAYER-033
  6
CENTER
 62
     5
100
AcDbLine
 10
188.394021022938
 20
-57.5937585786367
 30
0.0
 11
201.6101954664906
 21
-57.5937585786367
 31
0.0
  0
LINE
  5
41B
330
1F
100
AcDbEntity
  8
LAYER-033
  6
CENTER
 62
     5
100
AcDbLine
 10
145.0021082447143
 20
-50.98567135686037
 30
0.0
 11
145.0021082447143
 21
-64.20184580041301
 31
0.0
  0
LINE
  5
41C
330
1F
100
AcDbEntity
  8
LAYER-033
  6
CENTER
 62
     5
100
AcDbLine
 10
138.3940210229379
 20
-57.5937585786367
 30
0.0
 11
151.6101954664906
 21
-57.5937585786367
 31
0.0
  0
LINE
  5
41D
330
1F
100
AcDbEntity
  8
LAYER-033
  6
Continuous
 62
     1
100
AcDbLine
 10
-80.71560684896083
 20
-227.1163026583913
 30
0.0
 11
-22.64859653968249
 21
-227.1163026583913
 31
0.0
  0
LINE
  5
41E
330
1F
100
AcDbEntity
  8
LAYER-007
  6
CENTER
 62
     4
100
AcDbLine
 10
-185.0999890664816
 20
-13.98264998763716
 30
0.0
 11
-185.0999890664816
 21
-75.09375718974783
 31
0.0
  0
LINE
  5
41F
330
1F
100
AcDbEntity
  8
LAYER-007
  6
CENTER
 62
     4
100
AcDbLine
 10
-185.0999890664816
 20
70.18402067547848
 30
0.0
 11
-185.0999890664816
 21
13.79513005305057
 31
0.0
  0
LINE
  5
420
330
1F
100
AcDbEntity
  8
LAYER-006
  6
Continuous
 62
     1
100
AcDbLine
 10
-244.8222115716258
 20
-65.37153514756686
 30
0.0
 11
-227.5999913350116
 21
-65.37153514756686
 31
0.0
  0
LINE
  5
421
330
1F
100
AcDbEntity
  8
LAYER-006
  6
Continuous
 62
     1
100
AcDbLine
 10
-256.3606731100873
 20
-65.37153514756686
 30
0.0
 11
-253.1555447506379
 21
-65.37153514756686
 31
0.0
  0
LINE
  5
422
330
1F
100
AcDbEntity
  8
LAYER-006
  6
Continuous
 62
     1
100
AcDbLine
 10
-244.8222143494035
 20
65.18401799029329
 30
0.0
 11
-227.5999913350114
 21
65.18401799029329
 31
0.0
  0
LINE
  5
423
330
1F
100
AcDbEntity
  8
LAYER-006
  6
Continuous
 62
     1
100
AcDbLine
 10
-256.3606731100873
 20
65.18401799029329
 30
0.0
 11
-253.1555447506379
 21
65.18401799029329
 31
0.0
  0
LINE
  5
424
330
1F
100
AcDbEntity
  8
LAYER-006
  6
Continuous
 62
     1
100
AcDbLine
 10
-110.0999890664816
 20
41.57290453864746
 30
0.0
 11
-260.0999890664816
 21
41.57290453864746
 31
0.0
  0
LINE
  5
425
330
1F
100
AcDbEntity
  8
LAYER-006
  6
Continuous
 62
     1
100
AcDbLine
 10
-260.0999890664816
 20
42.96179340181598
 30
0.0
 11
-110.0999890664816
 21
42.96179340181598
 31
0.0
  0
LINE
  5
426
330
1F
100
AcDbEntity
  8
LAYER-006
  6
Continuous
 62
     1
100
AcDbLine
 10
-117.0444333823252
 20
65.18401799029329
 30
0.0
 11
-113.839305022876
 21
65.18401799029329
 31
0.0
  0
LINE
  5
427
330
1F
100
AcDbEntity
  8
LAYER-006
  6
Continuous
 62
     1
100
AcDbLine
 10
-142.5999895760751
 20
65.18401799029329
 30
0.0
 11
-125.3777665613375
 21
65.18401799029329
 31
0.0
  0
LINE
  5
428
330
1F
100
AcDbEntity
  8
LAYER-006
  6
Continuous
 62
     1
100
AcDbLine
 10
-260.0999890664816
 20
-43.14931333686711
 30
0.0
 11
-110.0999890664816
 21
-43.14931333686711
 31
0.0
  0
LINE
  5
429
330
1F
100
AcDbEntity
  8
LAYER-006
  6
Continuous
 62
     1
100
AcDbLine
 10
-260.0999890664816
 20
-41.76042447369848
 30
0.0
 11
-110.0999890664816
 21
-41.76042447369848
 31
0.0
  0
LINE
  5
42A
330
1F
100
AcDbEntity
  8
LAYER-006
  6
Continuous
 62
     1
100
AcDbLine
 10
-117.0444333823252
 20
-65.37153514756686
 30
0.0
 11
-113.8393022450982
 21
-65.37153514756686
 31
0.0
  0
LINE
  5
42B
330
1F
100
AcDbEntity
  8
LAYER-006
  6
Continuous
 62
     1
100
AcDbLine
 10
-142.5999895760751
 20
-65.37153514756686
 30
0.0
 11
-125.3777637835597
 21
-65.37153514756686
 31
0.0
  0
LINE
  5
42C
330
1F
100
AcDbEntity
  8
LAYER-007
  6
CENTER
 62
     4
100
AcDbLine
 10
-157.3222118031071
 20
-0.093758578636681
 30
0.0
 11
-110.0999890664816
 21
-0.093758578636681
 31
0.0
  0
LINE
  5
42D
330
1F
100
AcDbEntity
  8
LAYER-007
  6
CENTER
 62
     4
100
AcDbLine
 10
-260.0999890664816
 20
-0.093758578636681
 30
0.0
 11
-212.8777691076339
 21
-0.093758578636681
 31
0.0
  0
LINE
  5
42E
330
1F
100
AcDbEntity
  8
LAYER-006
  6
Continuous
 62
     1
100
AcDbLine
 10
-168.1555457691905
 20
65.18401799029329
 30
0.0
 11
-150.9333227547984
 21
65.18401799029329
 31
0.0
  0
LINE
  5
42F
330
1F
100
AcDbEntity
  8
LAYER-006
  6
Continuous
 62
     1
100
AcDbLine
 10
-193.7111019625949
 20
65.18401799029329
 30
0.0
 11
-176.4888789482027
 21
65.18401799029329
 31
0.0
  0
LINE
  5
430
330
1F
100
AcDbEntity
  8
LAYER-006
  6
Continuous
 62
     1
100
AcDbLine
 10
-219.2666581559992
 20
65.18401799029329
 30
0.0
 11
-202.0444351416072
 21
65.18401799029329
 31
0.0
  0
LINE
  5
431
330
1F
100
AcDbEntity
  8
LAYER-006
  6
Continuous
 62
     1
100
AcDbLine
 10
-219.2666581559993
 20
-65.37153514756686
 30
0.0
 11
-202.0444351416073
 21
-65.37153514756686
 31
0.0
  0
LINE
  5
432
330
1F
100
AcDbEntity
  8
LAYER-006
  6
Continuous
 62
     1
100
AcDbLine
 10
-193.711101962595
 20
-65.37153514756686
 30
0.0
 11
-176.4888789482029
 21
-65.37153514756686
 31
0.0
  0
LINE
  5
433
330
1F
100
AcDbEntity
  8
LAYER-006
  6
Continuous
 62
     1
100
AcDbLine
 10
-168.1555457691906
 20
-65.37153514756686
 30
0.0
 11
-150.9333227547986
 21
-65.37153514756686
 31
0.0
  0
LINE
  5
434
330
1F
100
AcDbEntity
  8
LAYER-006
  6
Continuous
 62
     1
100
AcDbLine
 10
43.61494273779182
 20
58.23957861272136
 30
0.0
 11
-23.05172007090907
 21
58.23957861272136
 31
0.0
  0
LINE
  5
435
330
1F
100
AcDbEntity
  8
LAYER-006
  6
Continuous
 62
     1
100
AcDbLine
 10
43.61494273779182
 20
-58.42709299221691
 30
0.0
 11
-23.05172007090907
 21
-58.42709299221691
 31
0.0
  0
LINE
  5
436
330
1F
100
AcDbEntity
  8
LAYER-033
  6
Continuous
 62
     1
100
AcDbLine
 10
-42.4970135416895
 20
74.90624281025217
 30
0.0
 11
43.61478973059123
 21
74.90624281025217
 31
0.0
  0
LINE
  5
437
330
1F
100
AcDbEntity
  8
LAYER-033
  6
Continuous
 62
     1
100
AcDbLine
 10
-42.4977856316966
 20
-75.09375965230339
 30
0.0
 11
43.61170122506026
 21
-75.09375965230339
 31
0.0
  0
LINE
  5
438
330
1F
100
AcDbEntity
  8
LAYER-007
  6
CENTER
 62
     4
100
AcDbLine
 10
-59.16283185033566
 20
-0.093758578636681
 30
0.0
 11
65.83716814931445
 21
-0.093758578636681
 31
0.0
  0
LINE
  5
439
330
1F
100
AcDbEntity
  8
LAYER-033
  6
CENTER
 62
     1
100
AcDbLine
 10
149.7521082447144
 20
64.90624142136332
 30
0.0
 11
149.7521082447144
 21
55.73957352012874
 31
0.0
  0
LINE
  5
43A
330
1F
100
AcDbEntity
  8
LAYER-033
  6
CENTER
 62
     1
100
AcDbLine
 10
140.2521082447142
 20
64.90624142136332
 30
0.0
 11
140.2521082447142
 21
55.73957352012874
 31
0.0
  0
LINE
  5
43B
330
1F
100
AcDbEntity
  8
LAYER-033
  6
PHANTOM
 62
     1
100
AcDbLine
 10
199.7521082447144
 20
64.90624142136332
 30
0.0
 11
199.7521082447144
 21
55.73957352012874
 31
0.0
  0
LINE
  5
43C
330
1F
100
AcDbEntity
  8
LAYER-033
  6
PHANTOM
 62
     1
100
AcDbLine
 10
190.2521082447144
 20
64.90624142136332
 30
0.0
 11
190.2521082447144
 21
55.73957352012874
 31
0.0
  0
LINE
  5
43D
330
1F
100
AcDbEntity
  8
LAYER-006
  6
PHANTOM
 62
     1
100
AcDbLine
 10
140.2521082447142
 20
-65.09375857863668
 30
0.0
 11
140.2521082447142
 21
-55.92709067740216
 31
0.0
  0
LINE
  5
43E
330
1F
100
AcDbEntity
  8
LAYER-006
  6
PHANTOM
 62
     1
100
AcDbLine
 10
149.7521082447142
 20
-65.09375857863668
 30
0.0
 11
149.7521082447142
 21
-55.92709067740216
 31
0.0
  0
LINE
  5
43F
330
1F
100
AcDbEntity
  8
LAYER-006
  6
PHANTOM
 62
     1
100
AcDbLine
 10
190.2521082447142
 20
-65.09375857863668
 30
0.0
 11
190.2521082447142
 21
-55.92709067740216
 31
0.0
  0
LINE
  5
440
330
1F
100
AcDbEntity
  8
LAYER-006
  6
PHANTOM
 62
     1
100
AcDbLine
 10
199.7521082447142
 20
-65.09375857863668
 30
0.0
 11
199.7521082447142
 21
-55.92709067740216
 31
0.0
  0
LINE
  5
441
330
1F
100
AcDbEntity
  8
LAYER-006
  6
Continuous
 62
     1
100
AcDbLine
 10
63.83716814931444
 20
-65.09375857863668
 30
0.0
 11
63.83716814931444
 21
-32.09375857863668
 31
0.0
  0
LINE
  5
442
330
1F
100
AcDbEntity
  8
LAYER-006
  6
Continuous
 62
     1
100
AcDbLine
 10
43.61494273779181
 20
-32.09375857863668
 30
0.0
 11
63.83716814931444
 21
-32.09375857863668
 31
0.0
  0
LINE
  5
443
330
1F
100
AcDbEntity
  8
LAYER-006
  6
Continuous
 62
     1
100
AcDbLine
 10
43.61494273779181
 20
29.90624142136332
 30
0.0
 11
63.83716814931444
 21
29.90624142136332
 31
0.0
  0
LINE
  5
444
330
1F
100
AcDbEntity
  8
LAYER-006
  6
PHANTOM
 62
     1
100
AcDbLine
 10
219.1132208536509
 20
64.90624142136332
 30
0.0
 11
219.1132208536509
 21
-65.09375857863668
 31
0.0
  0
LINE
  5
445
330
1F
100
AcDbEntity
  8
LAYER-006
  6
PHANTOM
 62
     1
100
AcDbLine
 10
120.4095165703862
 20
-65.09375857863668
 30
0.0
 11
120.4095165703862
 21
64.90624142136332
 31
0.0
  0
LINE
  5
446
330
1F
100
AcDbEntity
  8
LAYER-006
  6
Continuous
 62
     1
100
AcDbLine
 10
65.83716814931445
 20
64.90624142136332
 30
0.0
 11
65.83716814931445
 21
-65.09375857863668
 31
0.0
  0
TEXT
  5
447
330
1F
100
AcDbEntity
  8
LAYER-007
  6
Continuous
 62
     4
100
AcDbText
 10
-201.3689910932174
 20
-5.371539036455658
 30
0.0
 40
11.24999701388895
  1
N P
 41
1.666666
  7
STRING_H
 11
-201.3689910932174
 21
-5.371539036455658
 31
0.0
100
AcDbText
 73
     1
  0
TEXT
  5
448
330
1F
100
AcDbEntity
  8
LAYER-007
  6
Continuous
 62
     4
100
AcDbText
 10
-251.3300421483614
 20
-53.07792396074059
 30
0.0
 40
7.638888747427994
  1
R
 41
1.272727272727273
  7
STRING_H
 11
-251.3300421483614
 21
-53.07792396074059
 31
0.0
100
AcDbText
 73
     1
  0
TEXT
  5
449
330
1F
100
AcDbEntity
  8
LAYER-007
  6
Continuous
 62
     4
100
AcDbText
 10
-225.7753373627012
 20
-53.07792404742799
 30
0.0
 40
7.638888747427994
  1
U
 41
1.272727272727273
  7
STRING_H
 11
-225.7753373627012
 21
-53.07792404742799
 31
0.0
100
AcDbText
 73
     1
  0
TEXT
  5
44A
330
1F
100
AcDbEntity
  8
LAYER-007
  6
Continuous
 62
     4
100
AcDbText
 10
-200.2189325393308
 20
-53.07792396074059
 30
0.0
 40
7.638888747427994
  1
S
 41
1.272727272727273
  7
STRING_H
 11
-200.2189325393308
 21
-53.07792396074059
 31
0.0
100
AcDbText
 73
     1
  0
TEXT
  5
44B
330
1F
100
AcDbEntity
  8
LAYER-007
  6
Continuous
 62
     4
100
AcDbText
 10
-174.6642249758925
 20
-53.07792404742799
 30
0.0
 40
7.638888747427994
  1
V
 41
1.272727272727273
  7
STRING_H
 11
-174.6642249758925
 21
-53.07792404742799
 31
0.0
100
AcDbText
 73
     1
  0
TEXT
  5
44C
330
1F
100
AcDbEntity
  8
LAYER-007
  6
Continuous
 62
     4
100
AcDbText
 10
-149.1078201522328
 20
-53.07792396074059
 30
0.0
 40
7.638888747427994
  1
T
 41
1.272727272727273
  7
STRING_H
 11
-149.1078201522328
 21
-53.07792396074059
 31
0.0
100
AcDbText
 73
     1
  0
TEXT
  5
44D
330
1F
100
AcDbEntity
  8
LAYER-007
  6
Continuous
 62
     4
100
AcDbText
 10
-123.5531098112493
 20
-53.07792404742799
 30
0.0
 40
7.638888747427994
  1
W
 41
1.272727272727273
  7
STRING_H
 11
-123.5531098112493
 21
-53.07792404742799
 31
0.0
100
AcDbText
 73
     1
  0
TEXT
  5
44E
330
1F
100
AcDbEntity
  8
LAYER-008
  6
Continuous
 62
     4
100
AcDbText
 10
157.3146082447143
 20
-82.68290476885429
 30
0.0
 40
3.5
  1
取付穴寸法
  7
STRING_H
 72
     1
 11
170.0021082447143
 21
-82.68290476885429
 31
0.0
100
AcDbText
 73
     1
  0
TEXT
  5
44F
330
1F
100
AcDbEntity
  8
LAYER-033
  6
Continuous
 62
     7
100
AcDbText
 10
-78.59006319201528
 20
-233.7017527596956
 30
0.0
 40
4.0
  1
２００／２２０Ｖ　５０／６０Ｈｚ　２．２～３．７ｋＷ
  7
STRING_H
 11
-78.59006319201528
 21
-231.7017527596956
 31
0.0
100
AcDbText
 73
     2
  0
TEXT
  5
450
330
1F
100
AcDbEntity
  8
LAYER-033
  6
Continuous
 62
     7
100
AcDbText
 10
-78.59006319201528
 20
-241.7872028606628
 30
0.0
 40
4.0
  1
質　　量　　　８㎏
  7
STRING_H
 11
-78.59006319201528
 21
-239.7872028606628
 31
0.0
100
AcDbText
 73
     2
  0
TEXT
  5
451
330
1F
100
AcDbEntity
  8
LAYER-033
  6
Continuous
 62
     7
100
AcDbText
 10
-78.59006319201528
 20
-225.6163026583913
 30
0.0
 40
4.0
  1
ＫＲ－１Ｐ(低　圧)
  7
STRING_H
 11
-78.59006319201528
 21
-223.6163026583913
 31
0.0
100
AcDbText
 73
     2
  0
DIMENSION
  5
461
330
1F
100
AcDbEntity
  8
LAYER-035
  6
Continuous
 62
     5
100
AcDbDimension
  2
*D02
 10
232.2890048531374
 20
-57.5937585786367
 30
0.0
 11
232.2890048531374
 21
-0.0937585786366739
 31
0.0
 70
   129
  1
<>
 71
     0
 42
0.0
  3
DIO_DIMSTYLE
100
AcDbAlignedDimension
 13
201.6101954664906
 23
57.40624142136332
 33
0.0
 14
201.6101954664906
 24
-57.5937585786367
 34
0.0
1001
ACAD
1000
DSTYLE
1002
{
1070
    41
1040
4.0
1070
    44
1040
1.0
1070
    42
1040
1.0
1070
     6
1000
_OPEN
1070
     7
1000
_OPEN
1070
   173
1070
     1
1070
   140
1040
4.0
1070
   178
1070
     5
1070
   147
1040
0.5
1002
}
  0
DIMENSION
  5
46B
330
1F
100
AcDbEntity
  8
LAYER-035
  6
Continuous
 62
     5
100
AcDbDimension
  2
*D13
 10
145.0021082447143
 20
78.16879448606696
 30
0.0
 11
170.0021082447143
 21
78.16879448606696
 31
0.0
 70
   129
  1
<>
 71
     0
 42
0.0
  3
DIO_DIMSTYLE
100
AcDbAlignedDimension
 13
195.0021082447144
 23
64.01432864313964
 33
0.0
 14
145.0021082447143
 24
64.01432864313964
 34
0.0
1001
ACAD
1000
DSTYLE
1002
{
1070
    41
1040
4.0
1070
    44
1040
1.0
1070
    42
1040
1.0
1070
     6
1000
_OPEN
1070
     7
1000
_OPEN
1070
   173
1070
     1
1070
   140
1040
4.0
1070
   178
1070
     5
1070
   147
1040
0.5
1002
}
  0
DIMENSION
  5
477
330
1F
100
AcDbEntity
  8
LAYER-035
  6
Continuous
 62
     5
100
AcDbDimension
  2
*D24
 10
199.7521082447144
 20
70.72074388648062
 30
0.0
 11
209.2703600387833
 21
70.72074388648062
 31
0.0
 70
   129
  1
<>
 71
     0
 42
0.0
  3
DIO_DIMSTYLE
100
AcDbAlignedDimension
 13
190.2521082447144
 23
66.57290932259789
 33
0.0
 14
199.7521082447144
 24
66.57290932259789
 34
0.0
1001
ACAD
1000
DSTYLE
1002
{
1070
    41
1040
4.0
1070
    44
1040
1.0
1070
    42
1040
1.0
1070
     6
1000
_OPEN
1070
     7
1000
_OPEN
1070
   173
1070
     1
1070
   140
1040
4.0
1070
   178
1070
     5
1070
   147
1040
0.5
1002
}
  0
DIMENSION
  5
481
330
1F
100
AcDbEntity
  8
LAYER-035
  6
Continuous
 62
     5
100
AcDbDimension
  2
*D35
 10
-110.0999890664816
 20
94.07249592659289
 30
0.0
 11
-185.0999890664816
 21
94.07249592659289
 31
0.0
 70
   129
  1
<>
 71
     0
 42
0.0
  3
DIO_DIMSTYLE
100
AcDbAlignedDimension
 13
-260.0999890664816
 23
65.18401799029329
 33
0.0
 14
-110.0999890664816
 24
65.18401799029329
 34
0.0
1001
ACAD
1000
DSTYLE
1002
{
1070
    41
1040
4.0
1070
    44
1040
1.0
1070
    42
1040
1.0
1070
     6
1000
_OPEN
1070
     7
1000
_OPEN
1070
   173
1070
     1
1070
   140
1040
4.0
1070
   178
1070
     5
1070
   147
1040
0.5
1002
}
  0
DIMENSION
  5
48B
330
1F
100
AcDbEntity
  8
LAYER-035
  6
Continuous
 62
     5
100
AcDbDimension
  2
*D46
 10
-88.209802681
 20
-75.09375718974783
 30
0.0
 11
-88.209802681
 21
-0.093758578636681
 31
0.0
 70
   128
  1
<>
 71
     0
 42
0.0
  3
DIO_DIMSTYLE
100
AcDbAlignedDimension
 13
-121.2110999718881
 23
74.90624003247447
 33
0.0
 14
-121.2110971940536
 24
-75.09375718974783
 34
0.0
 50
90.0
100
AcDbRotatedDimension
1001
ACAD
1000
DSTYLE
1002
{
1070
    41
1040
4.0
1070
    44
1040
1.0
1070
    42
1040
1.0
1070
     6
1000
_OPEN
1070
     7
1000
_OPEN
1070
   173
1070
     1
1070
   140
1040
4.0
1070
   178
1070
     5
1070
   147
1040
0.5
1002
}
  0
DIMENSION
  5
495
330
1F
100
AcDbEntity
  8
LAYER-035
  6
Continuous
 62
     5
100
AcDbDimension
  2
*D57
 10
-59.16283185033566
 20
94.07249592659289
 30
0.0
 11
3.337168149489393
 21
94.07249592659289
 31
0.0
 70
   128
  1
<>
 71
     0
 42
0.0
  3
DIO_DIMSTYLE
100
AcDbAlignedDimension
 13
65.83716814931445
 23
66.57290932259789
 33
0.0
 14
-59.16283185033566
 24
59.62846752733039
 34
0.0
100
AcDbRotatedDimension
1001
ACAD
1000
DSTYLE
1002
{
1070
    41
1040
4.0
1070
    44
1040
1.0
1070
    42
1040
1.0
1070
     6
1000
_OPEN
1070
     7
1000
_OPEN
1070
   173
1070
     1
1070
   140
1040
4.0
1070
   178
1070
     5
1070
   147
1040
0.5
1002
}
  0
ENDSEC
  0
SECTION
  2
OBJECTS
  0
DICTIONARY
  5
C
330
0
100
AcDbDictionary
281
     1
  3
ACAD_GROUP
350
D
  3
ACAD_LAYOUT
350
1A
  3
ACAD_MLINESTYLE
350
17
  3
ACAD_PLOTSETTINGS
350
19
  3
ACAD_PLOTSTYLENAME
350
E
  0
DICTIONARY
  5
D
102
{ACAD_REACTORS
330
C
102
}
330
C
100
AcDbDictionary
281
     1
  0
DICTIONARY
  5
1A
102
{ACAD_REACTORS
330
C
102
}
330
C
100
AcDbDictionary
281
     1
  3
Model
350
22
  3
ﾚｲｱｳﾄ1
350
1E
  3
ﾚｲｱｳﾄ2
350
26
  0
DICTIONARY
  5
17
102
{ACAD_REACTORS
330
C
102
}
330
C
100
AcDbDictionary
281
     1
  3
Standard
350
18
  0
DICTIONARY
  5
19
102
{ACAD_REACTORS
330
C
102
}
330
C
100
AcDbDictionary
281
     1
  0
ACDBDICTIONARYWDFLT
  5
E
102
{ACAD_REACTORS
330
C
102
}
330
C
100
AcDbDictionary
281
     1
  3
Normal
350
F
100
AcDbDictionaryWithDefault
340
F
  0
LAYOUT
  5
22
102
{ACAD_REACTORS
330
1A
102
}
330
1A
100
AcDbPlotSettings
  1

  2
DWF ePlot.pc3
  4
ANSI_A_(8.50_x_11.00_Inches)
  6

 40
5.793749809265137
 41
17.79375076293945
 42
5.793746948242188
 43
17.79376220703125
 44
215.8999938964844
 45
279.3999938964844
 46
0.0
 47
0.0
 48
0.0
 49
0.0
140
0.0
141
0.0
142
1.0
143
39.26051453979704
 70
 11952
 72
     0
 73
     1
 74
     0
  7
acad.ctb
 75
     0
147
0.0254708837039396
148
-1793.922354682663
149
1.490346453088415
100
AcDbLayout
  1
Model
 70
     1
 71
     0
 10
-594.5
 20
-420.5
 11
594.5
 21
420.5
 12
0.0
 22
0.0
 32
0.0
 14
-594.5
 24
-420.5
 34
0.0
 15
594.5
 25
420.5
 35
0.0
146
0.0
 13
0.0
 23
0.0
 33
0.0
 16
1.0
 26
0.0
 36
0.0
 17
0.0
 27
1.0
 37
0.0
 76
     0
330
1F
  0
LAYOUT
  5
1E
102
{ACAD_REACTORS
330
1A
102
}
330
1A
100
AcDbPlotSettings
  1

  2
RICOH IPSiO NX700
  4

  6

 40
0.0
 41
0.0
 42
0.0
 43
0.0
 44
0.0
 45
0.0
 46
0.0
 47
0.0
 48
0.0
 49
0.0
140
0.0
141
0.0
142
1.0
143
1.0
 70
   688
 72
     0
 73
     0
 74
     5
  7
acad.ctb
 75
    16
147
1.0
148
0.0
149
0.0
100
AcDbLayout
  1
ﾚｲｱｳﾄ1
 70
     1
 71
     1
 10
-594.5
 20
-420.5
 11
594.5
 21
420.5
 12
0.0
 22
0.0
 32
0.0
 14
-594.5
 24
-420.5
 34
0.0
 15
594.5
 25
420.5
 35
0.0
146
0.0
 13
0.0
 23
0.0
 33
0.0
 16
1.0
 26
0.0
 36
0.0
 17
0.0
 27
1.0
 37
0.0
 76
     0
330
1B
  0
LAYOUT
  5
26
102
{ACAD_REACTORS
330
1A
102
}
330
1A
100
AcDbPlotSettings
  1

  2
RICOH IPSiO NX700
  4

  6

 40
0.0
 41
0.0
 42
0.0
 43
0.0
 44
0.0
 45
0.0
 46
0.0
 47
0.0
 48
0.0
 49
0.0
140
0.0
141
0.0
142
1.0
143
1.0
 70
   688
 72
     0
 73
     0
 74
     5
  7
acad.ctb
 75
    16
147
1.0
148
0.0
149
0.0
100
AcDbLayout
  1
ﾚｲｱｳﾄ2
 70
     1
 71
     2
 10
0.0
 20
0.0
 11
12.0
 21
9.0
 12
0.0
 22
0.0
 32
0.0
 14
0.0
 24
0.0
 34
0.0
 15
0.0
 25
0.0
 35
0.0
146
0.0
 13
0.0
 23
0.0
 33
0.0
 16
1.0
 26
0.0
 36
0.0
 17
0.0
 27
1.0
 37
0.0
 76
     0
330
23
  0
MLINESTYLE
  5
18
102
{ACAD_REACTORS
330
17
102
}
330
17
100
AcDbMlineStyle
  2
STANDARD
 70
     0
  3

 62
   256
 51
90.0
 52
90.0
 71
     2
 49
0.5
 62
   256
  6
BYLAYER
 49
-0.5
 62
   256
  6
BYLAYER
  0
ACDBPLACEHOLDER
  5
F
102
{ACAD_REACTORS
330
E
102
}
330
E
  0
ENDSEC
  0
EOF
