  0
SECTION
  2
HEADER
  9
$ACADVER
  1
AC1015
  9
$ACADMAINTVER
 70
     6
  9
$DWGCODEPAGE
  3
ANSI_932
  9
$INSBASE
 10
0.0
 20
0.0
 30
0.0
  9
$EXTMIN
 10
-594.5
 20
-420.5
 30
0.0
  9
$EXTMAX
 10
594.5
 20
420.5
 30
0.0
  9
$LIMMIN
 10
-594.5
 20
-420.5
  9
$LIMMAX
 10
594.5
 20
420.5
  9
$ORTHOMODE
 70
     0
  9
$REGENMODE
 70
     1
  9
$FILLMODE
 70
     1
  9
$QTEXTMODE
 70
     0
  9
$MIRRTEXT
 70
     1
  9
$LTSCALE
 40
4.0
  9
$ATTMODE
 70
     1
  9
$TEXTSIZE
 40
2.5
  9
$TRACEWID
 40
1.0
  9
$TEXTSTYLE
  7
Standard
  9
$CLAYER
  8
0
  9
$CELTYPE
  6
ByLayer
  9
$CECOLOR
 62
   256
  9
$CELTSCALE
 40
1.0
  9
$DISPSILH
 70
     0
  9
$DIMSCALE
 40
1.0
  9
$DIMASZ
 40
4.0
  9
$DIMEXO
 40
1.0
  9
$DIMDLI
 40
3.75
  9
$DIMRND
 40
0.1
  9
$DIMDLE
 40
0.0
  9
$DIMEXE
 40
1.0
  9
$DIMTP
 40
0.0
  9
$DIMTM
 40
0.0
  9
$DIMTXT
 40
2.5
  9
$DIMCEN
 40
2.5
  9
$DIMTSZ
 40
0.0
  9
$DIMTOL
 70
     0
  9
$DIMLIM
 70
     0
  9
$DIMTIH
 70
     0
  9
$DIMTOH
 70
     0
  9
$DIMSE1
 70
     0
  9
$DIMSE2
 70
     0
  9
$DIMTAD
 70
     1
  9
$DIMZIN
 70
     8
  9
$DIMBLK
  1

  9
$DIMASO
 70
     1
  9
$DIMSHO
 70
     1
  9
$DIMPOST
  1

  9
$DIMAPOST
  1

  9
$DIMALT
 70
     0
  9
$DIMALTD
 70
     3
  9
$DIMALTF
 40
0.03937007874016
  9
$DIMLFAC
 40
1.0
  9
$DIMTOFL
 70
     1
  9
$DIMTVP
 40
0.0
  9
$DIMTIX
 70
     0
  9
$DIMSOXD
 70
     0
  9
$DIMSAH
 70
     1
  9
$DIMBLK1
  1

  9
$DIMBLK2
  1

  9
$DIMSTYLE
  2
ISO-25
  9
$DIMCLRD
 70
     0
  9
$DIMCLRE
 70
     0
  9
$DIMCLRT
 70
     0
  9
$DIMTFAC
 40
1.0
  9
$DIMGAP
 40
0.5
  9
$DIMJUST
 70
     0
  9
$DIMSD1
 70
     0
  9
$DIMSD2
 70
     0
  9
$DIMTOLJ
 70
     0
  9
$DIMTZIN
 70
     8
  9
$DIMALTZ
 70
     0
  9
$DIMALTTZ
 70
     0
  9
$DIMUPT
 70
     1
  9
$DIMDEC
 70
     1
  9
$DIMTDEC
 70
     2
  9
$DIMALTU
 70
     2
  9
$DIMALTTD
 70
     3
  9
$DIMTXSTY
  7
Standard
  9
$DIMAUNIT
 70
     0
  9
$DIMADEC
 70
     1
  9
$DIMALTRND
 40
0.0
  9
$DIMAZIN
 70
     2
  9
$DIMDSEP
 70
    46
  9
$DIMATFIT
 70
     0
  9
$DIMFRAC
 70
     0
  9
$DIMLDRBLK
  1

  9
$DIMLUNIT
 70
     2
  9
$DIMLWD
 70
    -2
  9
$DIMLWE
 70
    -2
  9
$DIMTMOVE
 70
     0
  9
$LUNITS
 70
     2
  9
$LUPREC
 70
     4
  9
$SKETCHINC
 40
1.0
  9
$FILLETRAD
 40
10.0
  9
$AUNITS
 70
     0
  9
$AUPREC
 70
     0
  9
$MENU
  1
.
  9
$ELEVATION
 40
0.0
  9
$PELEVATION
 40
0.0
  9
$THICKNESS
 40
0.0
  9
$LIMCHECK
 70
     0
  9
$CHAMFERA
 40
10.0
  9
$CHAMFERB
 40
10.0
  9
$CHAMFERC
 40
20.0
  9
$CHAMFERD
 40
0.0
  9
$SKPOLY
 70
     0
  9
$TDCREATE
 40
2455091.0
  9
$TDUCREATE
 40
2451562.87528772
  9
$TDUPDATE
 40
2455120.0
  9
$TDUUPDATE
 40
2452026.917654526
  9
$TDINDWG
 40
0.0010008681
  9
$TDUSRTIMER
 40
0.0009680671
  9
$USRTIMER
 70
     1
  9
$ANGBASE
 50
0.0
  9
$ANGDIR
 70
     0
  9
$PDMODE
 70
     0
  9
$PDSIZE
 40
0.0
  9
$PLINEWID
 40
0.0
  9
$SPLFRAME
 70
     0
  9
$SPLINETYPE
 70
     6
  9
$SPLINESEGS
 70
     8
  9
$HANDSEED
  5
460
  9
$SURFTAB1
 70
     6
  9
$SURFTAB2
 70
     6
  9
$SURFTYPE
 70
     6
  9
$SURFU
 70
     6
  9
$SURFV
 70
     6
  9
$UCSBASE
  2

  9
$UCSNAME
  2

  9
$UCSORG
 10
0.0
 20
0.0
 30
0.0
  9
$UCSXDIR
 10
1.0
 20
0.0
 30
0.0
  9
$UCSYDIR
 10
0.0
 20
1.0
 30
0.0
  9
$UCSORTHOREF
  2

  9
$UCSORTHOVIEW
 70
     0
  9
$UCSORGTOP
 10
0.0
 20
0.0
 30
0.0
  9
$UCSORGBOTTOM
 10
0.0
 20
0.0
 30
0.0
  9
$UCSORGLEFT
 10
0.0
 20
0.0
 30
0.0
  9
$UCSORGRIGHT
 10
0.0
 20
0.0
 30
0.0
  9
$UCSORGFRONT
 10
0.0
 20
0.0
 30
0.0
  9
$UCSORGBACK
 10
0.0
 20
0.0
 30
0.0
  9
$PUCSBASE
  2

  9
$PUCSNAME
  2

  9
$PUCSORG
 10
0.0
 20
0.0
 30
0.0
  9
$PUCSXDIR
 10
1.0
 20
0.0
 30
0.0
  9
$PUCSYDIR
 10
0.0
 20
1.0
 30
0.0
  9
$PUCSORTHOREF
  2

  9
$PUCSORTHOVIEW
 70
     0
  9
$PUCSORGTOP
 10
0.0
 20
0.0
 30
0.0
  9
$PUCSORGBOTTOM
 10
0.0
 20
0.0
 30
0.0
  9
$PUCSORGLEFT
 10
0.0
 20
0.0
 30
0.0
  9
$PUCSORGRIGHT
 10
0.0
 20
0.0
 30
0.0
  9
$PUCSORGFRONT
 10
0.0
 20
0.0
 30
0.0
  9
$PUCSORGBACK
 10
0.0
 20
0.0
 30
0.0
  9
$USERI1
 70
     0
  9
$USERI2
 70
     0
  9
$USERI3
 70
     0
  9
$USERI4
 70
     0
  9
$USERI5
 70
     0
  9
$USERR1
 40
0.0
  9
$USERR2
 40
0.0
  9
$USERR3
 40
0.0
  9
$USERR4
 40
0.0
  9
$USERR5
 40
0.0
  9
$WORLDVIEW
 70
     1
  9
$SHADEDGE
 70
     3
  9
$SHADEDIF
 70
    70
  9
$TILEMODE
 70
     1
  9
$MAXACTVP
 70
    64
  9
$PINSBASE
 10
0.0
 20
0.0
 30
0.0
  9
$PLIMCHECK
 70
     0
  9
$PEXTMIN
 10
-594.5
 20
-420.5
 30
0.0
  9
$PEXTMAX
 10
594.5
 20
420.5
 30
0.0
  9
$PLIMMIN
 10
-594.5
 20
-420.5
  9
$PLIMMAX
 10
594.5
 20
420.5
  9
$UNITMODE
 70
     0
  9
$VISRETAIN
 70
     1
  9
$PLINEGEN
 70
     0
  9
$PSLTSCALE
 70
     1
  9
$TREEDEPTH
 70
  3020
  9
$CMLSTYLE
  2
Standard
  9
$CMLJUST
 70
     0
  9
$CMLSCALE
 40
20.0
  9
$PROXYGRAPHICS
 70
     1
  9
$MEASUREMENT
 70
     1
  9
$CELWEIGHT
370
    -1
  9
$ENDCAPS
280
     0
  9
$JOINSTYLE
280
     0
  9
$LWDISPLAY
290
     0
  9
$INSUNITS
 70
     4
  9
$HYPERLINKBASE
  1

  9
$STYLESHEET
  1

  9
$XEDIT
290
     1
  9
$CEPSNTYPE
380
     0
  9
$PSTYLEMODE
290
     1
  9
$FINGERPRINTGUID
  2
{B6423330-CE35-11D3-AA43-00E0292263AD}
  9
$VERSIONGUID
  2
{EAA0F794-BAE8-4B09-85E0-65C527BE2B8E}
  9
$EXTNAMES
290
     1
  9
$PSVPSCALE
 40
0.0
  9
$OLESTARTUP
290
     0
  0
ENDSEC
  0
SECTION
  2
CLASSES
  0
CLASS
  1
ACDBDICTIONARYWDFLT
  2
AcDbDictionaryWithDefault
  3
ObjectDBX Classes
 90
        0
280
     0
281
     0
  0
CLASS
  1
ACDBPLACEHOLDER
  2
AcDbPlaceHolder
  3
ObjectDBX Classes
 90
        0
280
     0
281
     0
  0
CLASS
  1
LAYOUT
  2
AcDbLayout
  3
ObjectDBX Classes
 90
        0
280
     0
281
     0
  0
ENDSEC
  0
SECTION
  2
TABLES
  0
TABLE
  2
VPORT
  5
8
330
0
100
AcDbSymbolTable
 70
     3
  0
VPORT
  5
30
330
8
100
AcDbSymbolTableRecord
100
AcDbViewportTableRecord
  2
*Active
 70
     0
 10
0.0
 20
0.0
 11
1.0
 21
1.0
 12
259.0560661764706
 22
148.5
 13
0.0
 23
0.0
 14
10.0
 24
10.0
 15
10.0
 25
10.0
 16
0.0
 26
0.0
 36
1.0
 17
0.0
 27
0.0
 37
0.0
 40
297.1173501144164
 41
1.268382352941176
 42
50.0
 43
0.0
 44
0.0
 50
0.0
 51
0.0
 71
     0
 72
   100
 73
     1
 74
     3
 75
     0
 76
     0
 77
     0
 78
     0
281
     0
 65
     1
110
0.0
120
0.0
130
0.0
111
1.0
121
0.0
131
0.0
112
0.0
122
1.0
132
0.0
 79
     0
146
0.0
  0
ENDTAB
  0
TABLE
  2
LTYPE
  5
5
330
0
100
AcDbSymbolTable
 70
    26
  0
LTYPE
  5
14
330
5
100
AcDbSymbolTableRecord
100
AcDbLinetypeTableRecord
  2
ByBlock
 70
     0
  3

 72
    65
 73
     0
 40
0.0
  0
LTYPE
  5
15
330
5
100
AcDbSymbolTableRecord
100
AcDbLinetypeTableRecord
  2
ByLayer
 70
     0
  3

 72
    65
 73
     0
 40
0.0
  0
LTYPE
  5
16
330
5
100
AcDbSymbolTableRecord
100
AcDbLinetypeTableRecord
  2
Continuous
 70
     0
  3
Solid line
 72
    65
 73
     0
 40
0.0
  0
LTYPE
  5
37
330
5
100
AcDbSymbolTableRecord
100
AcDbLinetypeTableRecord
  2
BORDER
 70
     0
  3
 __ __ . __ __ . __ __ . __ __ . __ __ . __ __
 72
    65
 73
     6
 40
1.75
 49
0.5
 74
     0
 49
-0.25
 74
     0
 49
0.5
 74
     0
 49
-0.25
 74
     0
 49
0.0
 74
     0
 49
-0.25
 74
     0
  0
LTYPE
  5
38
330
5
100
AcDbSymbolTableRecord
100
AcDbLinetypeTableRecord
  2
BORDER2
 70
     0
  3
__.__.__.__.__.__.__.__.__.__.__.__.__.__.__
 72
    65
 73
     6
 40
0.875
 49
0.25
 74
     0
 49
-0.125
 74
     0
 49
0.25
 74
     0
 49
-0.125
 74
     0
 49
0.0
 74
     0
 49
-0.125
 74
     0
  0
LTYPE
  5
39
330
5
100
AcDbSymbolTableRecord
100
AcDbLinetypeTableRecord
  2
BORDERX2
 70
     0
  3
____  ____  .  ____  ____  .  ____  ____  .
 72
    65
 73
     6
 40
3.5
 49
1.0
 74
     0
 49
-0.5
 74
     0
 49
1.0
 74
     0
 49
-0.5
 74
     0
 49
0.0
 74
     0
 49
-0.5
 74
     0
  0
LTYPE
  5
3A
330
5
100
AcDbSymbolTableRecord
100
AcDbLinetypeTableRecord
  2
CENTER
 70
     0
  3
____ _ ____ _ ____ _ ____ _ ____ _ ____ _ ____
 72
    65
 73
     4
 40
2.0
 49
1.25
 74
     0
 49
-0.25
 74
     0
 49
0.25
 74
     0
 49
-0.25
 74
     0
  0
LTYPE
  5
3B
330
5
100
AcDbSymbolTableRecord
100
AcDbLinetypeTableRecord
  2
CENTER2
 70
     0
  3
___ _ ___ _ ___ _ ___ _ ___ _ ___ _ ___ _ ___ 
 72
    65
 73
     4
 40
1.125
 49
0.75
 74
     0
 49
-0.125
 74
     0
 49
0.125
 74
     0
 49
-0.125
 74
     0
  0
LTYPE
  5
3C
330
5
100
AcDbSymbolTableRecord
100
AcDbLinetypeTableRecord
  2
CENTERX2
 70
     0
  3
________  __  ________  __  ________  __
 72
    65
 73
     4
 40
4.0
 49
2.5
 74
     0
 49
-0.5
 74
     0
 49
0.5
 74
     0
 49
-0.5
 74
     0
  0
LTYPE
  5
3D
330
5
100
AcDbSymbolTableRecord
100
AcDbLinetypeTableRecord
  2
DASHDOT
 70
     0
  3
__ . __ . __ . __ . __ . __ . __ . __ . __ .
 72
    65
 73
     4
 40
1.0
 49
0.5
 74
     0
 49
-0.25
 74
     0
 49
0.0
 74
     0
 49
-0.25
 74
     0
  0
LTYPE
  5
3E
330
5
100
AcDbSymbolTableRecord
100
AcDbLinetypeTableRecord
  2
DASHDOT2
 70
     0
  3
_._._._._._._._._._._._._._._._._._._._._._._.
 72
    65
 73
     4
 40
0.5
 49
0.25
 74
     0
 49
-0.125
 74
     0
 49
0.0
 74
     0
 49
-0.125
 74
     0
  0
LTYPE
  5
3F
330
5
100
AcDbSymbolTableRecord
100
AcDbLinetypeTableRecord
  2
DASHDOTX2
 70
     0
  3
____  .  ____  .  ____  .  ____  .  ____  .
 72
    65
 73
     4
 40
2.0
 49
1.0
 74
     0
 49
-0.5
 74
     0
 49
0.0
 74
     0
 49
-0.5
 74
     0
  0
LTYPE
  5
40
330
5
100
AcDbSymbolTableRecord
100
AcDbLinetypeTableRecord
  2
DASHED
 70
     0
  3
__ __ __ __ __ __ __ __ __ __ __ __ __ __ __
 72
    65
 73
     2
 40
0.75
 49
0.5
 74
     0
 49
-0.25
 74
     0
  0
LTYPE
  5
41
330
5
100
AcDbSymbolTableRecord
100
AcDbLinetypeTableRecord
  2
DASHED2
 70
     0
  3
_ _ _ _ _ _ _ _ _ _ _ _ _ _ _ _ _ _ _ _ _ _ _
 72
    65
 73
     2
 40
0.375
 49
0.25
 74
     0
 49
-0.125
 74
     0
  0
LTYPE
  5
42
330
5
100
AcDbSymbolTableRecord
100
AcDbLinetypeTableRecord
  2
DASHEDX2
 70
     0
  3
____  ____  ____  ____  ____  ____  ____  ____
 72
    65
 73
     2
 40
1.5
 49
1.0
 74
     0
 49
-0.5
 74
     0
  0
LTYPE
  5
43
330
5
100
AcDbSymbolTableRecord
100
AcDbLinetypeTableRecord
  2
DIVIDE
 70
     0
  3
____ . . ____ . . ____ . . ____ . . ____ . .
 72
    65
 73
     6
 40
1.25
 49
0.5
 74
     0
 49
-0.25
 74
     0
 49
0.0
 74
     0
 49
-0.25
 74
     0
 49
0.0
 74
     0
 49
-0.25
 74
     0
  0
LTYPE
  5
44
330
5
100
AcDbSymbolTableRecord
100
AcDbLinetypeTableRecord
  2
DIVIDE2
 70
     0
  3
__..__..__..__..__..__..__..__..__..__..__..__
 72
    65
 73
     6
 40
0.625
 49
0.25
 74
     0
 49
-0.125
 74
     0
 49
0.0
 74
     0
 49
-0.125
 74
     0
 49
0.0
 74
     0
 49
-0.125
 74
     0
  0
LTYPE
  5
45
330
5
100
AcDbSymbolTableRecord
100
AcDbLinetypeTableRecord
  2
DIVIDEX2
 70
     0
  3
________  .  .  ________  .  .  ________  .  .
 72
    65
 73
     6
 40
2.5
 49
1.0
 74
     0
 49
-0.5
 74
     0
 49
0.0
 74
     0
 49
-0.5
 74
     0
 49
0.0
 74
     0
 49
-0.5
 74
     0
  0
LTYPE
  5
46
330
5
100
AcDbSymbolTableRecord
100
AcDbLinetypeTableRecord
  2
DOT
 70
     0
  3
. . . . . . . . . . . . . . . . . . . . . . .
 72
    65
 73
     2
 40
0.25
 49
0.0
 74
     0
 49
-0.25
 74
     0
  0
LTYPE
  5
47
330
5
100
AcDbSymbolTableRecord
100
AcDbLinetypeTableRecord
  2
DOT2
 70
     0
  3
..............................................
 72
    65
 73
     2
 40
0.125
 49
0.0
 74
     0
 49
-0.125
 74
     0
  0
LTYPE
  5
48
330
5
100
AcDbSymbolTableRecord
100
AcDbLinetypeTableRecord
  2
DOTX2
 70
     0
  3
.  .  .  .  .  .  .  .  .  .  .  .  .  .  .  .
 72
    65
 73
     2
 40
0.5
 49
0.0
 74
     0
 49
-0.5
 74
     0
  0
LTYPE
  5
49
330
5
100
AcDbSymbolTableRecord
100
AcDbLinetypeTableRecord
  2
HIDDEN
 70
     0
  3
__ __ __ __ __ __ __ __ __ __ __ __ __ __ __
 72
    65
 73
     2
 40
0.375
 49
0.25
 74
     0
 49
-0.125
 74
     0
  0
LTYPE
  5
4A
330
5
100
AcDbSymbolTableRecord
100
AcDbLinetypeTableRecord
  2
HIDDEN2
 70
     0
  3
_ _ _ _ _ _ _ _ _ _ _ _ _ _ _ _ _ _ _ _ _ _ _
 72
    65
 73
     2
 40
0.1875
 49
0.125
 74
     0
 49
-0.0625
 74
     0
  0
LTYPE
  5
4B
330
5
100
AcDbSymbolTableRecord
100
AcDbLinetypeTableRecord
  2
HIDDENX2
 70
     0
  3
____ ____ ____ ____ ____ ____ ____ ____ ____
 72
    65
 73
     2
 40
0.75
 49
0.5
 74
     0
 49
-0.25
 74
     0
  0
LTYPE
  5
4C
330
5
100
AcDbSymbolTableRecord
100
AcDbLinetypeTableRecord
  2
PHANTOM
 70
     0
  3
______  __  __  ______  __  __  ______  __
 72
    65
 73
     6
 40
2.5
 49
1.25
 74
     0
 49
-0.25
 74
     0
 49
0.25
 74
     0
 49
-0.25
 74
     0
 49
0.25
 74
     0
 49
-0.25
 74
     0
  0
LTYPE
  5
4D
330
5
100
AcDbSymbolTableRecord
100
AcDbLinetypeTableRecord
  2
PHANTOM2
 70
     0
  3
___ _ _ ___ _ _ ___ _ _ ___ _ _ ___ _ _ ___ _
 72
    65
 73
     6
 40
1.25
 49
0.625
 74
     0
 49
-0.125
 74
     0
 49
0.125
 74
     0
 49
-0.125
 74
     0
 49
0.125
 74
     0
 49
-0.125
 74
     0
  0
LTYPE
  5
4E
330
5
100
AcDbSymbolTableRecord
100
AcDbLinetypeTableRecord
  2
PHANTOMX2
 70
     0
  3
____________    ____    ____    ____________
 72
    65
 73
     6
 40
5.0
 49
2.5
 74
     0
 49
-0.5
 74
     0
 49
0.5
 74
     0
 49
-0.5
 74
     0
 49
0.5
 74
     0
 49
-0.5
 74
     0
  0
LTYPE
  5
4F
330
5
100
AcDbSymbolTableRecord
100
AcDbLinetypeTableRecord
  2
CONTINUOUS2
 70
     0
  3
Solid line
 72
    65
 73
     0
 40
0.0
  0
ENDTAB
  0
TABLE
  2
LAYER
  5
2
330
0
100
AcDbSymbolTable
 70
   514
  0
LAYER
  5
10
330
2
100
AcDbSymbolTableRecord
100
AcDbLayerTableRecord
  2
0
 70
     0
 62
     7
  6
Continuous
370
    -3
390
F
  0
LAYER
  5
50
330
2
100
AcDbSymbolTableRecord
100
AcDbLayerTableRecord
  2
LAYER-001
 70
     0
 62
     7
  6
Continuous
370
    -3
390
F
  0
LAYER
  5
51
330
2
100
AcDbSymbolTableRecord
100
AcDbLayerTableRecord
  2
LAYER-002
 70
     0
 62
     7
  6
Continuous
370
    -3
390
F
  0
LAYER
  5
52
330
2
100
AcDbSymbolTableRecord
100
AcDbLayerTableRecord
  2
LAYER-003
 70
     0
 62
     7
  6
Continuous
370
    -3
390
F
  0
LAYER
  5
53
330
2
100
AcDbSymbolTableRecord
100
AcDbLayerTableRecord
  2
LAYER-004
 70
     0
 62
     7
  6
Continuous
370
    -3
390
F
  0
LAYER
  5
54
330
2
100
AcDbSymbolTableRecord
100
AcDbLayerTableRecord
  2
LAYER-005
 70
     0
 62
     7
  6
Continuous
370
    -3
390
F
  0
LAYER
  5
55
330
2
100
AcDbSymbolTableRecord
100
AcDbLayerTableRecord
  2
LAYER-006
 70
     0
 62
     7
  6
Continuous
370
    -3
390
F
  0
LAYER
  5
56
330
2
100
AcDbSymbolTableRecord
100
AcDbLayerTableRecord
  2
LAYER-007
 70
     0
 62
     7
  6
Continuous
370
    -3
390
F
  0
LAYER
  5
57
330
2
100
AcDbSymbolTableRecord
100
AcDbLayerTableRecord
  2
LAYER-008
 70
     0
 62
     7
  6
Continuous
370
    -3
390
F
  0
LAYER
  5
58
330
2
100
AcDbSymbolTableRecord
100
AcDbLayerTableRecord
  2
LAYER-009
 70
     0
 62
     7
  6
Continuous
370
    -3
390
F
  0
LAYER
  5
59
330
2
100
AcDbSymbolTableRecord
100
AcDbLayerTableRecord
  2
LAYER-010
 70
     0
 62
     7
  6
Continuous
370
    -3
390
F
  0
LAYER
  5
5A
330
2
100
AcDbSymbolTableRecord
100
AcDbLayerTableRecord
  2
LAYER-011
 70
     0
 62
     7
  6
Continuous
370
    -3
390
F
  0
LAYER
  5
5B
330
2
100
AcDbSymbolTableRecord
100
AcDbLayerTableRecord
  2
LAYER-012
 70
     0
 62
     7
  6
Continuous
370
    -3
390
F
  0
LAYER
  5
5C
330
2
100
AcDbSymbolTableRecord
100
AcDbLayerTableRecord
  2
LAYER-013
 70
     0
 62
     7
  6
Continuous
370
    -3
390
F
  0
LAYER
  5
5D
330
2
100
AcDbSymbolTableRecord
100
AcDbLayerTableRecord
  2
LAYER-014
 70
     0
 62
     7
  6
Continuous
370
    -3
390
F
  0
LAYER
  5
5E
330
2
100
AcDbSymbolTableRecord
100
AcDbLayerTableRecord
  2
LAYER-015
 70
     0
 62
    -7
  6
Continuous
370
    -3
390
F
  0
LAYER
  5
5F
330
2
100
AcDbSymbolTableRecord
100
AcDbLayerTableRecord
  2
LAYER-016
 70
     0
 62
     4
  6
Continuous
370
    -3
390
F
  0
LAYER
  5
60
330
2
100
AcDbSymbolTableRecord
100
AcDbLayerTableRecord
  2
LAYER-017
 70
     0
 62
     7
  6
Continuous
370
    -3
390
F
  0
LAYER
  5
61
330
2
100
AcDbSymbolTableRecord
100
AcDbLayerTableRecord
  2
LAYER-018
 70
     0
 62
     2
  6
Continuous
370
    -3
390
F
  0
LAYER
  5
62
330
2
100
AcDbSymbolTableRecord
100
AcDbLayerTableRecord
  2
LAYER-019
 70
     0
 62
     3
  6
Continuous
370
    -3
390
F
  0
LAYER
  5
63
330
2
100
AcDbSymbolTableRecord
100
AcDbLayerTableRecord
  2
LAYER-020
 70
     0
 62
     2
  6
Continuous
370
    -3
390
F
  0
LAYER
  5
64
330
2
100
AcDbSymbolTableRecord
100
AcDbLayerTableRecord
  2
LAYER-021
 70
     0
 62
     7
  6
Continuous
370
    -3
390
F
  0
LAYER
  5
65
330
2
100
AcDbSymbolTableRecord
100
AcDbLayerTableRecord
  2
LAYER-022
 70
     0
 62
     4
  6
Continuous
370
    -3
390
F
  0
LAYER
  5
66
330
2
100
AcDbSymbolTableRecord
100
AcDbLayerTableRecord
  2
LAYER-023
 70
     0
 62
     4
  6
Continuous
370
    -3
390
F
  0
LAYER
  5
67
330
2
100
AcDbSymbolTableRecord
100
AcDbLayerTableRecord
  2
LAYER-024
 70
     0
 62
     7
  6
Continuous
370
    -3
390
F
  0
LAYER
  5
68
330
2
100
AcDbSymbolTableRecord
100
AcDbLayerTableRecord
  2
LAYER-025
 70
     0
 62
     7
  6
Continuous
370
    -3
390
F
  0
LAYER
  5
69
330
2
100
AcDbSymbolTableRecord
100
AcDbLayerTableRecord
  2
LAYER-026
 70
     0
 62
    -7
  6
Continuous
370
    -3
390
F
  0
LAYER
  5
6A
330
2
100
AcDbSymbolTableRecord
100
AcDbLayerTableRecord
  2
LAYER-027
 70
     0
 62
     7
  6
Continuous
370
    -3
390
F
  0
LAYER
  5
6B
330
2
100
AcDbSymbolTableRecord
100
AcDbLayerTableRecord
  2
LAYER-028
 70
     0
 62
     7
  6
Continuous
370
    -3
390
F
  0
LAYER
  5
6C
330
2
100
AcDbSymbolTableRecord
100
AcDbLayerTableRecord
  2
LAYER-029
 70
     0
 62
     7
  6
Continuous
370
    -3
390
F
  0
LAYER
  5
6D
330
2
100
AcDbSymbolTableRecord
100
AcDbLayerTableRecord
  2
LAYER-030
 70
     0
 62
     2
  6
Continuous
370
    -3
390
F
  0
LAYER
  5
6E
330
2
100
AcDbSymbolTableRecord
100
AcDbLayerTableRecord
  2
LAYER-031
 70
     0
 62
     7
  6
Continuous
370
    -3
390
F
  0
LAYER
  5
6F
330
2
100
AcDbSymbolTableRecord
100
AcDbLayerTableRecord
  2
LAYER-032
 70
     0
 62
     2
  6
Continuous
370
    -3
390
F
  0
LAYER
  5
70
330
2
100
AcDbSymbolTableRecord
100
AcDbLayerTableRecord
  2
LAYER-033
 70
     0
 62
     7
  6
Continuous
370
    -3
390
F
  0
LAYER
  5
71
330
2
100
AcDbSymbolTableRecord
100
AcDbLayerTableRecord
  2
LAYER-034
 70
     0
 62
     7
  6
Continuous
370
    -3
390
F
  0
LAYER
  5
72
330
2
100
AcDbSymbolTableRecord
100
AcDbLayerTableRecord
  2
LAYER-035
 70
     0
 62
     3
  6
Continuous
370
    -3
390
F
  0
LAYER
  5
73
330
2
100
AcDbSymbolTableRecord
100
AcDbLayerTableRecord
  2
LAYER-036
 70
     0
 62
     2
  6
Continuous
370
    -3
390
F
  0
LAYER
  5
74
330
2
100
AcDbSymbolTableRecord
100
AcDbLayerTableRecord
  2
LAYER-037
 70
     0
 62
     7
  6
Continuous
370
    -3
390
F
  0
LAYER
  5
75
330
2
100
AcDbSymbolTableRecord
100
AcDbLayerTableRecord
  2
LAYER-038
 70
     0
 62
     7
  6
Continuous
370
    -3
390
F
  0
LAYER
  5
76
330
2
100
AcDbSymbolTableRecord
100
AcDbLayerTableRecord
  2
LAYER-039
 70
     0
 62
     7
  6
Continuous
370
    -3
390
F
  0
LAYER
  5
77
330
2
100
AcDbSymbolTableRecord
100
AcDbLayerTableRecord
  2
LAYER-040
 70
     0
 62
     7
  6
Continuous
370
    -3
390
F
  0
LAYER
  5
78
330
2
100
AcDbSymbolTableRecord
100
AcDbLayerTableRecord
  2
LAYER-041
 70
     0
 62
     7
  6
Continuous
370
    -3
390
F
  0
LAYER
  5
79
330
2
100
AcDbSymbolTableRecord
100
AcDbLayerTableRecord
  2
LAYER-042
 70
     0
 62
     7
  6
Continuous
370
    -3
390
F
  0
LAYER
  5
7A
330
2
100
AcDbSymbolTableRecord
100
AcDbLayerTableRecord
  2
LAYER-043
 70
     0
 62
     7
  6
Continuous
370
    -3
390
F
  0
LAYER
  5
7B
330
2
100
AcDbSymbolTableRecord
100
AcDbLayerTableRecord
  2
LAYER-044
 70
     0
 62
     7
  6
Continuous
370
    -3
390
F
  0
LAYER
  5
7C
330
2
100
AcDbSymbolTableRecord
100
AcDbLayerTableRecord
  2
LAYER-045
 70
     0
 62
     7
  6
Continuous
370
    -3
390
F
  0
LAYER
  5
7D
330
2
100
AcDbSymbolTableRecord
100
AcDbLayerTableRecord
  2
LAYER-046
 70
     0
 62
     7
  6
Continuous
370
    -3
390
F
  0
LAYER
  5
7E
330
2
100
AcDbSymbolTableRecord
100
AcDbLayerTableRecord
  2
LAYER-047
 70
     0
 62
     7
  6
Continuous
370
    -3
390
F
  0
LAYER
  5
7F
330
2
100
AcDbSymbolTableRecord
100
AcDbLayerTableRecord
  2
LAYER-048
 70
     0
 62
     2
  6
Continuous
370
    -3
390
F
  0
LAYER
  5
80
330
2
100
AcDbSymbolTableRecord
100
AcDbLayerTableRecord
  2
LAYER-049
 70
     0
 62
     3
  6
Continuous
370
    -3
390
F
  0
LAYER
  5
81
330
2
100
AcDbSymbolTableRecord
100
AcDbLayerTableRecord
  2
LAYER-050
 70
     0
 62
     7
  6
Continuous
370
    -3
390
F
  0
LAYER
  5
82
330
2
100
AcDbSymbolTableRecord
100
AcDbLayerTableRecord
  2
LAYER-051
 70
     0
 62
     2
  6
Continuous
370
    -3
390
F
  0
LAYER
  5
83
330
2
100
AcDbSymbolTableRecord
100
AcDbLayerTableRecord
  2
LAYER-052
 70
     0
 62
     7
  6
Continuous
370
    -3
390
F
  0
LAYER
  5
84
330
2
100
AcDbSymbolTableRecord
100
AcDbLayerTableRecord
  2
LAYER-053
 70
     0
 62
     7
  6
Continuous
370
    -3
390
F
  0
LAYER
  5
85
330
2
100
AcDbSymbolTableRecord
100
AcDbLayerTableRecord
  2
LAYER-054
 70
     0
 62
     7
  6
Continuous
370
    -3
390
F
  0
LAYER
  5
86
330
2
100
AcDbSymbolTableRecord
100
AcDbLayerTableRecord
  2
LAYER-055
 70
     0
 62
     7
  6
Continuous
370
    -3
390
F
  0
LAYER
  5
87
330
2
100
AcDbSymbolTableRecord
100
AcDbLayerTableRecord
  2
LAYER-056
 70
     0
 62
     7
  6
Continuous
370
    -3
390
F
  0
LAYER
  5
88
330
2
100
AcDbSymbolTableRecord
100
AcDbLayerTableRecord
  2
LAYER-057
 70
     0
 62
     7
  6
Continuous
370
    -3
390
F
  0
LAYER
  5
89
330
2
100
AcDbSymbolTableRecord
100
AcDbLayerTableRecord
  2
LAYER-058
 70
     0
 62
     7
  6
Continuous
370
    -3
390
F
  0
LAYER
  5
8A
330
2
100
AcDbSymbolTableRecord
100
AcDbLayerTableRecord
  2
LAYER-059
 70
     0
 62
     7
  6
Continuous
370
    -3
390
F
  0
LAYER
  5
8B
330
2
100
AcDbSymbolTableRecord
100
AcDbLayerTableRecord
  2
LAYER-060
 70
     0
 62
     7
  6
Continuous
370
    -3
390
F
  0
LAYER
  5
8C
330
2
100
AcDbSymbolTableRecord
100
AcDbLayerTableRecord
  2
LAYER-061
 70
     0
 62
     7
  6
Continuous
370
    -3
390
F
  0
LAYER
  5
8D
330
2
100
AcDbSymbolTableRecord
100
AcDbLayerTableRecord
  2
LAYER-062
 70
     0
 62
     7
  6
Continuous
370
    -3
390
F
  0
LAYER
  5
8E
330
2
100
AcDbSymbolTableRecord
100
AcDbLayerTableRecord
  2
LAYER-063
 70
     0
 62
     7
  6
Continuous
370
    -3
390
F
  0
LAYER
  5
8F
330
2
100
AcDbSymbolTableRecord
100
AcDbLayerTableRecord
  2
LAYER-064
 70
     0
 62
     2
  6
Continuous
370
    -3
390
F
  0
LAYER
  5
90
330
2
100
AcDbSymbolTableRecord
100
AcDbLayerTableRecord
  2
LAYER-065
 70
     0
 62
     7
  6
Continuous
370
    -3
390
F
  0
LAYER
  5
91
330
2
100
AcDbSymbolTableRecord
100
AcDbLayerTableRecord
  2
LAYER-066
 70
     0
 62
     2
  6
Continuous
370
    -3
390
F
  0
LAYER
  5
92
330
2
100
AcDbSymbolTableRecord
100
AcDbLayerTableRecord
  2
LAYER-067
 70
     0
 62
     2
  6
Continuous
370
    -3
390
F
  0
LAYER
  5
93
330
2
100
AcDbSymbolTableRecord
100
AcDbLayerTableRecord
  2
LAYER-068
 70
     0
 62
     7
  6
Continuous
370
    -3
390
F
  0
LAYER
  5
94
330
2
100
AcDbSymbolTableRecord
100
AcDbLayerTableRecord
  2
LAYER-069
 70
     0
 62
     7
  6
Continuous
370
    -3
390
F
  0
LAYER
  5
95
330
2
100
AcDbSymbolTableRecord
100
AcDbLayerTableRecord
  2
LAYER-070
 70
     0
 62
     7
  6
Continuous
370
    -3
390
F
  0
LAYER
  5
96
330
2
100
AcDbSymbolTableRecord
100
AcDbLayerTableRecord
  2
LAYER-071
 70
     0
 62
     7
  6
Continuous
370
    -3
390
F
  0
LAYER
  5
97
330
2
100
AcDbSymbolTableRecord
100
AcDbLayerTableRecord
  2
LAYER-072
 70
     0
 62
     7
  6
Continuous
370
    -3
390
F
  0
LAYER
  5
98
330
2
100
AcDbSymbolTableRecord
100
AcDbLayerTableRecord
  2
LAYER-073
 70
     0
 62
     7
  6
Continuous
370
    -3
390
F
  0
LAYER
  5
99
330
2
100
AcDbSymbolTableRecord
100
AcDbLayerTableRecord
  2
LAYER-074
 70
     0
 62
     7
  6
Continuous
370
    -3
390
F
  0
LAYER
  5
9A
330
2
100
AcDbSymbolTableRecord
100
AcDbLayerTableRecord
  2
LAYER-075
 70
     0
 62
     7
  6
Continuous
370
    -3
390
F
  0
LAYER
  5
9B
330
2
100
AcDbSymbolTableRecord
100
AcDbLayerTableRecord
  2
LAYER-076
 70
     0
 62
     7
  6
Continuous
370
    -3
390
F
  0
LAYER
  5
9C
330
2
100
AcDbSymbolTableRecord
100
AcDbLayerTableRecord
  2
LAYER-077
 70
     0
 62
     7
  6
Continuous
370
    -3
390
F
  0
LAYER
  5
9D
330
2
100
AcDbSymbolTableRecord
100
AcDbLayerTableRecord
  2
LAYER-078
 70
     0
 62
     7
  6
Continuous
370
    -3
390
F
  0
LAYER
  5
9E
330
2
100
AcDbSymbolTableRecord
100
AcDbLayerTableRecord
  2
LAYER-079
 70
     0
 62
     7
  6
Continuous
370
    -3
390
F
  0
LAYER
  5
9F
330
2
100
AcDbSymbolTableRecord
100
AcDbLayerTableRecord
  2
LAYER-080
 70
     0
 62
     2
  6
Continuous
370
    -3
390
F
  0
LAYER
  5
A0
330
2
100
AcDbSymbolTableRecord
100
AcDbLayerTableRecord
  2
LAYER-081
 70
     0
 62
     7
  6
Continuous
370
    -3
390
F
  0
LAYER
  5
A1
330
2
100
AcDbSymbolTableRecord
100
AcDbLayerTableRecord
  2
LAYER-082
 70
     0
 62
     7
  6
Continuous
370
    -3
390
F
  0
LAYER
  5
A2
330
2
100
AcDbSymbolTableRecord
100
AcDbLayerTableRecord
  2
LAYER-083
 70
     0
 62
     7
  6
Continuous
370
    -3
390
F
  0
LAYER
  5
A3
330
2
100
AcDbSymbolTableRecord
100
AcDbLayerTableRecord
  2
LAYER-084
 70
     0
 62
     7
  6
Continuous
370
    -3
390
F
  0
LAYER
  5
A4
330
2
100
AcDbSymbolTableRecord
100
AcDbLayerTableRecord
  2
LAYER-085
 70
     0
 62
     7
  6
Continuous
370
    -3
390
F
  0
LAYER
  5
A5
330
2
100
AcDbSymbolTableRecord
100
AcDbLayerTableRecord
  2
LAYER-086
 70
     0
 62
     7
  6
Continuous
370
    -3
390
F
  0
LAYER
  5
A6
330
2
100
AcDbSymbolTableRecord
100
AcDbLayerTableRecord
  2
LAYER-087
 70
     0
 62
     7
  6
Continuous
370
    -3
390
F
  0
LAYER
  5
A7
330
2
100
AcDbSymbolTableRecord
100
AcDbLayerTableRecord
  2
LAYER-088
 70
     0
 62
     7
  6
Continuous
370
    -3
390
F
  0
LAYER
  5
A8
330
2
100
AcDbSymbolTableRecord
100
AcDbLayerTableRecord
  2
LAYER-089
 70
     0
 62
     7
  6
Continuous
370
    -3
390
F
  0
LAYER
  5
A9
330
2
100
AcDbSymbolTableRecord
100
AcDbLayerTableRecord
  2
LAYER-090
 70
     0
 62
     7
  6
Continuous
370
    -3
390
F
  0
LAYER
  5
AA
330
2
100
AcDbSymbolTableRecord
100
AcDbLayerTableRecord
  2
LAYER-091
 70
     0
 62
     7
  6
Continuous
370
    -3
390
F
  0
LAYER
  5
AB
330
2
100
AcDbSymbolTableRecord
100
AcDbLayerTableRecord
  2
LAYER-092
 70
     0
 62
     7
  6
Continuous
370
    -3
390
F
  0
LAYER
  5
AC
330
2
100
AcDbSymbolTableRecord
100
AcDbLayerTableRecord
  2
LAYER-093
 70
     0
 62
     7
  6
Continuous
370
    -3
390
F
  0
LAYER
  5
AD
330
2
100
AcDbSymbolTableRecord
100
AcDbLayerTableRecord
  2
LAYER-094
 70
     0
 62
     7
  6
Continuous
370
    -3
390
F
  0
LAYER
  5
AE
330
2
100
AcDbSymbolTableRecord
100
AcDbLayerTableRecord
  2
LAYER-095
 70
     0
 62
     7
  6
Continuous
370
    -3
390
F
  0
LAYER
  5
AF
330
2
100
AcDbSymbolTableRecord
100
AcDbLayerTableRecord
  2
LAYER-096
 70
     0
 62
     7
  6
Continuous
370
    -3
390
F
  0
LAYER
  5
B0
330
2
100
AcDbSymbolTableRecord
100
AcDbLayerTableRecord
  2
LAYER-097
 70
     0
 62
     7
  6
Continuous
370
    -3
390
F
  0
LAYER
  5
B1
330
2
100
AcDbSymbolTableRecord
100
AcDbLayerTableRecord
  2
LAYER-098
 70
     0
 62
     7
  6
Continuous
370
    -3
390
F
  0
LAYER
  5
B2
330
2
100
AcDbSymbolTableRecord
100
AcDbLayerTableRecord
  2
LAYER-099
 70
     0
 62
     7
  6
Continuous
370
    -3
390
F
  0
LAYER
  5
B3
330
2
100
AcDbSymbolTableRecord
100
AcDbLayerTableRecord
  2
LAYER-100
 70
     0
 62
     7
  6
Continuous
370
    -3
390
F
  0
LAYER
  5
B4
330
2
100
AcDbSymbolTableRecord
100
AcDbLayerTableRecord
  2
LAYER-101
 70
     0
 62
     7
  6
Continuous
370
    -3
390
F
  0
LAYER
  5
B5
330
2
100
AcDbSymbolTableRecord
100
AcDbLayerTableRecord
  2
LAYER-102
 70
     0
 62
     7
  6
Continuous
370
    -3
390
F
  0
LAYER
  5
B6
330
2
100
AcDbSymbolTableRecord
100
AcDbLayerTableRecord
  2
LAYER-103
 70
     0
 62
     7
  6
Continuous
370
    -3
390
F
  0
LAYER
  5
B7
330
2
100
AcDbSymbolTableRecord
100
AcDbLayerTableRecord
  2
LAYER-104
 70
     0
 62
     7
  6
Continuous
370
    -3
390
F
  0
LAYER
  5
B8
330
2
100
AcDbSymbolTableRecord
100
AcDbLayerTableRecord
  2
LAYER-105
 70
     0
 62
     7
  6
Continuous
370
    -3
390
F
  0
LAYER
  5
B9
330
2
100
AcDbSymbolTableRecord
100
AcDbLayerTableRecord
  2
LAYER-106
 70
     0
 62
     7
  6
Continuous
370
    -3
390
F
  0
LAYER
  5
BA
330
2
100
AcDbSymbolTableRecord
100
AcDbLayerTableRecord
  2
LAYER-107
 70
     0
 62
     7
  6
Continuous
370
    -3
390
F
  0
LAYER
  5
BB
330
2
100
AcDbSymbolTableRecord
100
AcDbLayerTableRecord
  2
LAYER-108
 70
     0
 62
     7
  6
Continuous
370
    -3
390
F
  0
LAYER
  5
BC
330
2
100
AcDbSymbolTableRecord
100
AcDbLayerTableRecord
  2
LAYER-109
 70
     0
 62
     7
  6
Continuous
370
    -3
390
F
  0
LAYER
  5
BD
330
2
100
AcDbSymbolTableRecord
100
AcDbLayerTableRecord
  2
LAYER-110
 70
     0
 62
     7
  6
Continuous
370
    -3
390
F
  0
LAYER
  5
BE
330
2
100
AcDbSymbolTableRecord
100
AcDbLayerTableRecord
  2
LAYER-111
 70
     0
 62
     7
  6
Continuous
370
    -3
390
F
  0
LAYER
  5
BF
330
2
100
AcDbSymbolTableRecord
100
AcDbLayerTableRecord
  2
LAYER-112
 70
     0
 62
     7
  6
Continuous
370
    -3
390
F
  0
LAYER
  5
C0
330
2
100
AcDbSymbolTableRecord
100
AcDbLayerTableRecord
  2
LAYER-113
 70
     0
 62
     7
  6
Continuous
370
    -3
390
F
  0
LAYER
  5
C1
330
2
100
AcDbSymbolTableRecord
100
AcDbLayerTableRecord
  2
LAYER-114
 70
     0
 62
     7
  6
Continuous
370
    -3
390
F
  0
LAYER
  5
C2
330
2
100
AcDbSymbolTableRecord
100
AcDbLayerTableRecord
  2
LAYER-115
 70
     0
 62
     7
  6
Continuous
370
    -3
390
F
  0
LAYER
  5
C3
330
2
100
AcDbSymbolTableRecord
100
AcDbLayerTableRecord
  2
LAYER-116
 70
     0
 62
     7
  6
Continuous
370
    -3
390
F
  0
LAYER
  5
C4
330
2
100
AcDbSymbolTableRecord
100
AcDbLayerTableRecord
  2
LAYER-117
 70
     0
 62
     7
  6
Continuous
370
    -3
390
F
  0
LAYER
  5
C5
330
2
100
AcDbSymbolTableRecord
100
AcDbLayerTableRecord
  2
LAYER-118
 70
     0
 62
     7
  6
Continuous
370
    -3
390
F
  0
LAYER
  5
C6
330
2
100
AcDbSymbolTableRecord
100
AcDbLayerTableRecord
  2
LAYER-119
 70
     0
 62
     7
  6
Continuous
370
    -3
390
F
  0
LAYER
  5
C7
330
2
100
AcDbSymbolTableRecord
100
AcDbLayerTableRecord
  2
LAYER-120
 70
     0
 62
     7
  6
Continuous
370
    -3
390
F
  0
LAYER
  5
C8
330
2
100
AcDbSymbolTableRecord
100
AcDbLayerTableRecord
  2
LAYER-121
 70
     0
 62
     7
  6
Continuous
370
    -3
390
F
  0
LAYER
  5
C9
330
2
100
AcDbSymbolTableRecord
100
AcDbLayerTableRecord
  2
LAYER-122
 70
     0
 62
     7
  6
Continuous
370
    -3
390
F
  0
LAYER
  5
CA
330
2
100
AcDbSymbolTableRecord
100
AcDbLayerTableRecord
  2
LAYER-123
 70
     0
 62
     7
  6
Continuous
370
    -3
390
F
  0
LAYER
  5
CB
330
2
100
AcDbSymbolTableRecord
100
AcDbLayerTableRecord
  2
LAYER-124
 70
     0
 62
     7
  6
Continuous
370
    -3
390
F
  0
LAYER
  5
CC
330
2
100
AcDbSymbolTableRecord
100
AcDbLayerTableRecord
  2
LAYER-125
 70
     0
 62
     7
  6
Continuous
370
    -3
390
F
  0
LAYER
  5
CD
330
2
100
AcDbSymbolTableRecord
100
AcDbLayerTableRecord
  2
LAYER-126
 70
     0
 62
     7
  6
Continuous
370
    -3
390
F
  0
LAYER
  5
CE
330
2
100
AcDbSymbolTableRecord
100
AcDbLayerTableRecord
  2
LAYER-127
 70
     0
 62
     7
  6
Continuous
370
    -3
390
F
  0
LAYER
  5
CF
330
2
100
AcDbSymbolTableRecord
100
AcDbLayerTableRecord
  2
LAYER-128
 70
     0
 62
     7
  6
Continuous
370
    -3
390
F
  0
LAYER
  5
D0
330
2
100
AcDbSymbolTableRecord
100
AcDbLayerTableRecord
  2
LAYER-129
 70
     0
 62
     7
  6
Continuous
370
    -3
390
F
  0
LAYER
  5
D1
330
2
100
AcDbSymbolTableRecord
100
AcDbLayerTableRecord
  2
LAYER-130
 70
     0
 62
     7
  6
Continuous
370
    -3
390
F
  0
LAYER
  5
D2
330
2
100
AcDbSymbolTableRecord
100
AcDbLayerTableRecord
  2
LAYER-131
 70
     0
 62
     7
  6
Continuous
370
    -3
390
F
  0
LAYER
  5
D3
330
2
100
AcDbSymbolTableRecord
100
AcDbLayerTableRecord
  2
LAYER-132
 70
     0
 62
     7
  6
Continuous
370
    -3
390
F
  0
LAYER
  5
D4
330
2
100
AcDbSymbolTableRecord
100
AcDbLayerTableRecord
  2
LAYER-133
 70
     0
 62
     7
  6
Continuous
370
    -3
390
F
  0
LAYER
  5
D5
330
2
100
AcDbSymbolTableRecord
100
AcDbLayerTableRecord
  2
LAYER-134
 70
     0
 62
     7
  6
Continuous
370
    -3
390
F
  0
LAYER
  5
D6
330
2
100
AcDbSymbolTableRecord
100
AcDbLayerTableRecord
  2
LAYER-135
 70
     0
 62
    -4
  6
Continuous
370
    -3
390
F
  0
LAYER
  5
D7
330
2
100
AcDbSymbolTableRecord
100
AcDbLayerTableRecord
  2
LAYER-136
 70
     0
 62
    -3
  6
Continuous
370
    -3
390
F
  0
LAYER
  5
D8
330
2
100
AcDbSymbolTableRecord
100
AcDbLayerTableRecord
  2
LAYER-137
 70
     0
 62
    -1
  6
Continuous
370
    -3
390
F
  0
LAYER
  5
D9
330
2
100
AcDbSymbolTableRecord
100
AcDbLayerTableRecord
  2
LAYER-138
 70
     0
 62
     7
  6
Continuous
370
    -3
390
F
  0
LAYER
  5
DA
330
2
100
AcDbSymbolTableRecord
100
AcDbLayerTableRecord
  2
LAYER-139
 70
     0
 62
     7
  6
Continuous
370
    -3
390
F
  0
LAYER
  5
DB
330
2
100
AcDbSymbolTableRecord
100
AcDbLayerTableRecord
  2
LAYER-140
 70
     0
 62
     7
  6
Continuous
370
    -3
390
F
  0
LAYER
  5
DC
330
2
100
AcDbSymbolTableRecord
100
AcDbLayerTableRecord
  2
LAYER-141
 70
     0
 62
     7
  6
Continuous
370
    -3
390
F
  0
LAYER
  5
DD
330
2
100
AcDbSymbolTableRecord
100
AcDbLayerTableRecord
  2
LAYER-142
 70
     0
 62
     3
  6
Continuous
370
    -3
390
F
  0
LAYER
  5
DE
330
2
100
AcDbSymbolTableRecord
100
AcDbLayerTableRecord
  2
LAYER-143
 70
     0
 62
     7
  6
Continuous
370
    -3
390
F
  0
LAYER
  5
DF
330
2
100
AcDbSymbolTableRecord
100
AcDbLayerTableRecord
  2
LAYER-144
 70
     0
 62
     7
  6
Continuous
370
    -3
390
F
  0
LAYER
  5
E0
330
2
100
AcDbSymbolTableRecord
100
AcDbLayerTableRecord
  2
LAYER-145
 70
     0
 62
     3
  6
Continuous
370
    -3
390
F
  0
LAYER
  5
E1
330
2
100
AcDbSymbolTableRecord
100
AcDbLayerTableRecord
  2
LAYER-146
 70
     0
 62
     7
  6
Continuous
370
    -3
390
F
  0
LAYER
  5
E2
330
2
100
AcDbSymbolTableRecord
100
AcDbLayerTableRecord
  2
LAYER-147
 70
     0
 62
     7
  6
Continuous
370
    -3
390
F
  0
LAYER
  5
E3
330
2
100
AcDbSymbolTableRecord
100
AcDbLayerTableRecord
  2
LAYER-148
 70
     0
 62
     7
  6
Continuous
370
    -3
390
F
  0
LAYER
  5
E4
330
2
100
AcDbSymbolTableRecord
100
AcDbLayerTableRecord
  2
LAYER-149
 70
     0
 62
     7
  6
Continuous
370
    -3
390
F
  0
LAYER
  5
E5
330
2
100
AcDbSymbolTableRecord
100
AcDbLayerTableRecord
  2
LAYER-150
 70
     0
 62
     7
  6
Continuous
370
    -3
390
F
  0
LAYER
  5
E6
330
2
100
AcDbSymbolTableRecord
100
AcDbLayerTableRecord
  2
LAYER-151
 70
     0
 62
     7
  6
Continuous
370
    -3
390
F
  0
LAYER
  5
E7
330
2
100
AcDbSymbolTableRecord
100
AcDbLayerTableRecord
  2
LAYER-152
 70
     0
 62
     7
  6
Continuous
370
    -3
390
F
  0
LAYER
  5
E8
330
2
100
AcDbSymbolTableRecord
100
AcDbLayerTableRecord
  2
LAYER-153
 70
     0
 62
     7
  6
Continuous
370
    -3
390
F
  0
LAYER
  5
E9
330
2
100
AcDbSymbolTableRecord
100
AcDbLayerTableRecord
  2
LAYER-154
 70
     0
 62
     7
  6
Continuous
370
    -3
390
F
  0
LAYER
  5
EA
330
2
100
AcDbSymbolTableRecord
100
AcDbLayerTableRecord
  2
LAYER-155
 70
     0
 62
     7
  6
Continuous
370
    -3
390
F
  0
LAYER
  5
EB
330
2
100
AcDbSymbolTableRecord
100
AcDbLayerTableRecord
  2
LAYER-156
 70
     0
 62
     7
  6
Continuous
370
    -3
390
F
  0
LAYER
  5
EC
330
2
100
AcDbSymbolTableRecord
100
AcDbLayerTableRecord
  2
LAYER-157
 70
     0
 62
     7
  6
Continuous
370
    -3
390
F
  0
LAYER
  5
ED
330
2
100
AcDbSymbolTableRecord
100
AcDbLayerTableRecord
  2
LAYER-158
 70
     0
 62
     7
  6
Continuous
370
    -3
390
F
  0
LAYER
  5
EE
330
2
100
AcDbSymbolTableRecord
100
AcDbLayerTableRecord
  2
LAYER-159
 70
     0
 62
     7
  6
Continuous
370
    -3
390
F
  0
LAYER
  5
EF
330
2
100
AcDbSymbolTableRecord
100
AcDbLayerTableRecord
  2
LAYER-160
 70
     0
 62
     7
  6
Continuous
370
    -3
390
F
  0
LAYER
  5
F0
330
2
100
AcDbSymbolTableRecord
100
AcDbLayerTableRecord
  2
LAYER-161
 70
     0
 62
     7
  6
Continuous
370
    -3
390
F
  0
LAYER
  5
F1
330
2
100
AcDbSymbolTableRecord
100
AcDbLayerTableRecord
  2
LAYER-162
 70
     0
 62
     7
  6
Continuous
370
    -3
390
F
  0
LAYER
  5
F2
330
2
100
AcDbSymbolTableRecord
100
AcDbLayerTableRecord
  2
LAYER-163
 70
     0
 62
     7
  6
Continuous
370
    -3
390
F
  0
LAYER
  5
F3
330
2
100
AcDbSymbolTableRecord
100
AcDbLayerTableRecord
  2
LAYER-164
 70
     0
 62
     7
  6
Continuous
370
    -3
390
F
  0
LAYER
  5
F4
330
2
100
AcDbSymbolTableRecord
100
AcDbLayerTableRecord
  2
LAYER-165
 70
     0
 62
     7
  6
Continuous
370
    -3
390
F
  0
LAYER
  5
F5
330
2
100
AcDbSymbolTableRecord
100
AcDbLayerTableRecord
  2
LAYER-166
 70
     0
 62
     7
  6
Continuous
370
    -3
390
F
  0
LAYER
  5
F6
330
2
100
AcDbSymbolTableRecord
100
AcDbLayerTableRecord
  2
LAYER-167
 70
     0
 62
     7
  6
Continuous
370
    -3
390
F
  0
LAYER
  5
F7
330
2
100
AcDbSymbolTableRecord
100
AcDbLayerTableRecord
  2
LAYER-168
 70
     0
 62
     7
  6
Continuous
370
    -3
390
F
  0
LAYER
  5
F8
330
2
100
AcDbSymbolTableRecord
100
AcDbLayerTableRecord
  2
LAYER-169
 70
     0
 62
     7
  6
Continuous
370
    -3
390
F
  0
LAYER
  5
F9
330
2
100
AcDbSymbolTableRecord
100
AcDbLayerTableRecord
  2
LAYER-170
 70
     0
 62
     7
  6
Continuous
370
    -3
390
F
  0
LAYER
  5
FA
330
2
100
AcDbSymbolTableRecord
100
AcDbLayerTableRecord
  2
LAYER-171
 70
     0
 62
     7
  6
Continuous
370
    -3
390
F
  0
LAYER
  5
FB
330
2
100
AcDbSymbolTableRecord
100
AcDbLayerTableRecord
  2
LAYER-172
 70
     0
 62
     7
  6
Continuous
370
    -3
390
F
  0
LAYER
  5
FC
330
2
100
AcDbSymbolTableRecord
100
AcDbLayerTableRecord
  2
LAYER-173
 70
     0
 62
     7
  6
Continuous
370
    -3
390
F
  0
LAYER
  5
FD
330
2
100
AcDbSymbolTableRecord
100
AcDbLayerTableRecord
  2
LAYER-174
 70
     0
 62
     7
  6
Continuous
370
    -3
390
F
  0
LAYER
  5
FE
330
2
100
AcDbSymbolTableRecord
100
AcDbLayerTableRecord
  2
LAYER-175
 70
     0
 62
     7
  6
Continuous
370
    -3
390
F
  0
LAYER
  5
FF
330
2
100
AcDbSymbolTableRecord
100
AcDbLayerTableRecord
  2
LAYER-176
 70
     0
 62
     7
  6
Continuous
370
    -3
390
F
  0
LAYER
  5
100
330
2
100
AcDbSymbolTableRecord
100
AcDbLayerTableRecord
  2
LAYER-177
 70
     0
 62
     7
  6
Continuous
370
    -3
390
F
  0
LAYER
  5
101
330
2
100
AcDbSymbolTableRecord
100
AcDbLayerTableRecord
  2
LAYER-178
 70
     0
 62
     7
  6
Continuous
370
    -3
390
F
  0
LAYER
  5
102
330
2
100
AcDbSymbolTableRecord
100
AcDbLayerTableRecord
  2
LAYER-179
 70
     0
 62
     7
  6
Continuous
370
    -3
390
F
  0
LAYER
  5
103
330
2
100
AcDbSymbolTableRecord
100
AcDbLayerTableRecord
  2
LAYER-180
 70
     0
 62
     7
  6
Continuous
370
    -3
390
F
  0
LAYER
  5
104
330
2
100
AcDbSymbolTableRecord
100
AcDbLayerTableRecord
  2
LAYER-181
 70
     0
 62
     7
  6
Continuous
370
    -3
390
F
  0
LAYER
  5
105
330
2
100
AcDbSymbolTableRecord
100
AcDbLayerTableRecord
  2
LAYER-182
 70
     0
 62
     7
  6
Continuous
370
    -3
390
F
  0
LAYER
  5
106
330
2
100
AcDbSymbolTableRecord
100
AcDbLayerTableRecord
  2
LAYER-183
 70
     0
 62
     7
  6
Continuous
370
    -3
390
F
  0
LAYER
  5
107
330
2
100
AcDbSymbolTableRecord
100
AcDbLayerTableRecord
  2
LAYER-184
 70
     0
 62
     7
  6
Continuous
370
    -3
390
F
  0
LAYER
  5
108
330
2
100
AcDbSymbolTableRecord
100
AcDbLayerTableRecord
  2
LAYER-185
 70
     0
 62
     7
  6
Continuous
370
    -3
390
F
  0
LAYER
  5
109
330
2
100
AcDbSymbolTableRecord
100
AcDbLayerTableRecord
  2
LAYER-186
 70
     0
 62
     7
  6
Continuous
370
    -3
390
F
  0
LAYER
  5
10A
330
2
100
AcDbSymbolTableRecord
100
AcDbLayerTableRecord
  2
LAYER-187
 70
     0
 62
     7
  6
Continuous
370
    -3
390
F
  0
LAYER
  5
10B
330
2
100
AcDbSymbolTableRecord
100
AcDbLayerTableRecord
  2
LAYER-188
 70
     0
 62
     7
  6
Continuous
370
    -3
390
F
  0
LAYER
  5
10C
330
2
100
AcDbSymbolTableRecord
100
AcDbLayerTableRecord
  2
LAYER-189
 70
     0
 62
     7
  6
Continuous
370
    -3
390
F
  0
LAYER
  5
10D
330
2
100
AcDbSymbolTableRecord
100
AcDbLayerTableRecord
  2
LAYER-190
 70
     0
 62
     7
  6
Continuous
370
    -3
390
F
  0
LAYER
  5
10E
330
2
100
AcDbSymbolTableRecord
100
AcDbLayerTableRecord
  2
LAYER-191
 70
     0
 62
     7
  6
Continuous
370
    -3
390
F
  0
LAYER
  5
10F
330
2
100
AcDbSymbolTableRecord
100
AcDbLayerTableRecord
  2
LAYER-192
 70
     0
 62
     7
  6
Continuous
370
    -3
390
F
  0
LAYER
  5
110
330
2
100
AcDbSymbolTableRecord
100
AcDbLayerTableRecord
  2
LAYER-193
 70
     0
 62
     7
  6
Continuous
370
    -3
390
F
  0
LAYER
  5
111
330
2
100
AcDbSymbolTableRecord
100
AcDbLayerTableRecord
  2
LAYER-194
 70
     0
 62
     2
  6
Continuous
370
    -3
390
F
  0
LAYER
  5
112
330
2
100
AcDbSymbolTableRecord
100
AcDbLayerTableRecord
  2
LAYER-195
 70
     0
 62
     2
  6
Continuous
370
    -3
390
F
  0
LAYER
  5
113
330
2
100
AcDbSymbolTableRecord
100
AcDbLayerTableRecord
  2
LAYER-196
 70
     0
 62
     2
  6
Continuous
370
    -3
390
F
  0
LAYER
  5
114
330
2
100
AcDbSymbolTableRecord
100
AcDbLayerTableRecord
  2
LAYER-197
 70
     0
 62
     7
  6
Continuous
370
    -3
390
F
  0
LAYER
  5
115
330
2
100
AcDbSymbolTableRecord
100
AcDbLayerTableRecord
  2
LAYER-198
 70
     0
 62
     7
  6
Continuous
370
    -3
390
F
  0
LAYER
  5
116
330
2
100
AcDbSymbolTableRecord
100
AcDbLayerTableRecord
  2
LAYER-199
 70
     0
 62
     4
  6
Continuous
370
    -3
390
F
  0
LAYER
  5
117
330
2
100
AcDbSymbolTableRecord
100
AcDbLayerTableRecord
  2
LAYER-200
 70
     0
 62
     1
  6
Continuous
370
    -3
390
F
  0
LAYER
  5
118
330
2
100
AcDbSymbolTableRecord
100
AcDbLayerTableRecord
  2
LAYER-201
 70
     0
 62
     1
  6
Continuous
370
    -3
390
F
  0
LAYER
  5
119
330
2
100
AcDbSymbolTableRecord
100
AcDbLayerTableRecord
  2
LAYER-202
 70
     0
 62
     2
  6
Continuous
370
    -3
390
F
  0
LAYER
  5
11A
330
2
100
AcDbSymbolTableRecord
100
AcDbLayerTableRecord
  2
LAYER-203
 70
     0
 62
     2
  6
Continuous
370
    -3
390
F
  0
LAYER
  5
11B
330
2
100
AcDbSymbolTableRecord
100
AcDbLayerTableRecord
  2
LAYER-204
 70
     0
 62
     7
  6
Continuous
370
    -3
390
F
  0
LAYER
  5
11C
330
2
100
AcDbSymbolTableRecord
100
AcDbLayerTableRecord
  2
LAYER-205
 70
     0
 62
     7
  6
Continuous
370
    -3
390
F
  0
LAYER
  5
11D
330
2
100
AcDbSymbolTableRecord
100
AcDbLayerTableRecord
  2
LAYER-206
 70
     0
 62
     7
  6
Continuous
370
    -3
390
F
  0
LAYER
  5
11E
330
2
100
AcDbSymbolTableRecord
100
AcDbLayerTableRecord
  2
LAYER-207
 70
     0
 62
    -7
  6
Continuous
370
    -3
390
F
  0
LAYER
  5
11F
330
2
100
AcDbSymbolTableRecord
100
AcDbLayerTableRecord
  2
LAYER-208
 70
     0
 62
     2
  6
Continuous
370
    -3
390
F
  0
LAYER
  5
120
330
2
100
AcDbSymbolTableRecord
100
AcDbLayerTableRecord
  2
LAYER-209
 70
     0
 62
     7
  6
Continuous
370
    -3
390
F
  0
LAYER
  5
121
330
2
100
AcDbSymbolTableRecord
100
AcDbLayerTableRecord
  2
LAYER-210
 70
     0
 62
     2
  6
Continuous
290
     0
370
    -3
390
F
  0
LAYER
  5
122
330
2
100
AcDbSymbolTableRecord
100
AcDbLayerTableRecord
  2
LAYER-211
 70
     0
 62
     7
  6
Continuous
370
    -3
390
F
  0
LAYER
  5
123
330
2
100
AcDbSymbolTableRecord
100
AcDbLayerTableRecord
  2
LAYER-212
 70
     0
 62
     7
  6
Continuous
370
    -3
390
F
  0
LAYER
  5
124
330
2
100
AcDbSymbolTableRecord
100
AcDbLayerTableRecord
  2
LAYER-213
 70
     0
 62
     2
  6
Continuous
370
    -3
390
F
  0
LAYER
  5
125
330
2
100
AcDbSymbolTableRecord
100
AcDbLayerTableRecord
  2
LAYER-214
 70
     0
 62
     7
  6
Continuous
370
    -3
390
F
  0
LAYER
  5
126
330
2
100
AcDbSymbolTableRecord
100
AcDbLayerTableRecord
  2
LAYER-215
 70
     0
 62
     7
  6
Continuous
370
    -3
390
F
  0
LAYER
  5
127
330
2
100
AcDbSymbolTableRecord
100
AcDbLayerTableRecord
  2
LAYER-216
 70
     0
 62
     4
  6
Continuous
370
    -3
390
F
  0
LAYER
  5
128
330
2
100
AcDbSymbolTableRecord
100
AcDbLayerTableRecord
  2
LAYER-217
 70
     0
 62
     7
  6
Continuous
370
    -3
390
F
  0
LAYER
  5
129
330
2
100
AcDbSymbolTableRecord
100
AcDbLayerTableRecord
  2
LAYER-218
 70
     0
 62
     7
  6
Continuous
370
    -3
390
F
  0
LAYER
  5
12A
330
2
100
AcDbSymbolTableRecord
100
AcDbLayerTableRecord
  2
LAYER-219
 70
     0
 62
     7
  6
Continuous
370
    -3
390
F
  0
LAYER
  5
12B
330
2
100
AcDbSymbolTableRecord
100
AcDbLayerTableRecord
  2
LAYER-220
 70
     0
 62
     4
  6
Continuous
370
    -3
390
F
  0
LAYER
  5
12C
330
2
100
AcDbSymbolTableRecord
100
AcDbLayerTableRecord
  2
LAYER-221
 70
     0
 62
    -7
  6
Continuous
290
     0
370
    -3
390
F
  0
LAYER
  5
12D
330
2
100
AcDbSymbolTableRecord
100
AcDbLayerTableRecord
  2
LAYER-222
 70
     0
 62
    -4
  6
Continuous
290
     0
370
    -3
390
F
  0
LAYER
  5
12E
330
2
100
AcDbSymbolTableRecord
100
AcDbLayerTableRecord
  2
LAYER-223
 70
     0
 62
    -1
  6
Continuous
290
     0
370
    -3
390
F
  0
LAYER
  5
12F
330
2
100
AcDbSymbolTableRecord
100
AcDbLayerTableRecord
  2
LAYER-224
 70
     0
 62
    -1
  6
Continuous
290
     0
370
    -3
390
F
  0
LAYER
  5
130
330
2
100
AcDbSymbolTableRecord
100
AcDbLayerTableRecord
  2
LAYER-225
 70
     0
 62
     7
  6
Continuous
370
    -3
390
F
  0
LAYER
  5
131
330
2
100
AcDbSymbolTableRecord
100
AcDbLayerTableRecord
  2
LAYER-226
 70
     0
 62
     2
  6
Continuous
370
    -3
390
F
  0
LAYER
  5
132
330
2
100
AcDbSymbolTableRecord
100
AcDbLayerTableRecord
  2
LAYER-227
 70
     0
 62
     7
  6
Continuous
370
    -3
390
F
  0
LAYER
  5
133
330
2
100
AcDbSymbolTableRecord
100
AcDbLayerTableRecord
  2
LAYER-228
 70
     0
 62
     7
  6
Continuous
370
    -3
390
F
  0
LAYER
  5
134
330
2
100
AcDbSymbolTableRecord
100
AcDbLayerTableRecord
  2
LAYER-229
 70
     0
 62
     7
  6
Continuous
370
    -3
390
F
  0
LAYER
  5
135
330
2
100
AcDbSymbolTableRecord
100
AcDbLayerTableRecord
  2
LAYER-230
 70
     0
 62
     7
  6
Continuous
370
    -3
390
F
  0
LAYER
  5
136
330
2
100
AcDbSymbolTableRecord
100
AcDbLayerTableRecord
  2
LAYER-231
 70
     0
 62
     7
  6
Continuous
370
    -3
390
F
  0
LAYER
  5
137
330
2
100
AcDbSymbolTableRecord
100
AcDbLayerTableRecord
  2
LAYER-232
 70
     0
 62
     7
  6
Continuous
370
    -3
390
F
  0
LAYER
  5
138
330
2
100
AcDbSymbolTableRecord
100
AcDbLayerTableRecord
  2
LAYER-233
 70
     0
 62
     7
  6
Continuous
370
    -3
390
F
  0
LAYER
  5
139
330
2
100
AcDbSymbolTableRecord
100
AcDbLayerTableRecord
  2
LAYER-234
 70
     0
 62
     7
  6
Continuous
370
    -3
390
F
  0
LAYER
  5
13A
330
2
100
AcDbSymbolTableRecord
100
AcDbLayerTableRecord
  2
LAYER-235
 70
     0
 62
     7
  6
Continuous
370
    -3
390
F
  0
LAYER
  5
13B
330
2
100
AcDbSymbolTableRecord
100
AcDbLayerTableRecord
  2
LAYER-236
 70
     0
 62
     7
  6
Continuous
370
    -3
390
F
  0
LAYER
  5
13C
330
2
100
AcDbSymbolTableRecord
100
AcDbLayerTableRecord
  2
LAYER-237
 70
     0
 62
     7
  6
Continuous
370
    -3
390
F
  0
LAYER
  5
13D
330
2
100
AcDbSymbolTableRecord
100
AcDbLayerTableRecord
  2
LAYER-238
 70
     0
 62
     7
  6
Continuous
370
    -3
390
F
  0
LAYER
  5
13E
330
2
100
AcDbSymbolTableRecord
100
AcDbLayerTableRecord
  2
LAYER-239
 70
     0
 62
     7
  6
Continuous
370
    -3
390
F
  0
LAYER
  5
13F
330
2
100
AcDbSymbolTableRecord
100
AcDbLayerTableRecord
  2
LAYER-240
 70
     0
 62
     7
  6
Continuous
370
    -3
390
F
  0
LAYER
  5
140
330
2
100
AcDbSymbolTableRecord
100
AcDbLayerTableRecord
  2
LAYER-241
 70
     0
 62
     7
  6
Continuous
370
    -3
390
F
  0
LAYER
  5
141
330
2
100
AcDbSymbolTableRecord
100
AcDbLayerTableRecord
  2
LAYER-242
 70
     0
 62
     7
  6
Continuous
370
    -3
390
F
  0
LAYER
  5
142
330
2
100
AcDbSymbolTableRecord
100
AcDbLayerTableRecord
  2
LAYER-243
 70
     0
 62
     7
  6
Continuous
370
    -3
390
F
  0
LAYER
  5
143
330
2
100
AcDbSymbolTableRecord
100
AcDbLayerTableRecord
  2
LAYER-244
 70
     0
 62
     7
  6
Continuous
370
    -3
390
F
  0
LAYER
  5
144
330
2
100
AcDbSymbolTableRecord
100
AcDbLayerTableRecord
  2
LAYER-245
 70
     0
 62
     7
  6
Continuous
370
    -3
390
F
  0
LAYER
  5
145
330
2
100
AcDbSymbolTableRecord
100
AcDbLayerTableRecord
  2
LAYER-246
 70
     0
 62
     7
  6
Continuous
370
    -3
390
F
  0
LAYER
  5
146
330
2
100
AcDbSymbolTableRecord
100
AcDbLayerTableRecord
  2
LAYER-247
 70
     0
 62
     7
  6
Continuous
370
    -3
390
F
  0
LAYER
  5
147
330
2
100
AcDbSymbolTableRecord
100
AcDbLayerTableRecord
  2
LAYER-248
 70
     0
 62
     7
  6
Continuous
370
    -3
390
F
  0
LAYER
  5
148
330
2
100
AcDbSymbolTableRecord
100
AcDbLayerTableRecord
  2
LAYER-249
 70
     0
 62
     7
  6
Continuous
370
    -3
390
F
  0
LAYER
  5
149
330
2
100
AcDbSymbolTableRecord
100
AcDbLayerTableRecord
  2
LAYER-250
 70
     0
 62
     7
  6
Continuous
370
    -3
390
F
  0
LAYER
  5
14A
330
2
100
AcDbSymbolTableRecord
100
AcDbLayerTableRecord
  2
LAYER-251
 70
     0
 62
     7
  6
Continuous
370
    -3
390
F
  0
LAYER
  5
14B
330
2
100
AcDbSymbolTableRecord
100
AcDbLayerTableRecord
  2
LAYER-252
 70
     0
 62
     7
  6
Continuous
370
    -3
390
F
  0
LAYER
  5
14C
330
2
100
AcDbSymbolTableRecord
100
AcDbLayerTableRecord
  2
LAYER-253
 70
     0
 62
     7
  6
Continuous
370
    -3
390
F
  0
LAYER
  5
14D
330
2
100
AcDbSymbolTableRecord
100
AcDbLayerTableRecord
  2
LAYER-254
 70
     0
 62
     7
  6
Continuous
370
    -3
390
F
  0
LAYER
  5
14E
330
2
100
AcDbSymbolTableRecord
100
AcDbLayerTableRecord
  2
LAYER-255
 70
     0
 62
     7
  6
Continuous
370
    -3
390
F
  0
LAYER
  5
14F
330
2
100
AcDbSymbolTableRecord
100
AcDbLayerTableRecord
  2
LAYER-256
 70
     0
 62
     7
  6
Continuous
370
    -3
390
F
  0
LAYER
  5
150
330
2
100
AcDbSymbolTableRecord
100
AcDbLayerTableRecord
  2
SUPLINE
 70
     0
 62
    -7
  6
Continuous
290
     0
370
    -3
390
F
  0
LAYER
  5
151
330
2
100
AcDbSymbolTableRecord
100
AcDbLayerTableRecord
  2
FRAMELAYER-001
 70
     0
 62
     7
  6
Continuous
370
    -3
390
F
  0
LAYER
  5
152
330
2
100
AcDbSymbolTableRecord
100
AcDbLayerTableRecord
  2
FRAMELAYER-002
 70
     0
 62
     7
  6
Continuous
370
    -3
390
F
  0
LAYER
  5
153
330
2
100
AcDbSymbolTableRecord
100
AcDbLayerTableRecord
  2
FRAMELAYER-003
 70
     0
 62
     7
  6
Continuous
370
    -3
390
F
  0
LAYER
  5
154
330
2
100
AcDbSymbolTableRecord
100
AcDbLayerTableRecord
  2
FRAMELAYER-004
 70
     0
 62
     7
  6
Continuous
370
    -3
390
F
  0
LAYER
  5
155
330
2
100
AcDbSymbolTableRecord
100
AcDbLayerTableRecord
  2
FRAMELAYER-005
 70
     0
 62
     7
  6
Continuous
370
    -3
390
F
  0
LAYER
  5
156
330
2
100
AcDbSymbolTableRecord
100
AcDbLayerTableRecord
  2
FRAMELAYER-006
 70
     0
 62
     7
  6
Continuous
370
    -3
390
F
  0
LAYER
  5
157
330
2
100
AcDbSymbolTableRecord
100
AcDbLayerTableRecord
  2
FRAMELAYER-007
 70
     0
 62
     7
  6
Continuous
370
    -3
390
F
  0
LAYER
  5
158
330
2
100
AcDbSymbolTableRecord
100
AcDbLayerTableRecord
  2
FRAMELAYER-008
 70
     0
 62
     7
  6
Continuous
370
    -3
390
F
  0
LAYER
  5
159
330
2
100
AcDbSymbolTableRecord
100
AcDbLayerTableRecord
  2
FRAMELAYER-009
 70
     0
 62
     7
  6
Continuous
370
    -3
390
F
  0
LAYER
  5
15A
330
2
100
AcDbSymbolTableRecord
100
AcDbLayerTableRecord
  2
FRAMELAYER-010
 70
     0
 62
     7
  6
Continuous
370
    -3
390
F
  0
LAYER
  5
15B
330
2
100
AcDbSymbolTableRecord
100
AcDbLayerTableRecord
  2
FRAMELAYER-011
 70
     0
 62
     7
  6
Continuous
370
    -3
390
F
  0
LAYER
  5
15C
330
2
100
AcDbSymbolTableRecord
100
AcDbLayerTableRecord
  2
FRAMELAYER-012
 70
     0
 62
     7
  6
Continuous
370
    -3
390
F
  0
LAYER
  5
15D
330
2
100
AcDbSymbolTableRecord
100
AcDbLayerTableRecord
  2
FRAMELAYER-013
 70
     0
 62
     7
  6
Continuous
370
    -3
390
F
  0
LAYER
  5
15E
330
2
100
AcDbSymbolTableRecord
100
AcDbLayerTableRecord
  2
FRAMELAYER-014
 70
     0
 62
     7
  6
Continuous
370
    -3
390
F
  0
LAYER
  5
15F
330
2
100
AcDbSymbolTableRecord
100
AcDbLayerTableRecord
  2
FRAMELAYER-015
 70
     0
 62
    -7
  6
Continuous
370
    -3
390
F
  0
LAYER
  5
160
330
2
100
AcDbSymbolTableRecord
100
AcDbLayerTableRecord
  2
FRAMELAYER-016
 70
     0
 62
     4
  6
Continuous
370
    -3
390
F
  0
LAYER
  5
161
330
2
100
AcDbSymbolTableRecord
100
AcDbLayerTableRecord
  2
FRAMELAYER-017
 70
     0
 62
     7
  6
Continuous
370
    -3
390
F
  0
LAYER
  5
162
330
2
100
AcDbSymbolTableRecord
100
AcDbLayerTableRecord
  2
FRAMELAYER-018
 70
     0
 62
     2
  6
Continuous
370
    -3
390
F
  0
LAYER
  5
163
330
2
100
AcDbSymbolTableRecord
100
AcDbLayerTableRecord
  2
FRAMELAYER-019
 70
     0
 62
     3
  6
Continuous
370
    -3
390
F
  0
LAYER
  5
164
330
2
100
AcDbSymbolTableRecord
100
AcDbLayerTableRecord
  2
FRAMELAYER-020
 70
     0
 62
     2
  6
Continuous
370
    -3
390
F
  0
LAYER
  5
165
330
2
100
AcDbSymbolTableRecord
100
AcDbLayerTableRecord
  2
FRAMELAYER-021
 70
     0
 62
     7
  6
Continuous
370
    -3
390
F
  0
LAYER
  5
166
330
2
100
AcDbSymbolTableRecord
100
AcDbLayerTableRecord
  2
FRAMELAYER-022
 70
     0
 62
     4
  6
Continuous
370
    -3
390
F
  0
LAYER
  5
167
330
2
100
AcDbSymbolTableRecord
100
AcDbLayerTableRecord
  2
FRAMELAYER-023
 70
     0
 62
     4
  6
Continuous
370
    -3
390
F
  0
LAYER
  5
168
330
2
100
AcDbSymbolTableRecord
100
AcDbLayerTableRecord
  2
FRAMELAYER-024
 70
     0
 62
     7
  6
Continuous
370
    -3
390
F
  0
LAYER
  5
169
330
2
100
AcDbSymbolTableRecord
100
AcDbLayerTableRecord
  2
FRAMELAYER-025
 70
     0
 62
     7
  6
Continuous
370
    -3
390
F
  0
LAYER
  5
16A
330
2
100
AcDbSymbolTableRecord
100
AcDbLayerTableRecord
  2
FRAMELAYER-026
 70
     0
 62
    -7
  6
Continuous
370
    -3
390
F
  0
LAYER
  5
16B
330
2
100
AcDbSymbolTableRecord
100
AcDbLayerTableRecord
  2
FRAMELAYER-027
 70
     0
 62
     7
  6
Continuous
370
    -3
390
F
  0
LAYER
  5
16C
330
2
100
AcDbSymbolTableRecord
100
AcDbLayerTableRecord
  2
FRAMELAYER-028
 70
     0
 62
     7
  6
Continuous
370
    -3
390
F
  0
LAYER
  5
16D
330
2
100
AcDbSymbolTableRecord
100
AcDbLayerTableRecord
  2
FRAMELAYER-029
 70
     0
 62
     7
  6
Continuous
370
    -3
390
F
  0
LAYER
  5
16E
330
2
100
AcDbSymbolTableRecord
100
AcDbLayerTableRecord
  2
FRAMELAYER-030
 70
     0
 62
     2
  6
Continuous
370
    -3
390
F
  0
LAYER
  5
16F
330
2
100
AcDbSymbolTableRecord
100
AcDbLayerTableRecord
  2
FRAMELAYER-031
 70
     0
 62
     7
  6
Continuous
370
    -3
390
F
  0
LAYER
  5
170
330
2
100
AcDbSymbolTableRecord
100
AcDbLayerTableRecord
  2
FRAMELAYER-032
 70
     0
 62
     2
  6
Continuous
370
    -3
390
F
  0
LAYER
  5
171
330
2
100
AcDbSymbolTableRecord
100
AcDbLayerTableRecord
  2
FRAMELAYER-033
 70
     0
 62
     7
  6
Continuous
370
    -3
390
F
  0
LAYER
  5
172
330
2
100
AcDbSymbolTableRecord
100
AcDbLayerTableRecord
  2
FRAMELAYER-034
 70
     0
 62
     7
  6
Continuous
370
    -3
390
F
  0
LAYER
  5
173
330
2
100
AcDbSymbolTableRecord
100
AcDbLayerTableRecord
  2
FRAMELAYER-035
 70
     0
 62
     3
  6
Continuous
370
    -3
390
F
  0
LAYER
  5
174
330
2
100
AcDbSymbolTableRecord
100
AcDbLayerTableRecord
  2
FRAMELAYER-036
 70
     0
 62
     2
  6
Continuous
370
    -3
390
F
  0
LAYER
  5
175
330
2
100
AcDbSymbolTableRecord
100
AcDbLayerTableRecord
  2
FRAMELAYER-037
 70
     0
 62
     7
  6
Continuous
370
    -3
390
F
  0
LAYER
  5
176
330
2
100
AcDbSymbolTableRecord
100
AcDbLayerTableRecord
  2
FRAMELAYER-038
 70
     0
 62
     7
  6
Continuous
370
    -3
390
F
  0
LAYER
  5
177
330
2
100
AcDbSymbolTableRecord
100
AcDbLayerTableRecord
  2
FRAMELAYER-039
 70
     0
 62
     7
  6
Continuous
370
    -3
390
F
  0
LAYER
  5
178
330
2
100
AcDbSymbolTableRecord
100
AcDbLayerTableRecord
  2
FRAMELAYER-040
 70
     0
 62
     7
  6
Continuous
370
    -3
390
F
  0
LAYER
  5
179
330
2
100
AcDbSymbolTableRecord
100
AcDbLayerTableRecord
  2
FRAMELAYER-041
 70
     0
 62
     7
  6
Continuous
370
    -3
390
F
  0
LAYER
  5
17A
330
2
100
AcDbSymbolTableRecord
100
AcDbLayerTableRecord
  2
FRAMELAYER-042
 70
     0
 62
     7
  6
Continuous
370
    -3
390
F
  0
LAYER
  5
17B
330
2
100
AcDbSymbolTableRecord
100
AcDbLayerTableRecord
  2
FRAMELAYER-043
 70
     0
 62
     7
  6
Continuous
370
    -3
390
F
  0
LAYER
  5
17C
330
2
100
AcDbSymbolTableRecord
100
AcDbLayerTableRecord
  2
FRAMELAYER-044
 70
     0
 62
     7
  6
Continuous
370
    -3
390
F
  0
LAYER
  5
17D
330
2
100
AcDbSymbolTableRecord
100
AcDbLayerTableRecord
  2
FRAMELAYER-045
 70
     0
 62
     7
  6
Continuous
370
    -3
390
F
  0
LAYER
  5
17E
330
2
100
AcDbSymbolTableRecord
100
AcDbLayerTableRecord
  2
FRAMELAYER-046
 70
     0
 62
     7
  6
Continuous
370
    -3
390
F
  0
LAYER
  5
17F
330
2
100
AcDbSymbolTableRecord
100
AcDbLayerTableRecord
  2
FRAMELAYER-047
 70
     0
 62
     7
  6
Continuous
370
    -3
390
F
  0
LAYER
  5
180
330
2
100
AcDbSymbolTableRecord
100
AcDbLayerTableRecord
  2
FRAMELAYER-048
 70
     0
 62
     2
  6
Continuous
370
    -3
390
F
  0
LAYER
  5
181
330
2
100
AcDbSymbolTableRecord
100
AcDbLayerTableRecord
  2
FRAMELAYER-049
 70
     0
 62
     3
  6
Continuous
370
    -3
390
F
  0
LAYER
  5
182
330
2
100
AcDbSymbolTableRecord
100
AcDbLayerTableRecord
  2
FRAMELAYER-050
 70
     0
 62
     7
  6
Continuous
370
    -3
390
F
  0
LAYER
  5
183
330
2
100
AcDbSymbolTableRecord
100
AcDbLayerTableRecord
  2
FRAMELAYER-051
 70
     0
 62
     2
  6
Continuous
370
    -3
390
F
  0
LAYER
  5
184
330
2
100
AcDbSymbolTableRecord
100
AcDbLayerTableRecord
  2
FRAMELAYER-052
 70
     0
 62
     7
  6
Continuous
370
    -3
390
F
  0
LAYER
  5
185
330
2
100
AcDbSymbolTableRecord
100
AcDbLayerTableRecord
  2
FRAMELAYER-053
 70
     0
 62
     7
  6
Continuous
370
    -3
390
F
  0
LAYER
  5
186
330
2
100
AcDbSymbolTableRecord
100
AcDbLayerTableRecord
  2
FRAMELAYER-054
 70
     0
 62
     7
  6
Continuous
370
    -3
390
F
  0
LAYER
  5
187
330
2
100
AcDbSymbolTableRecord
100
AcDbLayerTableRecord
  2
FRAMELAYER-055
 70
     0
 62
     7
  6
Continuous
370
    -3
390
F
  0
LAYER
  5
188
330
2
100
AcDbSymbolTableRecord
100
AcDbLayerTableRecord
  2
FRAMELAYER-056
 70
     0
 62
     7
  6
Continuous
370
    -3
390
F
  0
LAYER
  5
189
330
2
100
AcDbSymbolTableRecord
100
AcDbLayerTableRecord
  2
FRAMELAYER-057
 70
     0
 62
     7
  6
Continuous
370
    -3
390
F
  0
LAYER
  5
18A
330
2
100
AcDbSymbolTableRecord
100
AcDbLayerTableRecord
  2
FRAMELAYER-058
 70
     0
 62
     7
  6
Continuous
370
    -3
390
F
  0
LAYER
  5
18B
330
2
100
AcDbSymbolTableRecord
100
AcDbLayerTableRecord
  2
FRAMELAYER-059
 70
     0
 62
     7
  6
Continuous
370
    -3
390
F
  0
LAYER
  5
18C
330
2
100
AcDbSymbolTableRecord
100
AcDbLayerTableRecord
  2
FRAMELAYER-060
 70
     0
 62
     7
  6
Continuous
370
    -3
390
F
  0
LAYER
  5
18D
330
2
100
AcDbSymbolTableRecord
100
AcDbLayerTableRecord
  2
FRAMELAYER-061
 70
     0
 62
     7
  6
Continuous
370
    -3
390
F
  0
LAYER
  5
18E
330
2
100
AcDbSymbolTableRecord
100
AcDbLayerTableRecord
  2
FRAMELAYER-062
 70
     0
 62
     7
  6
Continuous
370
    -3
390
F
  0
LAYER
  5
18F
330
2
100
AcDbSymbolTableRecord
100
AcDbLayerTableRecord
  2
FRAMELAYER-063
 70
     0
 62
     7
  6
Continuous
370
    -3
390
F
  0
LAYER
  5
190
330
2
100
AcDbSymbolTableRecord
100
AcDbLayerTableRecord
  2
FRAMELAYER-064
 70
     0
 62
     2
  6
Continuous
370
    -3
390
F
  0
LAYER
  5
191
330
2
100
AcDbSymbolTableRecord
100
AcDbLayerTableRecord
  2
FRAMELAYER-065
 70
     0
 62
     7
  6
Continuous
370
    -3
390
F
  0
LAYER
  5
192
330
2
100
AcDbSymbolTableRecord
100
AcDbLayerTableRecord
  2
FRAMELAYER-066
 70
     0
 62
     2
  6
Continuous
370
    -3
390
F
  0
LAYER
  5
193
330
2
100
AcDbSymbolTableRecord
100
AcDbLayerTableRecord
  2
FRAMELAYER-067
 70
     0
 62
     2
  6
Continuous
370
    -3
390
F
  0
LAYER
  5
194
330
2
100
AcDbSymbolTableRecord
100
AcDbLayerTableRecord
  2
FRAMELAYER-068
 70
     0
 62
     7
  6
Continuous
370
    -3
390
F
  0
LAYER
  5
195
330
2
100
AcDbSymbolTableRecord
100
AcDbLayerTableRecord
  2
FRAMELAYER-069
 70
     0
 62
     7
  6
Continuous
370
    -3
390
F
  0
LAYER
  5
196
330
2
100
AcDbSymbolTableRecord
100
AcDbLayerTableRecord
  2
FRAMELAYER-070
 70
     0
 62
     7
  6
Continuous
370
    -3
390
F
  0
LAYER
  5
197
330
2
100
AcDbSymbolTableRecord
100
AcDbLayerTableRecord
  2
FRAMELAYER-071
 70
     0
 62
     7
  6
Continuous
370
    -3
390
F
  0
LAYER
  5
198
330
2
100
AcDbSymbolTableRecord
100
AcDbLayerTableRecord
  2
FRAMELAYER-072
 70
     0
 62
     7
  6
Continuous
370
    -3
390
F
  0
LAYER
  5
199
330
2
100
AcDbSymbolTableRecord
100
AcDbLayerTableRecord
  2
FRAMELAYER-073
 70
     0
 62
     7
  6
Continuous
370
    -3
390
F
  0
LAYER
  5
19A
330
2
100
AcDbSymbolTableRecord
100
AcDbLayerTableRecord
  2
FRAMELAYER-074
 70
     0
 62
     7
  6
Continuous
370
    -3
390
F
  0
LAYER
  5
19B
330
2
100
AcDbSymbolTableRecord
100
AcDbLayerTableRecord
  2
FRAMELAYER-075
 70
     0
 62
     7
  6
Continuous
370
    -3
390
F
  0
LAYER
  5
19C
330
2
100
AcDbSymbolTableRecord
100
AcDbLayerTableRecord
  2
FRAMELAYER-076
 70
     0
 62
     7
  6
Continuous
370
    -3
390
F
  0
LAYER
  5
19D
330
2
100
AcDbSymbolTableRecord
100
AcDbLayerTableRecord
  2
FRAMELAYER-077
 70
     0
 62
     7
  6
Continuous
370
    -3
390
F
  0
LAYER
  5
19E
330
2
100
AcDbSymbolTableRecord
100
AcDbLayerTableRecord
  2
FRAMELAYER-078
 70
     0
 62
     7
  6
Continuous
370
    -3
390
F
  0
LAYER
  5
19F
330
2
100
AcDbSymbolTableRecord
100
AcDbLayerTableRecord
  2
FRAMELAYER-079
 70
     0
 62
     7
  6
Continuous
370
    -3
390
F
  0
LAYER
  5
1A0
330
2
100
AcDbSymbolTableRecord
100
AcDbLayerTableRecord
  2
FRAMELAYER-080
 70
     0
 62
     2
  6
Continuous
370
    -3
390
F
  0
LAYER
  5
1A1
330
2
100
AcDbSymbolTableRecord
100
AcDbLayerTableRecord
  2
FRAMELAYER-081
 70
     0
 62
     7
  6
Continuous
370
    -3
390
F
  0
LAYER
  5
1A2
330
2
100
AcDbSymbolTableRecord
100
AcDbLayerTableRecord
  2
FRAMELAYER-082
 70
     0
 62
     7
  6
Continuous
370
    -3
390
F
  0
LAYER
  5
1A3
330
2
100
AcDbSymbolTableRecord
100
AcDbLayerTableRecord
  2
FRAMELAYER-083
 70
     0
 62
     7
  6
Continuous
370
    -3
390
F
  0
LAYER
  5
1A4
330
2
100
AcDbSymbolTableRecord
100
AcDbLayerTableRecord
  2
FRAMELAYER-084
 70
     0
 62
     7
  6
Continuous
370
    -3
390
F
  0
LAYER
  5
1A5
330
2
100
AcDbSymbolTableRecord
100
AcDbLayerTableRecord
  2
FRAMELAYER-085
 70
     0
 62
     7
  6
Continuous
370
    -3
390
F
  0
LAYER
  5
1A6
330
2
100
AcDbSymbolTableRecord
100
AcDbLayerTableRecord
  2
FRAMELAYER-086
 70
     0
 62
     7
  6
Continuous
370
    -3
390
F
  0
LAYER
  5
1A7
330
2
100
AcDbSymbolTableRecord
100
AcDbLayerTableRecord
  2
FRAMELAYER-087
 70
     0
 62
     7
  6
Continuous
370
    -3
390
F
  0
LAYER
  5
1A8
330
2
100
AcDbSymbolTableRecord
100
AcDbLayerTableRecord
  2
FRAMELAYER-088
 70
     0
 62
     7
  6
Continuous
370
    -3
390
F
  0
LAYER
  5
1A9
330
2
100
AcDbSymbolTableRecord
100
AcDbLayerTableRecord
  2
FRAMELAYER-089
 70
     0
 62
     7
  6
Continuous
370
    -3
390
F
  0
LAYER
  5
1AA
330
2
100
AcDbSymbolTableRecord
100
AcDbLayerTableRecord
  2
FRAMELAYER-090
 70
     0
 62
     7
  6
Continuous
370
    -3
390
F
  0
LAYER
  5
1AB
330
2
100
AcDbSymbolTableRecord
100
AcDbLayerTableRecord
  2
FRAMELAYER-091
 70
     0
 62
     7
  6
Continuous
370
    -3
390
F
  0
LAYER
  5
1AC
330
2
100
AcDbSymbolTableRecord
100
AcDbLayerTableRecord
  2
FRAMELAYER-092
 70
     0
 62
     7
  6
Continuous
370
    -3
390
F
  0
LAYER
  5
1AD
330
2
100
AcDbSymbolTableRecord
100
AcDbLayerTableRecord
  2
FRAMELAYER-093
 70
     0
 62
     7
  6
Continuous
370
    -3
390
F
  0
LAYER
  5
1AE
330
2
100
AcDbSymbolTableRecord
100
AcDbLayerTableRecord
  2
FRAMELAYER-094
 70
     0
 62
     7
  6
Continuous
370
    -3
390
F
  0
LAYER
  5
1AF
330
2
100
AcDbSymbolTableRecord
100
AcDbLayerTableRecord
  2
FRAMELAYER-095
 70
     0
 62
     7
  6
Continuous
370
    -3
390
F
  0
LAYER
  5
1B0
330
2
100
AcDbSymbolTableRecord
100
AcDbLayerTableRecord
  2
FRAMELAYER-096
 70
     0
 62
     7
  6
Continuous
370
    -3
390
F
  0
LAYER
  5
1B1
330
2
100
AcDbSymbolTableRecord
100
AcDbLayerTableRecord
  2
FRAMELAYER-097
 70
     0
 62
     7
  6
Continuous
370
    -3
390
F
  0
LAYER
  5
1B2
330
2
100
AcDbSymbolTableRecord
100
AcDbLayerTableRecord
  2
FRAMELAYER-098
 70
     0
 62
     7
  6
Continuous
370
    -3
390
F
  0
LAYER
  5
1B3
330
2
100
AcDbSymbolTableRecord
100
AcDbLayerTableRecord
  2
FRAMELAYER-099
 70
     0
 62
     7
  6
Continuous
370
    -3
390
F
  0
LAYER
  5
1B4
330
2
100
AcDbSymbolTableRecord
100
AcDbLayerTableRecord
  2
FRAMELAYER-100
 70
     0
 62
     7
  6
Continuous
370
    -3
390
F
  0
LAYER
  5
1B5
330
2
100
AcDbSymbolTableRecord
100
AcDbLayerTableRecord
  2
FRAMELAYER-101
 70
     0
 62
     7
  6
Continuous
370
    -3
390
F
  0
LAYER
  5
1B6
330
2
100
AcDbSymbolTableRecord
100
AcDbLayerTableRecord
  2
FRAMELAYER-102
 70
     0
 62
     7
  6
Continuous
370
    -3
390
F
  0
LAYER
  5
1B7
330
2
100
AcDbSymbolTableRecord
100
AcDbLayerTableRecord
  2
FRAMELAYER-103
 70
     0
 62
     7
  6
Continuous
370
    -3
390
F
  0
LAYER
  5
1B8
330
2
100
AcDbSymbolTableRecord
100
AcDbLayerTableRecord
  2
FRAMELAYER-104
 70
     0
 62
     7
  6
Continuous
370
    -3
390
F
  0
LAYER
  5
1B9
330
2
100
AcDbSymbolTableRecord
100
AcDbLayerTableRecord
  2
FRAMELAYER-105
 70
     0
 62
     7
  6
Continuous
370
    -3
390
F
  0
LAYER
  5
1BA
330
2
100
AcDbSymbolTableRecord
100
AcDbLayerTableRecord
  2
FRAMELAYER-106
 70
     0
 62
     7
  6
Continuous
370
    -3
390
F
  0
LAYER
  5
1BB
330
2
100
AcDbSymbolTableRecord
100
AcDbLayerTableRecord
  2
FRAMELAYER-107
 70
     0
 62
     7
  6
Continuous
370
    -3
390
F
  0
LAYER
  5
1BC
330
2
100
AcDbSymbolTableRecord
100
AcDbLayerTableRecord
  2
FRAMELAYER-108
 70
     0
 62
     7
  6
Continuous
370
    -3
390
F
  0
LAYER
  5
1BD
330
2
100
AcDbSymbolTableRecord
100
AcDbLayerTableRecord
  2
FRAMELAYER-109
 70
     0
 62
     7
  6
Continuous
370
    -3
390
F
  0
LAYER
  5
1BE
330
2
100
AcDbSymbolTableRecord
100
AcDbLayerTableRecord
  2
FRAMELAYER-110
 70
     0
 62
     7
  6
Continuous
370
    -3
390
F
  0
LAYER
  5
1BF
330
2
100
AcDbSymbolTableRecord
100
AcDbLayerTableRecord
  2
FRAMELAYER-111
 70
     0
 62
     7
  6
Continuous
370
    -3
390
F
  0
LAYER
  5
1C0
330
2
100
AcDbSymbolTableRecord
100
AcDbLayerTableRecord
  2
FRAMELAYER-112
 70
     0
 62
     7
  6
Continuous
370
    -3
390
F
  0
LAYER
  5
1C1
330
2
100
AcDbSymbolTableRecord
100
AcDbLayerTableRecord
  2
FRAMELAYER-113
 70
     0
 62
     7
  6
Continuous
370
    -3
390
F
  0
LAYER
  5
1C2
330
2
100
AcDbSymbolTableRecord
100
AcDbLayerTableRecord
  2
FRAMELAYER-114
 70
     0
 62
     7
  6
Continuous
370
    -3
390
F
  0
LAYER
  5
1C3
330
2
100
AcDbSymbolTableRecord
100
AcDbLayerTableRecord
  2
FRAMELAYER-115
 70
     0
 62
     7
  6
Continuous
370
    -3
390
F
  0
LAYER
  5
1C4
330
2
100
AcDbSymbolTableRecord
100
AcDbLayerTableRecord
  2
FRAMELAYER-116
 70
     0
 62
     7
  6
Continuous
370
    -3
390
F
  0
LAYER
  5
1C5
330
2
100
AcDbSymbolTableRecord
100
AcDbLayerTableRecord
  2
FRAMELAYER-117
 70
     0
 62
     7
  6
Continuous
370
    -3
390
F
  0
LAYER
  5
1C6
330
2
100
AcDbSymbolTableRecord
100
AcDbLayerTableRecord
  2
FRAMELAYER-118
 70
     0
 62
     7
  6
Continuous
370
    -3
390
F
  0
LAYER
  5
1C7
330
2
100
AcDbSymbolTableRecord
100
AcDbLayerTableRecord
  2
FRAMELAYER-119
 70
     0
 62
     7
  6
Continuous
370
    -3
390
F
  0
LAYER
  5
1C8
330
2
100
AcDbSymbolTableRecord
100
AcDbLayerTableRecord
  2
FRAMELAYER-120
 70
     0
 62
     7
  6
Continuous
370
    -3
390
F
  0
LAYER
  5
1C9
330
2
100
AcDbSymbolTableRecord
100
AcDbLayerTableRecord
  2
FRAMELAYER-121
 70
     0
 62
     7
  6
Continuous
370
    -3
390
F
  0
LAYER
  5
1CA
330
2
100
AcDbSymbolTableRecord
100
AcDbLayerTableRecord
  2
FRAMELAYER-122
 70
     0
 62
     7
  6
Continuous
370
    -3
390
F
  0
LAYER
  5
1CB
330
2
100
AcDbSymbolTableRecord
100
AcDbLayerTableRecord
  2
FRAMELAYER-123
 70
     0
 62
     7
  6
Continuous
370
    -3
390
F
  0
LAYER
  5
1CC
330
2
100
AcDbSymbolTableRecord
100
AcDbLayerTableRecord
  2
FRAMELAYER-124
 70
     0
 62
     7
  6
Continuous
370
    -3
390
F
  0
LAYER
  5
1CD
330
2
100
AcDbSymbolTableRecord
100
AcDbLayerTableRecord
  2
FRAMELAYER-125
 70
     0
 62
     7
  6
Continuous
370
    -3
390
F
  0
LAYER
  5
1CE
330
2
100
AcDbSymbolTableRecord
100
AcDbLayerTableRecord
  2
FRAMELAYER-126
 70
     0
 62
     7
  6
Continuous
370
    -3
390
F
  0
LAYER
  5
1CF
330
2
100
AcDbSymbolTableRecord
100
AcDbLayerTableRecord
  2
FRAMELAYER-127
 70
     0
 62
     7
  6
Continuous
370
    -3
390
F
  0
LAYER
  5
1D0
330
2
100
AcDbSymbolTableRecord
100
AcDbLayerTableRecord
  2
FRAMELAYER-128
 70
     0
 62
     7
  6
Continuous
370
    -3
390
F
  0
LAYER
  5
1D1
330
2
100
AcDbSymbolTableRecord
100
AcDbLayerTableRecord
  2
FRAMELAYER-129
 70
     0
 62
     7
  6
Continuous
370
    -3
390
F
  0
LAYER
  5
1D2
330
2
100
AcDbSymbolTableRecord
100
AcDbLayerTableRecord
  2
FRAMELAYER-130
 70
     0
 62
     7
  6
Continuous
370
    -3
390
F
  0
LAYER
  5
1D3
330
2
100
AcDbSymbolTableRecord
100
AcDbLayerTableRecord
  2
FRAMELAYER-131
 70
     0
 62
     7
  6
Continuous
370
    -3
390
F
  0
LAYER
  5
1D4
330
2
100
AcDbSymbolTableRecord
100
AcDbLayerTableRecord
  2
FRAMELAYER-132
 70
     0
 62
     7
  6
Continuous
370
    -3
390
F
  0
LAYER
  5
1D5
330
2
100
AcDbSymbolTableRecord
100
AcDbLayerTableRecord
  2
FRAMELAYER-133
 70
     0
 62
     7
  6
Continuous
370
    -3
390
F
  0
LAYER
  5
1D6
330
2
100
AcDbSymbolTableRecord
100
AcDbLayerTableRecord
  2
FRAMELAYER-134
 70
     0
 62
     7
  6
Continuous
370
    -3
390
F
  0
LAYER
  5
1D7
330
2
100
AcDbSymbolTableRecord
100
AcDbLayerTableRecord
  2
FRAMELAYER-135
 70
     0
 62
    -4
  6
Continuous
370
    -3
390
F
  0
LAYER
  5
1D8
330
2
100
AcDbSymbolTableRecord
100
AcDbLayerTableRecord
  2
FRAMELAYER-136
 70
     0
 62
    -3
  6
Continuous
370
    -3
390
F
  0
LAYER
  5
1D9
330
2
100
AcDbSymbolTableRecord
100
AcDbLayerTableRecord
  2
FRAMELAYER-137
 70
     0
 62
    -1
  6
Continuous
370
    -3
390
F
  0
LAYER
  5
1DA
330
2
100
AcDbSymbolTableRecord
100
AcDbLayerTableRecord
  2
FRAMELAYER-138
 70
     0
 62
     7
  6
Continuous
370
    -3
390
F
  0
LAYER
  5
1DB
330
2
100
AcDbSymbolTableRecord
100
AcDbLayerTableRecord
  2
FRAMELAYER-139
 70
     0
 62
     7
  6
Continuous
370
    -3
390
F
  0
LAYER
  5
1DC
330
2
100
AcDbSymbolTableRecord
100
AcDbLayerTableRecord
  2
FRAMELAYER-140
 70
     0
 62
     7
  6
Continuous
370
    -3
390
F
  0
LAYER
  5
1DD
330
2
100
AcDbSymbolTableRecord
100
AcDbLayerTableRecord
  2
FRAMELAYER-141
 70
     0
 62
     7
  6
Continuous
370
    -3
390
F
  0
LAYER
  5
1DE
330
2
100
AcDbSymbolTableRecord
100
AcDbLayerTableRecord
  2
FRAMELAYER-142
 70
     0
 62
     3
  6
Continuous
370
    -3
390
F
  0
LAYER
  5
1DF
330
2
100
AcDbSymbolTableRecord
100
AcDbLayerTableRecord
  2
FRAMELAYER-143
 70
     0
 62
     7
  6
Continuous
370
    -3
390
F
  0
LAYER
  5
1E0
330
2
100
AcDbSymbolTableRecord
100
AcDbLayerTableRecord
  2
FRAMELAYER-144
 70
     0
 62
     7
  6
Continuous
370
    -3
390
F
  0
LAYER
  5
1E1
330
2
100
AcDbSymbolTableRecord
100
AcDbLayerTableRecord
  2
FRAMELAYER-145
 70
     0
 62
     3
  6
Continuous
370
    -3
390
F
  0
LAYER
  5
1E2
330
2
100
AcDbSymbolTableRecord
100
AcDbLayerTableRecord
  2
FRAMELAYER-146
 70
     0
 62
     7
  6
Continuous
370
    -3
390
F
  0
LAYER
  5
1E3
330
2
100
AcDbSymbolTableRecord
100
AcDbLayerTableRecord
  2
FRAMELAYER-147
 70
     0
 62
     7
  6
Continuous
370
    -3
390
F
  0
LAYER
  5
1E4
330
2
100
AcDbSymbolTableRecord
100
AcDbLayerTableRecord
  2
FRAMELAYER-148
 70
     0
 62
     7
  6
Continuous
370
    -3
390
F
  0
LAYER
  5
1E5
330
2
100
AcDbSymbolTableRecord
100
AcDbLayerTableRecord
  2
FRAMELAYER-149
 70
     0
 62
     7
  6
Continuous
370
    -3
390
F
  0
LAYER
  5
1E6
330
2
100
AcDbSymbolTableRecord
100
AcDbLayerTableRecord
  2
FRAMELAYER-150
 70
     0
 62
     7
  6
Continuous
370
    -3
390
F
  0
LAYER
  5
1E7
330
2
100
AcDbSymbolTableRecord
100
AcDbLayerTableRecord
  2
FRAMELAYER-151
 70
     0
 62
     7
  6
Continuous
370
    -3
390
F
  0
LAYER
  5
1E8
330
2
100
AcDbSymbolTableRecord
100
AcDbLayerTableRecord
  2
FRAMELAYER-152
 70
     0
 62
     7
  6
Continuous
370
    -3
390
F
  0
LAYER
  5
1E9
330
2
100
AcDbSymbolTableRecord
100
AcDbLayerTableRecord
  2
FRAMELAYER-153
 70
     0
 62
     7
  6
Continuous
370
    -3
390
F
  0
LAYER
  5
1EA
330
2
100
AcDbSymbolTableRecord
100
AcDbLayerTableRecord
  2
FRAMELAYER-154
 70
     0
 62
     7
  6
Continuous
370
    -3
390
F
  0
LAYER
  5
1EB
330
2
100
AcDbSymbolTableRecord
100
AcDbLayerTableRecord
  2
FRAMELAYER-155
 70
     0
 62
     7
  6
Continuous
370
    -3
390
F
  0
LAYER
  5
1EC
330
2
100
AcDbSymbolTableRecord
100
AcDbLayerTableRecord
  2
FRAMELAYER-156
 70
     0
 62
     7
  6
Continuous
370
    -3
390
F
  0
LAYER
  5
1ED
330
2
100
AcDbSymbolTableRecord
100
AcDbLayerTableRecord
  2
FRAMELAYER-157
 70
     0
 62
     7
  6
Continuous
370
    -3
390
F
  0
LAYER
  5
1EE
330
2
100
AcDbSymbolTableRecord
100
AcDbLayerTableRecord
  2
FRAMELAYER-158
 70
     0
 62
     7
  6
Continuous
370
    -3
390
F
  0
LAYER
  5
1EF
330
2
100
AcDbSymbolTableRecord
100
AcDbLayerTableRecord
  2
FRAMELAYER-159
 70
     0
 62
     7
  6
Continuous
370
    -3
390
F
  0
LAYER
  5
1F0
330
2
100
AcDbSymbolTableRecord
100
AcDbLayerTableRecord
  2
FRAMELAYER-160
 70
     0
 62
     7
  6
Continuous
370
    -3
390
F
  0
LAYER
  5
1F1
330
2
100
AcDbSymbolTableRecord
100
AcDbLayerTableRecord
  2
FRAMELAYER-161
 70
     0
 62
     7
  6
Continuous
370
    -3
390
F
  0
LAYER
  5
1F2
330
2
100
AcDbSymbolTableRecord
100
AcDbLayerTableRecord
  2
FRAMELAYER-162
 70
     0
 62
     7
  6
Continuous
370
    -3
390
F
  0
LAYER
  5
1F3
330
2
100
AcDbSymbolTableRecord
100
AcDbLayerTableRecord
  2
FRAMELAYER-163
 70
     0
 62
     7
  6
Continuous
370
    -3
390
F
  0
LAYER
  5
1F4
330
2
100
AcDbSymbolTableRecord
100
AcDbLayerTableRecord
  2
FRAMELAYER-164
 70
     0
 62
     7
  6
Continuous
370
    -3
390
F
  0
LAYER
  5
1F5
330
2
100
AcDbSymbolTableRecord
100
AcDbLayerTableRecord
  2
FRAMELAYER-165
 70
     0
 62
     7
  6
Continuous
370
    -3
390
F
  0
LAYER
  5
1F6
330
2
100
AcDbSymbolTableRecord
100
AcDbLayerTableRecord
  2
FRAMELAYER-166
 70
     0
 62
     7
  6
Continuous
370
    -3
390
F
  0
LAYER
  5
1F7
330
2
100
AcDbSymbolTableRecord
100
AcDbLayerTableRecord
  2
FRAMELAYER-167
 70
     0
 62
     7
  6
Continuous
370
    -3
390
F
  0
LAYER
  5
1F8
330
2
100
AcDbSymbolTableRecord
100
AcDbLayerTableRecord
  2
FRAMELAYER-168
 70
     0
 62
     7
  6
Continuous
370
    -3
390
F
  0
LAYER
  5
1F9
330
2
100
AcDbSymbolTableRecord
100
AcDbLayerTableRecord
  2
FRAMELAYER-169
 70
     0
 62
     7
  6
Continuous
370
    -3
390
F
  0
LAYER
  5
1FA
330
2
100
AcDbSymbolTableRecord
100
AcDbLayerTableRecord
  2
FRAMELAYER-170
 70
     0
 62
     7
  6
Continuous
370
    -3
390
F
  0
LAYER
  5
1FB
330
2
100
AcDbSymbolTableRecord
100
AcDbLayerTableRecord
  2
FRAMELAYER-171
 70
     0
 62
     7
  6
Continuous
370
    -3
390
F
  0
LAYER
  5
1FC
330
2
100
AcDbSymbolTableRecord
100
AcDbLayerTableRecord
  2
FRAMELAYER-172
 70
     0
 62
     7
  6
Continuous
370
    -3
390
F
  0
LAYER
  5
1FD
330
2
100
AcDbSymbolTableRecord
100
AcDbLayerTableRecord
  2
FRAMELAYER-173
 70
     0
 62
     7
  6
Continuous
370
    -3
390
F
  0
LAYER
  5
1FE
330
2
100
AcDbSymbolTableRecord
100
AcDbLayerTableRecord
  2
FRAMELAYER-174
 70
     0
 62
     7
  6
Continuous
370
    -3
390
F
  0
LAYER
  5
1FF
330
2
100
AcDbSymbolTableRecord
100
AcDbLayerTableRecord
  2
FRAMELAYER-175
 70
     0
 62
     7
  6
Continuous
370
    -3
390
F
  0
LAYER
  5
200
330
2
100
AcDbSymbolTableRecord
100
AcDbLayerTableRecord
  2
FRAMELAYER-176
 70
     0
 62
     7
  6
Continuous
370
    -3
390
F
  0
LAYER
  5
201
330
2
100
AcDbSymbolTableRecord
100
AcDbLayerTableRecord
  2
FRAMELAYER-177
 70
     0
 62
     7
  6
Continuous
370
    -3
390
F
  0
LAYER
  5
202
330
2
100
AcDbSymbolTableRecord
100
AcDbLayerTableRecord
  2
FRAMELAYER-178
 70
     0
 62
     7
  6
Continuous
370
    -3
390
F
  0
LAYER
  5
203
330
2
100
AcDbSymbolTableRecord
100
AcDbLayerTableRecord
  2
FRAMELAYER-179
 70
     0
 62
     7
  6
Continuous
370
    -3
390
F
  0
LAYER
  5
204
330
2
100
AcDbSymbolTableRecord
100
AcDbLayerTableRecord
  2
FRAMELAYER-180
 70
     0
 62
     7
  6
Continuous
370
    -3
390
F
  0
LAYER
  5
205
330
2
100
AcDbSymbolTableRecord
100
AcDbLayerTableRecord
  2
FRAMELAYER-181
 70
     0
 62
     7
  6
Continuous
370
    -3
390
F
  0
LAYER
  5
206
330
2
100
AcDbSymbolTableRecord
100
AcDbLayerTableRecord
  2
FRAMELAYER-182
 70
     0
 62
     7
  6
Continuous
370
    -3
390
F
  0
LAYER
  5
207
330
2
100
AcDbSymbolTableRecord
100
AcDbLayerTableRecord
  2
FRAMELAYER-183
 70
     0
 62
     7
  6
Continuous
370
    -3
390
F
  0
LAYER
  5
208
330
2
100
AcDbSymbolTableRecord
100
AcDbLayerTableRecord
  2
FRAMELAYER-184
 70
     0
 62
     7
  6
Continuous
370
    -3
390
F
  0
LAYER
  5
209
330
2
100
AcDbSymbolTableRecord
100
AcDbLayerTableRecord
  2
FRAMELAYER-185
 70
     0
 62
     7
  6
Continuous
370
    -3
390
F
  0
LAYER
  5
20A
330
2
100
AcDbSymbolTableRecord
100
AcDbLayerTableRecord
  2
FRAMELAYER-186
 70
     0
 62
     7
  6
Continuous
370
    -3
390
F
  0
LAYER
  5
20B
330
2
100
AcDbSymbolTableRecord
100
AcDbLayerTableRecord
  2
FRAMELAYER-187
 70
     0
 62
     7
  6
Continuous
370
    -3
390
F
  0
LAYER
  5
20C
330
2
100
AcDbSymbolTableRecord
100
AcDbLayerTableRecord
  2
FRAMELAYER-188
 70
     0
 62
     7
  6
Continuous
370
    -3
390
F
  0
LAYER
  5
20D
330
2
100
AcDbSymbolTableRecord
100
AcDbLayerTableRecord
  2
FRAMELAYER-189
 70
     0
 62
     7
  6
Continuous
370
    -3
390
F
  0
LAYER
  5
20E
330
2
100
AcDbSymbolTableRecord
100
AcDbLayerTableRecord
  2
FRAMELAYER-190
 70
     0
 62
     7
  6
Continuous
370
    -3
390
F
  0
LAYER
  5
20F
330
2
100
AcDbSymbolTableRecord
100
AcDbLayerTableRecord
  2
FRAMELAYER-191
 70
     0
 62
     7
  6
Continuous
370
    -3
390
F
  0
LAYER
  5
210
330
2
100
AcDbSymbolTableRecord
100
AcDbLayerTableRecord
  2
FRAMELAYER-192
 70
     0
 62
     7
  6
Continuous
370
    -3
390
F
  0
LAYER
  5
211
330
2
100
AcDbSymbolTableRecord
100
AcDbLayerTableRecord
  2
FRAMELAYER-193
 70
     0
 62
     7
  6
Continuous
370
    -3
390
F
  0
LAYER
  5
212
330
2
100
AcDbSymbolTableRecord
100
AcDbLayerTableRecord
  2
FRAMELAYER-194
 70
     0
 62
     2
  6
Continuous
370
    -3
390
F
  0
LAYER
  5
213
330
2
100
AcDbSymbolTableRecord
100
AcDbLayerTableRecord
  2
FRAMELAYER-195
 70
     0
 62
     2
  6
Continuous
370
    -3
390
F
  0
LAYER
  5
214
330
2
100
AcDbSymbolTableRecord
100
AcDbLayerTableRecord
  2
FRAMELAYER-196
 70
     0
 62
     2
  6
Continuous
370
    -3
390
F
  0
LAYER
  5
215
330
2
100
AcDbSymbolTableRecord
100
AcDbLayerTableRecord
  2
FRAMELAYER-197
 70
     0
 62
     7
  6
Continuous
370
    -3
390
F
  0
LAYER
  5
216
330
2
100
AcDbSymbolTableRecord
100
AcDbLayerTableRecord
  2
FRAMELAYER-198
 70
     0
 62
     7
  6
Continuous
370
    -3
390
F
  0
LAYER
  5
217
330
2
100
AcDbSymbolTableRecord
100
AcDbLayerTableRecord
  2
FRAMELAYER-199
 70
     0
 62
     4
  6
Continuous
370
    -3
390
F
  0
LAYER
  5
218
330
2
100
AcDbSymbolTableRecord
100
AcDbLayerTableRecord
  2
FRAMELAYER-200
 70
     0
 62
     1
  6
Continuous
370
    -3
390
F
  0
LAYER
  5
219
330
2
100
AcDbSymbolTableRecord
100
AcDbLayerTableRecord
  2
FRAMELAYER-201
 70
     0
 62
     1
  6
Continuous
370
    -3
390
F
  0
LAYER
  5
21A
330
2
100
AcDbSymbolTableRecord
100
AcDbLayerTableRecord
  2
FRAMELAYER-202
 70
     0
 62
     2
  6
Continuous
370
    -3
390
F
  0
LAYER
  5
21B
330
2
100
AcDbSymbolTableRecord
100
AcDbLayerTableRecord
  2
FRAMELAYER-203
 70
     0
 62
     2
  6
Continuous
370
    -3
390
F
  0
LAYER
  5
21C
330
2
100
AcDbSymbolTableRecord
100
AcDbLayerTableRecord
  2
FRAMELAYER-204
 70
     0
 62
     7
  6
Continuous
370
    -3
390
F
  0
LAYER
  5
21D
330
2
100
AcDbSymbolTableRecord
100
AcDbLayerTableRecord
  2
FRAMELAYER-205
 70
     0
 62
     7
  6
Continuous
370
    -3
390
F
  0
LAYER
  5
21E
330
2
100
AcDbSymbolTableRecord
100
AcDbLayerTableRecord
  2
FRAMELAYER-206
 70
     0
 62
     7
  6
Continuous
370
    -3
390
F
  0
LAYER
  5
21F
330
2
100
AcDbSymbolTableRecord
100
AcDbLayerTableRecord
  2
FRAMELAYER-207
 70
     0
 62
    -7
  6
Continuous
370
    -3
390
F
  0
LAYER
  5
220
330
2
100
AcDbSymbolTableRecord
100
AcDbLayerTableRecord
  2
FRAMELAYER-208
 70
     0
 62
     2
  6
Continuous
370
    -3
390
F
  0
LAYER
  5
221
330
2
100
AcDbSymbolTableRecord
100
AcDbLayerTableRecord
  2
FRAMELAYER-209
 70
     0
 62
     7
  6
Continuous
370
    -3
390
F
  0
LAYER
  5
222
330
2
100
AcDbSymbolTableRecord
100
AcDbLayerTableRecord
  2
FRAMELAYER-210
 70
     0
 62
     2
  6
Continuous
290
     0
370
    -3
390
F
  0
LAYER
  5
223
330
2
100
AcDbSymbolTableRecord
100
AcDbLayerTableRecord
  2
FRAMELAYER-211
 70
     0
 62
     7
  6
Continuous
370
    -3
390
F
  0
LAYER
  5
224
330
2
100
AcDbSymbolTableRecord
100
AcDbLayerTableRecord
  2
FRAMELAYER-212
 70
     0
 62
     7
  6
Continuous
370
    -3
390
F
  0
LAYER
  5
225
330
2
100
AcDbSymbolTableRecord
100
AcDbLayerTableRecord
  2
FRAMELAYER-213
 70
     0
 62
     2
  6
Continuous
370
    -3
390
F
  0
LAYER
  5
226
330
2
100
AcDbSymbolTableRecord
100
AcDbLayerTableRecord
  2
FRAMELAYER-214
 70
     0
 62
     7
  6
Continuous
370
    -3
390
F
  0
LAYER
  5
227
330
2
100
AcDbSymbolTableRecord
100
AcDbLayerTableRecord
  2
FRAMELAYER-215
 70
     0
 62
     7
  6
Continuous
370
    -3
390
F
  0
LAYER
  5
228
330
2
100
AcDbSymbolTableRecord
100
AcDbLayerTableRecord
  2
FRAMELAYER-216
 70
     0
 62
     4
  6
Continuous
370
    -3
390
F
  0
LAYER
  5
229
330
2
100
AcDbSymbolTableRecord
100
AcDbLayerTableRecord
  2
FRAMELAYER-217
 70
     0
 62
     7
  6
Continuous
370
    -3
390
F
  0
LAYER
  5
22A
330
2
100
AcDbSymbolTableRecord
100
AcDbLayerTableRecord
  2
FRAMELAYER-218
 70
     0
 62
     7
  6
Continuous
370
    -3
390
F
  0
LAYER
  5
22B
330
2
100
AcDbSymbolTableRecord
100
AcDbLayerTableRecord
  2
FRAMELAYER-219
 70
     0
 62
     7
  6
Continuous
370
    -3
390
F
  0
LAYER
  5
22C
330
2
100
AcDbSymbolTableRecord
100
AcDbLayerTableRecord
  2
FRAMELAYER-220
 70
     0
 62
     4
  6
Continuous
370
    -3
390
F
  0
LAYER
  5
22D
330
2
100
AcDbSymbolTableRecord
100
AcDbLayerTableRecord
  2
FRAMELAYER-221
 70
     0
 62
    -7
  6
Continuous
290
     0
370
    -3
390
F
  0
LAYER
  5
22E
330
2
100
AcDbSymbolTableRecord
100
AcDbLayerTableRecord
  2
FRAMELAYER-222
 70
     0
 62
    -4
  6
Continuous
290
     0
370
    -3
390
F
  0
LAYER
  5
22F
330
2
100
AcDbSymbolTableRecord
100
AcDbLayerTableRecord
  2
FRAMELAYER-223
 70
     0
 62
    -1
  6
Continuous
290
     0
370
    -3
390
F
  0
LAYER
  5
230
330
2
100
AcDbSymbolTableRecord
100
AcDbLayerTableRecord
  2
FRAMELAYER-224
 70
     0
 62
    -1
  6
Continuous
290
     0
370
    -3
390
F
  0
LAYER
  5
231
330
2
100
AcDbSymbolTableRecord
100
AcDbLayerTableRecord
  2
FRAMELAYER-225
 70
     0
 62
     7
  6
Continuous
370
    -3
390
F
  0
LAYER
  5
232
330
2
100
AcDbSymbolTableRecord
100
AcDbLayerTableRecord
  2
FRAMELAYER-226
 70
     0
 62
     2
  6
Continuous
370
    -3
390
F
  0
LAYER
  5
233
330
2
100
AcDbSymbolTableRecord
100
AcDbLayerTableRecord
  2
FRAMELAYER-227
 70
     0
 62
     7
  6
Continuous
370
    -3
390
F
  0
LAYER
  5
234
330
2
100
AcDbSymbolTableRecord
100
AcDbLayerTableRecord
  2
FRAMELAYER-228
 70
     0
 62
     7
  6
Continuous
370
    -3
390
F
  0
LAYER
  5
235
330
2
100
AcDbSymbolTableRecord
100
AcDbLayerTableRecord
  2
FRAMELAYER-229
 70
     0
 62
     7
  6
Continuous
370
    -3
390
F
  0
LAYER
  5
236
330
2
100
AcDbSymbolTableRecord
100
AcDbLayerTableRecord
  2
FRAMELAYER-230
 70
     0
 62
     7
  6
Continuous
370
    -3
390
F
  0
LAYER
  5
237
330
2
100
AcDbSymbolTableRecord
100
AcDbLayerTableRecord
  2
FRAMELAYER-231
 70
     0
 62
     7
  6
Continuous
370
    -3
390
F
  0
LAYER
  5
238
330
2
100
AcDbSymbolTableRecord
100
AcDbLayerTableRecord
  2
FRAMELAYER-232
 70
     0
 62
     7
  6
Continuous
370
    -3
390
F
  0
LAYER
  5
239
330
2
100
AcDbSymbolTableRecord
100
AcDbLayerTableRecord
  2
FRAMELAYER-233
 70
     0
 62
     7
  6
Continuous
370
    -3
390
F
  0
LAYER
  5
23A
330
2
100
AcDbSymbolTableRecord
100
AcDbLayerTableRecord
  2
FRAMELAYER-234
 70
     0
 62
     7
  6
Continuous
370
    -3
390
F
  0
LAYER
  5
23B
330
2
100
AcDbSymbolTableRecord
100
AcDbLayerTableRecord
  2
FRAMELAYER-235
 70
     0
 62
     7
  6
Continuous
370
    -3
390
F
  0
LAYER
  5
23C
330
2
100
AcDbSymbolTableRecord
100
AcDbLayerTableRecord
  2
FRAMELAYER-236
 70
     0
 62
     7
  6
Continuous
370
    -3
390
F
  0
LAYER
  5
23D
330
2
100
AcDbSymbolTableRecord
100
AcDbLayerTableRecord
  2
FRAMELAYER-237
 70
     0
 62
     7
  6
Continuous
370
    -3
390
F
  0
LAYER
  5
23E
330
2
100
AcDbSymbolTableRecord
100
AcDbLayerTableRecord
  2
FRAMELAYER-238
 70
     0
 62
     7
  6
Continuous
370
    -3
390
F
  0
LAYER
  5
23F
330
2
100
AcDbSymbolTableRecord
100
AcDbLayerTableRecord
  2
FRAMELAYER-239
 70
     0
 62
     7
  6
Continuous
370
    -3
390
F
  0
LAYER
  5
240
330
2
100
AcDbSymbolTableRecord
100
AcDbLayerTableRecord
  2
FRAMELAYER-240
 70
     0
 62
     7
  6
Continuous
370
    -3
390
F
  0
LAYER
  5
241
330
2
100
AcDbSymbolTableRecord
100
AcDbLayerTableRecord
  2
FRAMELAYER-241
 70
     0
 62
     7
  6
Continuous
370
    -3
390
F
  0
LAYER
  5
242
330
2
100
AcDbSymbolTableRecord
100
AcDbLayerTableRecord
  2
FRAMELAYER-242
 70
     0
 62
     7
  6
Continuous
370
    -3
390
F
  0
LAYER
  5
243
330
2
100
AcDbSymbolTableRecord
100
AcDbLayerTableRecord
  2
FRAMELAYER-243
 70
     0
 62
     7
  6
Continuous
370
    -3
390
F
  0
LAYER
  5
244
330
2
100
AcDbSymbolTableRecord
100
AcDbLayerTableRecord
  2
FRAMELAYER-244
 70
     0
 62
     7
  6
Continuous
370
    -3
390
F
  0
LAYER
  5
245
330
2
100
AcDbSymbolTableRecord
100
AcDbLayerTableRecord
  2
FRAMELAYER-245
 70
     0
 62
     7
  6
Continuous
370
    -3
390
F
  0
LAYER
  5
246
330
2
100
AcDbSymbolTableRecord
100
AcDbLayerTableRecord
  2
FRAMELAYER-246
 70
     0
 62
     7
  6
Continuous
370
    -3
390
F
  0
LAYER
  5
247
330
2
100
AcDbSymbolTableRecord
100
AcDbLayerTableRecord
  2
FRAMELAYER-247
 70
     0
 62
     7
  6
Continuous
370
    -3
390
F
  0
LAYER
  5
248
330
2
100
AcDbSymbolTableRecord
100
AcDbLayerTableRecord
  2
FRAMELAYER-248
 70
     0
 62
     7
  6
Continuous
370
    -3
390
F
  0
LAYER
  5
249
330
2
100
AcDbSymbolTableRecord
100
AcDbLayerTableRecord
  2
FRAMELAYER-249
 70
     0
 62
     7
  6
Continuous
370
    -3
390
F
  0
LAYER
  5
24A
330
2
100
AcDbSymbolTableRecord
100
AcDbLayerTableRecord
  2
FRAMELAYER-250
 70
     0
 62
     7
  6
Continuous
370
    -3
390
F
  0
LAYER
  5
24B
330
2
100
AcDbSymbolTableRecord
100
AcDbLayerTableRecord
  2
FRAMELAYER-251
 70
     0
 62
     7
  6
Continuous
370
    -3
390
F
  0
LAYER
  5
24C
330
2
100
AcDbSymbolTableRecord
100
AcDbLayerTableRecord
  2
FRAMELAYER-252
 70
     0
 62
     7
  6
Continuous
370
    -3
390
F
  0
LAYER
  5
24D
330
2
100
AcDbSymbolTableRecord
100
AcDbLayerTableRecord
  2
FRAMELAYER-253
 70
     0
 62
     7
  6
Continuous
370
    -3
390
F
  0
LAYER
  5
24E
330
2
100
AcDbSymbolTableRecord
100
AcDbLayerTableRecord
  2
FRAMELAYER-254
 70
     0
 62
     7
  6
Continuous
370
    -3
390
F
  0
LAYER
  5
24F
330
2
100
AcDbSymbolTableRecord
100
AcDbLayerTableRecord
  2
FRAMELAYER-255
 70
     0
 62
     7
  6
Continuous
370
    -3
390
F
  0
LAYER
  5
250
330
2
100
AcDbSymbolTableRecord
100
AcDbLayerTableRecord
  2
FRAMELAYER-256
 70
     0
 62
     7
  6
Continuous
370
    -3
390
F
  0
ENDTAB
  0
TABLE
  2
STYLE
  5
3
330
0
100
AcDbSymbolTable
 70
     7
  0
STYLE
  5
11
330
3
100
AcDbSymbolTableRecord
100
AcDbTextStyleTableRecord
  2
Standard
 70
     0
 40
0.0
 41
1.0
 50
0.0
 71
     0
 42
2.5
  3
txt
  4

  0
STYLE
  5
31
330
3
100
AcDbSymbolTableRecord
100
AcDbTextStyleTableRecord
  2
STANDARD2
 70
     0
 40
0.0
 41
1.0
 50
0.0
 71
     0
 42
4.0
  3
MS Mincho.ttf
  4

1001
ACAD
1000
MS Mincho
1071
    32785
  0
STYLE
  5
32
330
3
100
AcDbSymbolTableRecord
100
AcDbTextStyleTableRecord
  2
STRING_H
 70
     0
 40
0.0
 41
1.0
 50
0.0
 71
     0
 42
4.0
  3
MS Mincho.ttf
  4

1001
ACAD
1000
MS Mincho
1071
    32785
  0
STYLE
  5
33
330
3
100
AcDbSymbolTableRecord
100
AcDbTextStyleTableRecord
  2
STRING_H_ITALIC
 70
     0
 40
0.0
 41
1.0
 50
15.0
 71
     0
 42
4.0
  3
MS Mincho.ttf
  4

1001
ACAD
1000
MS Mincho
1071
    32785
  0
STYLE
  5
34
330
3
100
AcDbSymbolTableRecord
100
AcDbTextStyleTableRecord
  2
STRING_V
 70
     0
 40
0.0
 41
1.0
 50
0.0
 71
     0
 42
4.0
  3
@MS Mincho.ttf
  4

1001
ACAD
1000
@MS Mincho
1071
    32785
  0
STYLE
  5
35
330
3
100
AcDbSymbolTableRecord
100
AcDbTextStyleTableRecord
  2
STRING_V_ITALIC
 70
     0
 40
0.0
 41
1.0
 50
15.0
 71
     0
 42
4.0
  3
@MS Mincho.ttf
  4

1001
ACAD
1000
@MS Mincho
1071
    32785
  0
STYLE
  5
36
330
3
100
AcDbSymbolTableRecord
100
AcDbTextStyleTableRecord
  2

 70
     1
 40
0.0
 41
1.0
 50
0.0
 71
     0
 42
0.2
  3
ltypeshp.shx
  4

  0
ENDTAB
  0
TABLE
  2
VIEW
  5
6
330
0
100
AcDbSymbolTable
 70
     0
  0
ENDTAB
  0
TABLE
  2
UCS
  5
7
330
0
100
AcDbSymbolTable
 70
     0
  0
ENDTAB
  0
TABLE
  2
APPID
  5
9
330
0
100
AcDbSymbolTable
 70
     1
  0
APPID
  5
12
330
9
100
AcDbSymbolTableRecord
100
AcDbRegAppTableRecord
  2
ACAD
 70
     0
  0
ENDTAB
  0
TABLE
  2
DIMSTYLE
  5
A
330
0
100
AcDbSymbolTable
 70
     2
100
AcDbDimStyleTable
  0
DIMSTYLE
105
27
330
A
100
AcDbSymbolTableRecord
100
AcDbDimStyleTableRecord
  2
ISO-25
 70
     0
 41
2.5
 42
0.625
 43
3.75
 44
1.25
 73
     0
 74
     0
 77
     1
 78
     8
140
2.5
141
2.5
143
0.03937007874016
147
0.625
171
     3
172
     1
271
     2
272
     2
274
     3
283
     0
284
     8
340
11
  0
DIMSTYLE
105
251
102
{ACAD_REACTORS
330
423
330
42D
330
437
330
441
330
44B
330
455
330
45F
102
}
330
A
100
AcDbSymbolTableRecord
100
AcDbDimStyleTableRecord
  2
DIO_DIMSTYLE
 70
     0
 41
4.0
 42
1.0
 43
3.75
 44
1.0
 45
0.1
 73
     0
 74
     0
 77
     1
 78
     8
 79
     2
140
3.0
141
2.5
143
0.03937007874016
147
0.5
171
     3
172
     1
173
     1
179
     1
271
     1
272
     1
274
     3
283
     0
284
     8
288
     1
289
     0
340
31
  0
ENDTAB
  0
TABLE
  2
BLOCK_RECORD
  5
1
330
0
100
AcDbSymbolTable
 70
     9
  0
BLOCK_RECORD
  5
1F
330
1
100
AcDbSymbolTableRecord
100
AcDbBlockTableRecord
  2
*Model_Space
340
22
  0
BLOCK_RECORD
  5
1B
330
1
100
AcDbSymbolTableRecord
100
AcDbBlockTableRecord
  2
*Paper_Space
340
1E
  0
BLOCK_RECORD
  5
23
330
1
100
AcDbSymbolTableRecord
100
AcDbBlockTableRecord
  2
*Paper_Space0
340
26
  0
BLOCK_RECORD
  5
414
330
1
100
AcDbSymbolTableRecord
100
AcDbBlockTableRecord
  2
_OPEN
340
0
102
{BLKREFS
331
41D
331
41E
331
427
331
428
331
431
331
432
331
43B
331
43C
331
445
331
446
331
44F
331
450
331
459
331
45A
102
}
  0
BLOCK_RECORD
  5
41A
330
1
100
AcDbSymbolTableRecord
100
AcDbBlockTableRecord
  2
*D02
340
0
  0
BLOCK_RECORD
  5
424
330
1
100
AcDbSymbolTableRecord
100
AcDbBlockTableRecord
  2
*D13
340
0
  0
BLOCK_RECORD
  5
42E
330
1
100
AcDbSymbolTableRecord
100
AcDbBlockTableRecord
  2
*D24
340
0
  0
BLOCK_RECORD
  5
438
330
1
100
AcDbSymbolTableRecord
100
AcDbBlockTableRecord
  2
*D35
340
0
  0
BLOCK_RECORD
  5
442
330
1
100
AcDbSymbolTableRecord
100
AcDbBlockTableRecord
  2
*D46
340
0
  0
BLOCK_RECORD
  5
44C
330
1
100
AcDbSymbolTableRecord
100
AcDbBlockTableRecord
  2
*D57
340
0
  0
BLOCK_RECORD
  5
456
330
1
100
AcDbSymbolTableRecord
100
AcDbBlockTableRecord
  2
*D68
340
0
  0
ENDTAB
  0
ENDSEC
  0
SECTION
  2
BLOCKS
  0
BLOCK
  5
20
330
1F
100
AcDbEntity
  8
0
100
AcDbBlockBegin
  2
*Model_Space
 70
     0
 71
     0
 10
0.0
 20
0.0
 30
0.0
  3
*Model_Space
  1

  0
ENDBLK
  5
21
330
1F
100
AcDbEntity
  8
0
100
AcDbBlockEnd
  0
BLOCK
  5
1C
330
1B
100
AcDbEntity
 67
     1
  8
0
100
AcDbBlockBegin
  2
*Paper_Space
 70
     0
 71
     0
 10
0.0
 20
0.0
 30
0.0
  3
*Paper_Space
  1

  0
ENDBLK
  5
1D
330
1B
100
AcDbEntity
 67
     1
  8
0
100
AcDbBlockEnd
  0
BLOCK
  5
24
330
23
100
AcDbEntity
  8
0
100
AcDbBlockBegin
  2
*Paper_Space0
 70
     0
 71
     0
 10
0.0
 20
0.0
 30
0.0
  3
*Paper_Space0
  1

  0
ENDBLK
  5
25
330
23
100
AcDbEntity
  8
0
100
AcDbBlockEnd
  0
BLOCK
  5
415
330
414
100
AcDbEntity
  8
0
100
AcDbBlockBegin
  2
_OPEN
 70
     0
 71
     0
 10
0.0
 20
0.0
 30
0.0
  3
_OPEN
  1

  0
LINE
  5
417
330
414
100
AcDbEntity
  8
LAYER-035
  6
Continuous
 62
     0
100
AcDbLine
 10
0.0
 20
0.0
 30
0.0
 11
-1.0
 21
0.0
 31
0.0
  0
LINE
  5
418
330
414
100
AcDbEntity
  8
LAYER-035
  6
Continuous
 62
     0
100
AcDbLine
 10
0.0
 20
0.0
 30
0.0
 11
-1.0
 21
0.1666250109338451
 31
0.0
  0
LINE
  5
419
330
414
100
AcDbEntity
  8
LAYER-035
  6
Continuous
 62
     0
100
AcDbLine
 10
0.0
 20
0.0
 30
0.0
 11
-1.0
 21
-0.1666250109338451
 31
0.0
  0
ENDBLK
  5
416
330
414
100
AcDbEntity
  8
0
100
AcDbBlockEnd
  0
BLOCK
  5
41B
330
41A
100
AcDbEntity
  8
0
100
AcDbBlockBegin
  2
*D02
 70
     1
 71
     0
 10
0.0
 20
0.0
 30
0.0
  3
*D02
  1

  0
INSERT
  5
41D
330
41A
100
AcDbEntity
  8
LAYER-035
  6
Continuous
 62
     5
100
AcDbBlockReference
  2
_OPEN
 10
-60.66199845454634
 20
-80.06241353543527
 30
0.0
 41
4.0
 42
4.0
 43
4.0
  0
INSERT
  5
41E
330
41A
100
AcDbEntity
  8
LAYER-035
  6
Continuous
 62
     5
100
AcDbBlockReference
  2
_OPEN
 10
-460.6619984545463
 20
-80.06241353543527
 30
0.0
 41
4.0
 42
4.0
 43
4.0
 50
180.0
  0
LINE
  5
41F
330
41A
100
AcDbEntity
  8
LAYER-035
  6
Continuous
 62
     5
100
AcDbLine
 10
-60.66199845454634
 20
-17.67217274825077
 30
0.0
 11
-60.66199845454634
 21
-81.06241353543527
 31
0.0
  0
LINE
  5
420
330
41A
100
AcDbEntity
  8
LAYER-035
  6
Continuous
 62
     5
100
AcDbLine
 10
-460.6619984545463
 20
-17.67217274825077
 30
0.0
 11
-460.6619984545463
 21
-81.06241353543527
 31
0.0
  0
LINE
  5
421
330
41A
100
AcDbEntity
  8
LAYER-035
  6
Continuous
 62
     5
100
AcDbLine
 10
-60.66199845454634
 20
-80.06241353543527
 30
0.0
 11
-460.6619984545463
 21
-80.06241353543527
 31
0.0
  0
MTEXT
  5
422
330
41A
100
AcDbEntity
  8
LAYER-036
  6
Continuous
 62
     5
100
AcDbMText
 10
-260.6619984545463
 20
-79.56241353543527
 30
0.0
 40
4.0
 41
0.0
 71
     8
 72
     1
  1
400
  7
STRING_H
 73
     1
 44
1.0
  0
ENDBLK
  5
41C
330
41A
100
AcDbEntity
  8
0
100
AcDbBlockEnd
  0
BLOCK
  5
425
330
424
100
AcDbEntity
  8
0
100
AcDbBlockBegin
  2
*D13
 70
     1
 71
     0
 10
0.0
 20
0.0
 30
0.0
  3
*D13
  1

  0
INSERT
  5
427
330
424
100
AcDbEntity
  8
LAYER-035
  6
Continuous
 62
     5
100
AcDbBlockReference
  2
_OPEN
 10
-100.6619984545463
 20
-59.10867474825123
 30
0.0
 41
4.0
 42
4.0
 43
4.0
  0
INSERT
  5
428
330
424
100
AcDbEntity
  8
LAYER-035
  6
Continuous
 62
     5
100
AcDbBlockReference
  2
_OPEN
 10
-420.6619984545463
 20
-59.10867474825123
 30
0.0
 41
4.0
 42
4.0
 43
4.0
 50
180.0
  0
LINE
  5
429
330
424
100
AcDbEntity
  8
LAYER-035
  6
Continuous
 62
     5
100
AcDbLine
 10
-100.6619984545463
 20
-30.10867474825123
 30
0.0
 11
-100.6619984545463
 21
-60.10867474825123
 31
0.0
  0
LINE
  5
42A
330
424
100
AcDbEntity
  8
LAYER-035
  6
Continuous
 62
     5
100
AcDbLine
 10
-420.6619984545463
 20
-30.10867474825123
 30
0.0
 11
-420.6619984545463
 21
-60.10867474825123
 31
0.0
  0
LINE
  5
42B
330
424
100
AcDbEntity
  8
LAYER-035
  6
Continuous
 62
     5
100
AcDbLine
 10
-100.6619984545463
 20
-59.10867474825123
 30
0.0
 11
-420.6619984545463
 21
-59.10867474825123
 31
0.0
  0
MTEXT
  5
42C
330
424
100
AcDbEntity
  8
LAYER-036
  6
Continuous
 62
     5
100
AcDbMText
 10
-260.6619984545463
 20
-58.60867474825123
 30
0.0
 40
4.0
 41
0.0
 71
     8
 72
     1
  1
320
  7
STRING_H
 73
     1
 44
1.0
  0
ENDBLK
  5
426
330
424
100
AcDbEntity
  8
0
100
AcDbBlockEnd
  0
BLOCK
  5
42F
330
42E
100
AcDbEntity
  8
0
100
AcDbBlockBegin
  2
*D24
 70
     1
 71
     0
 10
0.0
 20
0.0
 30
0.0
  3
*D24
  1

  0
INSERT
  5
431
330
42E
100
AcDbEntity
  8
LAYER-035
  6
Continuous
 62
     5
100
AcDbBlockReference
  2
_OPEN
 10
-502.3006860758392
 20
313.3278272517492
 30
0.0
 41
4.0
 42
4.0
 43
4.0
 50
90.0
  0
INSERT
  5
432
330
42E
100
AcDbEntity
  8
LAYER-035
  6
Continuous
 62
     5
100
AcDbBlockReference
  2
_OPEN
 10
-502.3006860758392
 20
-16.67217274825077
 30
0.0
 41
4.0
 42
4.0
 43
4.0
 50
-90.0
  0
LINE
  5
433
330
42E
100
AcDbEntity
  8
LAYER-035
  6
Continuous
 62
     5
100
AcDbLine
 10
-408.1619984545427
 20
313.3278272517492
 30
0.0
 11
-503.3006860758392
 21
313.3278272517492
 31
0.0
  0
LINE
  5
434
330
42E
100
AcDbEntity
  8
LAYER-035
  6
Continuous
 62
     5
100
AcDbLine
 10
-461.6619984545463
 20
-16.67217274825077
 30
0.0
 11
-503.3006860758392
 21
-16.67217274825077
 31
0.0
  0
LINE
  5
435
330
42E
100
AcDbEntity
  8
LAYER-035
  6
Continuous
 62
     5
100
AcDbLine
 10
-502.3006860758392
 20
313.3278272517492
 30
0.0
 11
-502.3006860758392
 21
-16.67217274825077
 31
0.0
  0
MTEXT
  5
436
330
42E
100
AcDbEntity
  8
LAYER-036
  6
Continuous
 62
     5
100
AcDbMText
 10
-502.8006860758392
 20
148.3278272517492
 30
0.0
 40
4.0
 41
0.0
 71
     8
 72
     1
  1
330
  7
STRING_H
 11
6.123031769111886E-17
 21
1.0
 31
0.0
 73
     1
 44
1.0
  0
ENDBLK
  5
430
330
42E
100
AcDbEntity
  8
0
100
AcDbBlockEnd
  0
BLOCK
  5
439
330
438
100
AcDbEntity
  8
0
100
AcDbBlockBegin
  2
*D35
 70
     1
 71
     0
 10
0.0
 20
0.0
 30
0.0
  3
*D35
  1

  0
INSERT
  5
43B
330
438
100
AcDbEntity
  8
LAYER-035
  6
Continuous
 62
     5
100
AcDbBlockReference
  2
_OPEN
 10
190.0270855454543
 20
-59.10867474825123
 30
0.0
 41
4.0
 42
4.0
 43
4.0
 50
180.0
  0
INSERT
  5
43C
330
438
100
AcDbEntity
  8
LAYER-035
  6
Continuous
 62
     5
100
AcDbBlockReference
  2
_OPEN
 10
400.0270855454543
 20
-59.10867474825123
 30
0.0
 41
4.0
 42
4.0
 43
4.0
  0
LINE
  5
43D
330
438
100
AcDbEntity
  8
LAYER-035
  6
Continuous
 62
     5
100
AcDbLine
 10
190.0270855454542
 20
-30.10867474824932
 30
0.0
 11
190.0270855454543
 21
-60.10867474825123
 31
0.0
  0
LINE
  5
43E
330
438
100
AcDbEntity
  8
LAYER-035
  6
Continuous
 62
     5
100
AcDbLine
 10
400.0270855454543
 20
-30.10867474825123
 30
0.0
 11
400.0270855454543
 21
-60.10867474825123
 31
0.0
  0
LINE
  5
43F
330
438
100
AcDbEntity
  8
LAYER-035
  6
Continuous
 62
     5
100
AcDbLine
 10
190.0270855454543
 20
-59.10867474825123
 30
0.0
 11
400.0270855454543
 21
-59.10867474825123
 31
0.0
  0
MTEXT
  5
440
330
438
100
AcDbEntity
  8
LAYER-036
  6
Continuous
 62
     5
100
AcDbMText
 10
295.0270855454543
 20
-58.60867474825123
 30
0.0
 40
4.0
 41
0.0
 71
     8
 72
     1
  1
210
  7
STRING_H
 73
     1
 44
1.0
  0
ENDBLK
  5
43A
330
438
100
AcDbEntity
  8
0
100
AcDbBlockEnd
  0
BLOCK
  5
443
330
442
100
AcDbEntity
  8
0
100
AcDbBlockBegin
  2
*D46
 70
     1
 71
     0
 10
0.0
 20
0.0
 30
0.0
  3
*D46
  1

  0
INSERT
  5
445
330
442
100
AcDbEntity
  8
LAYER-035
  6
Continuous
 62
     5
100
AcDbBlockReference
  2
_OPEN
 10
420.0270855454543
 20
-80.06241353543527
 30
0.0
 41
4.0
 42
4.0
 43
4.0
  0
INSERT
  5
446
330
442
100
AcDbEntity
  8
LAYER-035
  6
Continuous
 62
     5
100
AcDbBlockReference
  2
_OPEN
 10
170.0270855454502
 20
-80.06241353543527
 30
0.0
 41
4.0
 42
4.0
 43
4.0
 50
180.0
  0
LINE
  5
447
330
442
100
AcDbEntity
  8
LAYER-035
  6
Continuous
 62
     5
100
AcDbLine
 10
420.0270855454543
 20
-17.67217274825077
 30
0.0
 11
420.0270855454543
 21
-81.06241353543527
 31
0.0
  0
LINE
  5
448
330
442
100
AcDbEntity
  8
LAYER-035
  6
Continuous
 62
     5
100
AcDbLine
 10
170.0270855454542
 20
-17.67217274825077
 30
0.0
 11
170.0270855454502
 21
-81.06241353543527
 31
0.0
  0
LINE
  5
449
330
442
100
AcDbEntity
  8
LAYER-035
  6
Continuous
 62
     5
100
AcDbLine
 10
420.0270855454543
 20
-80.06241353543527
 30
0.0
 11
170.0270855454502
 21
-80.06241353543527
 31
0.0
  0
MTEXT
  5
44A
330
442
100
AcDbEntity
  8
LAYER-036
  6
Continuous
 62
     5
100
AcDbMText
 10
295.0270855454522
 20
-79.56241353543527
 30
0.0
 40
4.0
 41
0.0
 71
     8
 72
     1
  1
250
  7
STRING_H
 73
     1
 44
1.0
  0
ENDBLK
  5
444
330
442
100
AcDbEntity
  8
0
100
AcDbBlockEnd
  0
BLOCK
  5
44D
330
44C
100
AcDbEntity
  8
0
100
AcDbBlockBegin
  2
*D57
 70
     1
 71
     0
 10
0.0
 20
0.0
 30
0.0
  3
*D57
  1

  0
INSERT
  5
44F
330
44C
100
AcDbEntity
  8
LAYER-035
  6
Continuous
 62
     5
100
AcDbBlockReference
  2
_OPEN
 10
415.0270855454543
 20
74.82387158296248
 30
0.0
 41
4.0
 42
4.0
 43
4.0
  0
INSERT
  5
450
330
44C
100
AcDbEntity
  8
LAYER-035
  6
Continuous
 62
     5
100
AcDbBlockReference
  2
_OPEN
 10
175.0270855454543
 20
74.82387158296248
 30
0.0
 41
4.0
 42
4.0
 43
4.0
 50
180.0
  0
LINE
  5
451
330
44C
100
AcDbEntity
  8
LAYER-035
  6
Continuous
 62
     5
100
AcDbLine
 10
415.0270855454543
 20
167.3278272517492
 30
0.0
 11
415.0270855454543
 21
73.82387158296248
 31
0.0
  0
LINE
  5
452
330
44C
100
AcDbEntity
  8
LAYER-035
  6
Continuous
 62
     5
100
AcDbLine
 10
175.0270855454543
 20
167.3278272517492
 30
0.0
 11
175.0270855454543
 21
73.82387158296248
 31
0.0
  0
LINE
  5
453
330
44C
100
AcDbEntity
  8
LAYER-035
  6
Continuous
 62
     5
100
AcDbLine
 10
415.0270855454543
 20
74.82387158296248
 30
0.0
 11
175.0270855454543
 21
74.82387158296248
 31
0.0
  0
MTEXT
  5
454
330
44C
100
AcDbEntity
  8
LAYER-036
  6
Continuous
 62
     5
100
AcDbMText
 10
276.2989078343366
 20
75.32387158296248
 30
0.0
 40
4.0
 41
0.0
 71
     8
 72
     1
  1
240
  7
STRING_H
 73
     1
 44
1.0
  0
ENDBLK
  5
44E
330
44C
100
AcDbEntity
  8
0
100
AcDbBlockEnd
  0
BLOCK
  5
457
330
456
100
AcDbEntity
  8
0
100
AcDbBlockBegin
  2
*D68
 70
     1
 71
     0
 10
0.0
 20
0.0
 30
0.0
  3
*D68
  1

  0
INSERT
  5
459
330
456
100
AcDbEntity
  8
LAYER-035
  6
Continuous
 62
     5
100
AcDbBlockReference
  2
_OPEN
 10
465.0565225454571
 20
131.7288620218542
 30
0.0
 41
4.0
 42
4.0
 43
4.0
  0
INSERT
  5
45A
330
456
100
AcDbEntity
  8
LAYER-035
  6
Continuous
 62
     5
100
AcDbBlockReference
  2
_OPEN
 10
415.0270855454542
 20
131.7288620218542
 30
0.0
 41
4.0
 42
4.0
 43
4.0
 50
180.0
  0
LINE
  5
45B
330
456
100
AcDbEntity
  8
LAYER-035
  6
Continuous
 62
     5
100
AcDbLine
 10
465.0565225454571
 20
276.1400132528976
 30
0.0
 11
465.0565225454571
 21
130.7288620218542
 31
0.0
  0
LINE
  5
45C
330
456
100
AcDbEntity
  8
LAYER-035
  6
Continuous
 62
     5
100
AcDbLine
 10
415.0270855454542
 20
167.3278272517492
 30
0.0
 11
415.0270855454542
 21
130.7288620218542
 31
0.0
  0
LINE
  5
45D
330
456
100
AcDbEntity
  8
LAYER-035
  6
Continuous
 62
     5
100
AcDbLine
 10
465.0565225454571
 20
131.7288620218542
 30
0.0
 11
415.0270855454542
 21
131.7288620218542
 31
0.0
  0
MTEXT
  5
45E
330
456
100
AcDbEntity
  8
LAYER-036
  6
Continuous
 62
     5
100
AcDbMText
 10
440.0418040454557
 20
132.2288620218542
 30
0.0
 40
4.0
 41
0.0
 71
     8
 72
     1
  1
{\W0.500000;(50)}
  7
STRING_H
 73
     1
 44
1.0
  0
ENDBLK
  5
458
330
456
100
AcDbEntity
  8
0
100
AcDbBlockEnd
  0
ENDSEC
  0
SECTION
  2
ENTITIES
  0
LINE
  5
252
330
1F
100
AcDbEntity
  8
LAYER-033
  6
Continuous
 62
     1
100
AcDbLine
 10
-80.71560684896083
 20
-235.2017527596956
 30
0.0
 11
43.20770185778547
 21
-235.2017527596956
 31
0.0
  0
LINE
  5
253
330
1F
100
AcDbEntity
  8
LAYER-033
  6
Continuous
 62
     1
100
AcDbLine
 10
-80.71560684896083
 20
-243.287202861
 30
0.0
 11
-22.64859653968249
 21
-243.287202861
 31
0.0
  0
LINE
  5
254
330
1F
100
AcDbEntity
  8
LAYER-033
  6
Continuous
 62
     1
100
AcDbLine
 10
-80.71560684896083
 20
-227.1163026583913
 30
0.0
 11
-22.64859653968249
 21
-227.1163026583913
 31
0.0
  0
LINE
  5
255
330
1F
100
AcDbEntity
  8
LAYER-256
  6
CENTER
 62
     4
100
AcDbLine
 10
344.0454545454546
 20
321.3772222517474
 30
0.0
 11
344.0454545454546
 21
215.4951972517511
 31
0.0
  0
LINE
  5
256
330
1F
100
AcDbEntity
  8
LAYER-256
  6
Continuous
 62
     1
100
AcDbLine
 10
340.0454545454546
 20
313.3278272517492
 30
0.0
 11
348.0454545454546
 21
313.3278272517492
 31
0.0
  0
LINE
  5
257
330
1F
100
AcDbEntity
  8
LAYER-256
  6
Continuous
 62
     1
100
AcDbLine
 10
340.0454545454546
 20
313.3278272517492
 30
0.0
 11
340.0454545454546
 21
306.8038312517484
 31
0.0
  0
LINE
  5
258
330
1F
100
AcDbEntity
  8
LAYER-256
  6
Continuous
 62
     1
100
AcDbLine
 10
348.0454545454546
 20
313.3278272517492
 30
0.0
 11
348.0454545454546
 21
306.8038312517484
 31
0.0
  0
LINE
  5
259
330
1F
100
AcDbEntity
  8
LAYER-256
  6
Continuous
 62
     1
100
AcDbLine
 10
335.7749505454527
 20
305.931061254683
 30
0.0
 11
335.7749505454527
 21
297.6136582517466
 31
0.0
  0
LINE
  5
25A
330
1F
100
AcDbEntity
  8
LAYER-256
  6
Continuous
 62
     1
100
AcDbLine
 10
340.4135025454539
 20
305.931061254683
 30
0.0
 11
340.4135025454539
 21
297.6136582517466
 31
0.0
  0
LINE
  5
25B
330
1F
100
AcDbEntity
  8
LAYER-256
  6
Continuous
 62
     1
100
AcDbLine
 10
347.6774075454537
 20
305.931061254683
 30
0.0
 11
347.6774075454537
 21
297.6136582517466
 31
0.0
  0
LINE
  5
25C
330
1F
100
AcDbEntity
  8
LAYER-256
  6
Continuous
 62
     1
100
AcDbLine
 10
352.3159585454565
 20
305.931061254683
 30
0.0
 11
352.3159585454565
 21
297.6136582517466
 31
0.0
  0
ARC
  5
25D
330
1F
100
AcDbEntity
  8
LAYER-256
  6
Continuous
 62
     1
100
AcDbCircle
 10
338.0942265454556
 20
303.2858582517503
 30
0.0
 40
3.517973000000001
100
AcDbArc
 50
48.75617399998541
 51
131.2438260000703
  0
ARC
  5
25E
330
1F
100
AcDbEntity
  8
LAYER-256
  6
Continuous
 62
     1
100
AcDbCircle
 10
349.9966835454566
 20
303.2858582517503
 30
0.0
 40
3.517973000000001
100
AcDbArc
 50
48.75617399604404
 51
131.2438260050335
  0
LINE
  5
25F
330
1F
100
AcDbEntity
  8
LAYER-256
  6
Continuous
 62
     1
100
AcDbLine
 10
349.9966835454566
 20
306.8038312517484
 30
0.0
 11
338.0942265454556
 21
306.8038312517484
 31
0.0
  0
LINE
  5
260
330
1F
100
AcDbEntity
  8
LAYER-256
  6
Continuous
 62
     1
100
AcDbLine
 10
334.0766495454546
 20
297.6136582517466
 30
0.0
 11
355.9989005454568
 21
297.6136582517466
 31
0.0
  0
ARC
  5
261
330
1F
100
AcDbEntity
  8
LAYER-256
  6
Continuous
 62
     1
100
AcDbCircle
 10
344.0454545454546
 20
298.8104352517468
 30
0.0
 40
7.993397
100
AcDbArc
 50
62.97565100001703
 51
117.024348999983
  0
LINE
  5
262
330
1F
100
AcDbEntity
  8
LAYER-256
  6
Continuous
 62
     1
100
AcDbLine
 10
334.0766495454546
 20
295.2136582530767
 30
0.0
 11
373.0512235454549
 21
295.2136582530767
 31
0.0
  0
LINE
  5
263
330
1F
100
AcDbEntity
  8
LAYER-256
  6
Continuous
 62
     1
100
AcDbLine
 10
334.0766495454546
 20
297.6136582517466
 30
0.0
 11
334.0766495454546
 21
295.2136582530767
 31
0.0
  0
LINE
  5
264
330
1F
100
AcDbEntity
  8
LAYER-256
  6
Continuous
 62
     1
100
AcDbLine
 10
335.7749505454527
 20
286.8962552517479
 30
0.0
 11
335.7749505454527
 21
295.2136582530767
 31
0.0
  0
LINE
  5
265
330
1F
100
AcDbEntity
  8
LAYER-256
  6
Continuous
 62
     1
100
AcDbLine
 10
340.4135025454539
 20
286.8962552517479
 30
0.0
 11
340.4135025454539
 21
295.2136582530767
 31
0.0
  0
LINE
  5
266
330
1F
100
AcDbEntity
  8
LAYER-256
  6
Continuous
 62
     1
100
AcDbLine
 10
347.6774075454537
 20
286.8962552517479
 30
0.0
 11
347.6774075454537
 21
295.2136582530767
 31
0.0
  0
LINE
  5
267
330
1F
100
AcDbEntity
  8
LAYER-256
  6
Continuous
 62
     1
100
AcDbLine
 10
352.3159585454565
 20
286.8962552517479
 30
0.0
 11
352.3159585454565
 21
295.2136582530767
 31
0.0
  0
ARC
  5
268
330
1F
100
AcDbEntity
  8
LAYER-256
  6
Continuous
 62
     1
100
AcDbCircle
 10
338.0942265454556
 20
289.5414572517467
 30
0.0
 40
3.517973000000001
100
AcDbArc
 50
228.7561739999785
 51
311.2438259999657
  0
ARC
  5
269
330
1F
100
AcDbEntity
  8
LAYER-256
  6
Continuous
 62
     1
100
AcDbCircle
 10
349.9966835454566
 20
289.5414572517467
 30
0.0
 40
3.517973000000001
100
AcDbArc
 50
228.7561739950153
 51
311.2438260039072
  0
ARC
  5
26A
330
1F
100
AcDbEntity
  8
LAYER-256
  6
Continuous
 62
     1
100
AcDbCircle
 10
344.0454545454546
 20
294.0168812496034
 30
0.0
 40
7.993397
100
AcDbArc
 50
242.9756509930154
 51
297.0243490069846
  0
LINE
  5
26B
330
1F
100
AcDbEntity
  8
LAYER-256
  6
Continuous
 62
     1
100
AcDbLine
 10
334.0766495454546
 20
268.6234842517462
 30
0.0
 11
354.0142605454562
 21
268.6234842517462
 31
0.0
  0
LINE
  5
26C
330
1F
100
AcDbEntity
  8
LAYER-256
  6
Continuous
 62
     1
100
AcDbLine
 10
334.0766495454546
 20
271.0234842517485
 30
0.0
 11
334.0766495454546
 21
268.6234842517462
 31
0.0
  0
LINE
  5
26D
330
1F
100
AcDbEntity
  8
LAYER-256
  6
Continuous
 62
     1
100
AcDbLine
 10
354.0142605454562
 20
271.0234842517485
 30
0.0
 11
354.0142605454562
 21
268.6234842517462
 31
0.0
  0
LINE
  5
26E
330
1F
100
AcDbEntity
  8
LAYER-256
  6
Continuous
 62
     1
100
AcDbLine
 10
335.7749505454527
 20
260.3060822517483
 30
0.0
 11
335.7749505454527
 21
268.6234842517462
 31
0.0
  0
LINE
  5
26F
330
1F
100
AcDbEntity
  8
LAYER-256
  6
Continuous
 62
     1
100
AcDbLine
 10
340.4135025454539
 20
260.3060822517483
 30
0.0
 11
340.4135025454539
 21
268.6234842517462
 31
0.0
  0
LINE
  5
270
330
1F
100
AcDbEntity
  8
LAYER-256
  6
Continuous
 62
     1
100
AcDbLine
 10
347.6774075454537
 20
260.3060822517483
 30
0.0
 11
347.6774075454537
 21
268.6234842517462
 31
0.0
  0
LINE
  5
271
330
1F
100
AcDbEntity
  8
LAYER-256
  6
Continuous
 62
     1
100
AcDbLine
 10
352.3159585454565
 20
260.3060822517483
 30
0.0
 11
352.3159585454565
 21
268.6234842517462
 31
0.0
  0
ARC
  5
272
330
1F
100
AcDbEntity
  8
LAYER-256
  6
Continuous
 62
     1
100
AcDbCircle
 10
338.0942265454556
 20
262.9512842517471
 30
0.0
 40
3.517973000000001
100
AcDbArc
 50
228.7561739999785
 51
311.2438259999657
  0
ARC
  5
273
330
1F
100
AcDbEntity
  8
LAYER-256
  6
Continuous
 62
     1
100
AcDbCircle
 10
349.9966835454566
 20
262.9512842517471
 30
0.0
 40
3.517973000000001
100
AcDbArc
 50
228.7561739950153
 51
311.2438260039072
  0
ARC
  5
274
330
1F
100
AcDbEntity
  8
LAYER-256
  6
Continuous
 62
     1
100
AcDbCircle
 10
344.0454545454546
 20
267.4267072517461
 30
0.0
 40
7.993397
100
AcDbArc
 50
242.9756510000022
 51
297.0243489999978
  0
LINE
  5
275
330
1F
100
AcDbEntity
  8
LAYER-256
  6
Continuous
 62
     1
100
AcDbLine
 10
373.0512235454549
 20
309.6603342517466
 30
0.0
 11
373.0512235454549
 21
295.2136582530767
 31
0.0
  0
LINE
  5
276
330
1F
100
AcDbEntity
  8
LAYER-256
  6
Continuous
 62
     1
100
AcDbLine
 10
373.0512235454549
 20
307.1400132528976
 30
0.0
 11
435.0565225454571
 21
307.1400132528976
 31
0.0
  0
LINE
  5
277
330
1F
100
AcDbEntity
  8
LAYER-256
  6
Continuous
 62
     1
100
AcDbLine
 10
360.5044925454573
 20
309.6603342517466
 30
0.0
 11
373.0512235454549
 21
309.6603342517466
 31
0.0
  0
ARC
  5
278
330
1F
100
AcDbEntity
  8
LAYER-256
  6
Continuous
 62
     1
100
AcDbCircle
 10
321.4202305457413
 20
311.5350472517486
 30
0.0
 40
37.275857
100
AcDbArc
 50
338.0702609996484
 51
354.3383439999532
  0
ARC
  5
279
330
1F
100
AcDbEntity
  8
LAYER-256
  6
Continuous
 62
     1
100
AcDbCircle
 10
360.5044925454573
 20
307.6603342517484
 30
0.0
 40
2.0
100
AcDbArc
 50
90.0
 51
174.3383439905782
  0
LINE
  5
27A
330
1F
100
AcDbEntity
  8
LAYER-256
  6
Continuous
 62
     1
100
AcDbLine
 10
373.0512235454549
 20
297.6400132517466
 30
0.0
 11
435.0565225454571
 21
297.6400132517466
 31
0.0
  0
LINE
  5
27B
330
1F
100
AcDbEntity
  8
LAYER-256
  6
Continuous
 62
     1
100
AcDbLine
 10
461.0490355454536
 20
262.1603842517499
 30
0.0
 11
411.194524545455
 21
168.3278272517492
 31
0.0
  0
ARC
  5
27C
330
1F
100
AcDbEntity
  8
LAYER-256
  6
Continuous
 62
     1
100
AcDbCircle
 10
435.0565225454571
 20
277.1400132528976
 30
0.0
 40
30.0
100
AcDbArc
 50
330.0449139980958
 51
90.0
  0
ARC
  5
27D
330
1F
100
AcDbEntity
  8
LAYER-256
  6
Continuous
 62
     1
100
AcDbCircle
 10
435.0565225454571
 20
277.1400132528976
 30
0.0
 40
20.5
100
AcDbArc
 50
330.0449139972192
 51
90.0
  0
LINE
  5
27E
330
1F
100
AcDbEntity
  8
LAYER-256
  6
Continuous
 62
     1
100
AcDbLine
 10
452.8180735454558
 20
266.9039332517497
 30
0.0
 11
400.229828545454
 21
168.3278272517492
 31
0.0
  0
LINE
  5
27F
330
1F
100
AcDbEntity
  8
LAYER-256
  6
Continuous
 62
     1
100
AcDbLine
 10
420.0270855454543
 20
-11.67217274825077
 30
0.0
 11
420.0270855454543
 21
-16.67217274825077
 31
0.0
  0
LINE
  5
280
330
1F
100
AcDbEntity
  8
LAYER-256
  6
Continuous
 62
     1
100
AcDbLine
 10
415.0270855454543
 20
168.3278272517492
 30
0.0
 11
415.0270855454543
 21
43.32782725174923
 31
0.0
  0
LINE
  5
281
330
1F
100
AcDbEntity
  8
LAYER-256
  6
CENTER
 62
     4
100
AcDbLine
 10
295.0270855454542
 20
236.9219302517496
 30
0.0
 11
295.0270855454542
 21
-29.79815674825375
 31
0.0
  0
LINE
  5
282
330
1F
100
AcDbEntity
  8
LAYER-256
  6
Continuous
 62
     1
100
AcDbLine
 10
170.0270855454542
 20
-16.67217274825077
 30
0.0
 11
420.0270855454543
 21
-16.67217274825077
 31
0.0
  0
LINE
  5
283
330
1F
100
AcDbEntity
  8
LAYER-256
  6
Continuous
 62
     1
100
AcDbLine
 10
170.0270855454542
 20
-11.67217274825077
 30
0.0
 11
220.0270855454542
 21
-11.67217274825077
 31
0.0
  0
LINE
  5
284
330
1F
100
AcDbEntity
  8
LAYER-256
  6
Continuous
 62
     1
100
AcDbLine
 10
220.0270855454542
 20
33.32782725174923
 30
0.0
 11
230.0270855454542
 21
33.32782725174923
 31
0.0
  0
LINE
  5
285
330
1F
100
AcDbEntity
  8
LAYER-256
  6
Continuous
 62
     1
100
AcDbLine
 10
170.0270855454542
 20
-11.67217274825077
 30
0.0
 11
170.0270855454542
 21
-16.67217274825077
 31
0.0
  0
LINE
  5
286
330
1F
100
AcDbEntity
  8
LAYER-256
  6
Continuous
 62
     1
100
AcDbLine
 10
175.0270855454543
 20
168.3278272517492
 30
0.0
 11
175.0270855454543
 21
43.32782725174923
 31
0.0
  0
LINE
  5
287
330
1F
100
AcDbEntity
  8
LAYER-256
  6
Continuous
 62
     1
100
AcDbLine
 10
175.0270855454543
 20
168.3278272517492
 30
0.0
 11
230.0270855454543
 21
168.3278272517492
 31
0.0
  0
LINE
  5
288
330
1F
100
AcDbEntity
  8
LAYER-256
  6
Continuous
 62
     1
100
AcDbLine
 10
175.0270855454543
 20
43.32782725174923
 30
0.0
 11
230.0270855454543
 21
43.32782725174923
 31
0.0
  0
LINE
  5
289
330
1F
100
AcDbEntity
  8
LAYER-256
  6
Continuous
 62
     1
100
AcDbLine
 10
225.0270855454542
 20
228.3278272517492
 30
0.0
 11
275.0270855454542
 21
228.3278272517492
 31
0.0
  0
LINE
  5
28A
330
1F
100
AcDbEntity
  8
LAYER-256
  6
Continuous
 62
     1
100
AcDbLine
 10
178.2151515454567
 20
192.5636192517487
 30
0.0
 11
179.9624555454571
 21
192.5636192517487
 31
0.0
  0
LINE
  5
28B
330
1F
100
AcDbEntity
  8
LAYER-256
  6
Continuous
 62
     1
100
AcDbLine
 10
178.2151515454567
 20
174.2743912517499
 30
0.0
 11
189.6495585454537
 21
174.2743912517499
 31
0.0
  0
LINE
  5
28C
330
1F
100
AcDbEntity
  8
LAYER-256
  6
Continuous
 62
     1
100
AcDbLine
 10
178.2151515454567
 20
192.5636192517487
 30
0.0
 11
178.2151515454567
 21
174.2743912517499
 31
0.0
  0
LINE
  5
28D
330
1F
100
AcDbEntity
  8
LAYER-256
  6
Continuous
 62
     1
100
AcDbLine
 10
179.9624555454571
 20
174.2743912517499
 30
0.0
 11
179.9624555454571
 21
168.3278272517492
 31
0.0
  0
LINE
  5
28E
330
1F
100
AcDbEntity
  8
LAYER-256
  6
Continuous
 62
     1
100
AcDbLine
 10
187.9924555434543
 20
174.2743912517499
 30
0.0
 11
187.9924555434543
 21
168.3278272517492
 31
0.0
  0
LINE
  5
28F
330
1F
100
AcDbEntity
  8
LAYER-256
  6
Continuous
 62
     1
100
AcDbLine
 10
189.6495585454537
 20
174.2743912517499
 30
0.0
 11
189.6495585454537
 21
180.7777912517468
 31
0.0
  0
LINE
  5
290
330
1F
100
AcDbEntity
  8
LAYER-256
  6
Continuous
 62
     1
100
AcDbLine
 10
179.9624555454571
 20
192.5636192517487
 30
0.0
 11
179.9624555454571
 21
183.4761482517507
 31
0.0
  0
ARC
  5
291
330
1F
100
AcDbEntity
  8
LAYER-256
  6
Continuous
 62
     1
100
AcDbCircle
 10
189.9762115443477
 20
211.6468732517506
 30
0.0
 40
29.897576
100
AcDbArc
 50
250.4313920020034
 51
267.5391280010802
  0
ARC
  5
292
330
1F
100
AcDbEntity
  8
LAYER-256
  6
Continuous
 62
     1
100
AcDbCircle
 10
188.6495585454546
 20
180.7777912517468
 30
0.0
 40
1.0
100
AcDbArc
 50
0.0
 51
87.53912799996577
  0
LINE
  5
293
330
1F
100
AcDbEntity
  8
LAYER-256
  6
CENTER
 62
     4
100
AcDbLine
 10
190.0270855454542
 20
-0.2351977482493197
 30
0.0
 11
190.0270855454542
 21
-29.10867474824932
 31
0.0
  0
LINE
  5
294
330
1F
100
AcDbEntity
  8
LAYER-256
  6
CENTER
 62
     4
100
AcDbLine
 10
400.0270855454543
 20
-0.2351977482493197
 30
0.0
 11
400.0270855454543
 21
-29.10867474825123
 31
0.0
  0
LINE
  5
295
330
1F
100
AcDbEntity
  8
LAYER-256
  6
Continuous
 62
     1
100
AcDbLine
 10
225.0270855454542
 20
-16.67217274825077
 30
0.0
 11
225.0270855454542
 21
33.32782725174923
 31
0.0
  0
LINE
  5
296
330
1F
100
AcDbEntity
  8
LAYER-256
  6
Continuous
 62
     1
100
AcDbLine
 10
220.0270855454542
 20
-11.67217274825077
 30
0.0
 11
220.0270855454542
 21
33.32782725174923
 31
0.0
  0
LINE
  5
297
330
1F
100
AcDbEntity
  8
LAYER-256
  6
Continuous
 62
     1
100
AcDbLine
 10
230.0270855454543
 20
-11.67217274825077
 30
0.0
 11
230.0270855454543
 21
223.3278272517492
 31
0.0
  0
LINE
  5
298
330
1F
100
AcDbEntity
  8
LAYER-256
  6
Continuous
 62
     1
100
AcDbLine
 10
230.0270855454542
 20
-11.67217274825077
 30
0.0
 11
360.0270855454542
 21
-11.67217274825077
 31
0.0
  0
LINE
  5
299
330
1F
100
AcDbEntity
  8
LAYER-256
  6
Continuous
 62
     1
100
AcDbLine
 10
370.0270855454543
 20
33.32782725174923
 30
0.0
 11
360.0270855454543
 21
33.32782725174923
 31
0.0
  0
LINE
  5
29A
330
1F
100
AcDbEntity
  8
LAYER-256
  6
Continuous
 62
     1
100
AcDbLine
 10
365.0270855454543
 20
-16.67217274825077
 30
0.0
 11
365.0270855454543
 21
33.32782725174923
 31
0.0
  0
LINE
  5
29B
330
1F
100
AcDbEntity
  8
LAYER-256
  6
Continuous
 62
     1
100
AcDbLine
 10
370.0270855454543
 20
-11.67217274825077
 30
0.0
 11
370.0270855454543
 21
33.32782725174923
 31
0.0
  0
LINE
  5
29C
330
1F
100
AcDbEntity
  8
LAYER-256
  6
Continuous
 62
     1
100
AcDbLine
 10
360.0270855454543
 20
-11.67217274825077
 30
0.0
 11
360.0270855454543
 21
223.3278272517492
 31
0.0
  0
LINE
  5
29D
330
1F
100
AcDbEntity
  8
LAYER-256
  6
Continuous
 62
     1
100
AcDbLine
 10
370.0270855454543
 20
-11.67217274825077
 30
0.0
 11
420.0270855454543
 21
-11.67217274825077
 31
0.0
  0
LINE
  5
29E
330
1F
100
AcDbEntity
  8
LAYER-256
  6
CENTER
 62
     4
100
AcDbLine
 10
199.1056875454538
 20
12.16345025174918
 30
0.0
 11
392.8928495454571
 21
12.16345025174918
 31
0.0
  0
LINE
  5
29F
330
1F
100
AcDbEntity
  8
LAYER-256
  6
Continuous
 62
     1
100
AcDbLine
 10
204.3129165443477
 20
8.163450251748273
 30
0.0
 11
204.3129165443477
 21
16.16345025175009
 31
0.0
  0
LINE
  5
2A0
330
1F
100
AcDbEntity
  8
LAYER-256
  6
Continuous
 62
     1
100
AcDbLine
 10
204.3129165443477
 20
8.163450251748273
 30
0.0
 11
210.8369115454539
 21
8.163450251748273
 31
0.0
  0
LINE
  5
2A1
330
1F
100
AcDbEntity
  8
LAYER-256
  6
Continuous
 62
     1
100
AcDbLine
 10
204.3129165443477
 20
16.16345025175009
 30
0.0
 11
210.8369115454539
 21
16.16345025175009
 31
0.0
  0
LINE
  5
2A2
330
1F
100
AcDbEntity
  8
LAYER-256
  6
Continuous
 62
     1
100
AcDbLine
 10
211.7096825454533
 20
3.89294625174729
 30
0.0
 11
220.0270855454542
 21
3.89294625174729
 31
0.0
  0
LINE
  5
2A3
330
1F
100
AcDbEntity
  8
LAYER-256
  6
Continuous
 62
     1
100
AcDbLine
 10
211.7096825454533
 20
8.531498251748545
 30
0.0
 11
220.0270855454542
 21
8.531498251748545
 31
0.0
  0
LINE
  5
2A4
330
1F
100
AcDbEntity
  8
LAYER-256
  6
Continuous
 62
     1
100
AcDbLine
 10
211.7096825454533
 20
15.79540325174834
 30
0.0
 11
220.0270855454542
 21
15.79540325174834
 31
0.0
  0
LINE
  5
2A5
330
1F
100
AcDbEntity
  8
LAYER-256
  6
Continuous
 62
     1
100
AcDbLine
 10
211.7096825454533
 20
20.43395425174653
 30
0.0
 11
220.0270855454542
 21
20.43395425174653
 31
0.0
  0
ARC
  5
2A6
330
1F
100
AcDbEntity
  8
LAYER-256
  6
Continuous
 62
     1
100
AcDbCircle
 10
214.3548845454566
 20
6.212222251750191
 30
0.0
 40
3.517973000000001
100
AcDbArc
 50
138.7561740000342
 51
221.243826035885
  0
ARC
  5
2A7
330
1F
100
AcDbEntity
  8
LAYER-256
  6
Continuous
 62
     1
100
AcDbCircle
 10
214.3548845454566
 20
18.11467925174923
 30
0.0
 40
3.517973000000001
100
AcDbArc
 50
138.7561740000096
 51
221.2438259999968
  0
LINE
  5
2A8
330
1F
100
AcDbEntity
  8
LAYER-256
  6
Continuous
 62
     1
100
AcDbLine
 10
210.8369115454539
 20
18.11467925174923
 30
0.0
 11
210.8369115454539
 21
6.212222251750191
 31
0.0
  0
ARC
  5
2A9
330
1F
100
AcDbEntity
  8
LAYER-256
  6
Continuous
 62
     1
100
AcDbCircle
 10
218.830308545
 20
12.16345025174918
 30
0.0
 40
7.993397
100
AcDbArc
 50
152.9756509985233
 51
207.0243490014767
  0
LINE
  5
2AA
330
1F
100
AcDbEntity
  8
LAYER-256
  6
Continuous
 62
     1
100
AcDbLine
 10
232.8622885485734
 20
16.16345025175009
 30
0.0
 11
357.1918825454546
 21
16.16345025175009
 31
0.0
  0
LINE
  5
2AB
330
1F
100
AcDbEntity
  8
LAYER-256
  6
Continuous
 62
     1
100
AcDbLine
 10
232.8622885485734
 20
8.163450251748273
 30
0.0
 11
357.1918825454546
 21
8.163450251748273
 31
0.0
  0
LINE
  5
2AC
330
1F
100
AcDbEntity
  8
LAYER-256
  6
Continuous
 62
     1
100
AcDbLine
 10
385.7412545454569
 20
8.163450251748273
 30
0.0
 11
385.7412545454569
 21
16.16345025175009
 31
0.0
  0
LINE
  5
2AD
330
1F
100
AcDbEntity
  8
LAYER-256
  6
Continuous
 62
     1
100
AcDbLine
 10
385.7412545454569
 20
8.163450251748273
 30
0.0
 11
379.2172595443566
 21
8.163450251748273
 31
0.0
  0
LINE
  5
2AE
330
1F
100
AcDbEntity
  8
LAYER-256
  6
Continuous
 62
     1
100
AcDbLine
 10
385.7412545454569
 20
16.16345025175009
 30
0.0
 11
379.2172595443566
 21
16.16345025175009
 31
0.0
  0
LINE
  5
2AF
330
1F
100
AcDbEntity
  8
LAYER-256
  6
Continuous
 62
     1
100
AcDbLine
 10
378.3444885454552
 20
3.89294625174729
 30
0.0
 11
370.0270855454543
 21
3.89294625174729
 31
0.0
  0
LINE
  5
2B0
330
1F
100
AcDbEntity
  8
LAYER-256
  6
Continuous
 62
     1
100
AcDbLine
 10
378.3444885454552
 20
8.531498251748545
 30
0.0
 11
370.0270855454543
 21
8.531498251748545
 31
0.0
  0
LINE
  5
2B1
330
1F
100
AcDbEntity
  8
LAYER-256
  6
Continuous
 62
     1
100
AcDbLine
 10
378.3444885454552
 20
15.79540325174834
 30
0.0
 11
370.0270855454543
 21
15.79540325174834
 31
0.0
  0
LINE
  5
2B2
330
1F
100
AcDbEntity
  8
LAYER-256
  6
Continuous
 62
     1
100
AcDbLine
 10
378.3444885454552
 20
20.43395425174653
 30
0.0
 11
370.0270855454543
 21
20.43395425174653
 31
0.0
  0
ARC
  5
2B3
330
1F
100
AcDbEntity
  8
LAYER-256
  6
Continuous
 62
     1
100
AcDbCircle
 10
375.6992865454564
 20
6.212222251750191
 30
0.0
 40
3.517973000000001
100
AcDbArc
 50
318.7561739661164
 51
41.24382599796448
  0
ARC
  5
2B4
330
1F
100
AcDbEntity
  8
LAYER-256
  6
Continuous
 62
     1
100
AcDbCircle
 10
375.6992865454564
 20
18.11467925174923
 30
0.0
 40
3.517973000000001
100
AcDbArc
 50
318.7561740020045
 51
41.24382599798911
  0
LINE
  5
2B5
330
1F
100
AcDbEntity
  8
LAYER-256
  6
Continuous
 62
     1
100
AcDbLine
 10
379.2172595443566
 20
18.11467925174923
 30
0.0
 11
379.2172595443566
 21
6.212222251750191
 31
0.0
  0
ARC
  5
2B6
330
1F
100
AcDbEntity
  8
LAYER-256
  6
Continuous
 62
     1
100
AcDbCircle
 10
371.2238625454544
 20
12.16345025174918
 30
0.0
 40
7.993397
100
AcDbArc
 50
332.9756510005141
 51
27.02434899948589
  0
LINE
  5
2B7
330
1F
100
AcDbEntity
  8
LAYER-256
  6
Continuous
 62
     1
100
AcDbLine
 10
232.8622885485734
 20
223.3278272517492
 30
0.0
 11
232.8622885485734
 21
-11.67217274825077
 31
0.0
  0
LINE
  5
2B8
330
1F
100
AcDbEntity
  8
LAYER-256
  6
Continuous
 62
     1
100
AcDbLine
 10
225.0270855454543
 20
178.3278272517492
 30
0.0
 11
225.0270855454543
 21
228.3278272517492
 31
0.0
  0
LINE
  5
2B9
330
1F
100
AcDbEntity
  8
LAYER-256
  6
Continuous
 62
     1
100
AcDbLine
 10
275.0270855454542
 20
223.3278272517492
 30
0.0
 11
275.0270855454542
 21
228.3278272517492
 31
0.0
  0
LINE
  5
2BA
330
1F
100
AcDbEntity
  8
LAYER-256
  6
Continuous
 62
     1
100
AcDbLine
 10
230.0270855454543
 20
223.3278272517492
 30
0.0
 11
360.0270855454543
 21
223.3278272517492
 31
0.0
  0
LINE
  5
2BB
330
1F
100
AcDbEntity
  8
LAYER-256
  6
Continuous
 62
     1
100
AcDbLine
 10
225.0270855454543
 20
178.3278272517492
 30
0.0
 11
230.0270855454543
 21
178.3278272517492
 31
0.0
  0
LINE
  5
2BC
330
1F
100
AcDbEntity
  8
LAYER-256
  6
Continuous
 62
     1
100
AcDbLine
 10
365.0270855454543
 20
228.3278272517492
 30
0.0
 11
315.0270855454543
 21
228.3278272517492
 31
0.0
  0
LINE
  5
2BD
330
1F
100
AcDbEntity
  8
LAYER-256
  6
Continuous
 62
     1
100
AcDbLine
 10
365.0270855454543
 20
178.3278272517492
 30
0.0
 11
365.0270855454543
 21
228.3278272517492
 31
0.0
  0
LINE
  5
2BE
330
1F
100
AcDbEntity
  8
LAYER-256
  6
Continuous
 62
     1
100
AcDbLine
 10
315.0270855454543
 20
223.3278272517492
 30
0.0
 11
315.0270855454543
 21
228.3278272517492
 31
0.0
  0
LINE
  5
2BF
330
1F
100
AcDbEntity
  8
LAYER-256
  6
Continuous
 62
     1
100
AcDbLine
 10
365.0270855454543
 20
178.3278272517492
 30
0.0
 11
360.0270855454543
 21
178.3278272517492
 31
0.0
  0
LINE
  5
2C0
330
1F
100
AcDbEntity
  8
LAYER-256
  6
Continuous
 62
     1
100
AcDbLine
 10
357.1918825454546
 20
223.3278272517492
 30
0.0
 11
357.1918825454546
 21
-11.67217274825077
 31
0.0
  0
LINE
  5
2C1
330
1F
100
AcDbEntity
  8
LAYER-256
  6
Continuous
 62
     1
100
AcDbLine
 10
209.3129165454562
 20
195.4922042517483
 30
0.0
 11
209.3129165454562
 21
203.4922042517501
 31
0.0
  0
LINE
  5
2C2
330
1F
100
AcDbEntity
  8
LAYER-256
  6
Continuous
 62
     1
100
AcDbLine
 10
209.3129165454562
 20
195.4922042517483
 30
0.0
 11
215.8369115454539
 21
195.4922042517483
 31
0.0
  0
LINE
  5
2C3
330
1F
100
AcDbEntity
  8
LAYER-256
  6
Continuous
 62
     1
100
AcDbLine
 10
209.3129165454562
 20
203.4922042517501
 30
0.0
 11
215.8369115454539
 21
203.4922042517501
 31
0.0
  0
LINE
  5
2C4
330
1F
100
AcDbEntity
  8
LAYER-256
  6
Continuous
 62
     1
100
AcDbLine
 10
216.7096825454533
 20
191.2217002517473
 30
0.0
 11
225.0270855454543
 21
191.2217002517473
 31
0.0
  0
LINE
  5
2C5
330
1F
100
AcDbEntity
  8
LAYER-256
  6
Continuous
 62
     1
100
AcDbLine
 10
216.7096825454533
 20
195.8602512517501
 30
0.0
 11
225.0270855454543
 21
195.8602512517501
 31
0.0
  0
LINE
  5
2C6
330
1F
100
AcDbEntity
  8
LAYER-256
  6
Continuous
 62
     1
100
AcDbLine
 10
216.7096825454533
 20
203.1241562517972
 30
0.0
 11
225.0270855454543
 21
203.1241562517972
 31
0.0
  0
LINE
  5
2C7
330
1F
100
AcDbEntity
  8
LAYER-256
  6
Continuous
 62
     1
100
AcDbLine
 10
216.7096825454533
 20
207.7627082517511
 30
0.0
 11
225.0270855454543
 21
207.7627082517511
 31
0.0
  0
ARC
  5
2C8
330
1F
100
AcDbEntity
  8
LAYER-256
  6
Continuous
 62
     1
100
AcDbCircle
 10
219.3548845454567
 20
193.5409762519981
 30
0.0
 40
3.517973000000001
100
AcDbArc
 50
138.7561740030693
 51
221.243825981686
  0
ARC
  5
2C9
330
1F
100
AcDbEntity
  8
LAYER-256
  6
Continuous
 62
     1
100
AcDbCircle
 10
219.3548845454567
 20
205.4434322517482
 30
0.0
 40
3.517973000000001
100
AcDbArc
 50
138.7561739999785
 51
221.2438259999658
  0
LINE
  5
2CA
330
1F
100
AcDbEntity
  8
LAYER-256
  6
Continuous
 62
     1
100
AcDbLine
 10
215.8369115454539
 20
205.4434322517482
 30
0.0
 11
215.8369115454539
 21
193.5409762519981
 31
0.0
  0
ARC
  5
2CB
330
1F
100
AcDbEntity
  8
LAYER-256
  6
Continuous
 62
     1
100
AcDbCircle
 10
223.830308545
 20
199.4922042517481
 30
0.0
 40
7.993397
100
AcDbArc
 50
152.975650998516
 51
207.0243490014696
  0
LINE
  5
2CC
330
1F
100
AcDbEntity
  8
LAYER-256
  6
CENTER
 62
     4
100
AcDbLine
 10
201.3304495454546
 20
199.4922042517481
 30
0.0
 11
384.4150595454554
 21
199.4922042517481
 31
0.0
  0
LINE
  5
2CD
330
1F
100
AcDbEntity
  8
LAYER-256
  6
Continuous
 62
     1
100
AcDbLine
 10
232.8622885485735
 20
195.4922042517483
 30
0.0
 11
357.1918825454546
 21
195.4922042517483
 31
0.0
  0
LINE
  5
2CE
330
1F
100
AcDbEntity
  8
LAYER-256
  6
Continuous
 62
     1
100
AcDbLine
 10
232.8622885485735
 20
203.4922042517501
 30
0.0
 11
357.1918825454546
 21
203.4922042517501
 31
0.0
  0
LINE
  5
2CF
330
1F
100
AcDbEntity
  8
LAYER-256
  6
Continuous
 62
     1
100
AcDbLine
 10
380.7412545454569
 20
195.4922042517483
 30
0.0
 11
380.7412545454569
 21
203.4922042517501
 31
0.0
  0
LINE
  5
2D0
330
1F
100
AcDbEntity
  8
LAYER-256
  6
Continuous
 62
     1
100
AcDbLine
 10
380.7412545454569
 20
195.4922042517483
 30
0.0
 11
374.2172595473674
 21
195.4922042517483
 31
0.0
  0
LINE
  5
2D1
330
1F
100
AcDbEntity
  8
LAYER-256
  6
Continuous
 62
     1
100
AcDbLine
 10
380.7412545454569
 20
203.4922042517501
 30
0.0
 11
374.2172595473674
 21
203.4922042517501
 31
0.0
  0
LINE
  5
2D2
330
1F
100
AcDbEntity
  8
LAYER-256
  6
Continuous
 62
     1
100
AcDbLine
 10
373.3444885454552
 20
191.2217002517473
 30
0.0
 11
365.0270855454543
 21
191.2217002517473
 31
0.0
  0
LINE
  5
2D3
330
1F
100
AcDbEntity
  8
LAYER-256
  6
Continuous
 62
     1
100
AcDbLine
 10
373.3444885454552
 20
195.8602512517501
 30
0.0
 11
365.0270855454543
 21
195.8602512517501
 31
0.0
  0
LINE
  5
2D4
330
1F
100
AcDbEntity
  8
LAYER-256
  6
Continuous
 62
     1
100
AcDbLine
 10
373.3444885454552
 20
203.1241562517972
 30
0.0
 11
365.0270855454543
 21
203.1241562517972
 31
0.0
  0
LINE
  5
2D5
330
1F
100
AcDbEntity
  8
LAYER-256
  6
Continuous
 62
     1
100
AcDbLine
 10
373.3444885454552
 20
207.7627082517511
 30
0.0
 11
365.0270855454543
 21
207.7627082517511
 31
0.0
  0
ARC
  5
2D6
330
1F
100
AcDbEntity
  8
LAYER-256
  6
Continuous
 62
     1
100
AcDbCircle
 10
370.6992865454564
 20
193.5409762519981
 30
0.0
 40
3.517973000000001
100
AcDbArc
 50
318.7561740203153
 51
41.24382599492945
  0
ARC
  5
2D7
330
1F
100
AcDbEntity
  8
LAYER-256
  6
Continuous
 62
     1
100
AcDbCircle
 10
370.6992865454564
 20
205.4434322517482
 30
0.0
 40
3.517973000000001
100
AcDbArc
 50
318.7561740020356
 51
41.24382599802016
  0
LINE
  5
2D8
330
1F
100
AcDbEntity
  8
LAYER-256
  6
Continuous
 62
     1
100
AcDbLine
 10
374.2172595473674
 20
205.4434322517482
 30
0.0
 11
374.2172595473674
 21
193.5409762519981
 31
0.0
  0
ARC
  5
2D9
330
1F
100
AcDbEntity
  8
LAYER-256
  6
Continuous
 62
     1
100
AcDbCircle
 10
366.2238625454544
 20
199.4922042517481
 30
0.0
 40
7.993397
100
AcDbArc
 50
332.9756510000095
 51
27.02434900000504
  0
LINE
  5
2DA
330
1F
100
AcDbEntity
  8
LAYER-256
  6
Continuous
 62
     1
100
AcDbLine
 10
360.0270855454543
 20
168.3278272517492
 30
0.0
 11
415.0270855454543
 21
168.3278272517492
 31
0.0
  0
LINE
  5
2DB
330
1F
100
AcDbEntity
  8
LAYER-256
  6
Continuous
 62
     1
100
AcDbLine
 10
360.0270855454543
 20
43.32782725174923
 30
0.0
 11
415.0270855454543
 21
43.32782725174923
 31
0.0
  0
LINE
  5
2DC
330
1F
100
AcDbEntity
  8
LAYER-256
  6
Continuous
 62
     1
100
AcDbLine
 10
232.8622885485735
 20
168.3278272517492
 30
0.0
 11
357.1918825454546
 21
168.3278272517492
 31
0.0
  0
LINE
  5
2DD
330
1F
100
AcDbEntity
  8
LAYER-256
  6
Continuous
 62
     1
100
AcDbLine
 10
232.8622885485734
 20
43.32782725174923
 30
0.0
 11
357.1918825454546
 21
43.32782725174923
 31
0.0
  0
LINE
  5
2DE
330
1F
100
AcDbEntity
  8
LAYER-256
  6
Continuous
 62
     1
100
AcDbLine
 10
349.0454545454546
 20
259.5643532517471
 30
0.0
 11
349.0454545454546
 21
228.3278272517492
 31
0.0
  0
LINE
  5
2DF
330
1F
100
AcDbEntity
  8
LAYER-256
  6
Continuous
 62
     1
100
AcDbLine
 10
339.0454545454546
 20
259.5643532517471
 30
0.0
 11
339.0454545454546
 21
228.3278272517492
 31
0.0
  0
LINE
  5
2E0
330
1F
100
AcDbEntity
  8
LAYER-256
  6
Continuous
 62
     1
100
AcDbLine
 10
333.6178675454553
 20
271.0234842517485
 30
0.0
 11
354.4730415454538
 21
271.0234842517485
 31
0.0
  0
LINE
  5
2E1
330
1F
100
AcDbEntity
  8
LAYER-256
  6
Continuous
 62
     1
100
AcDbLine
 10
354.4730415454538
 20
286.0234842517485
 30
0.0
 11
333.6178675454553
 21
286.0234842517485
 31
0.0
  0
LINE
  5
2E2
330
1F
100
AcDbEntity
  8
LAYER-256
  6
Continuous
 62
     1
100
AcDbLine
 10
354.4730415454538
 20
286.0234842517485
 30
0.0
 11
354.4730415454538
 21
271.0234842517485
 31
0.0
  0
LINE
  5
2E3
330
1F
100
AcDbEntity
  8
LAYER-256
  6
Continuous
 62
     1
100
AcDbLine
 10
333.6178675454553
 20
286.0234842517485
 30
0.0
 11
333.6178675454553
 21
271.0234842517485
 31
0.0
  0
LINE
  5
2E4
330
1F
100
AcDbEntity
  8
LAYER-256
  6
CENTER
 62
     4
100
AcDbLine
 10
-403.1619984545454
 20
319.1263852546825
 30
0.0
 11
-403.1619984545454
 21
245.1169292517972
 31
0.0
  0
LINE
  5
2E5
330
1F
100
AcDbEntity
  8
LAYER-256
  6
Continuous
 62
     1
100
AcDbLine
 10
-399.1619984545454
 20
313.3278272517492
 30
0.0
 11
-399.1619984545454
 21
306.8038312517484
 31
0.0
  0
LINE
  5
2E6
330
1F
100
AcDbEntity
  8
LAYER-256
  6
Continuous
 62
     1
100
AcDbLine
 10
-407.1619984545427
 20
313.3278272517492
 30
0.0
 11
-407.1619984545427
 21
306.8038312517484
 31
0.0
  0
LINE
  5
2E7
330
1F
100
AcDbEntity
  8
LAYER-256
  6
Continuous
 62
     1
100
AcDbLine
 10
-394.8914944516084
 20
305.931061254683
 30
0.0
 11
-394.8914944516084
 21
297.6136582517466
 31
0.0
  0
LINE
  5
2E8
330
1F
100
AcDbEntity
  8
LAYER-256
  6
Continuous
 62
     1
100
AcDbLine
 10
-399.5300454545426
 20
305.931061254683
 30
0.0
 11
-399.5300454545426
 21
297.6136582517466
 31
0.0
  0
LINE
  5
2E9
330
1F
100
AcDbEntity
  8
LAYER-256
  6
Continuous
 62
     1
100
AcDbLine
 10
-406.793950454547
 20
305.931061254683
 30
0.0
 11
-406.793950454547
 21
297.6136582517466
 31
0.0
  0
LINE
  5
2EA
330
1F
100
AcDbEntity
  8
LAYER-256
  6
Continuous
 62
     1
100
AcDbLine
 10
-411.4325024545437
 20
305.931061254683
 30
0.0
 11
-411.4325024545437
 21
297.6136582517466
 31
0.0
  0
ARC
  5
2EB
330
1F
100
AcDbEntity
  8
LAYER-256
  6
Continuous
 62
     1
100
AcDbCircle
 10
-397.2107694542518
 20
303.2858582517503
 30
0.0
 40
3.517973000000001
100
AcDbArc
 50
48.75617400356758
 51
131.2438260036525
  0
ARC
  5
2EC
330
1F
100
AcDbEntity
  8
LAYER-256
  6
Continuous
 62
     1
100
AcDbCircle
 10
-409.1132264545453
 20
303.2858582517503
 30
0.0
 40
3.517973000000001
100
AcDbArc
 50
48.75617399992972
 51
131.2438260000146
  0
LINE
  5
2ED
330
1F
100
AcDbEntity
  8
LAYER-256
  6
Continuous
 62
     1
100
AcDbLine
 10
-409.1132264545453
 20
306.8038312517484
 30
0.0
 11
-397.2107694542518
 21
306.8038312517484
 31
0.0
  0
LINE
  5
2EE
330
1F
100
AcDbEntity
  8
LAYER-256
  6
Continuous
 62
     1
100
AcDbLine
 10
-393.1931924545447
 20
297.6136582517466
 30
0.0
 11
-413.130803454545
 21
297.6136582517466
 31
0.0
  0
ARC
  5
2EF
330
1F
100
AcDbEntity
  8
LAYER-256
  6
Continuous
 62
     1
100
AcDbCircle
 10
-403.1619984545454
 20
298.8104352517468
 30
0.0
 40
7.993397
100
AcDbArc
 50
62.97565099999381
 51
117.0243489999888
  0
LINE
  5
2F0
330
1F
100
AcDbEntity
  8
LAYER-256
  6
Continuous
 62
     1
100
AcDbLine
 10
-393.1931924545447
 20
295.2136582530767
 30
0.0
 11
-413.130803454545
 21
295.2136582530767
 31
0.0
  0
LINE
  5
2F1
330
1F
100
AcDbEntity
  8
LAYER-256
  6
Continuous
 62
     1
100
AcDbLine
 10
-393.1931924545447
 20
297.6136582517466
 30
0.0
 11
-393.1931924545447
 21
295.2136582530767
 31
0.0
  0
LINE
  5
2F2
330
1F
100
AcDbEntity
  8
LAYER-256
  6
Continuous
 62
     1
100
AcDbLine
 10
-413.130803454545
 20
297.6136582517466
 30
0.0
 11
-413.130803454545
 21
295.2136582530767
 31
0.0
  0
LINE
  5
2F3
330
1F
100
AcDbEntity
  8
LAYER-256
  6
Continuous
 62
     1
100
AcDbLine
 10
-394.8914944516084
 20
286.8962552517479
 30
0.0
 11
-394.8914944516084
 21
295.2136582530767
 31
0.0
  0
LINE
  5
2F4
330
1F
100
AcDbEntity
  8
LAYER-256
  6
Continuous
 62
     1
100
AcDbLine
 10
-399.5300454545426
 20
286.8962552517479
 30
0.0
 11
-399.5300454545426
 21
295.2136582530767
 31
0.0
  0
LINE
  5
2F5
330
1F
100
AcDbEntity
  8
LAYER-256
  6
Continuous
 62
     1
100
AcDbLine
 10
-406.793950454547
 20
286.8962552517479
 30
0.0
 11
-406.793950454547
 21
295.2136582530767
 31
0.0
  0
LINE
  5
2F6
330
1F
100
AcDbEntity
  8
LAYER-256
  6
Continuous
 62
     1
100
AcDbLine
 10
-411.4325024545437
 20
286.8962552517479
 30
0.0
 11
-411.4325024545437
 21
295.2136582530767
 31
0.0
  0
ARC
  5
2F7
330
1F
100
AcDbEntity
  8
LAYER-256
  6
Continuous
 62
     1
100
AcDbCircle
 10
-397.2107694542518
 20
289.5414572517467
 30
0.0
 40
3.517973000000001
100
AcDbArc
 50
228.7561739963964
 51
311.2438259963836
  0
ARC
  5
2F8
330
1F
100
AcDbEntity
  8
LAYER-256
  6
Continuous
 62
     1
100
AcDbCircle
 10
-409.1132264545453
 20
289.5414572517467
 30
0.0
 40
3.517973000000001
100
AcDbArc
 50
228.7561740000342
 51
311.2438260000214
  0
ARC
  5
2F9
330
1F
100
AcDbEntity
  8
LAYER-256
  6
Continuous
 62
     1
100
AcDbCircle
 10
-403.1619984545454
 20
294.0168812496034
 30
0.0
 40
7.993397
100
AcDbArc
 50
242.9756509930095
 51
297.0243490070079
  0
LINE
  5
2FA
330
1F
100
AcDbEntity
  8
LAYER-256
  6
Continuous
 62
     1
100
AcDbLine
 10
-393.1931924545447
 20
268.6234842517462
 30
0.0
 11
-413.130803454545
 21
268.6234842517462
 31
0.0
  0
LINE
  5
2FB
330
1F
100
AcDbEntity
  8
LAYER-256
  6
Continuous
 62
     1
100
AcDbLine
 10
-393.1931924545447
 20
271.0234842517485
 30
0.0
 11
-393.1931924545447
 21
268.6234842517462
 31
0.0
  0
LINE
  5
2FC
330
1F
100
AcDbEntity
  8
LAYER-256
  6
Continuous
 62
     1
100
AcDbLine
 10
-413.130803454545
 20
271.0234842517485
 30
0.0
 11
-413.130803454545
 21
268.6234842517462
 31
0.0
  0
LINE
  5
2FD
330
1F
100
AcDbEntity
  8
LAYER-256
  6
Continuous
 62
     1
100
AcDbLine
 10
-394.8914944516084
 20
260.3060822517483
 30
0.0
 11
-394.8914944516084
 21
268.6234842517462
 31
0.0
  0
LINE
  5
2FE
330
1F
100
AcDbEntity
  8
LAYER-256
  6
Continuous
 62
     1
100
AcDbLine
 10
-399.5300454545426
 20
260.3060822517483
 30
0.0
 11
-399.5300454545426
 21
268.6234842517462
 31
0.0
  0
LINE
  5
2FF
330
1F
100
AcDbEntity
  8
LAYER-256
  6
Continuous
 62
     1
100
AcDbLine
 10
-406.793950454547
 20
260.3060822517483
 30
0.0
 11
-406.793950454547
 21
268.6234842517462
 31
0.0
  0
LINE
  5
300
330
1F
100
AcDbEntity
  8
LAYER-256
  6
Continuous
 62
     1
100
AcDbLine
 10
-411.4325024545437
 20
260.3060822517483
 30
0.0
 11
-411.4325024545437
 21
268.6234842517462
 31
0.0
  0
ARC
  5
301
330
1F
100
AcDbEntity
  8
LAYER-256
  6
Continuous
 62
     1
100
AcDbCircle
 10
-397.2107694542518
 20
262.9512842517471
 30
0.0
 40
3.517973000000001
100
AcDbArc
 50
228.75617318328
 51
311.2438268095
  0
ARC
  5
302
330
1F
100
AcDbEntity
  8
LAYER-256
  6
Continuous
 62
     1
100
AcDbCircle
 10
-409.1132264545453
 20
262.9512842517471
 30
0.0
 40
3.517973000000001
100
AcDbArc
 50
228.7561731869179
 51
311.2438268131378
  0
ARC
  5
303
330
1F
100
AcDbEntity
  8
LAYER-256
  6
Continuous
 62
     1
100
AcDbCircle
 10
-403.1619984545454
 20
267.4267072517461
 30
0.0
 40
7.993397
100
AcDbArc
 50
242.9756509999964
 51
297.024349000021
  0
LINE
  5
304
330
1F
100
AcDbEntity
  8
LAYER-256
  6
Continuous
 62
     1
100
AcDbLine
 10
-424.6803674545467
 20
293.0673302518804
 30
0.0
 11
-424.6803674545467
 21
286.0234842517485
 31
0.0
  0
LINE
  5
305
330
1F
100
AcDbEntity
  8
LAYER-256
  6
Continuous
 62
     1
100
AcDbLine
 10
-434.6803674545467
 20
293.0673302518804
 30
0.0
 11
-434.6803674545467
 21
286.0234842517485
 31
0.0
  0
LINE
  5
306
330
1F
100
AcDbEntity
  8
LAYER-256
  6
Continuous
 62
     1
100
AcDbLine
 10
-449.0040934545445
 20
286.0234842517485
 30
0.0
 11
-449.0040934545445
 21
271.0234842517485
 31
0.0
  0
LINE
  5
307
330
1F
100
AcDbEntity
  8
LAYER-256
  6
Continuous
 62
     1
100
AcDbLine
 10
-434.6803674545467
 20
293.0673302518804
 30
0.0
 11
-424.6803674545467
 21
293.0673302518804
 31
0.0
  0
LINE
  5
308
330
1F
100
AcDbEntity
  8
LAYER-256
  6
Continuous
 62
     1
100
AcDbLine
 10
-434.6803674545467
 20
271.0234842517485
 30
0.0
 11
-434.6803674545467
 21
228.3278272517492
 31
0.0
  0
LINE
  5
309
330
1F
100
AcDbEntity
  8
LAYER-256
  6
Continuous
 62
     1
100
AcDbLine
 10
-424.6803674545467
 20
271.0234842517485
 30
0.0
 11
-424.6803674545467
 21
228.3278272517492
 31
0.0
  0
LINE
  5
30A
330
1F
100
AcDbEntity
  8
LAYER-256
  6
Continuous
 62
     1
100
AcDbLine
 10
-460.6619984545463
 20
228.3278272517492
 30
0.0
 11
-60.66199845454634
 21
228.3278272517492
 31
0.0
  0
LINE
  5
30B
330
1F
100
AcDbEntity
  8
LAYER-256
  6
Continuous
 62
     1
100
AcDbLine
 10
-460.6619984545463
 20
178.3278272517492
 30
0.0
 11
-399.0619054545445
 21
178.3278272517492
 31
0.0
  0
LINE
  5
30C
330
1F
100
AcDbEntity
  8
LAYER-256
  6
CENTER
 62
     4
100
AcDbLine
 10
-346.1619984545454
 20
245.1169292517972
 30
0.0
 11
-346.1619984545454
 21
319.1263852546825
 31
0.0
  0
LINE
  5
30D
330
1F
100
AcDbEntity
  8
LAYER-256
  6
CENTER
 62
     4
100
AcDbLine
 10
-289.1619984545454
 20
245.1169292517972
 30
0.0
 11
-289.1619984545454
 21
319.1263852546825
 31
0.0
  0
LINE
  5
30E
330
1F
100
AcDbEntity
  8
LAYER-256
  6
CENTER
 62
     4
100
AcDbLine
 10
-232.1619984556813
 20
245.1169292517972
 30
0.0
 11
-232.1619984556813
 21
319.1263852546825
 31
0.0
  0
LINE
  5
30F
330
1F
100
AcDbEntity
  8
LAYER-256
  6
CENTER
 62
     4
100
AcDbLine
 10
-175.1619984545454
 20
245.1169292517972
 30
0.0
 11
-175.1619984545454
 21
319.1263852546825
 31
0.0
  0
LINE
  5
310
330
1F
100
AcDbEntity
  8
LAYER-256
  6
Continuous
 62
     1
100
AcDbLine
 10
-431.5689354545461
 20
33.32782725174923
 30
0.0
 11
-431.5689354545461
 21
-11.67217274825077
 31
0.0
  0
LINE
  5
311
330
1F
100
AcDbEntity
  8
LAYER-256
  6
Continuous
 62
     1
100
AcDbLine
 10
-409.7550604545435
 20
33.32782725174923
 30
0.0
 11
-409.7550604545435
 21
-11.67217274825077
 31
0.0
  0
LINE
  5
312
330
1F
100
AcDbEntity
  8
LAYER-256
  6
CENTER
 62
     4
100
AcDbLine
 10
-403.6177654545449
 20
12.16345025174918
 30
0.0
 11
-436.3949194545452
 21
12.16345025174918
 31
0.0
  0
CIRCLE
  5
313
330
1F
100
AcDbEntity
  8
LAYER-256
  6
Continuous
 62
     1
100
AcDbCircle
 10
-420.6619984545463
 20
12.16345025174918
 30
0.0
 40
4.0
  0
CIRCLE
  5
314
330
1F
100
AcDbEntity
  8
LAYER-256
  6
Continuous
 62
     1
100
AcDbCircle
 10
-420.6619984545463
 20
12.16345025174918
 30
0.0
 40
8.25
  0
LINE
  5
315
330
1F
100
AcDbEntity
  8
LAYER-256
  6
Continuous
 62
     4
100
AcDbLine
 10
-414.5226394565228
 20
17.69135425174967
 30
0.0
 11
-413.9784484545439
 21
17.01933425174788
 31
0.0
  0
LINE
  5
316
330
1F
100
AcDbEntity
  8
LAYER-256
  6
Continuous
 62
     1
100
AcDbLine
 10
-420.6619984545463
 20
21.68973025174923
 30
0.0
 11
-412.4119984545436
 21
16.9265902496028
 31
0.0
  0
LINE
  5
317
330
1F
100
AcDbEntity
  8
LAYER-256
  6
Continuous
 62
     1
100
AcDbLine
 10
-412.4119984545436
 20
16.9265902496028
 30
0.0
 11
-412.4119984545436
 21
7.400311252
 31
0.0
  0
LINE
  5
318
330
1F
100
AcDbEntity
  8
LAYER-256
  6
Continuous
 62
     1
100
AcDbLine
 10
-412.4119984545436
 20
7.400311252
 30
0.0
 11
-420.6619984545463
 21
2.63717125174766
 31
0.0
  0
LINE
  5
319
330
1F
100
AcDbEntity
  8
LAYER-256
  6
Continuous
 62
     1
100
AcDbLine
 10
-420.6619984545463
 20
2.63717125174766
 30
0.0
 11
-428.9119984556524
 21
7.400311252
 31
0.0
  0
LINE
  5
31A
330
1F
100
AcDbEntity
  8
LAYER-256
  6
Continuous
 62
     1
100
AcDbLine
 10
-428.9119984556524
 20
7.400311252
 30
0.0
 11
-428.9119984556524
 21
16.9265902496028
 31
0.0
  0
LINE
  5
31B
330
1F
100
AcDbEntity
  8
LAYER-256
  6
Continuous
 62
     1
100
AcDbLine
 10
-428.9119984556524
 20
16.9265902496028
 30
0.0
 11
-420.6619984545463
 21
21.68973025174923
 31
0.0
  0
LINE
  5
31C
330
1F
100
AcDbEntity
  8
LAYER-256
  6
CENTER
 62
     4
100
AcDbLine
 10
-420.6619984545463
 20
33.32782725174923
 30
0.0
 11
-420.6619984545463
 21
-29.10867474825123
 31
0.0
  0
LINE
  5
31D
330
1F
100
AcDbEntity
  8
LAYER-256
  6
Continuous
 62
     1
100
AcDbLine
 10
-111.5689354545461
 20
33.32782725174923
 30
0.0
 11
-111.5689354545461
 21
-11.67217274825077
 31
0.0
  0
LINE
  5
31E
330
1F
100
AcDbEntity
  8
LAYER-256
  6
Continuous
 62
     1
100
AcDbLine
 10
-89.75506045454353
 20
33.32782725174923
 30
0.0
 11
-89.75506045454353
 21
-11.67217274825077
 31
0.0
  0
LINE
  5
31F
330
1F
100
AcDbEntity
  8
LAYER-256
  6
CENTER
 62
     4
100
AcDbLine
 10
-83.6177654545449
 20
12.16345025174918
 30
0.0
 11
-116.3949194545452
 21
12.16345025174918
 31
0.0
  0
CIRCLE
  5
320
330
1F
100
AcDbEntity
  8
LAYER-256
  6
Continuous
 62
     1
100
AcDbCircle
 10
-100.6619984545463
 20
12.16345025174918
 30
0.0
 40
4.0
  0
CIRCLE
  5
321
330
1F
100
AcDbEntity
  8
LAYER-256
  6
Continuous
 62
     1
100
AcDbCircle
 10
-100.6619984545463
 20
12.16345025174918
 30
0.0
 40
8.25
  0
LINE
  5
322
330
1F
100
AcDbEntity
  8
LAYER-256
  6
Continuous
 62
     4
100
AcDbLine
 10
-93.50748345454434
 20
8.032789251749946
 30
0.0
 11
-93.97844845454387
 21
7.307567251749006
 31
0.0
  0
LINE
  5
323
330
1F
100
AcDbEntity
  8
LAYER-256
  6
Continuous
 62
     1
100
AcDbLine
 10
-100.6619984545463
 20
21.68973025174923
 30
0.0
 11
-92.41199845454361
 21
16.9265902496028
 31
0.0
  0
LINE
  5
324
330
1F
100
AcDbEntity
  8
LAYER-256
  6
Continuous
 62
     1
100
AcDbLine
 10
-92.41199845454361
 20
16.9265902496028
 30
0.0
 11
-92.41199845454361
 21
7.400311252
 31
0.0
  0
LINE
  5
325
330
1F
100
AcDbEntity
  8
LAYER-256
  6
Continuous
 62
     1
100
AcDbLine
 10
-92.41199845454361
 20
7.400311252
 30
0.0
 11
-100.6619984545463
 21
2.63717125174766
 31
0.0
  0
LINE
  5
326
330
1F
100
AcDbEntity
  8
LAYER-256
  6
Continuous
 62
     1
100
AcDbLine
 10
-100.6619984545463
 20
2.63717125174766
 30
0.0
 11
-108.9119984556524
 21
7.400311252
 31
0.0
  0
LINE
  5
327
330
1F
100
AcDbEntity
  8
LAYER-256
  6
Continuous
 62
     1
100
AcDbLine
 10
-108.9119984556524
 20
7.400311252
 30
0.0
 11
-108.9119984556524
 21
16.9265902496028
 31
0.0
  0
LINE
  5
328
330
1F
100
AcDbEntity
  8
LAYER-256
  6
Continuous
 62
     1
100
AcDbLine
 10
-108.9119984556524
 20
16.9265902496028
 30
0.0
 11
-100.6619984545463
 21
21.68973025174923
 31
0.0
  0
LINE
  5
329
330
1F
100
AcDbEntity
  8
LAYER-256
  6
CENTER
 62
     4
100
AcDbLine
 10
-100.6619984545463
 20
33.32782725174923
 30
0.0
 11
-100.6619984545463
 21
-29.10867474825123
 31
0.0
  0
LINE
  5
32A
330
1F
100
AcDbEntity
  8
LAYER-256
  6
Continuous
 62
     1
100
AcDbLine
 10
-444.5738954545445
 20
178.3278272517492
 30
0.0
 11
-444.5738954545445
 21
33.32782725174923
 31
0.0
  0
LINE
  5
32B
330
1F
100
AcDbEntity
  8
LAYER-256
  6
Continuous
 62
     1
100
AcDbLine
 10
-76.75010045454513
 20
178.3278272517492
 30
0.0
 11
-76.75010045454513
 21
33.32782725174923
 31
0.0
  0
LINE
  5
32C
330
1F
100
AcDbEntity
  8
LAYER-256
  6
CENTER
 62
     4
100
AcDbLine
 10
-483.8947244545429
 20
102.1650902517495
 30
0.0
 11
-36.09806845454244
 21
102.1650902517495
 31
0.0
  0
LINE
  5
32D
330
1F
100
AcDbEntity
  8
LAYER-256
  6
Continuous
 62
     1
100
AcDbLine
 10
-428.3061744545452
 20
168.3278272517492
 30
0.0
 11
-320.2173264545431
 21
168.3278272517492
 31
0.0
  0
LINE
  5
32E
330
1F
100
AcDbEntity
  8
LAYER-256
  6
Continuous
 62
     1
100
AcDbLine
 10
-428.3061744545452
 20
43.32782725174923
 30
0.0
 11
-320.2173264545431
 21
43.32782725174923
 31
0.0
  0
LINE
  5
32F
330
1F
100
AcDbEntity
  8
LAYER-256
  6
Continuous
 62
     1
100
AcDbLine
 10
-428.3061744545452
 20
168.3278272517492
 30
0.0
 11
-428.3061744545452
 21
43.32782725174923
 31
0.0
  0
LINE
  5
330
330
1F
100
AcDbEntity
  8
LAYER-256
  6
Continuous
 62
     1
100
AcDbLine
 10
-93.01782245454291
 20
168.3278272517492
 30
0.0
 11
-93.01782245454291
 21
43.32782725174923
 31
0.0
  0
LINE
  5
331
330
1F
100
AcDbEntity
  8
LAYER-256
  6
Continuous
 62
     1
100
AcDbLine
 10
-320.2173264545431
 20
168.3278272517492
 30
0.0
 11
-320.2173264545431
 21
43.32782725174923
 31
0.0
  0
LINE
  5
332
330
1F
100
AcDbEntity
  8
LAYER-256
  6
Continuous
 62
     1
100
AcDbLine
 10
-312.8694544545428
 20
168.3278272517492
 30
0.0
 11
-312.8694544545428
 21
43.32782725174923
 31
0.0
  0
LINE
  5
333
330
1F
100
AcDbEntity
  8
LAYER-256
  6
Continuous
 62
     1
100
AcDbLine
 10
-201.1066704545451
 20
168.3278272517492
 30
0.0
 11
-201.1066704545451
 21
43.32782725174923
 31
0.0
  0
LINE
  5
334
330
1F
100
AcDbEntity
  8
LAYER-256
  6
Continuous
 62
     1
100
AcDbLine
 10
-208.4545424545453
 20
168.3278272517492
 30
0.0
 11
-208.4545424545453
 21
43.32782725174923
 31
0.0
  0
LINE
  5
335
330
1F
100
AcDbEntity
  8
LAYER-256
  6
Continuous
 62
     1
100
AcDbLine
 10
-201.1066704545451
 20
168.3278272517492
 30
0.0
 11
-93.01782245454291
 21
168.3278272517492
 31
0.0
  0
LINE
  5
336
330
1F
100
AcDbEntity
  8
LAYER-256
  6
Continuous
 62
     1
100
AcDbLine
 10
-312.8694544545428
 20
168.3278272517492
 30
0.0
 11
-208.4545424545453
 21
168.3278272517492
 31
0.0
  0
LINE
  5
337
330
1F
100
AcDbEntity
  8
LAYER-256
  6
Continuous
 62
     1
100
AcDbLine
 10
-312.8694544545428
 20
43.32782725174923
 30
0.0
 11
-208.4545424545453
 21
43.32782725174923
 31
0.0
  0
LINE
  5
338
330
1F
100
AcDbEntity
  8
LAYER-256
  6
Continuous
 62
     1
100
AcDbLine
 10
-201.1066704545451
 20
43.32782725174923
 30
0.0
 11
-93.01782245454291
 21
43.32782725174923
 31
0.0
  0
CIRCLE
  5
339
330
1F
100
AcDbEntity
  8
LAYER-256
  6
Continuous
 62
     1
100
AcDbCircle
 10
-275.6626864545464
 20
190.6600672517498
 30
0.0
 40
4.2875
  0
ARC
  5
33A
330
1F
100
AcDbEntity
  8
LAYER-256
  6
Continuous
 62
     1
100
AcDbCircle
 10
-275.6626864545464
 20
190.6600672517498
 30
0.0
 40
7.962500000000001
100
AcDbArc
 50
0.0
 51
180.0
  0
LINE
  5
33B
330
1F
100
AcDbEntity
  8
LAYER-256
  6
Continuous
 62
     1
100
AcDbLine
 10
-283.6251864545451
 20
190.6600672517498
 30
0.0
 11
-283.6251864545451
 21
175.7610322517513
 31
0.0
  0
LINE
  5
33C
330
1F
100
AcDbEntity
  8
LAYER-256
  6
Continuous
 62
     1
100
AcDbLine
 10
-267.7001864545431
 20
190.6600672517498
 30
0.0
 11
-267.7001864545431
 21
175.7610322517513
 31
0.0
  0
LINE
  5
33D
330
1F
100
AcDbEntity
  8
LAYER-256
  6
Continuous
 62
     1
100
AcDbLine
 10
-280.6833764545431
 20
185.4778272517273
 30
0.0
 11
-280.6833764545431
 21
179.1661692486746
 31
0.0
  0
LINE
  5
33E
330
1F
100
AcDbEntity
  8
LAYER-256
  6
Continuous
 62
     1
100
AcDbLine
 10
-270.6419954545467
 20
185.4778272517273
 30
0.0
 11
-270.6419954545467
 21
179.1661692486746
 31
0.0
  0
LINE
  5
33F
330
1F
100
AcDbEntity
  8
LAYER-256
  6
Continuous
 62
     1
100
AcDbLine
 10
-283.6251864545451
 20
175.7610322517513
 30
0.0
 11
-267.7001864545431
 21
175.7610322517513
 31
0.0
  0
LINE
  5
340
330
1F
100
AcDbEntity
  8
LAYER-256
  6
Continuous
 62
     1
100
AcDbLine
 10
-280.6833764545431
 20
175.7610322517513
 30
0.0
 11
-280.6833764545431
 21
168.3278272517492
 31
0.0
  0
LINE
  5
341
330
1F
100
AcDbEntity
  8
LAYER-256
  6
Continuous
 62
     1
100
AcDbLine
 10
-270.6419954545467
 20
175.7610322517513
 30
0.0
 11
-270.6419954545467
 21
168.3278272517492
 31
0.0
  0
CIRCLE
  5
342
330
1F
100
AcDbEntity
  8
LAYER-256
  6
Continuous
 62
     1
100
AcDbCircle
 10
-245.6613104545463
 20
190.6600672517498
 30
0.0
 40
4.2875
  0
ARC
  5
343
330
1F
100
AcDbEntity
  8
LAYER-256
  6
Continuous
 62
     1
100
AcDbCircle
 10
-245.6613104545463
 20
190.6600672517498
 30
0.0
 40
7.962500000000001
100
AcDbArc
 50
0.0
 51
180.0
  0
LINE
  5
344
330
1F
100
AcDbEntity
  8
LAYER-256
  6
Continuous
 62
     1
100
AcDbLine
 10
-237.698810454543
 20
190.6600672517498
 30
0.0
 11
-237.698810454543
 21
175.7610322517513
 31
0.0
  0
LINE
  5
345
330
1F
100
AcDbEntity
  8
LAYER-256
  6
Continuous
 62
     1
100
AcDbLine
 10
-253.623810454545
 20
190.6600672517498
 30
0.0
 11
-253.623810454545
 21
175.7610322517513
 31
0.0
  0
LINE
  5
346
330
1F
100
AcDbEntity
  8
LAYER-256
  6
Continuous
 62
     1
100
AcDbLine
 10
-240.6406194545465
 20
185.4778272517273
 30
0.0
 11
-240.6406194545465
 21
179.1661692486746
 31
0.0
  0
LINE
  5
347
330
1F
100
AcDbEntity
  8
LAYER-256
  6
Continuous
 62
     1
100
AcDbLine
 10
-250.682001454546
 20
185.4778272517273
 30
0.0
 11
-250.682001454546
 21
179.1661692486746
 31
0.0
  0
LINE
  5
348
330
1F
100
AcDbEntity
  8
LAYER-256
  6
Continuous
 62
     1
100
AcDbLine
 10
-237.698810454543
 20
175.7610322517513
 30
0.0
 11
-253.623810454545
 21
175.7610322517513
 31
0.0
  0
LINE
  5
349
330
1F
100
AcDbEntity
  8
LAYER-256
  6
Continuous
 62
     1
100
AcDbLine
 10
-240.6406194545465
 20
175.7610322517513
 30
0.0
 11
-240.6406194545465
 21
168.3278272517492
 31
0.0
  0
LINE
  5
34A
330
1F
100
AcDbEntity
  8
LAYER-256
  6
Continuous
 62
     1
100
AcDbLine
 10
-250.682001454546
 20
175.7610322517513
 30
0.0
 11
-250.682001454546
 21
168.3278272517492
 31
0.0
  0
CIRCLE
  5
34B
330
1F
100
AcDbEntity
  8
LAYER-256
  6
Continuous
 62
     1
100
AcDbCircle
 10
-391.0994054545458
 20
190.6600672517498
 30
0.0
 40
4.2875
  0
ARC
  5
34C
330
1F
100
AcDbEntity
  8
LAYER-256
  6
Continuous
 62
     1
100
AcDbCircle
 10
-391.0994054545458
 20
190.6600672517498
 30
0.0
 40
7.962500000000001
100
AcDbArc
 50
0.0
 51
180.0
  0
LINE
  5
34D
330
1F
100
AcDbEntity
  8
LAYER-256
  6
Continuous
 62
     1
100
AcDbLine
 10
-399.0619054545445
 20
190.6600672517498
 30
0.0
 11
-399.0619054545445
 21
175.7610322517513
 31
0.0
  0
LINE
  5
34E
330
1F
100
AcDbEntity
  8
LAYER-256
  6
Continuous
 62
     1
100
AcDbLine
 10
-383.1369054545425
 20
190.6600672517498
 30
0.0
 11
-383.1369054545425
 21
175.7610322517513
 31
0.0
  0
LINE
  5
34F
330
1F
100
AcDbEntity
  8
LAYER-256
  6
Continuous
 62
     1
100
AcDbLine
 10
-396.1200964545455
 20
185.4778272517273
 30
0.0
 11
-396.1200964545455
 21
179.1661692486746
 31
0.0
  0
LINE
  5
350
330
1F
100
AcDbEntity
  8
LAYER-256
  6
Continuous
 62
     1
100
AcDbLine
 10
-386.0787154545446
 20
185.4778272517273
 30
0.0
 11
-386.0787154545446
 21
179.1661692486746
 31
0.0
  0
LINE
  5
351
330
1F
100
AcDbEntity
  8
LAYER-256
  6
Continuous
 62
     1
100
AcDbLine
 10
-399.0619054545445
 20
175.7610322517513
 30
0.0
 11
-383.1369054545425
 21
175.7610322517513
 31
0.0
  0
LINE
  5
352
330
1F
100
AcDbEntity
  8
LAYER-256
  6
Continuous
 62
     1
100
AcDbLine
 10
-396.1200964545455
 20
175.7610322517513
 30
0.0
 11
-396.1200964545455
 21
168.3278272517492
 31
0.0
  0
LINE
  5
353
330
1F
100
AcDbEntity
  8
LAYER-256
  6
Continuous
 62
     1
100
AcDbLine
 10
-386.0787154545446
 20
175.7610322517513
 30
0.0
 11
-386.0787154545446
 21
168.3278272517492
 31
0.0
  0
CIRCLE
  5
354
330
1F
100
AcDbEntity
  8
LAYER-256
  6
Continuous
 62
     1
100
AcDbCircle
 10
-361.0980304545441
 20
190.6600672517498
 30
0.0
 40
4.2875
  0
ARC
  5
355
330
1F
100
AcDbEntity
  8
LAYER-256
  6
Continuous
 62
     1
100
AcDbCircle
 10
-361.0980304545441
 20
190.6600672517498
 30
0.0
 40
7.962500000000001
100
AcDbArc
 50
0.0
 51
180.0
  0
LINE
  5
356
330
1F
100
AcDbEntity
  8
LAYER-256
  6
Continuous
 62
     1
100
AcDbLine
 10
-353.1355304545454
 20
190.6600672517498
 30
0.0
 11
-353.1355304545454
 21
175.7610322517513
 31
0.0
  0
LINE
  5
357
330
1F
100
AcDbEntity
  8
LAYER-256
  6
Continuous
 62
     1
100
AcDbLine
 10
-369.0605304545429
 20
190.6600672517498
 30
0.0
 11
-369.0605304545429
 21
175.7610322517513
 31
0.0
  0
LINE
  5
358
330
1F
100
AcDbEntity
  8
LAYER-256
  6
Continuous
 62
     1
100
AcDbLine
 10
-356.0773394545444
 20
185.4778272517273
 30
0.0
 11
-356.0773394545444
 21
179.1661692486746
 31
0.0
  0
LINE
  5
359
330
1F
100
AcDbEntity
  8
LAYER-256
  6
Continuous
 62
     1
100
AcDbLine
 10
-366.1187214545439
 20
185.4778272517273
 30
0.0
 11
-366.1187214545439
 21
179.1661692486746
 31
0.0
  0
LINE
  5
35A
330
1F
100
AcDbEntity
  8
LAYER-256
  6
Continuous
 62
     1
100
AcDbLine
 10
-353.1355304545454
 20
175.7610322517513
 30
0.0
 11
-369.0605304545429
 21
175.7610322517513
 31
0.0
  0
LINE
  5
35B
330
1F
100
AcDbEntity
  8
LAYER-256
  6
Continuous
 62
     1
100
AcDbLine
 10
-356.0773394545444
 20
175.7610322517513
 30
0.0
 11
-356.0773394545444
 21
168.3278272517492
 31
0.0
  0
LINE
  5
35C
330
1F
100
AcDbEntity
  8
LAYER-256
  6
Continuous
 62
     1
100
AcDbLine
 10
-366.1187214545439
 20
175.7610322517513
 30
0.0
 11
-366.1187214545439
 21
168.3278272517492
 31
0.0
  0
CIRCLE
  5
35D
330
1F
100
AcDbEntity
  8
LAYER-256
  6
Continuous
 62
     1
100
AcDbCircle
 10
-163.8999024545441
 20
190.6600672517498
 30
0.0
 40
4.2875
  0
ARC
  5
35E
330
1F
100
AcDbEntity
  8
LAYER-256
  6
Continuous
 62
     1
100
AcDbCircle
 10
-163.8999024545441
 20
190.6600672517498
 30
0.0
 40
7.962500000000001
100
AcDbArc
 50
0.0
 51
180.0
  0
LINE
  5
35F
330
1F
100
AcDbEntity
  8
LAYER-256
  6
Continuous
 62
     1
100
AcDbLine
 10
-171.8624024545428
 20
190.6600672517498
 30
0.0
 11
-171.8624024545428
 21
175.7610322517513
 31
0.0
  0
LINE
  5
360
330
1F
100
AcDbEntity
  8
LAYER-256
  6
Continuous
 62
     1
100
AcDbLine
 10
-155.9374024545454
 20
190.6600672517498
 30
0.0
 11
-155.9374024545454
 21
175.7610322517513
 31
0.0
  0
LINE
  5
361
330
1F
100
AcDbEntity
  8
LAYER-256
  6
Continuous
 62
     1
100
AcDbLine
 10
-168.9205924545453
 20
185.4778272517273
 30
0.0
 11
-168.9205924545453
 21
179.1661692486746
 31
0.0
  0
LINE
  5
362
330
1F
100
AcDbEntity
  8
LAYER-256
  6
Continuous
 62
     1
100
AcDbLine
 10
-158.8792114545444
 20
185.4778272517273
 30
0.0
 11
-158.8792114545444
 21
179.1661692486746
 31
0.0
  0
LINE
  5
363
330
1F
100
AcDbEntity
  8
LAYER-256
  6
Continuous
 62
     1
100
AcDbLine
 10
-171.8624024545428
 20
175.7610322517513
 30
0.0
 11
-155.9374024545454
 21
175.7610322517513
 31
0.0
  0
LINE
  5
364
330
1F
100
AcDbEntity
  8
LAYER-256
  6
Continuous
 62
     1
100
AcDbLine
 10
-168.9205924545453
 20
175.7610322517513
 30
0.0
 11
-168.9205924545453
 21
168.3278272517492
 31
0.0
  0
LINE
  5
365
330
1F
100
AcDbEntity
  8
LAYER-256
  6
Continuous
 62
     1
100
AcDbLine
 10
-158.8792114545444
 20
175.7610322517513
 30
0.0
 11
-158.8792114545444
 21
168.3278272517492
 31
0.0
  0
CIRCLE
  5
366
330
1F
100
AcDbEntity
  8
LAYER-256
  6
Continuous
 62
     1
100
AcDbCircle
 10
-133.8985264545439
 20
190.6600672517498
 30
0.0
 40
4.2875
  0
ARC
  5
367
330
1F
100
AcDbEntity
  8
LAYER-256
  6
Continuous
 62
     1
100
AcDbCircle
 10
-133.8985264545439
 20
190.6600672517498
 30
0.0
 40
7.962500000000001
100
AcDbArc
 50
0.0
 51
180.0
  0
LINE
  5
368
330
1F
100
AcDbEntity
  8
LAYER-256
  6
Continuous
 62
     1
100
AcDbLine
 10
-125.9360264545452
 20
190.6600672517498
 30
0.0
 11
-125.9360264545452
 21
175.7610322517513
 31
0.0
  0
LINE
  5
369
330
1F
100
AcDbEntity
  8
LAYER-256
  6
Continuous
 62
     1
100
AcDbLine
 10
-141.8610264545427
 20
190.6600672517498
 30
0.0
 11
-141.8610264545427
 21
175.7610322517513
 31
0.0
  0
LINE
  5
36A
330
1F
100
AcDbEntity
  8
LAYER-256
  6
Continuous
 62
     1
100
AcDbLine
 10
-128.8778354545442
 20
185.4778272517273
 30
0.0
 11
-128.8778354545442
 21
179.1661692486746
 31
0.0
  0
LINE
  5
36B
330
1F
100
AcDbEntity
  8
LAYER-256
  6
Continuous
 62
     1
100
AcDbLine
 10
-138.9192174545437
 20
185.4778272517273
 30
0.0
 11
-138.9192174545437
 21
179.1661692486746
 31
0.0
  0
LINE
  5
36C
330
1F
100
AcDbEntity
  8
LAYER-256
  6
Continuous
 62
     1
100
AcDbLine
 10
-125.9360264545452
 20
175.7610322517513
 30
0.0
 11
-141.8610264545427
 21
175.7610322517513
 31
0.0
  0
LINE
  5
36D
330
1F
100
AcDbEntity
  8
LAYER-256
  6
Continuous
 62
     1
100
AcDbLine
 10
-128.8778354545442
 20
175.7610322517513
 30
0.0
 11
-128.8778354545442
 21
168.3278272517492
 31
0.0
  0
LINE
  5
36E
330
1F
100
AcDbEntity
  8
LAYER-256
  6
Continuous
 62
     1
100
AcDbLine
 10
-138.9192174545437
 20
175.7610322517513
 30
0.0
 11
-138.9192174545437
 21
168.3278272517492
 31
0.0
  0
LINE
  5
36F
330
1F
100
AcDbEntity
  8
LAYER-256
  6
Continuous
 62
     1
100
AcDbLine
 10
-125.9360264545452
 20
178.3278272517492
 30
0.0
 11
-60.66199845454634
 21
178.3278272517492
 31
0.0
  0
LINE
  5
370
330
1F
100
AcDbEntity
  8
LAYER-256
  6
Continuous
 62
     1
100
AcDbLine
 10
-155.9374024545454
 20
178.3278272517492
 30
0.0
 11
-141.8610264545427
 21
178.3278272517492
 31
0.0
  0
LINE
  5
371
330
1F
100
AcDbEntity
  8
LAYER-256
  6
Continuous
 62
     1
100
AcDbLine
 10
-237.698810454543
 20
178.3278272517492
 30
0.0
 11
-171.8624024545428
 21
178.3278272517492
 31
0.0
  0
LINE
  5
372
330
1F
100
AcDbEntity
  8
LAYER-256
  6
Continuous
 62
     1
100
AcDbLine
 10
-267.7001864545431
 20
178.3278272517492
 30
0.0
 11
-253.623810454545
 21
178.3278272517492
 31
0.0
  0
LINE
  5
373
330
1F
100
AcDbEntity
  8
LAYER-256
  6
Continuous
 62
     1
100
AcDbLine
 10
-353.1355304545454
 20
178.3278272517492
 30
0.0
 11
-283.6251864545451
 21
178.3278272517492
 31
0.0
  0
LINE
  5
374
330
1F
100
AcDbEntity
  8
LAYER-256
  6
Continuous
 62
     1
100
AcDbLine
 10
-383.1369054545425
 20
178.3278272517492
 30
0.0
 11
-369.0605304545429
 21
178.3278272517492
 31
0.0
  0
LINE
  5
375
330
1F
100
AcDbEntity
  8
LAYER-256
  6
CENTER
 62
     4
100
AcDbLine
 10
-83.6177654545449
 20
199.4922042517481
 30
0.0
 11
-116.3949194545452
 21
199.4922042517481
 31
0.0
  0
CIRCLE
  5
376
330
1F
100
AcDbEntity
  8
LAYER-256
  6
Continuous
 62
     1
100
AcDbCircle
 10
-100.6619984545463
 20
199.4922042517481
 30
0.0
 40
4.0
  0
CIRCLE
  5
377
330
1F
100
AcDbEntity
  8
LAYER-256
  6
Continuous
 62
     1
100
AcDbCircle
 10
-100.6619984545463
 20
199.4922042517481
 30
0.0
 40
8.25
  0
LINE
  5
378
330
1F
100
AcDbEntity
  8
LAYER-256
  6
Continuous
 62
     1
100
AcDbLine
 10
-100.6619984545463
 20
189.9659242517492
 30
0.0
 11
-92.41199845454361
 21
194.729064252042
 31
0.0
  0
LINE
  5
379
330
1F
100
AcDbEntity
  8
LAYER-256
  6
Continuous
 62
     1
100
AcDbLine
 10
-92.41199845454361
 20
194.729064252042
 30
0.0
 11
-92.41199845454361
 21
204.2553442517493
 31
0.0
  0
LINE
  5
37A
330
1F
100
AcDbEntity
  8
LAYER-256
  6
Continuous
 62
     1
100
AcDbLine
 10
-92.41199845454361
 20
204.2553442517493
 30
0.0
 11
-100.6619984545463
 21
209.0184832517508
 31
0.0
  0
LINE
  5
37B
330
1F
100
AcDbEntity
  8
LAYER-256
  6
Continuous
 62
     1
100
AcDbLine
 10
-100.6619984545463
 20
209.0184832517508
 30
0.0
 11
-108.9119984556524
 21
204.2553442517493
 31
0.0
  0
LINE
  5
37C
330
1F
100
AcDbEntity
  8
LAYER-256
  6
Continuous
 62
     1
100
AcDbLine
 10
-108.9119984556524
 20
204.2553442517493
 30
0.0
 11
-108.9119984556524
 21
194.729064252042
 31
0.0
  0
LINE
  5
37D
330
1F
100
AcDbEntity
  8
LAYER-256
  6
Continuous
 62
     1
100
AcDbLine
 10
-108.9119984556524
 20
194.729064252042
 30
0.0
 11
-100.6619984545463
 21
189.9659242517492
 31
0.0
  0
LINE
  5
37E
330
1F
100
AcDbEntity
  8
LAYER-256
  6
CENTER
 62
     4
100
AcDbLine
 10
-100.6619984545463
 20
178.3278272517492
 30
0.0
 11
-100.6619984545463
 21
220.8376462517509
 31
0.0
  0
LINE
  5
37F
330
1F
100
AcDbEntity
  8
LAYER-256
  6
CENTER
 62
     4
100
AcDbLine
 10
-403.6177654545449
 20
199.4922042517481
 30
0.0
 11
-436.3949194545452
 21
199.4922042517481
 31
0.0
  0
CIRCLE
  5
380
330
1F
100
AcDbEntity
  8
LAYER-256
  6
Continuous
 62
     1
100
AcDbCircle
 10
-420.6619984545463
 20
199.4922042517481
 30
0.0
 40
4.0
  0
CIRCLE
  5
381
330
1F
100
AcDbEntity
  8
LAYER-256
  6
Continuous
 62
     1
100
AcDbCircle
 10
-420.6619984545463
 20
199.4922042517481
 30
0.0
 40
8.25
  0
LINE
  5
382
330
1F
100
AcDbEntity
  8
LAYER-256
  6
Continuous
 62
     1
100
AcDbLine
 10
-420.6619984545463
 20
189.9659242517492
 30
0.0
 11
-412.4119984545436
 21
194.729064252042
 31
0.0
  0
LINE
  5
383
330
1F
100
AcDbEntity
  8
LAYER-256
  6
Continuous
 62
     1
100
AcDbLine
 10
-412.4119984545436
 20
194.729064252042
 30
0.0
 11
-412.4119984545436
 21
204.2553442517493
 31
0.0
  0
LINE
  5
384
330
1F
100
AcDbEntity
  8
LAYER-256
  6
Continuous
 62
     1
100
AcDbLine
 10
-412.4119984545436
 20
204.2553442517493
 30
0.0
 11
-420.6619984545463
 21
209.0184832517508
 31
0.0
  0
LINE
  5
385
330
1F
100
AcDbEntity
  8
LAYER-256
  6
Continuous
 62
     1
100
AcDbLine
 10
-420.6619984545463
 20
209.0184832517508
 30
0.0
 11
-428.9119984556524
 21
204.2553442517493
 31
0.0
  0
LINE
  5
386
330
1F
100
AcDbEntity
  8
LAYER-256
  6
Continuous
 62
     1
100
AcDbLine
 10
-428.9119984556524
 20
204.2553442517493
 30
0.0
 11
-428.9119984556524
 21
194.729064252042
 31
0.0
  0
LINE
  5
387
330
1F
100
AcDbEntity
  8
LAYER-256
  6
Continuous
 62
     1
100
AcDbLine
 10
-428.9119984556524
 20
194.729064252042
 30
0.0
 11
-420.6619984545463
 21
189.9659242517492
 31
0.0
  0
LINE
  5
388
330
1F
100
AcDbEntity
  8
LAYER-256
  6
CENTER
 62
     4
100
AcDbLine
 10
-420.6619984545463
 20
178.3278272517492
 30
0.0
 11
-420.6619984545463
 21
220.8376462517509
 31
0.0
  0
LINE
  5
389
330
1F
100
AcDbEntity
  8
LAYER-256
  6
CENTER
 62
     4
100
AcDbLine
 10
-260.6619984545463
 20
241.8853812517483
 30
0.0
 11
-260.6619984545463
 21
-36.9672367482525
 31
0.0
  0
LINE
  5
38A
330
1F
100
AcDbEntity
  8
LAYER-256
  6
HIDDEN
 62
     4
100
AcDbLine
 10
-460.6619984545463
 20
223.3278272517492
 30
0.0
 11
-60.66199845454634
 21
223.3278272517492
 31
0.0
  0
LINE
  5
38B
330
1F
100
AcDbEntity
  8
LAYER-256
  6
Continuous
 62
     1
100
AcDbLine
 10
-460.6619984545463
 20
-16.67217274825077
 30
0.0
 11
-60.66199845454634
 21
-16.67217274825077
 31
0.0
  0
LINE
  5
38C
330
1F
100
AcDbEntity
  8
LAYER-256
  6
Continuous
 62
     1
100
AcDbLine
 10
-460.6619984545463
 20
-11.67217274825077
 30
0.0
 11
-60.66199845454634
 21
-11.67217274825077
 31
0.0
  0
LINE
  5
38D
330
1F
100
AcDbEntity
  8
LAYER-256
  6
Continuous
 62
     1
100
AcDbLine
 10
-460.6619984545463
 20
228.3278272517492
 30
0.0
 11
-460.6619984545463
 21
-16.67217274825077
 31
0.0
  0
LINE
  5
38E
330
1F
100
AcDbEntity
  8
LAYER-256
  6
Continuous
 62
     1
100
AcDbLine
 10
-60.66199845454634
 20
228.3278272517492
 30
0.0
 11
-60.66199845454634
 21
-16.67217274825077
 31
0.0
  0
LINE
  5
38F
330
1F
100
AcDbEntity
  8
LAYER-256
  6
Continuous
 62
     1
100
AcDbLine
 10
-460.6619984545463
 20
33.32782725174923
 30
0.0
 11
-60.66199845454634
 21
33.32782725174923
 31
0.0
  0
LINE
  5
390
330
1F
100
AcDbEntity
  8
LAYER-256
  6
Continuous
 62
     1
100
AcDbLine
 10
-122.1619984556813
 20
313.3278272517492
 30
0.0
 11
-114.1619984545454
 21
313.3278272517492
 31
0.0
  0
LINE
  5
391
330
1F
100
AcDbEntity
  8
LAYER-256
  6
CENTER
 62
     4
100
AcDbLine
 10
-118.1619984545463
 20
319.1263852546825
 30
0.0
 11
-118.1619984545463
 21
245.1169292517972
 31
0.0
  0
LINE
  5
392
330
1F
100
AcDbEntity
  8
LAYER-256
  6
Continuous
 62
     1
100
AcDbLine
 10
-122.1619984556813
 20
313.3278272517492
 30
0.0
 11
-122.1619984556813
 21
306.8038312517484
 31
0.0
  0
LINE
  5
393
330
1F
100
AcDbEntity
  8
LAYER-256
  6
Continuous
 62
     1
100
AcDbLine
 10
-114.1619984545454
 20
313.3278272517492
 30
0.0
 11
-114.1619984545454
 21
306.8038312517484
 31
0.0
  0
LINE
  5
394
330
1F
100
AcDbEntity
  8
LAYER-256
  6
Continuous
 62
     1
100
AcDbLine
 10
-126.4325024545437
 20
305.931061254683
 30
0.0
 11
-126.4325024545437
 21
297.6136582517466
 31
0.0
  0
LINE
  5
395
330
1F
100
AcDbEntity
  8
LAYER-256
  6
Continuous
 62
     1
100
AcDbLine
 10
-121.793950454547
 20
305.931061254683
 30
0.0
 11
-121.793950454547
 21
297.6136582517466
 31
0.0
  0
LINE
  5
396
330
1F
100
AcDbEntity
  8
LAYER-256
  6
Continuous
 62
     1
100
AcDbLine
 10
-114.5300454516084
 20
305.931061254683
 30
0.0
 11
-114.5300454516084
 21
297.6136582517466
 31
0.0
  0
LINE
  5
397
330
1F
100
AcDbEntity
  8
LAYER-256
  6
Continuous
 62
     1
100
AcDbLine
 10
-109.8914944545444
 20
305.931061254683
 30
0.0
 11
-109.8914944545444
 21
297.6136582517466
 31
0.0
  0
ARC
  5
398
330
1F
100
AcDbEntity
  8
LAYER-256
  6
Continuous
 62
     1
100
AcDbCircle
 10
-124.1132264545453
 20
303.2858582517503
 30
0.0
 40
3.517973000000001
100
AcDbArc
 50
48.75617399992972
 51
131.2438259693399
  0
ARC
  5
399
330
1F
100
AcDbEntity
  8
LAYER-256
  6
Continuous
 62
     1
100
AcDbCircle
 10
-112.2107694545444
 20
303.2858582517503
 30
0.0
 40
3.517973000000001
100
AcDbArc
 50
48.7561740314648
 51
131.2438260000689
  0
LINE
  5
39A
330
1F
100
AcDbEntity
  8
LAYER-256
  6
Continuous
 62
     1
100
AcDbLine
 10
-112.2107694545444
 20
306.8038312517484
 30
0.0
 11
-124.1132264545453
 21
306.8038312517484
 31
0.0
  0
LINE
  5
39B
330
1F
100
AcDbEntity
  8
LAYER-256
  6
Continuous
 62
     1
100
AcDbLine
 10
-128.1308034565228
 20
297.6136582517466
 30
0.0
 11
-108.1931924522587
 21
297.6136582517466
 31
0.0
  0
ARC
  5
39C
330
1F
100
AcDbEntity
  8
LAYER-256
  6
Continuous
 62
     1
100
AcDbCircle
 10
-118.1619984545463
 20
298.8104352517468
 30
0.0
 40
7.993397
100
AcDbArc
 50
62.97565085080907
 51
117.0243491491619
  0
LINE
  5
39D
330
1F
100
AcDbEntity
  8
LAYER-256
  6
Continuous
 62
     1
100
AcDbLine
 10
-128.1308034565228
 20
295.2136582530767
 30
0.0
 11
-108.1931924522587
 21
295.2136582530767
 31
0.0
  0
LINE
  5
39E
330
1F
100
AcDbEntity
  8
LAYER-256
  6
Continuous
 62
     1
100
AcDbLine
 10
-128.1308034565228
 20
297.6136582517466
 30
0.0
 11
-128.1308034565228
 21
295.2136582530767
 31
0.0
  0
LINE
  5
39F
330
1F
100
AcDbEntity
  8
LAYER-256
  6
Continuous
 62
     1
100
AcDbLine
 10
-108.1931924522587
 20
297.6136582517466
 30
0.0
 11
-108.1931924522587
 21
295.2136582530767
 31
0.0
  0
LINE
  5
3A0
330
1F
100
AcDbEntity
  8
LAYER-256
  6
Continuous
 62
     1
100
AcDbLine
 10
-126.4325024545437
 20
286.8962552517479
 30
0.0
 11
-126.4325024545437
 21
295.2136582530767
 31
0.0
  0
LINE
  5
3A1
330
1F
100
AcDbEntity
  8
LAYER-256
  6
Continuous
 62
     1
100
AcDbLine
 10
-121.793950454547
 20
286.8962552517479
 30
0.0
 11
-121.793950454547
 21
295.2136582530767
 31
0.0
  0
LINE
  5
3A2
330
1F
100
AcDbEntity
  8
LAYER-256
  6
Continuous
 62
     1
100
AcDbLine
 10
-114.5300454516084
 20
286.8962552517479
 30
0.0
 11
-114.5300454516084
 21
295.2136582530767
 31
0.0
  0
LINE
  5
3A3
330
1F
100
AcDbEntity
  8
LAYER-256
  6
Continuous
 62
     1
100
AcDbLine
 10
-109.8914944545444
 20
286.8962552517479
 30
0.0
 11
-109.8914944545444
 21
295.2136582530767
 31
0.0
  0
ARC
  5
3A4
330
1F
100
AcDbEntity
  8
LAYER-256
  6
Continuous
 62
     1
100
AcDbCircle
 10
-124.1132264545453
 20
289.5414572517467
 30
0.0
 40
3.517973000000001
100
AcDbArc
 50
228.7561740307089
 51
311.2438260000214
  0
ARC
  5
3A5
330
1F
100
AcDbEntity
  8
LAYER-256
  6
Continuous
 62
     1
100
AcDbCircle
 10
-112.2107694545444
 20
289.5414572517467
 30
0.0
 40
3.517973000000001
100
AcDbArc
 50
228.75617399998
 51
311.2438259684864
  0
ARC
  5
3A6
330
1F
100
AcDbEntity
  8
LAYER-256
  6
Continuous
 62
     1
100
AcDbCircle
 10
-118.1619984545463
 20
294.0168812496034
 30
0.0
 40
7.993397
100
AcDbArc
 50
242.9756509930154
 51
297.0243490070136
  0
LINE
  5
3A7
330
1F
100
AcDbEntity
  8
LAYER-256
  6
Continuous
 62
     1
100
AcDbLine
 10
-128.1308034565228
 20
268.6234842517462
 30
0.0
 11
-108.1931924522587
 21
268.6234842517462
 31
0.0
  0
LINE
  5
3A8
330
1F
100
AcDbEntity
  8
LAYER-256
  6
Continuous
 62
     1
100
AcDbLine
 10
-128.1308034565228
 20
271.0234842517485
 30
0.0
 11
-128.1308034565228
 21
268.6234842517462
 31
0.0
  0
LINE
  5
3A9
330
1F
100
AcDbEntity
  8
LAYER-256
  6
Continuous
 62
     1
100
AcDbLine
 10
-108.1931924522587
 20
271.0234842517485
 30
0.0
 11
-108.1931924522587
 21
268.6234842517462
 31
0.0
  0
LINE
  5
3AA
330
1F
100
AcDbEntity
  8
LAYER-256
  6
Continuous
 62
     1
100
AcDbLine
 10
-126.4325024545437
 20
260.3060822517483
 30
0.0
 11
-126.4325024545437
 21
268.6234842517462
 31
0.0
  0
LINE
  5
3AB
330
1F
100
AcDbEntity
  8
LAYER-256
  6
Continuous
 62
     1
100
AcDbLine
 10
-121.793950454547
 20
260.3060822517483
 30
0.0
 11
-121.793950454547
 21
268.6234842517462
 31
0.0
  0
LINE
  5
3AC
330
1F
100
AcDbEntity
  8
LAYER-256
  6
Continuous
 62
     1
100
AcDbLine
 10
-114.5300454516084
 20
260.3060822517483
 30
0.0
 11
-114.5300454516084
 21
268.6234842517462
 31
0.0
  0
LINE
  5
3AD
330
1F
100
AcDbEntity
  8
LAYER-256
  6
Continuous
 62
     1
100
AcDbLine
 10
-109.8914944545444
 20
260.3060822517483
 30
0.0
 11
-109.8914944545444
 21
268.6234842517462
 31
0.0
  0
ARC
  5
3AE
330
1F
100
AcDbEntity
  8
LAYER-256
  6
Continuous
 62
     1
100
AcDbCircle
 10
-124.1132264545453
 20
262.9512842517471
 30
0.0
 40
3.517973000000001
100
AcDbArc
 50
228.7561740307089
 51
311.2438260000214
  0
ARC
  5
3AF
330
1F
100
AcDbEntity
  8
LAYER-256
  6
Continuous
 62
     1
100
AcDbCircle
 10
-112.2107694545444
 20
262.9512842517471
 30
0.0
 40
3.517973000000001
100
AcDbArc
 50
228.75617399998
 51
311.2438259684864
  0
ARC
  5
3B0
330
1F
100
AcDbEntity
  8
LAYER-256
  6
Continuous
 62
     1
100
AcDbCircle
 10
-118.1619984545463
 20
267.4267072517461
 30
0.0
 40
7.993397
100
AcDbArc
 50
242.9756510000022
 51
297.0243490000269
  0
LINE
  5
3B1
330
1F
100
AcDbEntity
  8
LAYER-256
  6
Continuous
 62
     1
100
AcDbLine
 10
-96.64362945568126
 20
293.0673302518804
 30
0.0
 11
-96.64362945568126
 21
286.0234842517485
 31
0.0
  0
LINE
  5
3B2
330
1F
100
AcDbEntity
  8
LAYER-256
  6
Continuous
 62
     1
100
AcDbLine
 10
-86.64362945568126
 20
293.0673302518804
 30
0.0
 11
-86.64362945568126
 21
286.0234842517485
 31
0.0
  0
LINE
  5
3B3
330
1F
100
AcDbEntity
  8
LAYER-256
  6
Continuous
 62
     1
100
AcDbLine
 10
-72.31990245454512
 20
286.0234842517485
 30
0.0
 11
-72.31990245454512
 21
271.0234842517485
 31
0.0
  0
LINE
  5
3B4
330
1F
100
AcDbEntity
  8
LAYER-256
  6
Continuous
 62
     1
100
AcDbLine
 10
-86.64362945568126
 20
293.0673302518804
 30
0.0
 11
-96.64362945568126
 21
293.0673302518804
 31
0.0
  0
LINE
  5
3B5
330
1F
100
AcDbEntity
  8
LAYER-256
  6
Continuous
 62
     1
100
AcDbLine
 10
-86.64362945568126
 20
271.0234842517485
 30
0.0
 11
-86.64362945568126
 21
228.3278272517492
 31
0.0
  0
LINE
  5
3B6
330
1F
100
AcDbEntity
  8
LAYER-256
  6
Continuous
 62
     1
100
AcDbLine
 10
-96.64362945568126
 20
271.0234842517485
 30
0.0
 11
-96.64362945568126
 21
228.3278272517492
 31
0.0
  0
LINE
  5
3B7
330
1F
100
AcDbEntity
  8
LAYER-256
  6
Continuous
 62
     1
100
AcDbLine
 10
-449.0040934545445
 20
271.0234842517485
 30
0.0
 11
-72.31990245454512
 21
271.0234842517485
 31
0.0
  0
LINE
  5
3B8
330
1F
100
AcDbEntity
  8
LAYER-256
  6
Continuous
 62
     1
100
AcDbLine
 10
-72.31990245454512
 20
286.0234842517485
 30
0.0
 11
-449.0040934545445
 21
286.0234842517485
 31
0.0
  0
LINE
  5
3B9
330
1F
100
AcDbEntity
  8
LAYER-256
  6
Continuous
 62
     1
100
AcDbLine
 10
-399.1619984545454
 20
313.3278272517492
 30
0.0
 11
-407.1619984545427
 21
313.3278272517492
 31
0.0
  0
LINE
  5
3BA
330
1F
100
AcDbEntity
  8
LAYER-033
  6
Continuous
 62
     4
100
AcDbLine
 10
373.0512235454549
 20
302.190265784847
 30
0.0
 11
378.0009710135054
 21
307.1400132528976
 31
0.0
  0
LINE
  5
3BB
330
1F
100
AcDbEntity
  8
LAYER-033
  6
Continuous
 62
     4
100
AcDbLine
 10
373.4507184806603
 20
297.6400132517466
 30
0.0
 11
382.9507184818113
 21
307.1400132528976
 31
0.0
  0
LINE
  5
3BC
330
1F
100
AcDbEntity
  8
LAYER-033
  6
Continuous
 62
     4
100
AcDbLine
 10
378.4004659489662
 20
297.6400132517466
 30
0.0
 11
387.9004659501172
 21
307.1400132528976
 31
0.0
  0
LINE
  5
3BD
330
1F
100
AcDbEntity
  8
LAYER-033
  6
Continuous
 62
     4
100
AcDbLine
 10
383.3502134172721
 20
297.6400132517466
 30
0.0
 11
392.850213418423
 21
307.1400132528976
 31
0.0
  0
LINE
  5
3BE
330
1F
100
AcDbEntity
  8
LAYER-033
  6
Continuous
 62
     4
100
AcDbLine
 10
388.299960885578
 20
297.6400132517466
 30
0.0
 11
397.799960887
 21
307.1400132528976
 31
0.0
  0
LINE
  5
3BF
330
1F
100
AcDbEntity
  8
LAYER-033
  6
Continuous
 62
     4
100
AcDbLine
 10
393.2497083538838
 20
297.6400132517466
 30
0.0
 11
402.7497083550348
 21
307.1400132528976
 31
0.0
  0
LINE
  5
3C0
330
1F
100
AcDbEntity
  8
LAYER-033
  6
Continuous
 62
     4
100
AcDbLine
 10
398.1994558221897
 20
297.6400132517466
 30
0.0
 11
407.6994558233407
 21
307.1400132528976
 31
0.0
  0
LINE
  5
3C1
330
1F
100
AcDbEntity
  8
LAYER-033
  6
Continuous
 62
     4
100
AcDbLine
 10
403.1492032904956
 20
297.6400132517466
 30
0.0
 11
412.6492032916465
 21
307.1400132528976
 31
0.0
  0
LINE
  5
3C2
330
1F
100
AcDbEntity
  8
LAYER-033
  6
Continuous
 62
     4
100
AcDbLine
 10
408.0989507588014
 20
297.6400132517466
 30
0.0
 11
417.5989507599524
 21
307.1400132528976
 31
0.0
  0
LINE
  5
3C3
330
1F
100
AcDbEntity
  8
LAYER-033
  6
Continuous
 62
     4
100
AcDbLine
 10
413.0486982271231
 20
297.6400132517466
 30
0.0
 11
422.548698228274
 21
307.1400132528976
 31
0.0
  0
LINE
  5
3C4
330
1F
100
AcDbEntity
  8
LAYER-033
  6
Continuous
 62
     4
100
AcDbLine
 10
417.9984456954289
 20
297.6400132517466
 30
0.0
 11
427.4984456965799
 21
307.1400132528976
 31
0.0
  0
LINE
  5
3C5
330
1F
100
AcDbEntity
  8
LAYER-033
  6
Continuous
 62
     4
100
AcDbLine
 10
422.9481931637348
 20
297.6400132517466
 30
0.0
 11
432.4481931648858
 21
307.1400132528976
 31
0.0
  0
LINE
  5
3C6
330
1F
100
AcDbEntity
  8
LAYER-033
  6
Continuous
 62
     4
100
AcDbLine
 10
427.8979406320407
 20
297.6400132517466
 30
0.0
 11
437.3129616520423
 21
307.0550342717482
 31
0.0
  0
LINE
  5
3C7
330
1F
100
AcDbEntity
  8
LAYER-033
  6
Continuous
 62
     4
100
AcDbLine
 10
432.8476881003466
 20
297.6400132517466
 30
0.0
 11
441.6207327694959
 21
306.4130579208959
 31
0.0
  0
LINE
  5
3C8
330
1F
100
AcDbEntity
  8
LAYER-033
  6
Continuous
 62
     4
100
AcDbLine
 10
437.6346712089393
 20
297.4772488920335
 30
0.0
 11
445.442328975236
 21
305.2849066583302
 31
0.0
  0
LINE
  5
3C9
330
1F
100
AcDbEntity
  8
LAYER-033
  6
Continuous
 62
     4
100
AcDbLine
 10
441.6558987186778
 20
296.5487289334661
 30
0.0
 11
448.8751118106951
 21
303.7679420254834
 31
0.0
  0
LINE
  5
3CA
330
1F
100
AcDbEntity
  8
LAYER-033
  6
Continuous
 62
     4
100
AcDbLine
 10
445.0795653423848
 20
295.0226480888672
 30
0.0
 11
451.9727502054055
 21
301.915832951888
 31
0.0
  0
LINE
  5
3CB
330
1F
100
AcDbEntity
  8
LAYER-033
  6
Continuous
 62
     4
100
AcDbLine
 10
448.0240900324577
 20
293.0174253106343
 30
0.0
 11
454.7648514551096
 21
299.7581867332862
 31
0.0
  0
LINE
  5
3CC
330
1F
100
AcDbEntity
  8
LAYER-033
  6
Continuous
 62
     4
100
AcDbLine
 10
450.5362357866714
 20
290.5798235965421
 30
0.0
 11
457.2651431134227
 21
297.3087309232934
 31
0.0
  0
LINE
  5
3CD
330
1F
100
AcDbEntity
  8
LAYER-033
  6
Continuous
 62
     4
100
AcDbLine
 10
452.6194396608368
 20
287.7132800024016
 30
0.0
 11
459.4746886886886
 21
294.5685290302534
 31
0.0
  0
LINE
  5
3CE
330
1F
100
AcDbEntity
  8
LAYER-033
  6
Continuous
 62
     4
100
AcDbLine
 10
454.2356010763649
 20
284.3796939496239
 30
0.0
 11
461.3821222001542
 21
291.5262150734133
 31
0.0
  0
LINE
  5
3CF
330
1F
100
AcDbEntity
  8
LAYER-033
  6
Continuous
 62
     4
100
AcDbLine
 10
455.2830393699485
 20
280.4773847749016
 30
0.0
 11
462.9610333479457
 21
288.1553787528988
 31
0.0
  0
LINE
  5
3D0
330
1F
100
AcDbEntity
  8
LAYER-033
  6
Continuous
 62
     4
100
AcDbLine
 10
455.5096306923272
 20
275.754228629
 30
0.0
 11
464.1629337858384
 21
284.4075317224857
 31
0.0
  0
LINE
  5
3D1
330
1F
100
AcDbEntity
  8
LAYER-033
  6
Continuous
 62
     4
100
AcDbLine
 10
453.9931529509832
 20
269.2880034193247
 30
0.0
 11
464.9005292436327
 21
280.1953797119741
 31
0.0
  0
LINE
  5
3D2
330
1F
100
AcDbEntity
  8
LAYER-033
  6
Continuous
 62
     4
100
AcDbLine
 10
448.5404266648123
 20
258.8855296648479
 30
0.0
 11
465.0029564139356
 21
275.3480594139712
 31
0.0
  0
LINE
  5
3D3
330
1F
100
AcDbEntity
  8
LAYER-033
  6
Continuous
 62
     4
100
AcDbLine
 10
442.8802692473709
 20
248.2756247791007
 30
0.0
 11
464.0540019967576
 21
269.4493575284874
 31
0.0
  0
LINE
  5
3D4
330
1F
100
AcDbEntity
  8
LAYER-033
  6
Continuous
 62
     4
100
AcDbLine
 10
437.2201118299295
 20
237.6657198933535
 30
0.0
 11
460.2943361417139
 21
260.7399442051378
 31
0.0
  0
LINE
  5
3D5
330
1F
100
AcDbEntity
  8
LAYER-033
  6
Continuous
 62
     4
100
AcDbLine
 10
431.5599544124881
 20
227.0558150076062
 30
0.0
 11
454.6831901604744
 21
250.1790507555924
 31
0.0
  0
LINE
  5
3D6
330
1F
100
AcDbEntity
  8
LAYER-033
  6
Continuous
 62
     4
100
AcDbLine
 10
425.8997969950468
 20
216.445910121859
 30
0.0
 11
449.0720441792349
 21
239.6181573060471
 31
0.0
  0
LINE
  5
3D7
330
1F
100
AcDbEntity
  8
LAYER-033
  6
Continuous
 62
     4
100
AcDbLine
 10
420.2396395776054
 20
205.8360052361118
 30
0.0
 11
443.4608981979953
 21
229.0572638565017
 31
0.0
  0
LINE
  5
3D8
330
1F
100
AcDbEntity
  8
LAYER-033
  6
Continuous
 62
     4
100
AcDbLine
 10
414.579482160164
 20
195.2261003503646
 30
0.0
 11
437.8497522167559
 21
218.4963704069564
 31
0.0
  0
LINE
  5
3D9
330
1F
100
AcDbEntity
  8
LAYER-033
  6
Continuous
 62
     4
100
AcDbLine
 10
408.9193247427226
 20
184.6161954646173
 30
0.0
 11
432.238606236
 21
207.935476957411
 31
0.0
  0
LINE
  5
3DA
330
1F
100
AcDbEntity
  8
LAYER-033
  6
Continuous
 62
     4
100
AcDbLine
 10
403.2591673252812
 20
174.0062905788701
 30
0.0
 11
426.6274602542768
 21
197.3745835078657
 31
0.0
  0
LINE
  5
3DB
330
1F
100
AcDbEntity
  8
LAYER-033
  6
Continuous
 62
     4
100
AcDbLine
 10
402.5304514664662
 20
168.3278272517492
 30
0.0
 11
421.0163142730373
 21
186.8136900583203
 31
0.0
  0
LINE
  5
3DC
330
1F
100
AcDbEntity
  8
LAYER-033
  6
Continuous
 62
     4
100
AcDbLine
 10
407.480198934772
 20
168.3278272517492
 30
0.0
 11
415.4051682917978
 21
176.252796608775
 31
0.0
  0
LINE
  5
3DD
330
1F
100
AcDbEntity
  8
LAYER-033
  6
Continuous
 62
     4
100
AcDbLine
 10
401.1064641803347
 20
169.9710714267045
 30
0.0
 11
402.74970835529
 21
168.3278272517492
 31
0.0
  0
LINE
  5
3DE
330
1F
100
AcDbEntity
  8
LAYER-033
  6
Continuous
 62
     4
100
AcDbLine
 10
402.8284213139409
 20
173.1988617614041
 30
0.0
 11
407.6994558235958
 21
168.3278272517492
 31
0.0
  0
LINE
  5
3DF
330
1F
100
AcDbEntity
  8
LAYER-033
  6
Continuous
 62
     4
100
AcDbLine
 10
404.5503784475471
 20
176.4266520961038
 30
0.0
 11
411.6992484448156
 21
169.2777820988354
 31
0.0
  0
LINE
  5
3E0
330
1F
100
AcDbEntity
  8
LAYER-033
  6
Continuous
 62
     4
100
AcDbLine
 10
406.2723355814541
 20
179.6544424308034
 30
0.0
 11
413.4166419580953
 21
172.5101360538614
 31
0.0
  0
LINE
  5
3E1
330
1F
100
AcDbEntity
  8
LAYER-033
  6
Continuous
 62
     4
100
AcDbLine
 10
407.994292714765
 20
182.8822327655133
 30
0.0
 11
415.1340354713806
 21
175.7424900088977
 31
0.0
  0
LINE
  5
3E2
330
1F
100
AcDbEntity
  8
LAYER-033
  6
Continuous
 62
     4
100
AcDbLine
 10
409.7162498483712
 20
186.1100231002129
 30
0.0
 11
416.8514289846603
 21
178.9748439639238
 31
0.0
  0
LINE
  5
3E3
330
1F
100
AcDbEntity
  8
LAYER-033
  6
Continuous
 62
     4
100
AcDbLine
 10
411.4382069819784
 20
189.3378134349145
 30
0.0
 11
418.5688224979401
 21
182.2071979189499
 31
0.0
  0
LINE
  5
3E4
330
1F
100
AcDbEntity
  8
LAYER-033
  6
Continuous
 62
     4
100
AcDbLine
 10
413.1601641155836
 20
192.5656037696122
 30
0.0
 11
420.2862160112199
 21
185.4395518739759
 31
0.0
  0
LINE
  5
3E5
330
1F
100
AcDbEntity
  8
LAYER-033
  6
Continuous
 62
     4
100
AcDbLine
 10
414.8821212491898
 20
195.7933941043119
 30
0.0
 11
422.0036095244997
 21
188.6719058285345
 31
0.0
  0
LINE
  5
3E6
330
1F
100
AcDbEntity
  8
LAYER-033
  6
Continuous
 62
     4
100
AcDbLine
 10
416.6040783827961
 20
199.0211844390115
 30
0.0
 11
423.7210030377795
 21
191.9042597840281
 31
0.0
  0
LINE
  5
3E7
330
1F
100
AcDbEntity
  8
LAYER-033
  6
Continuous
 62
     4
100
AcDbLine
 10
418.3260355164022
 20
202.2489747737112
 30
0.0
 11
425.4383965510593
 21
195.1366137390541
 31
0.0
  0
LINE
  5
3E8
330
1F
100
AcDbEntity
  8
LAYER-033
  6
Continuous
 62
     4
100
AcDbLine
 10
420.0479926500084
 20
205.4767651084108
 30
0.0
 11
427.155790064339
 21
198.3689676940802
 31
0.0
  0
LINE
  5
3E9
330
1F
100
AcDbEntity
  8
LAYER-033
  6
Continuous
 62
     4
100
AcDbLine
 10
421.7699497836146
 20
208.7045554431104
 30
0.0
 11
428.8731835776188
 21
201.6013216491062
 31
0.0
  0
LINE
  5
3EA
330
1F
100
AcDbEntity
  8
LAYER-033
  6
Continuous
 62
     4
100
AcDbLine
 10
423.4919069172208
 20
211.93234577781
 30
0.0
 11
430.5905770908986
 21
204.8336756041323
 31
0.0
  0
LINE
  5
3EB
330
1F
100
AcDbEntity
  8
LAYER-033
  6
Continuous
 62
     4
100
AcDbLine
 10
425.2138640508271
 20
215.1601361125097
 30
0.0
 11
432.3079706017688
 21
208.0660295546232
 31
0.0
  0
LINE
  5
3EC
330
1F
100
AcDbEntity
  8
LAYER-033
  6
Continuous
 62
     4
100
AcDbLine
 10
426.9358211844333
 20
218.3879264472093
 30
0.0
 11
434.0253641174582
 21
211.2983835141844
 31
0.0
  0
LINE
  5
3ED
330
1F
100
AcDbEntity
  8
LAYER-033
  6
Continuous
 62
     4
100
AcDbLine
 10
428.6577783180395
 20
221.615716781909
 30
0.0
 11
435.742757630738
 21
214.5307374692105
 31
0.0
  0
LINE
  5
3EE
330
1F
100
AcDbEntity
  8
LAYER-033
  6
Continuous
 62
     4
100
AcDbLine
 10
430.3797354516457
 20
224.8435071166086
 30
0.0
 11
437.4601511440177
 21
217.7630914242366
 31
0.0
  0
LINE
  5
3EF
330
1F
100
AcDbEntity
  8
LAYER-033
  6
Continuous
 62
     4
100
AcDbLine
 10
432.1016925852518
 20
228.0712974517492
 30
0.0
 11
439.1775446572963
 21
220.9954453792603
 31
0.0
  0
LINE
  5
3F0
330
1F
100
AcDbEntity
  8
LAYER-033
  6
Continuous
 62
     4
100
AcDbLine
 10
433.8236497188581
 20
231.2990877860079
 30
0.0
 11
440.8949381705773
 21
224.2277993342887
 31
0.0
  0
LINE
  5
3F1
330
1F
100
AcDbEntity
  8
LAYER-033
  6
Continuous
 62
     4
100
AcDbLine
 10
435.5456068524643
 20
234.5268781207075
 30
0.0
 11
442.6123316838571
 21
227.4601532893148
 31
0.0
  0
LINE
  5
3F2
330
1F
100
AcDbEntity
  8
LAYER-033
  6
Continuous
 62
     4
100
AcDbLine
 10
373.0512235454549
 20
301.9710088960227
 30
0.0
 11
377.382219189731
 21
297.6400132517466
 31
0.0
  0
LINE
  5
3F3
330
1F
100
AcDbEntity
  8
LAYER-033
  6
Continuous
 62
     4
100
AcDbLine
 10
437.2675639860705
 20
237.7546684554072
 30
0.0
 11
444.3297251971368
 21
230.6925072443408
 31
0.0
  0
LINE
  5
3F4
330
1F
100
AcDbEntity
  8
LAYER-033
  6
Continuous
 62
     4
100
AcDbLine
 10
373.0512235454549
 20
306.9207563643286
 30
0.0
 11
382.3319666580369
 21
297.6400132517466
 31
0.0
  0
LINE
  5
3F5
330
1F
100
AcDbEntity
  8
LAYER-033
  6
Continuous
 62
     4
100
AcDbLine
 10
438.9895211196767
 20
240.9824587901068
 30
0.0
 11
446.0471187104166
 21
233.9248611993669
 31
0.0
  0
LINE
  5
3F6
330
1F
100
AcDbEntity
  8
LAYER-033
  6
Continuous
 62
     4
100
AcDbLine
 10
377.7817141251917
 20
307.1400132528976
 30
0.0
 11
387.2817141263427
 21
297.6400132517466
 31
0.0
  0
LINE
  5
3F7
330
1F
100
AcDbEntity
  8
LAYER-033
  6
Continuous
 62
     4
100
AcDbLine
 10
440.7114782532829
 20
244.2102491248065
 30
0.0
 11
447.7645122236964
 21
237.1572151543929
 31
0.0
  0
LINE
  5
3F8
330
1F
100
AcDbEntity
  8
LAYER-033
  6
Continuous
 62
     4
100
AcDbLine
 10
382.7314615934976
 20
307.1400132528976
 30
0.0
 11
392.2314615944571
 21
297.6400132517466
 31
0.0
  0
LINE
  5
3F9
330
1F
100
AcDbEntity
  8
LAYER-033
  6
Continuous
 62
     4
100
AcDbLine
 10
442.4334353868891
 20
247.4380394595061
 30
0.0
 11
449.4819057369762
 21
240.389569109419
 31
0.0
  0
LINE
  5
3FA
330
1F
100
AcDbEntity
  8
LAYER-033
  6
Continuous
 62
     4
100
AcDbLine
 10
387.6812090618034
 20
307.1400132528976
 30
0.0
 11
397.1812090629544
 21
297.6400132517466
 31
0.0
  0
LINE
  5
3FB
330
1F
100
AcDbEntity
  8
LAYER-033
  6
Continuous
 62
     4
100
AcDbLine
 10
444.1553925204953
 20
250.6658297942057
 30
0.0
 11
451.199299250256
 21
243.621923064445
 31
0.0
  0
LINE
  5
3FC
330
1F
100
AcDbEntity
  8
LAYER-033
  6
Continuous
 62
     4
100
AcDbLine
 10
392.6309565301093
 20
307.1400132528976
 30
0.0
 11
402.1309565312603
 21
297.6400132517466
 31
0.0
  0
LINE
  5
3FD
330
1F
100
AcDbEntity
  8
LAYER-033
  6
Continuous
 62
     4
100
AcDbLine
 10
445.8773496541015
 20
253.8936201289054
 30
0.0
 11
452.9166927635358
 21
246.8542770194711
 31
0.0
  0
LINE
  5
3FE
330
1F
100
AcDbEntity
  8
LAYER-033
  6
Continuous
 62
     4
100
AcDbLine
 10
397.5807039984151
 20
307.1400132528976
 30
0.0
 11
407.0807039995661
 21
297.6400132517466
 31
0.0
  0
LINE
  5
3FF
330
1F
100
AcDbEntity
  8
LAYER-033
  6
Continuous
 62
     4
100
AcDbLine
 10
447.5993067877077
 20
257.121410463605
 30
0.0
 11
454.6340862768155
 21
250.0866309744972
 31
0.0
  0
LINE
  5
400
330
1F
100
AcDbEntity
  8
LAYER-033
  6
Continuous
 62
     4
100
AcDbLine
 10
402.530451466721
 20
307.1400132528976
 30
0.0
 11
412.030451467872
 21
297.6400132517466
 31
0.0
  0
LINE
  5
401
330
1F
100
AcDbEntity
  8
LAYER-033
  6
Continuous
 62
     4
100
AcDbLine
 10
449.3212639213139
 20
260.3492007983047
 30
0.0
 11
456.3514797900953
 21
253.31898493
 31
0.0
  0
LINE
  5
402
330
1F
100
AcDbEntity
  8
LAYER-033
  6
Continuous
 62
     4
100
AcDbLine
 10
407.4801989350268
 20
307.1400132528976
 30
0.0
 11
416.9801989361778
 21
297.6400132517466
 31
0.0
  0
LINE
  5
403
330
1F
100
AcDbEntity
  8
LAYER-033
  6
Continuous
 62
     4
100
AcDbLine
 10
451.0432210549201
 20
263.5769911330043
 30
0.0
 11
458.0688733033751
 21
256.5513388845493
 31
0.0
  0
LINE
  5
404
330
1F
100
AcDbEntity
  8
LAYER-033
  6
Continuous
 62
     4
100
AcDbLine
 10
412.4299464033327
 20
307.1400132528976
 30
0.0
 11
421.9299464044836
 21
297.6400132517466
 31
0.0
  0
LINE
  5
405
330
1F
100
AcDbEntity
  8
LAYER-033
  6
Continuous
 62
     4
100
AcDbLine
 10
452.7651781885263
 20
266.804781467704
 30
0.0
 11
459.7862668166549
 21
259.7836928395753
 31
0.0
  0
LINE
  5
406
330
1F
100
AcDbEntity
  8
LAYER-033
  6
Continuous
 62
     4
100
AcDbLine
 10
417.3796938716386
 20
307.1400132528976
 30
0.0
 11
426.8796938727895
 21
297.6400132517466
 31
0.0
  0
LINE
  5
407
330
1F
100
AcDbEntity
  8
LAYER-033
  6
Continuous
 62
     4
100
AcDbLine
 10
454.3390791008272
 20
270.1806280237089
 30
0.0
 11
461.516750087166
 21
263.0029570373701
 31
0.0
  0
LINE
  5
408
330
1F
100
AcDbEntity
  8
LAYER-033
  6
Continuous
 62
     4
100
AcDbLine
 10
422.3294413399444
 20
307.1400132528976
 30
0.0
 11
431.8294413410954
 21
297.6400132517466
 31
0.0
  0
LINE
  5
409
330
1F
100
AcDbEntity
  8
LAYER-033
  6
Continuous
 62
     4
100
AcDbLine
 10
455.3350000191009
 20
274.1344545737411
 30
0.0
 11
463.068522427543
 21
266.400932165299
 31
0.0
  0
LINE
  5
40A
330
1F
100
AcDbEntity
  8
LAYER-033
  6
Continuous
 62
     4
100
AcDbLine
 10
427.2791888082503
 20
307.1400132528976
 30
0.0
 11
436.8585443476316
 21
297.5606577135163
 31
0.0
  0
LINE
  5
40B
330
1F
100
AcDbEntity
  8
LAYER-033
  6
Continuous
 62
     4
100
AcDbLine
 10
455.4771677867727
 20
278.9420342743752
 30
0.0
 11
464.2382257904714
 21
270.1809762706765
 31
0.0
  0
LINE
  5
40C
330
1F
100
AcDbEntity
  8
LAYER-033
  6
Continuous
 62
     4
100
AcDbLine
 10
432.2289362765562
 20
307.1400132528976
 30
0.0
 11
443.5890189289436
 21
295.7799306005102
 31
0.0
  0
LINE
  5
40D
330
1F
100
AcDbEntity
  8
LAYER-033
  6
Continuous
 62
     4
100
AcDbLine
 10
453.6964406737666
 20
285.6725088556872
 30
0.0
 11
464.9342911227178
 21
274.4346584067359
 31
0.0
  0
LINE
  5
40E
330
1F
100
AcDbEntity
  8
LAYER-033
  6
Continuous
 62
     4
100
AcDbLine
 10
437.2596924090543
 20
307.0590045887053
 30
0.0
 11
464.9755138812648
 21
279.3431831164947
 31
0.0
  0
LINE
  5
40F
330
1F
100
AcDbEntity
  8
LAYER-033
  6
Continuous
 62
     4
100
AcDbLine
 10
443.2765475981848
 20
305.9918968678807
 30
0.0
 11
463.9084061604401
 21
285.3600383056254
 31
0.0
  0
LINE
  5
410
330
1F
100
AcDbEntity
  8
LAYER-033
  6
Continuous
 62
     4
100
AcDbLine
 10
453.1441496459313
 20
301.0740422884401
 30
0.0
 11
458.9905515809995
 21
295.2276403533718
 31
0.0
  0
TEXT
  5
411
330
1F
100
AcDbEntity
  8
LAYER-033
  6
Continuous
 62
     7
100
AcDbText
 10
-78.59006319201528
 20
-233.7017527596956
 30
0.0
 40
4.0
  1
２００／２２０Ｖ　５０／６０Ｈｚ　４５～５５ｋＷ
  7
STRING_H
 11
-78.59006319201528
 21
-231.7017527596956
 31
0.0
100
AcDbText
 73
     2
  0
TEXT
  5
412
330
1F
100
AcDbEntity
  8
LAYER-033
  6
Continuous
 62
     7
100
AcDbText
 10
-78.59006319201528
 20
-241.7872028606628
 30
0.0
 40
4.0
  1
質　　量　　７５㎏
  7
STRING_H
 11
-78.59006319201528
 21
-239.7872028606628
 31
0.0
100
AcDbText
 73
     2
  0
TEXT
  5
413
330
1F
100
AcDbEntity
  8
LAYER-033
  6
Continuous
 62
     7
100
AcDbText
 10
-78.59006319201528
 20
-225.6163026583913
 30
0.0
 40
4.0
  1
ＫＲ－１Ｐ(低　圧)
  7
STRING_H
 11
-78.59006319201528
 21
-223.6163026583913
 31
0.0
100
AcDbText
 73
     2
  0
DIMENSION
  5
423
330
1F
100
AcDbEntity
  8
LAYER-035
  6
Continuous
 62
     5
100
AcDbDimension
  2
*D02
 10
-460.6619984545463
 20
-80.06241353543527
 30
0.0
 11
-260.6619984545463
 21
-80.06241353543527
 31
0.0
 70
   129
  1
<>
 71
     0
 42
0.0
  3
DIO_DIMSTYLE
100
AcDbAlignedDimension
 13
-60.66199845454634
 23
-16.67217274825077
 33
0.0
 14
-460.6619984545463
 24
-16.67217274825077
 34
0.0
1001
ACAD
1000
DSTYLE
1002
{
1070
    41
1040
4.0
1070
    44
1040
1.0
1070
    42
1040
1.0
1070
     6
1000
_OPEN
1070
     7
1000
_OPEN
1070
   173
1070
     1
1070
   140
1040
4.0
1070
   178
1070
     5
1070
   147
1040
0.5
1002
}
  0
DIMENSION
  5
42D
330
1F
100
AcDbEntity
  8
LAYER-035
  6
Continuous
 62
     5
100
AcDbDimension
  2
*D13
 10
-420.6619984545463
 20
-59.10867474825123
 30
0.0
 11
-260.6619984545463
 21
-59.10867474825123
 31
0.0
 70
   129
  1
<>
 71
     0
 42
0.0
  3
DIO_DIMSTYLE
100
AcDbAlignedDimension
 13
-100.6619984545463
 23
-29.10867474825123
 33
0.0
 14
-420.6619984545463
 24
-29.10867474825123
 34
0.0
1001
ACAD
1000
DSTYLE
1002
{
1070
    41
1040
4.0
1070
    44
1040
1.0
1070
    42
1040
1.0
1070
     6
1000
_OPEN
1070
     7
1000
_OPEN
1070
   173
1070
     1
1070
   140
1040
4.0
1070
   178
1070
     5
1070
   147
1040
0.5
1002
}
  0
DIMENSION
  5
437
330
1F
100
AcDbEntity
  8
LAYER-035
  6
Continuous
 62
     5
100
AcDbDimension
  2
*D24
 10
-502.3006860758392
 20
-16.67217274825077
 30
0.0
 11
-502.3006860758392
 21
148.3278272517492
 31
0.0
 70
   128
  1
<>
 71
     0
 42
0.0
  3
DIO_DIMSTYLE
100
AcDbAlignedDimension
 13
-407.1619984545427
 23
313.3278272517492
 33
0.0
 14
-460.6619984545463
 24
-16.67217274825077
 34
0.0
 50
90.0
100
AcDbRotatedDimension
1001
ACAD
1000
DSTYLE
1002
{
1070
    41
1040
4.0
1070
    44
1040
1.0
1070
    42
1040
1.0
1070
     6
1000
_OPEN
1070
     7
1000
_OPEN
1070
   173
1070
     1
1070
   140
1040
4.0
1070
   178
1070
     5
1070
   147
1040
0.5
1002
}
  0
DIMENSION
  5
441
330
1F
100
AcDbEntity
  8
LAYER-035
  6
Continuous
 62
     5
100
AcDbDimension
  2
*D35
 10
400.0270855454543
 20
-59.10867474825123
 30
0.0
 11
295.0270855454543
 21
-59.10867474825123
 31
0.0
 70
   128
  1
<>
 71
     0
 42
0.0
  3
DIO_DIMSTYLE
100
AcDbAlignedDimension
 13
190.0270855454542
 23
-29.10867474824932
 33
0.0
 14
400.0270855454543
 24
-29.10867474825123
 34
0.0
 50
180.0
100
AcDbRotatedDimension
1001
ACAD
1000
DSTYLE
1002
{
1070
    41
1040
4.0
1070
    44
1040
1.0
1070
    42
1040
1.0
1070
     6
1000
_OPEN
1070
     7
1000
_OPEN
1070
   173
1070
     1
1070
   140
1040
4.0
1070
   178
1070
     5
1070
   147
1040
0.5
1002
}
  0
DIMENSION
  5
44B
330
1F
100
AcDbEntity
  8
LAYER-035
  6
Continuous
 62
     5
100
AcDbDimension
  2
*D46
 10
170.0270855454502
 20
-80.06241353543527
 30
0.0
 11
295.0270855454502
 21
-80.06241353543527
 31
0.0
 70
   128
  1
<>
 71
     0
 42
0.0
  3
DIO_DIMSTYLE
100
AcDbAlignedDimension
 13
420.0270855454543
 23
-16.67217274825077
 33
0.0
 14
170.0270855454542
 24
-16.67217274825077
 34
0.0
100
AcDbRotatedDimension
1001
ACAD
1000
DSTYLE
1002
{
1070
    41
1040
4.0
1070
    44
1040
1.0
1070
    42
1040
1.0
1070
     6
1000
_OPEN
1070
     7
1000
_OPEN
1070
   173
1070
     1
1070
   140
1040
4.0
1070
   178
1070
     5
1070
   147
1040
0.5
1002
}
  0
DIMENSION
  5
455
330
1F
100
AcDbEntity
  8
LAYER-035
  6
Continuous
 62
     5
100
AcDbDimension
  2
*D57
 10
175.0270855454543
 20
74.82387158296248
 30
0.0
 11
276.2989078343366
 21
74.82387158296248
 31
0.0
 70
   129
  1
<>
 71
     0
 42
0.0
  3
DIO_DIMSTYLE
100
AcDbAlignedDimension
 13
415.0270855454543
 23
168.3278272517492
 33
0.0
 14
175.0270855454543
 24
168.3278272517492
 34
0.0
1001
ACAD
1000
DSTYLE
1002
{
1070
    41
1040
4.0
1070
    44
1040
1.0
1070
    42
1040
1.0
1070
     6
1000
_OPEN
1070
     7
1000
_OPEN
1070
   173
1070
     1
1070
   140
1040
4.0
1070
   178
1070
     5
1070
   147
1040
0.5
1002
}
  0
DIMENSION
  5
45F
330
1F
100
AcDbEntity
  8
LAYER-035
  6
Continuous
 62
     5
100
AcDbDimension
  2
*D68
 10
415.0270855454542
 20
131.7288620218542
 30
0.0
 11
440.0418040454557
 21
131.7288620218542
 31
0.0
 70
   128
  1
(<>)
 71
     0
 42
0.0
  3
DIO_DIMSTYLE
100
AcDbAlignedDimension
 13
465.0565225454571
 23
277.1400132528976
 33
0.0
 14
415.0270855454542
 24
168.3278272517492
 34
0.0
100
AcDbRotatedDimension
1001
ACAD
1000
DSTYLE
1002
{
1070
    41
1040
4.0
1070
    44
1040
1.0
1070
    42
1040
1.0
1070
     6
1000
_OPEN
1070
     7
1000
_OPEN
1070
   173
1070
     1
1070
   140
1040
4.0
1070
   178
1070
     5
1070
   147
1040
0.5
1002
}
  0
ENDSEC
  0
SECTION
  2
OBJECTS
  0
DICTIONARY
  5
C
330
0
100
AcDbDictionary
281
     1
  3
ACAD_GROUP
350
D
  3
ACAD_LAYOUT
350
1A
  3
ACAD_MLINESTYLE
350
17
  3
ACAD_PLOTSETTINGS
350
19
  3
ACAD_PLOTSTYLENAME
350
E
  0
DICTIONARY
  5
D
102
{ACAD_REACTORS
330
C
102
}
330
C
100
AcDbDictionary
281
     1
  0
DICTIONARY
  5
1A
102
{ACAD_REACTORS
330
C
102
}
330
C
100
AcDbDictionary
281
     1
  3
Model
350
22
  3
ﾚｲｱｳﾄ1
350
1E
  3
ﾚｲｱｳﾄ2
350
26
  0
DICTIONARY
  5
17
102
{ACAD_REACTORS
330
C
102
}
330
C
100
AcDbDictionary
281
     1
  3
Standard
350
18
  0
DICTIONARY
  5
19
102
{ACAD_REACTORS
330
C
102
}
330
C
100
AcDbDictionary
281
     1
  0
ACDBDICTIONARYWDFLT
  5
E
102
{ACAD_REACTORS
330
C
102
}
330
C
100
AcDbDictionary
281
     1
  3
Normal
350
F
100
AcDbDictionaryWithDefault
340
F
  0
LAYOUT
  5
22
102
{ACAD_REACTORS
330
1A
102
}
330
1A
100
AcDbPlotSettings
  1

  2
DWF ePlot.pc3
  4
ANSI_A_(8.50_x_11.00_Inches)
  6

 40
5.793749809265137
 41
17.79375076293945
 42
5.793746948242188
 43
17.79376220703125
 44
215.8999938964844
 45
279.3999938964844
 46
0.0
 47
0.0
 48
0.0
 49
0.0
140
0.0
141
0.0
142
1.0
143
39.26051453979704
 70
 11952
 72
     0
 73
     1
 74
     0
  7
acad.ctb
 75
     0
147
0.0254708837039396
148
-1793.922354682663
149
1.490346453088415
100
AcDbLayout
  1
Model
 70
     1
 71
     0
 10
-594.5
 20
-420.5
 11
594.5
 21
420.5
 12
0.0
 22
0.0
 32
0.0
 14
-594.5
 24
-420.5
 34
0.0
 15
594.5
 25
420.5
 35
0.0
146
0.0
 13
0.0
 23
0.0
 33
0.0
 16
1.0
 26
0.0
 36
0.0
 17
0.0
 27
1.0
 37
0.0
 76
     0
330
1F
  0
LAYOUT
  5
1E
102
{ACAD_REACTORS
330
1A
102
}
330
1A
100
AcDbPlotSettings
  1

  2
RICOH IPSiO NX700
  4

  6

 40
0.0
 41
0.0
 42
0.0
 43
0.0
 44
0.0
 45
0.0
 46
0.0
 47
0.0
 48
0.0
 49
0.0
140
0.0
141
0.0
142
1.0
143
1.0
 70
   688
 72
     0
 73
     0
 74
     5
  7
acad.ctb
 75
    16
147
1.0
148
0.0
149
0.0
100
AcDbLayout
  1
ﾚｲｱｳﾄ1
 70
     1
 71
     1
 10
-594.5
 20
-420.5
 11
594.5
 21
420.5
 12
0.0
 22
0.0
 32
0.0
 14
-594.5
 24
-420.5
 34
0.0
 15
594.5
 25
420.5
 35
0.0
146
0.0
 13
0.0
 23
0.0
 33
0.0
 16
1.0
 26
0.0
 36
0.0
 17
0.0
 27
1.0
 37
0.0
 76
     0
330
1B
  0
LAYOUT
  5
26
102
{ACAD_REACTORS
330
1A
102
}
330
1A
100
AcDbPlotSettings
  1

  2
RICOH IPSiO NX700
  4

  6

 40
0.0
 41
0.0
 42
0.0
 43
0.0
 44
0.0
 45
0.0
 46
0.0
 47
0.0
 48
0.0
 49
0.0
140
0.0
141
0.0
142
1.0
143
1.0
 70
   688
 72
     0
 73
     0
 74
     5
  7
acad.ctb
 75
    16
147
1.0
148
0.0
149
0.0
100
AcDbLayout
  1
ﾚｲｱｳﾄ2
 70
     1
 71
     2
 10
0.0
 20
0.0
 11
12.0
 21
9.0
 12
0.0
 22
0.0
 32
0.0
 14
0.0
 24
0.0
 34
0.0
 15
0.0
 25
0.0
 35
0.0
146
0.0
 13
0.0
 23
0.0
 33
0.0
 16
1.0
 26
0.0
 36
0.0
 17
0.0
 27
1.0
 37
0.0
 76
     0
330
23
  0
MLINESTYLE
  5
18
102
{ACAD_REACTORS
330
17
102
}
330
17
100
AcDbMlineStyle
  2
STANDARD
 70
     0
  3

 62
   256
 51
90.0
 52
90.0
 71
     2
 49
0.5
 62
   256
  6
BYLAYER
 49
-0.5
 62
   256
  6
BYLAYER
  0
ACDBPLACEHOLDER
  5
F
102
{ACAD_REACTORS
330
E
102
}
330
E
  0
ENDSEC
  0
EOF
