  0
SECTION
  2
HEADER
  9
$ACADVER
  1
AC1015
  9
$ACADMAINTVER
 70
     6
  9
$DWGCODEPAGE
  3
ANSI_932
  9
$INSBASE
 10
0.0
 20
0.0
 30
0.0
  9
$EXTMIN
 10
-594.5
 20
-420.5
 30
0.0
  9
$EXTMAX
 10
594.5
 20
420.5
 30
0.0
  9
$LIMMIN
 10
-594.5
 20
-420.5
  9
$LIMMAX
 10
594.5
 20
420.5
  9
$ORTHOMODE
 70
     0
  9
$REGENMODE
 70
     1
  9
$FILLMODE
 70
     1
  9
$QTEXTMODE
 70
     0
  9
$MIRRTEXT
 70
     1
  9
$LTSCALE
 40
4.0
  9
$ATTMODE
 70
     1
  9
$TEXTSIZE
 40
2.5
  9
$TRACEWID
 40
1.0
  9
$TEXTSTYLE
  7
Standard
  9
$CLAYER
  8
0
  9
$CELTYPE
  6
ByLayer
  9
$CECOLOR
 62
   256
  9
$CELTSCALE
 40
1.0
  9
$DISPSILH
 70
     0
  9
$DIMSCALE
 40
1.0
  9
$DIMASZ
 40
4.0
  9
$DIMEXO
 40
1.0
  9
$DIMDLI
 40
3.75
  9
$DIMRND
 40
0.1
  9
$DIMDLE
 40
0.0
  9
$DIMEXE
 40
1.0
  9
$DIMTP
 40
0.0
  9
$DIMTM
 40
0.0
  9
$DIMTXT
 40
2.5
  9
$DIMCEN
 40
2.5
  9
$DIMTSZ
 40
0.0
  9
$DIMTOL
 70
     0
  9
$DIMLIM
 70
     0
  9
$DIMTIH
 70
     0
  9
$DIMTOH
 70
     0
  9
$DIMSE1
 70
     0
  9
$DIMSE2
 70
     0
  9
$DIMTAD
 70
     1
  9
$DIMZIN
 70
     8
  9
$DIMBLK
  1

  9
$DIMASO
 70
     1
  9
$DIMSHO
 70
     1
  9
$DIMPOST
  1

  9
$DIMAPOST
  1

  9
$DIMALT
 70
     0
  9
$DIMALTD
 70
     3
  9
$DIMALTF
 40
0.03937007874016
  9
$DIMLFAC
 40
1.0
  9
$DIMTOFL
 70
     1
  9
$DIMTVP
 40
0.0
  9
$DIMTIX
 70
     0
  9
$DIMSOXD
 70
     0
  9
$DIMSAH
 70
     1
  9
$DIMBLK1
  1

  9
$DIMBLK2
  1

  9
$DIMSTYLE
  2
ISO-25
  9
$DIMCLRD
 70
     0
  9
$DIMCLRE
 70
     0
  9
$DIMCLRT
 70
     0
  9
$DIMTFAC
 40
1.0
  9
$DIMGAP
 40
0.5
  9
$DIMJUST
 70
     0
  9
$DIMSD1
 70
     0
  9
$DIMSD2
 70
     0
  9
$DIMTOLJ
 70
     0
  9
$DIMTZIN
 70
     8
  9
$DIMALTZ
 70
     0
  9
$DIMALTTZ
 70
     0
  9
$DIMUPT
 70
     1
  9
$DIMDEC
 70
     1
  9
$DIMTDEC
 70
     2
  9
$DIMALTU
 70
     2
  9
$DIMALTTD
 70
     3
  9
$DIMTXSTY
  7
Standard
  9
$DIMAUNIT
 70
     0
  9
$DIMADEC
 70
     1
  9
$DIMALTRND
 40
0.0
  9
$DIMAZIN
 70
     2
  9
$DIMDSEP
 70
    46
  9
$DIMATFIT
 70
     0
  9
$DIMFRAC
 70
     0
  9
$DIMLDRBLK
  1

  9
$DIMLUNIT
 70
     2
  9
$DIMLWD
 70
    -2
  9
$DIMLWE
 70
    -2
  9
$DIMTMOVE
 70
     0
  9
$LUNITS
 70
     2
  9
$LUPREC
 70
     4
  9
$SKETCHINC
 40
1.0
  9
$FILLETRAD
 40
10.0
  9
$AUNITS
 70
     0
  9
$AUPREC
 70
     0
  9
$MENU
  1
.
  9
$ELEVATION
 40
0.0
  9
$PELEVATION
 40
0.0
  9
$THICKNESS
 40
0.0
  9
$LIMCHECK
 70
     0
  9
$CHAMFERA
 40
10.0
  9
$CHAMFERB
 40
10.0
  9
$CHAMFERC
 40
20.0
  9
$CHAMFERD
 40
0.0
  9
$SKPOLY
 70
     0
  9
$TDCREATE
 40
2455091.0
  9
$TDUCREATE
 40
2451562.87528772
  9
$TDUPDATE
 40
2455111.0
  9
$TDUUPDATE
 40
2452026.917654526
  9
$TDINDWG
 40
0.0010008681
  9
$TDUSRTIMER
 40
0.0009680671
  9
$USRTIMER
 70
     1
  9
$ANGBASE
 50
0.0
  9
$ANGDIR
 70
     0
  9
$PDMODE
 70
     0
  9
$PDSIZE
 40
0.0
  9
$PLINEWID
 40
0.0
  9
$SPLFRAME
 70
     0
  9
$SPLINETYPE
 70
     6
  9
$SPLINESEGS
 70
     8
  9
$HANDSEED
  5
48F
  9
$SURFTAB1
 70
     6
  9
$SURFTAB2
 70
     6
  9
$SURFTYPE
 70
     6
  9
$SURFU
 70
     6
  9
$SURFV
 70
     6
  9
$UCSBASE
  2

  9
$UCSNAME
  2

  9
$UCSORG
 10
0.0
 20
0.0
 30
0.0
  9
$UCSXDIR
 10
1.0
 20
0.0
 30
0.0
  9
$UCSYDIR
 10
0.0
 20
1.0
 30
0.0
  9
$UCSORTHOREF
  2

  9
$UCSORTHOVIEW
 70
     0
  9
$UCSORGTOP
 10
0.0
 20
0.0
 30
0.0
  9
$UCSORGBOTTOM
 10
0.0
 20
0.0
 30
0.0
  9
$UCSORGLEFT
 10
0.0
 20
0.0
 30
0.0
  9
$UCSORGRIGHT
 10
0.0
 20
0.0
 30
0.0
  9
$UCSORGFRONT
 10
0.0
 20
0.0
 30
0.0
  9
$UCSORGBACK
 10
0.0
 20
0.0
 30
0.0
  9
$PUCSBASE
  2

  9
$PUCSNAME
  2

  9
$PUCSORG
 10
0.0
 20
0.0
 30
0.0
  9
$PUCSXDIR
 10
1.0
 20
0.0
 30
0.0
  9
$PUCSYDIR
 10
0.0
 20
1.0
 30
0.0
  9
$PUCSORTHOREF
  2

  9
$PUCSORTHOVIEW
 70
     0
  9
$PUCSORGTOP
 10
0.0
 20
0.0
 30
0.0
  9
$PUCSORGBOTTOM
 10
0.0
 20
0.0
 30
0.0
  9
$PUCSORGLEFT
 10
0.0
 20
0.0
 30
0.0
  9
$PUCSORGRIGHT
 10
0.0
 20
0.0
 30
0.0
  9
$PUCSORGFRONT
 10
0.0
 20
0.0
 30
0.0
  9
$PUCSORGBACK
 10
0.0
 20
0.0
 30
0.0
  9
$USERI1
 70
     0
  9
$USERI2
 70
     0
  9
$USERI3
 70
     0
  9
$USERI4
 70
     0
  9
$USERI5
 70
     0
  9
$USERR1
 40
0.0
  9
$USERR2
 40
0.0
  9
$USERR3
 40
0.0
  9
$USERR4
 40
0.0
  9
$USERR5
 40
0.0
  9
$WORLDVIEW
 70
     1
  9
$SHADEDGE
 70
     3
  9
$SHADEDIF
 70
    70
  9
$TILEMODE
 70
     1
  9
$MAXACTVP
 70
    64
  9
$PINSBASE
 10
0.0
 20
0.0
 30
0.0
  9
$PLIMCHECK
 70
     0
  9
$PEXTMIN
 10
-594.5
 20
-420.5
 30
0.0
  9
$PEXTMAX
 10
594.5
 20
420.5
 30
0.0
  9
$PLIMMIN
 10
-594.5
 20
-420.5
  9
$PLIMMAX
 10
594.5
 20
420.5
  9
$UNITMODE
 70
     0
  9
$VISRETAIN
 70
     1
  9
$PLINEGEN
 70
     0
  9
$PSLTSCALE
 70
     1
  9
$TREEDEPTH
 70
  3020
  9
$CMLSTYLE
  2
Standard
  9
$CMLJUST
 70
     0
  9
$CMLSCALE
 40
20.0
  9
$PROXYGRAPHICS
 70
     1
  9
$MEASUREMENT
 70
     1
  9
$CELWEIGHT
370
    -1
  9
$ENDCAPS
280
     0
  9
$JOINSTYLE
280
     0
  9
$LWDISPLAY
290
     0
  9
$INSUNITS
 70
     4
  9
$HYPERLINKBASE
  1

  9
$STYLESHEET
  1

  9
$XEDIT
290
     1
  9
$CEPSNTYPE
380
     0
  9
$PSTYLEMODE
290
     1
  9
$FINGERPRINTGUID
  2
{B6423330-CE35-11D3-AA43-00E0292263AD}
  9
$VERSIONGUID
  2
{EAA0F794-BAE8-4B09-85E0-65C527BE2B8E}
  9
$EXTNAMES
290
     1
  9
$PSVPSCALE
 40
0.0
  9
$OLESTARTUP
290
     0
  0
ENDSEC
  0
SECTION
  2
CLASSES
  0
CLASS
  1
ACDBDICTIONARYWDFLT
  2
AcDbDictionaryWithDefault
  3
ObjectDBX Classes
 90
        0
280
     0
281
     0
  0
CLASS
  1
ACDBPLACEHOLDER
  2
AcDbPlaceHolder
  3
ObjectDBX Classes
 90
        0
280
     0
281
     0
  0
CLASS
  1
LAYOUT
  2
AcDbLayout
  3
ObjectDBX Classes
 90
        0
280
     0
281
     0
  0
ENDSEC
  0
SECTION
  2
TABLES
  0
TABLE
  2
VPORT
  5
8
330
0
100
AcDbSymbolTable
 70
     3
  0
VPORT
  5
30
330
8
100
AcDbSymbolTableRecord
100
AcDbViewportTableRecord
  2
*Active
 70
     0
 10
0.0
 20
0.0
 11
1.0
 21
1.0
 12
259.0560661764706
 22
148.5
 13
0.0
 23
0.0
 14
10.0
 24
10.0
 15
10.0
 25
10.0
 16
0.0
 26
0.0
 36
1.0
 17
0.0
 27
0.0
 37
0.0
 40
297.1173501144164
 41
1.268382352941176
 42
50.0
 43
0.0
 44
0.0
 50
0.0
 51
0.0
 71
     0
 72
   100
 73
     1
 74
     3
 75
     0
 76
     0
 77
     0
 78
     0
281
     0
 65
     1
110
0.0
120
0.0
130
0.0
111
1.0
121
0.0
131
0.0
112
0.0
122
1.0
132
0.0
 79
     0
146
0.0
  0
ENDTAB
  0
TABLE
  2
LTYPE
  5
5
330
0
100
AcDbSymbolTable
 70
    26
  0
LTYPE
  5
14
330
5
100
AcDbSymbolTableRecord
100
AcDbLinetypeTableRecord
  2
ByBlock
 70
     0
  3

 72
    65
 73
     0
 40
0.0
  0
LTYPE
  5
15
330
5
100
AcDbSymbolTableRecord
100
AcDbLinetypeTableRecord
  2
ByLayer
 70
     0
  3

 72
    65
 73
     0
 40
0.0
  0
LTYPE
  5
16
330
5
100
AcDbSymbolTableRecord
100
AcDbLinetypeTableRecord
  2
Continuous
 70
     0
  3
Solid line
 72
    65
 73
     0
 40
0.0
  0
LTYPE
  5
37
330
5
100
AcDbSymbolTableRecord
100
AcDbLinetypeTableRecord
  2
BORDER
 70
     0
  3
 __ __ . __ __ . __ __ . __ __ . __ __ . __ __
 72
    65
 73
     6
 40
1.75
 49
0.5
 74
     0
 49
-0.25
 74
     0
 49
0.5
 74
     0
 49
-0.25
 74
     0
 49
0.0
 74
     0
 49
-0.25
 74
     0
  0
LTYPE
  5
38
330
5
100
AcDbSymbolTableRecord
100
AcDbLinetypeTableRecord
  2
BORDER2
 70
     0
  3
__.__.__.__.__.__.__.__.__.__.__.__.__.__.__
 72
    65
 73
     6
 40
0.875
 49
0.25
 74
     0
 49
-0.125
 74
     0
 49
0.25
 74
     0
 49
-0.125
 74
     0
 49
0.0
 74
     0
 49
-0.125
 74
     0
  0
LTYPE
  5
39
330
5
100
AcDbSymbolTableRecord
100
AcDbLinetypeTableRecord
  2
BORDERX2
 70
     0
  3
____  ____  .  ____  ____  .  ____  ____  .
 72
    65
 73
     6
 40
3.5
 49
1.0
 74
     0
 49
-0.5
 74
     0
 49
1.0
 74
     0
 49
-0.5
 74
     0
 49
0.0
 74
     0
 49
-0.5
 74
     0
  0
LTYPE
  5
3A
330
5
100
AcDbSymbolTableRecord
100
AcDbLinetypeTableRecord
  2
CENTER
 70
     0
  3
____ _ ____ _ ____ _ ____ _ ____ _ ____ _ ____
 72
    65
 73
     4
 40
2.0
 49
1.25
 74
     0
 49
-0.25
 74
     0
 49
0.25
 74
     0
 49
-0.25
 74
     0
  0
LTYPE
  5
3B
330
5
100
AcDbSymbolTableRecord
100
AcDbLinetypeTableRecord
  2
CENTER2
 70
     0
  3
___ _ ___ _ ___ _ ___ _ ___ _ ___ _ ___ _ ___ 
 72
    65
 73
     4
 40
1.125
 49
0.75
 74
     0
 49
-0.125
 74
     0
 49
0.125
 74
     0
 49
-0.125
 74
     0
  0
LTYPE
  5
3C
330
5
100
AcDbSymbolTableRecord
100
AcDbLinetypeTableRecord
  2
CENTERX2
 70
     0
  3
________  __  ________  __  ________  __
 72
    65
 73
     4
 40
4.0
 49
2.5
 74
     0
 49
-0.5
 74
     0
 49
0.5
 74
     0
 49
-0.5
 74
     0
  0
LTYPE
  5
3D
330
5
100
AcDbSymbolTableRecord
100
AcDbLinetypeTableRecord
  2
DASHDOT
 70
     0
  3
__ . __ . __ . __ . __ . __ . __ . __ . __ .
 72
    65
 73
     4
 40
1.0
 49
0.5
 74
     0
 49
-0.25
 74
     0
 49
0.0
 74
     0
 49
-0.25
 74
     0
  0
LTYPE
  5
3E
330
5
100
AcDbSymbolTableRecord
100
AcDbLinetypeTableRecord
  2
DASHDOT2
 70
     0
  3
_._._._._._._._._._._._._._._._._._._._._._._.
 72
    65
 73
     4
 40
0.5
 49
0.25
 74
     0
 49
-0.125
 74
     0
 49
0.0
 74
     0
 49
-0.125
 74
     0
  0
LTYPE
  5
3F
330
5
100
AcDbSymbolTableRecord
100
AcDbLinetypeTableRecord
  2
DASHDOTX2
 70
     0
  3
____  .  ____  .  ____  .  ____  .  ____  .
 72
    65
 73
     4
 40
2.0
 49
1.0
 74
     0
 49
-0.5
 74
     0
 49
0.0
 74
     0
 49
-0.5
 74
     0
  0
LTYPE
  5
40
330
5
100
AcDbSymbolTableRecord
100
AcDbLinetypeTableRecord
  2
DASHED
 70
     0
  3
__ __ __ __ __ __ __ __ __ __ __ __ __ __ __
 72
    65
 73
     2
 40
0.75
 49
0.5
 74
     0
 49
-0.25
 74
     0
  0
LTYPE
  5
41
330
5
100
AcDbSymbolTableRecord
100
AcDbLinetypeTableRecord
  2
DASHED2
 70
     0
  3
_ _ _ _ _ _ _ _ _ _ _ _ _ _ _ _ _ _ _ _ _ _ _
 72
    65
 73
     2
 40
0.375
 49
0.25
 74
     0
 49
-0.125
 74
     0
  0
LTYPE
  5
42
330
5
100
AcDbSymbolTableRecord
100
AcDbLinetypeTableRecord
  2
DASHEDX2
 70
     0
  3
____  ____  ____  ____  ____  ____  ____  ____
 72
    65
 73
     2
 40
1.5
 49
1.0
 74
     0
 49
-0.5
 74
     0
  0
LTYPE
  5
43
330
5
100
AcDbSymbolTableRecord
100
AcDbLinetypeTableRecord
  2
DIVIDE
 70
     0
  3
____ . . ____ . . ____ . . ____ . . ____ . .
 72
    65
 73
     6
 40
1.25
 49
0.5
 74
     0
 49
-0.25
 74
     0
 49
0.0
 74
     0
 49
-0.25
 74
     0
 49
0.0
 74
     0
 49
-0.25
 74
     0
  0
LTYPE
  5
44
330
5
100
AcDbSymbolTableRecord
100
AcDbLinetypeTableRecord
  2
DIVIDE2
 70
     0
  3
__..__..__..__..__..__..__..__..__..__..__..__
 72
    65
 73
     6
 40
0.625
 49
0.25
 74
     0
 49
-0.125
 74
     0
 49
0.0
 74
     0
 49
-0.125
 74
     0
 49
0.0
 74
     0
 49
-0.125
 74
     0
  0
LTYPE
  5
45
330
5
100
AcDbSymbolTableRecord
100
AcDbLinetypeTableRecord
  2
DIVIDEX2
 70
     0
  3
________  .  .  ________  .  .  ________  .  .
 72
    65
 73
     6
 40
2.5
 49
1.0
 74
     0
 49
-0.5
 74
     0
 49
0.0
 74
     0
 49
-0.5
 74
     0
 49
0.0
 74
     0
 49
-0.5
 74
     0
  0
LTYPE
  5
46
330
5
100
AcDbSymbolTableRecord
100
AcDbLinetypeTableRecord
  2
DOT
 70
     0
  3
. . . . . . . . . . . . . . . . . . . . . . .
 72
    65
 73
     2
 40
0.25
 49
0.0
 74
     0
 49
-0.25
 74
     0
  0
LTYPE
  5
47
330
5
100
AcDbSymbolTableRecord
100
AcDbLinetypeTableRecord
  2
DOT2
 70
     0
  3
..............................................
 72
    65
 73
     2
 40
0.125
 49
0.0
 74
     0
 49
-0.125
 74
     0
  0
LTYPE
  5
48
330
5
100
AcDbSymbolTableRecord
100
AcDbLinetypeTableRecord
  2
DOTX2
 70
     0
  3
.  .  .  .  .  .  .  .  .  .  .  .  .  .  .  .
 72
    65
 73
     2
 40
0.5
 49
0.0
 74
     0
 49
-0.5
 74
     0
  0
LTYPE
  5
49
330
5
100
AcDbSymbolTableRecord
100
AcDbLinetypeTableRecord
  2
HIDDEN
 70
     0
  3
__ __ __ __ __ __ __ __ __ __ __ __ __ __ __
 72
    65
 73
     2
 40
0.375
 49
0.25
 74
     0
 49
-0.125
 74
     0
  0
LTYPE
  5
4A
330
5
100
AcDbSymbolTableRecord
100
AcDbLinetypeTableRecord
  2
HIDDEN2
 70
     0
  3
_ _ _ _ _ _ _ _ _ _ _ _ _ _ _ _ _ _ _ _ _ _ _
 72
    65
 73
     2
 40
0.1875
 49
0.125
 74
     0
 49
-0.0625
 74
     0
  0
LTYPE
  5
4B
330
5
100
AcDbSymbolTableRecord
100
AcDbLinetypeTableRecord
  2
HIDDENX2
 70
     0
  3
____ ____ ____ ____ ____ ____ ____ ____ ____
 72
    65
 73
     2
 40
0.75
 49
0.5
 74
     0
 49
-0.25
 74
     0
  0
LTYPE
  5
4C
330
5
100
AcDbSymbolTableRecord
100
AcDbLinetypeTableRecord
  2
PHANTOM
 70
     0
  3
______  __  __  ______  __  __  ______  __
 72
    65
 73
     6
 40
2.5
 49
1.25
 74
     0
 49
-0.25
 74
     0
 49
0.25
 74
     0
 49
-0.25
 74
     0
 49
0.25
 74
     0
 49
-0.25
 74
     0
  0
LTYPE
  5
4D
330
5
100
AcDbSymbolTableRecord
100
AcDbLinetypeTableRecord
  2
PHANTOM2
 70
     0
  3
___ _ _ ___ _ _ ___ _ _ ___ _ _ ___ _ _ ___ _
 72
    65
 73
     6
 40
1.25
 49
0.625
 74
     0
 49
-0.125
 74
     0
 49
0.125
 74
     0
 49
-0.125
 74
     0
 49
0.125
 74
     0
 49
-0.125
 74
     0
  0
LTYPE
  5
4E
330
5
100
AcDbSymbolTableRecord
100
AcDbLinetypeTableRecord
  2
PHANTOMX2
 70
     0
  3
____________    ____    ____    ____________
 72
    65
 73
     6
 40
5.0
 49
2.5
 74
     0
 49
-0.5
 74
     0
 49
0.5
 74
     0
 49
-0.5
 74
     0
 49
0.5
 74
     0
 49
-0.5
 74
     0
  0
LTYPE
  5
4F
330
5
100
AcDbSymbolTableRecord
100
AcDbLinetypeTableRecord
  2
CONTINUOUS2
 70
     0
  3
Solid line
 72
    65
 73
     0
 40
0.0
  0
ENDTAB
  0
TABLE
  2
LAYER
  5
2
330
0
100
AcDbSymbolTable
 70
   514
  0
LAYER
  5
10
330
2
100
AcDbSymbolTableRecord
100
AcDbLayerTableRecord
  2
0
 70
     0
 62
     7
  6
Continuous
370
    -3
390
F
  0
LAYER
  5
50
330
2
100
AcDbSymbolTableRecord
100
AcDbLayerTableRecord
  2
LAYER-001
 70
     0
 62
     7
  6
Continuous
370
    -3
390
F
  0
LAYER
  5
51
330
2
100
AcDbSymbolTableRecord
100
AcDbLayerTableRecord
  2
LAYER-002
 70
     0
 62
     7
  6
Continuous
370
    -3
390
F
  0
LAYER
  5
52
330
2
100
AcDbSymbolTableRecord
100
AcDbLayerTableRecord
  2
LAYER-003
 70
     0
 62
     7
  6
Continuous
370
    -3
390
F
  0
LAYER
  5
53
330
2
100
AcDbSymbolTableRecord
100
AcDbLayerTableRecord
  2
LAYER-004
 70
     0
 62
     7
  6
Continuous
370
    -3
390
F
  0
LAYER
  5
54
330
2
100
AcDbSymbolTableRecord
100
AcDbLayerTableRecord
  2
LAYER-005
 70
     0
 62
     7
  6
Continuous
370
    -3
390
F
  0
LAYER
  5
55
330
2
100
AcDbSymbolTableRecord
100
AcDbLayerTableRecord
  2
LAYER-006
 70
     0
 62
     7
  6
Continuous
370
    -3
390
F
  0
LAYER
  5
56
330
2
100
AcDbSymbolTableRecord
100
AcDbLayerTableRecord
  2
LAYER-007
 70
     0
 62
     7
  6
Continuous
370
    -3
390
F
  0
LAYER
  5
57
330
2
100
AcDbSymbolTableRecord
100
AcDbLayerTableRecord
  2
LAYER-008
 70
     0
 62
     7
  6
Continuous
370
    -3
390
F
  0
LAYER
  5
58
330
2
100
AcDbSymbolTableRecord
100
AcDbLayerTableRecord
  2
LAYER-009
 70
     0
 62
     7
  6
Continuous
370
    -3
390
F
  0
LAYER
  5
59
330
2
100
AcDbSymbolTableRecord
100
AcDbLayerTableRecord
  2
LAYER-010
 70
     0
 62
     7
  6
Continuous
370
    -3
390
F
  0
LAYER
  5
5A
330
2
100
AcDbSymbolTableRecord
100
AcDbLayerTableRecord
  2
LAYER-011
 70
     0
 62
     7
  6
Continuous
370
    -3
390
F
  0
LAYER
  5
5B
330
2
100
AcDbSymbolTableRecord
100
AcDbLayerTableRecord
  2
LAYER-012
 70
     0
 62
     7
  6
Continuous
370
    -3
390
F
  0
LAYER
  5
5C
330
2
100
AcDbSymbolTableRecord
100
AcDbLayerTableRecord
  2
LAYER-013
 70
     0
 62
     7
  6
Continuous
370
    -3
390
F
  0
LAYER
  5
5D
330
2
100
AcDbSymbolTableRecord
100
AcDbLayerTableRecord
  2
LAYER-014
 70
     0
 62
     7
  6
Continuous
370
    -3
390
F
  0
LAYER
  5
5E
330
2
100
AcDbSymbolTableRecord
100
AcDbLayerTableRecord
  2
LAYER-015
 70
     0
 62
    -7
  6
Continuous
370
    -3
390
F
  0
LAYER
  5
5F
330
2
100
AcDbSymbolTableRecord
100
AcDbLayerTableRecord
  2
LAYER-016
 70
     0
 62
     4
  6
Continuous
370
    -3
390
F
  0
LAYER
  5
60
330
2
100
AcDbSymbolTableRecord
100
AcDbLayerTableRecord
  2
LAYER-017
 70
     0
 62
     7
  6
Continuous
370
    -3
390
F
  0
LAYER
  5
61
330
2
100
AcDbSymbolTableRecord
100
AcDbLayerTableRecord
  2
LAYER-018
 70
     0
 62
     2
  6
Continuous
370
    -3
390
F
  0
LAYER
  5
62
330
2
100
AcDbSymbolTableRecord
100
AcDbLayerTableRecord
  2
LAYER-019
 70
     0
 62
     3
  6
Continuous
370
    -3
390
F
  0
LAYER
  5
63
330
2
100
AcDbSymbolTableRecord
100
AcDbLayerTableRecord
  2
LAYER-020
 70
     0
 62
     2
  6
Continuous
370
    -3
390
F
  0
LAYER
  5
64
330
2
100
AcDbSymbolTableRecord
100
AcDbLayerTableRecord
  2
LAYER-021
 70
     0
 62
     7
  6
Continuous
370
    -3
390
F
  0
LAYER
  5
65
330
2
100
AcDbSymbolTableRecord
100
AcDbLayerTableRecord
  2
LAYER-022
 70
     0
 62
     4
  6
Continuous
370
    -3
390
F
  0
LAYER
  5
66
330
2
100
AcDbSymbolTableRecord
100
AcDbLayerTableRecord
  2
LAYER-023
 70
     0
 62
     4
  6
Continuous
370
    -3
390
F
  0
LAYER
  5
67
330
2
100
AcDbSymbolTableRecord
100
AcDbLayerTableRecord
  2
LAYER-024
 70
     0
 62
     7
  6
Continuous
370
    -3
390
F
  0
LAYER
  5
68
330
2
100
AcDbSymbolTableRecord
100
AcDbLayerTableRecord
  2
LAYER-025
 70
     0
 62
     7
  6
Continuous
370
    -3
390
F
  0
LAYER
  5
69
330
2
100
AcDbSymbolTableRecord
100
AcDbLayerTableRecord
  2
LAYER-026
 70
     0
 62
    -7
  6
Continuous
370
    -3
390
F
  0
LAYER
  5
6A
330
2
100
AcDbSymbolTableRecord
100
AcDbLayerTableRecord
  2
LAYER-027
 70
     0
 62
     7
  6
Continuous
370
    -3
390
F
  0
LAYER
  5
6B
330
2
100
AcDbSymbolTableRecord
100
AcDbLayerTableRecord
  2
LAYER-028
 70
     0
 62
     7
  6
Continuous
370
    -3
390
F
  0
LAYER
  5
6C
330
2
100
AcDbSymbolTableRecord
100
AcDbLayerTableRecord
  2
LAYER-029
 70
     0
 62
     7
  6
Continuous
370
    -3
390
F
  0
LAYER
  5
6D
330
2
100
AcDbSymbolTableRecord
100
AcDbLayerTableRecord
  2
LAYER-030
 70
     0
 62
     2
  6
Continuous
370
    -3
390
F
  0
LAYER
  5
6E
330
2
100
AcDbSymbolTableRecord
100
AcDbLayerTableRecord
  2
LAYER-031
 70
     0
 62
     7
  6
Continuous
370
    -3
390
F
  0
LAYER
  5
6F
330
2
100
AcDbSymbolTableRecord
100
AcDbLayerTableRecord
  2
LAYER-032
 70
     0
 62
     2
  6
Continuous
370
    -3
390
F
  0
LAYER
  5
70
330
2
100
AcDbSymbolTableRecord
100
AcDbLayerTableRecord
  2
LAYER-033
 70
     0
 62
     7
  6
Continuous
370
    -3
390
F
  0
LAYER
  5
71
330
2
100
AcDbSymbolTableRecord
100
AcDbLayerTableRecord
  2
LAYER-034
 70
     0
 62
     7
  6
Continuous
370
    -3
390
F
  0
LAYER
  5
72
330
2
100
AcDbSymbolTableRecord
100
AcDbLayerTableRecord
  2
LAYER-035
 70
     0
 62
     3
  6
Continuous
370
    -3
390
F
  0
LAYER
  5
73
330
2
100
AcDbSymbolTableRecord
100
AcDbLayerTableRecord
  2
LAYER-036
 70
     0
 62
     2
  6
Continuous
370
    -3
390
F
  0
LAYER
  5
74
330
2
100
AcDbSymbolTableRecord
100
AcDbLayerTableRecord
  2
LAYER-037
 70
     0
 62
     7
  6
Continuous
370
    -3
390
F
  0
LAYER
  5
75
330
2
100
AcDbSymbolTableRecord
100
AcDbLayerTableRecord
  2
LAYER-038
 70
     0
 62
     7
  6
Continuous
370
    -3
390
F
  0
LAYER
  5
76
330
2
100
AcDbSymbolTableRecord
100
AcDbLayerTableRecord
  2
LAYER-039
 70
     0
 62
     7
  6
Continuous
370
    -3
390
F
  0
LAYER
  5
77
330
2
100
AcDbSymbolTableRecord
100
AcDbLayerTableRecord
  2
LAYER-040
 70
     0
 62
     7
  6
Continuous
370
    -3
390
F
  0
LAYER
  5
78
330
2
100
AcDbSymbolTableRecord
100
AcDbLayerTableRecord
  2
LAYER-041
 70
     0
 62
     7
  6
Continuous
370
    -3
390
F
  0
LAYER
  5
79
330
2
100
AcDbSymbolTableRecord
100
AcDbLayerTableRecord
  2
LAYER-042
 70
     0
 62
     7
  6
Continuous
370
    -3
390
F
  0
LAYER
  5
7A
330
2
100
AcDbSymbolTableRecord
100
AcDbLayerTableRecord
  2
LAYER-043
 70
     0
 62
     7
  6
Continuous
370
    -3
390
F
  0
LAYER
  5
7B
330
2
100
AcDbSymbolTableRecord
100
AcDbLayerTableRecord
  2
LAYER-044
 70
     0
 62
     7
  6
Continuous
370
    -3
390
F
  0
LAYER
  5
7C
330
2
100
AcDbSymbolTableRecord
100
AcDbLayerTableRecord
  2
LAYER-045
 70
     0
 62
     7
  6
Continuous
370
    -3
390
F
  0
LAYER
  5
7D
330
2
100
AcDbSymbolTableRecord
100
AcDbLayerTableRecord
  2
LAYER-046
 70
     0
 62
     7
  6
Continuous
370
    -3
390
F
  0
LAYER
  5
7E
330
2
100
AcDbSymbolTableRecord
100
AcDbLayerTableRecord
  2
LAYER-047
 70
     0
 62
     7
  6
Continuous
370
    -3
390
F
  0
LAYER
  5
7F
330
2
100
AcDbSymbolTableRecord
100
AcDbLayerTableRecord
  2
LAYER-048
 70
     0
 62
     2
  6
Continuous
370
    -3
390
F
  0
LAYER
  5
80
330
2
100
AcDbSymbolTableRecord
100
AcDbLayerTableRecord
  2
LAYER-049
 70
     0
 62
     3
  6
Continuous
370
    -3
390
F
  0
LAYER
  5
81
330
2
100
AcDbSymbolTableRecord
100
AcDbLayerTableRecord
  2
LAYER-050
 70
     0
 62
     7
  6
Continuous
370
    -3
390
F
  0
LAYER
  5
82
330
2
100
AcDbSymbolTableRecord
100
AcDbLayerTableRecord
  2
LAYER-051
 70
     0
 62
     2
  6
Continuous
370
    -3
390
F
  0
LAYER
  5
83
330
2
100
AcDbSymbolTableRecord
100
AcDbLayerTableRecord
  2
LAYER-052
 70
     0
 62
     7
  6
Continuous
370
    -3
390
F
  0
LAYER
  5
84
330
2
100
AcDbSymbolTableRecord
100
AcDbLayerTableRecord
  2
LAYER-053
 70
     0
 62
     7
  6
Continuous
370
    -3
390
F
  0
LAYER
  5
85
330
2
100
AcDbSymbolTableRecord
100
AcDbLayerTableRecord
  2
LAYER-054
 70
     0
 62
     7
  6
Continuous
370
    -3
390
F
  0
LAYER
  5
86
330
2
100
AcDbSymbolTableRecord
100
AcDbLayerTableRecord
  2
LAYER-055
 70
     0
 62
     7
  6
Continuous
370
    -3
390
F
  0
LAYER
  5
87
330
2
100
AcDbSymbolTableRecord
100
AcDbLayerTableRecord
  2
LAYER-056
 70
     0
 62
     7
  6
Continuous
370
    -3
390
F
  0
LAYER
  5
88
330
2
100
AcDbSymbolTableRecord
100
AcDbLayerTableRecord
  2
LAYER-057
 70
     0
 62
     7
  6
Continuous
370
    -3
390
F
  0
LAYER
  5
89
330
2
100
AcDbSymbolTableRecord
100
AcDbLayerTableRecord
  2
LAYER-058
 70
     0
 62
     7
  6
Continuous
370
    -3
390
F
  0
LAYER
  5
8A
330
2
100
AcDbSymbolTableRecord
100
AcDbLayerTableRecord
  2
LAYER-059
 70
     0
 62
     7
  6
Continuous
370
    -3
390
F
  0
LAYER
  5
8B
330
2
100
AcDbSymbolTableRecord
100
AcDbLayerTableRecord
  2
LAYER-060
 70
     0
 62
     7
  6
Continuous
370
    -3
390
F
  0
LAYER
  5
8C
330
2
100
AcDbSymbolTableRecord
100
AcDbLayerTableRecord
  2
LAYER-061
 70
     0
 62
     7
  6
Continuous
370
    -3
390
F
  0
LAYER
  5
8D
330
2
100
AcDbSymbolTableRecord
100
AcDbLayerTableRecord
  2
LAYER-062
 70
     0
 62
     7
  6
Continuous
370
    -3
390
F
  0
LAYER
  5
8E
330
2
100
AcDbSymbolTableRecord
100
AcDbLayerTableRecord
  2
LAYER-063
 70
     0
 62
     7
  6
Continuous
370
    -3
390
F
  0
LAYER
  5
8F
330
2
100
AcDbSymbolTableRecord
100
AcDbLayerTableRecord
  2
LAYER-064
 70
     0
 62
     2
  6
Continuous
370
    -3
390
F
  0
LAYER
  5
90
330
2
100
AcDbSymbolTableRecord
100
AcDbLayerTableRecord
  2
LAYER-065
 70
     0
 62
     7
  6
Continuous
370
    -3
390
F
  0
LAYER
  5
91
330
2
100
AcDbSymbolTableRecord
100
AcDbLayerTableRecord
  2
LAYER-066
 70
     0
 62
     2
  6
Continuous
370
    -3
390
F
  0
LAYER
  5
92
330
2
100
AcDbSymbolTableRecord
100
AcDbLayerTableRecord
  2
LAYER-067
 70
     0
 62
     2
  6
Continuous
370
    -3
390
F
  0
LAYER
  5
93
330
2
100
AcDbSymbolTableRecord
100
AcDbLayerTableRecord
  2
LAYER-068
 70
     0
 62
     7
  6
Continuous
370
    -3
390
F
  0
LAYER
  5
94
330
2
100
AcDbSymbolTableRecord
100
AcDbLayerTableRecord
  2
LAYER-069
 70
     0
 62
     7
  6
Continuous
370
    -3
390
F
  0
LAYER
  5
95
330
2
100
AcDbSymbolTableRecord
100
AcDbLayerTableRecord
  2
LAYER-070
 70
     0
 62
     7
  6
Continuous
370
    -3
390
F
  0
LAYER
  5
96
330
2
100
AcDbSymbolTableRecord
100
AcDbLayerTableRecord
  2
LAYER-071
 70
     0
 62
     7
  6
Continuous
370
    -3
390
F
  0
LAYER
  5
97
330
2
100
AcDbSymbolTableRecord
100
AcDbLayerTableRecord
  2
LAYER-072
 70
     0
 62
     7
  6
Continuous
370
    -3
390
F
  0
LAYER
  5
98
330
2
100
AcDbSymbolTableRecord
100
AcDbLayerTableRecord
  2
LAYER-073
 70
     0
 62
     7
  6
Continuous
370
    -3
390
F
  0
LAYER
  5
99
330
2
100
AcDbSymbolTableRecord
100
AcDbLayerTableRecord
  2
LAYER-074
 70
     0
 62
     7
  6
Continuous
370
    -3
390
F
  0
LAYER
  5
9A
330
2
100
AcDbSymbolTableRecord
100
AcDbLayerTableRecord
  2
LAYER-075
 70
     0
 62
     7
  6
Continuous
370
    -3
390
F
  0
LAYER
  5
9B
330
2
100
AcDbSymbolTableRecord
100
AcDbLayerTableRecord
  2
LAYER-076
 70
     0
 62
     7
  6
Continuous
370
    -3
390
F
  0
LAYER
  5
9C
330
2
100
AcDbSymbolTableRecord
100
AcDbLayerTableRecord
  2
LAYER-077
 70
     0
 62
     7
  6
Continuous
370
    -3
390
F
  0
LAYER
  5
9D
330
2
100
AcDbSymbolTableRecord
100
AcDbLayerTableRecord
  2
LAYER-078
 70
     0
 62
     7
  6
Continuous
370
    -3
390
F
  0
LAYER
  5
9E
330
2
100
AcDbSymbolTableRecord
100
AcDbLayerTableRecord
  2
LAYER-079
 70
     0
 62
     7
  6
Continuous
370
    -3
390
F
  0
LAYER
  5
9F
330
2
100
AcDbSymbolTableRecord
100
AcDbLayerTableRecord
  2
LAYER-080
 70
     0
 62
     2
  6
Continuous
370
    -3
390
F
  0
LAYER
  5
A0
330
2
100
AcDbSymbolTableRecord
100
AcDbLayerTableRecord
  2
LAYER-081
 70
     0
 62
     7
  6
Continuous
370
    -3
390
F
  0
LAYER
  5
A1
330
2
100
AcDbSymbolTableRecord
100
AcDbLayerTableRecord
  2
LAYER-082
 70
     0
 62
     7
  6
Continuous
370
    -3
390
F
  0
LAYER
  5
A2
330
2
100
AcDbSymbolTableRecord
100
AcDbLayerTableRecord
  2
LAYER-083
 70
     0
 62
     7
  6
Continuous
370
    -3
390
F
  0
LAYER
  5
A3
330
2
100
AcDbSymbolTableRecord
100
AcDbLayerTableRecord
  2
LAYER-084
 70
     0
 62
     7
  6
Continuous
370
    -3
390
F
  0
LAYER
  5
A4
330
2
100
AcDbSymbolTableRecord
100
AcDbLayerTableRecord
  2
LAYER-085
 70
     0
 62
     7
  6
Continuous
370
    -3
390
F
  0
LAYER
  5
A5
330
2
100
AcDbSymbolTableRecord
100
AcDbLayerTableRecord
  2
LAYER-086
 70
     0
 62
     7
  6
Continuous
370
    -3
390
F
  0
LAYER
  5
A6
330
2
100
AcDbSymbolTableRecord
100
AcDbLayerTableRecord
  2
LAYER-087
 70
     0
 62
     7
  6
Continuous
370
    -3
390
F
  0
LAYER
  5
A7
330
2
100
AcDbSymbolTableRecord
100
AcDbLayerTableRecord
  2
LAYER-088
 70
     0
 62
     7
  6
Continuous
370
    -3
390
F
  0
LAYER
  5
A8
330
2
100
AcDbSymbolTableRecord
100
AcDbLayerTableRecord
  2
LAYER-089
 70
     0
 62
     7
  6
Continuous
370
    -3
390
F
  0
LAYER
  5
A9
330
2
100
AcDbSymbolTableRecord
100
AcDbLayerTableRecord
  2
LAYER-090
 70
     0
 62
     7
  6
Continuous
370
    -3
390
F
  0
LAYER
  5
AA
330
2
100
AcDbSymbolTableRecord
100
AcDbLayerTableRecord
  2
LAYER-091
 70
     0
 62
     7
  6
Continuous
370
    -3
390
F
  0
LAYER
  5
AB
330
2
100
AcDbSymbolTableRecord
100
AcDbLayerTableRecord
  2
LAYER-092
 70
     0
 62
     7
  6
Continuous
370
    -3
390
F
  0
LAYER
  5
AC
330
2
100
AcDbSymbolTableRecord
100
AcDbLayerTableRecord
  2
LAYER-093
 70
     0
 62
     7
  6
Continuous
370
    -3
390
F
  0
LAYER
  5
AD
330
2
100
AcDbSymbolTableRecord
100
AcDbLayerTableRecord
  2
LAYER-094
 70
     0
 62
     7
  6
Continuous
370
    -3
390
F
  0
LAYER
  5
AE
330
2
100
AcDbSymbolTableRecord
100
AcDbLayerTableRecord
  2
LAYER-095
 70
     0
 62
     7
  6
Continuous
370
    -3
390
F
  0
LAYER
  5
AF
330
2
100
AcDbSymbolTableRecord
100
AcDbLayerTableRecord
  2
LAYER-096
 70
     0
 62
     7
  6
Continuous
370
    -3
390
F
  0
LAYER
  5
B0
330
2
100
AcDbSymbolTableRecord
100
AcDbLayerTableRecord
  2
LAYER-097
 70
     0
 62
     7
  6
Continuous
370
    -3
390
F
  0
LAYER
  5
B1
330
2
100
AcDbSymbolTableRecord
100
AcDbLayerTableRecord
  2
LAYER-098
 70
     0
 62
     7
  6
Continuous
370
    -3
390
F
  0
LAYER
  5
B2
330
2
100
AcDbSymbolTableRecord
100
AcDbLayerTableRecord
  2
LAYER-099
 70
     0
 62
     7
  6
Continuous
370
    -3
390
F
  0
LAYER
  5
B3
330
2
100
AcDbSymbolTableRecord
100
AcDbLayerTableRecord
  2
LAYER-100
 70
     0
 62
     7
  6
Continuous
370
    -3
390
F
  0
LAYER
  5
B4
330
2
100
AcDbSymbolTableRecord
100
AcDbLayerTableRecord
  2
LAYER-101
 70
     0
 62
     7
  6
Continuous
370
    -3
390
F
  0
LAYER
  5
B5
330
2
100
AcDbSymbolTableRecord
100
AcDbLayerTableRecord
  2
LAYER-102
 70
     0
 62
     7
  6
Continuous
370
    -3
390
F
  0
LAYER
  5
B6
330
2
100
AcDbSymbolTableRecord
100
AcDbLayerTableRecord
  2
LAYER-103
 70
     0
 62
     7
  6
Continuous
370
    -3
390
F
  0
LAYER
  5
B7
330
2
100
AcDbSymbolTableRecord
100
AcDbLayerTableRecord
  2
LAYER-104
 70
     0
 62
     7
  6
Continuous
370
    -3
390
F
  0
LAYER
  5
B8
330
2
100
AcDbSymbolTableRecord
100
AcDbLayerTableRecord
  2
LAYER-105
 70
     0
 62
     7
  6
Continuous
370
    -3
390
F
  0
LAYER
  5
B9
330
2
100
AcDbSymbolTableRecord
100
AcDbLayerTableRecord
  2
LAYER-106
 70
     0
 62
     7
  6
Continuous
370
    -3
390
F
  0
LAYER
  5
BA
330
2
100
AcDbSymbolTableRecord
100
AcDbLayerTableRecord
  2
LAYER-107
 70
     0
 62
     7
  6
Continuous
370
    -3
390
F
  0
LAYER
  5
BB
330
2
100
AcDbSymbolTableRecord
100
AcDbLayerTableRecord
  2
LAYER-108
 70
     0
 62
     7
  6
Continuous
370
    -3
390
F
  0
LAYER
  5
BC
330
2
100
AcDbSymbolTableRecord
100
AcDbLayerTableRecord
  2
LAYER-109
 70
     0
 62
     7
  6
Continuous
370
    -3
390
F
  0
LAYER
  5
BD
330
2
100
AcDbSymbolTableRecord
100
AcDbLayerTableRecord
  2
LAYER-110
 70
     0
 62
     7
  6
Continuous
370
    -3
390
F
  0
LAYER
  5
BE
330
2
100
AcDbSymbolTableRecord
100
AcDbLayerTableRecord
  2
LAYER-111
 70
     0
 62
     7
  6
Continuous
370
    -3
390
F
  0
LAYER
  5
BF
330
2
100
AcDbSymbolTableRecord
100
AcDbLayerTableRecord
  2
LAYER-112
 70
     0
 62
     7
  6
Continuous
370
    -3
390
F
  0
LAYER
  5
C0
330
2
100
AcDbSymbolTableRecord
100
AcDbLayerTableRecord
  2
LAYER-113
 70
     0
 62
     7
  6
Continuous
370
    -3
390
F
  0
LAYER
  5
C1
330
2
100
AcDbSymbolTableRecord
100
AcDbLayerTableRecord
  2
LAYER-114
 70
     0
 62
     7
  6
Continuous
370
    -3
390
F
  0
LAYER
  5
C2
330
2
100
AcDbSymbolTableRecord
100
AcDbLayerTableRecord
  2
LAYER-115
 70
     0
 62
     7
  6
Continuous
370
    -3
390
F
  0
LAYER
  5
C3
330
2
100
AcDbSymbolTableRecord
100
AcDbLayerTableRecord
  2
LAYER-116
 70
     0
 62
     7
  6
Continuous
370
    -3
390
F
  0
LAYER
  5
C4
330
2
100
AcDbSymbolTableRecord
100
AcDbLayerTableRecord
  2
LAYER-117
 70
     0
 62
     7
  6
Continuous
370
    -3
390
F
  0
LAYER
  5
C5
330
2
100
AcDbSymbolTableRecord
100
AcDbLayerTableRecord
  2
LAYER-118
 70
     0
 62
     7
  6
Continuous
370
    -3
390
F
  0
LAYER
  5
C6
330
2
100
AcDbSymbolTableRecord
100
AcDbLayerTableRecord
  2
LAYER-119
 70
     0
 62
     7
  6
Continuous
370
    -3
390
F
  0
LAYER
  5
C7
330
2
100
AcDbSymbolTableRecord
100
AcDbLayerTableRecord
  2
LAYER-120
 70
     0
 62
     7
  6
Continuous
370
    -3
390
F
  0
LAYER
  5
C8
330
2
100
AcDbSymbolTableRecord
100
AcDbLayerTableRecord
  2
LAYER-121
 70
     0
 62
     7
  6
Continuous
370
    -3
390
F
  0
LAYER
  5
C9
330
2
100
AcDbSymbolTableRecord
100
AcDbLayerTableRecord
  2
LAYER-122
 70
     0
 62
     7
  6
Continuous
370
    -3
390
F
  0
LAYER
  5
CA
330
2
100
AcDbSymbolTableRecord
100
AcDbLayerTableRecord
  2
LAYER-123
 70
     0
 62
     7
  6
Continuous
370
    -3
390
F
  0
LAYER
  5
CB
330
2
100
AcDbSymbolTableRecord
100
AcDbLayerTableRecord
  2
LAYER-124
 70
     0
 62
     7
  6
Continuous
370
    -3
390
F
  0
LAYER
  5
CC
330
2
100
AcDbSymbolTableRecord
100
AcDbLayerTableRecord
  2
LAYER-125
 70
     0
 62
     7
  6
Continuous
370
    -3
390
F
  0
LAYER
  5
CD
330
2
100
AcDbSymbolTableRecord
100
AcDbLayerTableRecord
  2
LAYER-126
 70
     0
 62
     7
  6
Continuous
370
    -3
390
F
  0
LAYER
  5
CE
330
2
100
AcDbSymbolTableRecord
100
AcDbLayerTableRecord
  2
LAYER-127
 70
     0
 62
     7
  6
Continuous
370
    -3
390
F
  0
LAYER
  5
CF
330
2
100
AcDbSymbolTableRecord
100
AcDbLayerTableRecord
  2
LAYER-128
 70
     0
 62
     7
  6
Continuous
370
    -3
390
F
  0
LAYER
  5
D0
330
2
100
AcDbSymbolTableRecord
100
AcDbLayerTableRecord
  2
LAYER-129
 70
     0
 62
     7
  6
Continuous
370
    -3
390
F
  0
LAYER
  5
D1
330
2
100
AcDbSymbolTableRecord
100
AcDbLayerTableRecord
  2
LAYER-130
 70
     0
 62
     7
  6
Continuous
370
    -3
390
F
  0
LAYER
  5
D2
330
2
100
AcDbSymbolTableRecord
100
AcDbLayerTableRecord
  2
LAYER-131
 70
     0
 62
     7
  6
Continuous
370
    -3
390
F
  0
LAYER
  5
D3
330
2
100
AcDbSymbolTableRecord
100
AcDbLayerTableRecord
  2
LAYER-132
 70
     0
 62
     7
  6
Continuous
370
    -3
390
F
  0
LAYER
  5
D4
330
2
100
AcDbSymbolTableRecord
100
AcDbLayerTableRecord
  2
LAYER-133
 70
     0
 62
     7
  6
Continuous
370
    -3
390
F
  0
LAYER
  5
D5
330
2
100
AcDbSymbolTableRecord
100
AcDbLayerTableRecord
  2
LAYER-134
 70
     0
 62
     7
  6
Continuous
370
    -3
390
F
  0
LAYER
  5
D6
330
2
100
AcDbSymbolTableRecord
100
AcDbLayerTableRecord
  2
LAYER-135
 70
     0
 62
    -4
  6
Continuous
370
    -3
390
F
  0
LAYER
  5
D7
330
2
100
AcDbSymbolTableRecord
100
AcDbLayerTableRecord
  2
LAYER-136
 70
     0
 62
    -3
  6
Continuous
370
    -3
390
F
  0
LAYER
  5
D8
330
2
100
AcDbSymbolTableRecord
100
AcDbLayerTableRecord
  2
LAYER-137
 70
     0
 62
    -1
  6
Continuous
370
    -3
390
F
  0
LAYER
  5
D9
330
2
100
AcDbSymbolTableRecord
100
AcDbLayerTableRecord
  2
LAYER-138
 70
     0
 62
     7
  6
Continuous
370
    -3
390
F
  0
LAYER
  5
DA
330
2
100
AcDbSymbolTableRecord
100
AcDbLayerTableRecord
  2
LAYER-139
 70
     0
 62
     7
  6
Continuous
370
    -3
390
F
  0
LAYER
  5
DB
330
2
100
AcDbSymbolTableRecord
100
AcDbLayerTableRecord
  2
LAYER-140
 70
     0
 62
     7
  6
Continuous
370
    -3
390
F
  0
LAYER
  5
DC
330
2
100
AcDbSymbolTableRecord
100
AcDbLayerTableRecord
  2
LAYER-141
 70
     0
 62
     7
  6
Continuous
370
    -3
390
F
  0
LAYER
  5
DD
330
2
100
AcDbSymbolTableRecord
100
AcDbLayerTableRecord
  2
LAYER-142
 70
     0
 62
     3
  6
Continuous
370
    -3
390
F
  0
LAYER
  5
DE
330
2
100
AcDbSymbolTableRecord
100
AcDbLayerTableRecord
  2
LAYER-143
 70
     0
 62
     7
  6
Continuous
370
    -3
390
F
  0
LAYER
  5
DF
330
2
100
AcDbSymbolTableRecord
100
AcDbLayerTableRecord
  2
LAYER-144
 70
     0
 62
     7
  6
Continuous
370
    -3
390
F
  0
LAYER
  5
E0
330
2
100
AcDbSymbolTableRecord
100
AcDbLayerTableRecord
  2
LAYER-145
 70
     0
 62
     3
  6
Continuous
370
    -3
390
F
  0
LAYER
  5
E1
330
2
100
AcDbSymbolTableRecord
100
AcDbLayerTableRecord
  2
LAYER-146
 70
     0
 62
     7
  6
Continuous
370
    -3
390
F
  0
LAYER
  5
E2
330
2
100
AcDbSymbolTableRecord
100
AcDbLayerTableRecord
  2
LAYER-147
 70
     0
 62
     7
  6
Continuous
370
    -3
390
F
  0
LAYER
  5
E3
330
2
100
AcDbSymbolTableRecord
100
AcDbLayerTableRecord
  2
LAYER-148
 70
     0
 62
     7
  6
Continuous
370
    -3
390
F
  0
LAYER
  5
E4
330
2
100
AcDbSymbolTableRecord
100
AcDbLayerTableRecord
  2
LAYER-149
 70
     0
 62
     7
  6
Continuous
370
    -3
390
F
  0
LAYER
  5
E5
330
2
100
AcDbSymbolTableRecord
100
AcDbLayerTableRecord
  2
LAYER-150
 70
     0
 62
     7
  6
Continuous
370
    -3
390
F
  0
LAYER
  5
E6
330
2
100
AcDbSymbolTableRecord
100
AcDbLayerTableRecord
  2
LAYER-151
 70
     0
 62
     7
  6
Continuous
370
    -3
390
F
  0
LAYER
  5
E7
330
2
100
AcDbSymbolTableRecord
100
AcDbLayerTableRecord
  2
LAYER-152
 70
     0
 62
     7
  6
Continuous
370
    -3
390
F
  0
LAYER
  5
E8
330
2
100
AcDbSymbolTableRecord
100
AcDbLayerTableRecord
  2
LAYER-153
 70
     0
 62
     7
  6
Continuous
370
    -3
390
F
  0
LAYER
  5
E9
330
2
100
AcDbSymbolTableRecord
100
AcDbLayerTableRecord
  2
LAYER-154
 70
     0
 62
     7
  6
Continuous
370
    -3
390
F
  0
LAYER
  5
EA
330
2
100
AcDbSymbolTableRecord
100
AcDbLayerTableRecord
  2
LAYER-155
 70
     0
 62
     7
  6
Continuous
370
    -3
390
F
  0
LAYER
  5
EB
330
2
100
AcDbSymbolTableRecord
100
AcDbLayerTableRecord
  2
LAYER-156
 70
     0
 62
     7
  6
Continuous
370
    -3
390
F
  0
LAYER
  5
EC
330
2
100
AcDbSymbolTableRecord
100
AcDbLayerTableRecord
  2
LAYER-157
 70
     0
 62
     7
  6
Continuous
370
    -3
390
F
  0
LAYER
  5
ED
330
2
100
AcDbSymbolTableRecord
100
AcDbLayerTableRecord
  2
LAYER-158
 70
     0
 62
     7
  6
Continuous
370
    -3
390
F
  0
LAYER
  5
EE
330
2
100
AcDbSymbolTableRecord
100
AcDbLayerTableRecord
  2
LAYER-159
 70
     0
 62
     7
  6
Continuous
370
    -3
390
F
  0
LAYER
  5
EF
330
2
100
AcDbSymbolTableRecord
100
AcDbLayerTableRecord
  2
LAYER-160
 70
     0
 62
     7
  6
Continuous
370
    -3
390
F
  0
LAYER
  5
F0
330
2
100
AcDbSymbolTableRecord
100
AcDbLayerTableRecord
  2
LAYER-161
 70
     0
 62
     7
  6
Continuous
370
    -3
390
F
  0
LAYER
  5
F1
330
2
100
AcDbSymbolTableRecord
100
AcDbLayerTableRecord
  2
LAYER-162
 70
     0
 62
     7
  6
Continuous
370
    -3
390
F
  0
LAYER
  5
F2
330
2
100
AcDbSymbolTableRecord
100
AcDbLayerTableRecord
  2
LAYER-163
 70
     0
 62
     7
  6
Continuous
370
    -3
390
F
  0
LAYER
  5
F3
330
2
100
AcDbSymbolTableRecord
100
AcDbLayerTableRecord
  2
LAYER-164
 70
     0
 62
     7
  6
Continuous
370
    -3
390
F
  0
LAYER
  5
F4
330
2
100
AcDbSymbolTableRecord
100
AcDbLayerTableRecord
  2
LAYER-165
 70
     0
 62
     7
  6
Continuous
370
    -3
390
F
  0
LAYER
  5
F5
330
2
100
AcDbSymbolTableRecord
100
AcDbLayerTableRecord
  2
LAYER-166
 70
     0
 62
     7
  6
Continuous
370
    -3
390
F
  0
LAYER
  5
F6
330
2
100
AcDbSymbolTableRecord
100
AcDbLayerTableRecord
  2
LAYER-167
 70
     0
 62
     7
  6
Continuous
370
    -3
390
F
  0
LAYER
  5
F7
330
2
100
AcDbSymbolTableRecord
100
AcDbLayerTableRecord
  2
LAYER-168
 70
     0
 62
     7
  6
Continuous
370
    -3
390
F
  0
LAYER
  5
F8
330
2
100
AcDbSymbolTableRecord
100
AcDbLayerTableRecord
  2
LAYER-169
 70
     0
 62
     7
  6
Continuous
370
    -3
390
F
  0
LAYER
  5
F9
330
2
100
AcDbSymbolTableRecord
100
AcDbLayerTableRecord
  2
LAYER-170
 70
     0
 62
     7
  6
Continuous
370
    -3
390
F
  0
LAYER
  5
FA
330
2
100
AcDbSymbolTableRecord
100
AcDbLayerTableRecord
  2
LAYER-171
 70
     0
 62
     7
  6
Continuous
370
    -3
390
F
  0
LAYER
  5
FB
330
2
100
AcDbSymbolTableRecord
100
AcDbLayerTableRecord
  2
LAYER-172
 70
     0
 62
     7
  6
Continuous
370
    -3
390
F
  0
LAYER
  5
FC
330
2
100
AcDbSymbolTableRecord
100
AcDbLayerTableRecord
  2
LAYER-173
 70
     0
 62
     7
  6
Continuous
370
    -3
390
F
  0
LAYER
  5
FD
330
2
100
AcDbSymbolTableRecord
100
AcDbLayerTableRecord
  2
LAYER-174
 70
     0
 62
     7
  6
Continuous
370
    -3
390
F
  0
LAYER
  5
FE
330
2
100
AcDbSymbolTableRecord
100
AcDbLayerTableRecord
  2
LAYER-175
 70
     0
 62
     7
  6
Continuous
370
    -3
390
F
  0
LAYER
  5
FF
330
2
100
AcDbSymbolTableRecord
100
AcDbLayerTableRecord
  2
LAYER-176
 70
     0
 62
     7
  6
Continuous
370
    -3
390
F
  0
LAYER
  5
100
330
2
100
AcDbSymbolTableRecord
100
AcDbLayerTableRecord
  2
LAYER-177
 70
     0
 62
     7
  6
Continuous
370
    -3
390
F
  0
LAYER
  5
101
330
2
100
AcDbSymbolTableRecord
100
AcDbLayerTableRecord
  2
LAYER-178
 70
     0
 62
     7
  6
Continuous
370
    -3
390
F
  0
LAYER
  5
102
330
2
100
AcDbSymbolTableRecord
100
AcDbLayerTableRecord
  2
LAYER-179
 70
     0
 62
     7
  6
Continuous
370
    -3
390
F
  0
LAYER
  5
103
330
2
100
AcDbSymbolTableRecord
100
AcDbLayerTableRecord
  2
LAYER-180
 70
     0
 62
     7
  6
Continuous
370
    -3
390
F
  0
LAYER
  5
104
330
2
100
AcDbSymbolTableRecord
100
AcDbLayerTableRecord
  2
LAYER-181
 70
     0
 62
     7
  6
Continuous
370
    -3
390
F
  0
LAYER
  5
105
330
2
100
AcDbSymbolTableRecord
100
AcDbLayerTableRecord
  2
LAYER-182
 70
     0
 62
     7
  6
Continuous
370
    -3
390
F
  0
LAYER
  5
106
330
2
100
AcDbSymbolTableRecord
100
AcDbLayerTableRecord
  2
LAYER-183
 70
     0
 62
     7
  6
Continuous
370
    -3
390
F
  0
LAYER
  5
107
330
2
100
AcDbSymbolTableRecord
100
AcDbLayerTableRecord
  2
LAYER-184
 70
     0
 62
     7
  6
Continuous
370
    -3
390
F
  0
LAYER
  5
108
330
2
100
AcDbSymbolTableRecord
100
AcDbLayerTableRecord
  2
LAYER-185
 70
     0
 62
     7
  6
Continuous
370
    -3
390
F
  0
LAYER
  5
109
330
2
100
AcDbSymbolTableRecord
100
AcDbLayerTableRecord
  2
LAYER-186
 70
     0
 62
     7
  6
Continuous
370
    -3
390
F
  0
LAYER
  5
10A
330
2
100
AcDbSymbolTableRecord
100
AcDbLayerTableRecord
  2
LAYER-187
 70
     0
 62
     7
  6
Continuous
370
    -3
390
F
  0
LAYER
  5
10B
330
2
100
AcDbSymbolTableRecord
100
AcDbLayerTableRecord
  2
LAYER-188
 70
     0
 62
     7
  6
Continuous
370
    -3
390
F
  0
LAYER
  5
10C
330
2
100
AcDbSymbolTableRecord
100
AcDbLayerTableRecord
  2
LAYER-189
 70
     0
 62
     7
  6
Continuous
370
    -3
390
F
  0
LAYER
  5
10D
330
2
100
AcDbSymbolTableRecord
100
AcDbLayerTableRecord
  2
LAYER-190
 70
     0
 62
     7
  6
Continuous
370
    -3
390
F
  0
LAYER
  5
10E
330
2
100
AcDbSymbolTableRecord
100
AcDbLayerTableRecord
  2
LAYER-191
 70
     0
 62
     7
  6
Continuous
370
    -3
390
F
  0
LAYER
  5
10F
330
2
100
AcDbSymbolTableRecord
100
AcDbLayerTableRecord
  2
LAYER-192
 70
     0
 62
     7
  6
Continuous
370
    -3
390
F
  0
LAYER
  5
110
330
2
100
AcDbSymbolTableRecord
100
AcDbLayerTableRecord
  2
LAYER-193
 70
     0
 62
     7
  6
Continuous
370
    -3
390
F
  0
LAYER
  5
111
330
2
100
AcDbSymbolTableRecord
100
AcDbLayerTableRecord
  2
LAYER-194
 70
     0
 62
     2
  6
Continuous
370
    -3
390
F
  0
LAYER
  5
112
330
2
100
AcDbSymbolTableRecord
100
AcDbLayerTableRecord
  2
LAYER-195
 70
     0
 62
     2
  6
Continuous
370
    -3
390
F
  0
LAYER
  5
113
330
2
100
AcDbSymbolTableRecord
100
AcDbLayerTableRecord
  2
LAYER-196
 70
     0
 62
     2
  6
Continuous
370
    -3
390
F
  0
LAYER
  5
114
330
2
100
AcDbSymbolTableRecord
100
AcDbLayerTableRecord
  2
LAYER-197
 70
     0
 62
     7
  6
Continuous
370
    -3
390
F
  0
LAYER
  5
115
330
2
100
AcDbSymbolTableRecord
100
AcDbLayerTableRecord
  2
LAYER-198
 70
     0
 62
     7
  6
Continuous
370
    -3
390
F
  0
LAYER
  5
116
330
2
100
AcDbSymbolTableRecord
100
AcDbLayerTableRecord
  2
LAYER-199
 70
     0
 62
     4
  6
Continuous
370
    -3
390
F
  0
LAYER
  5
117
330
2
100
AcDbSymbolTableRecord
100
AcDbLayerTableRecord
  2
LAYER-200
 70
     0
 62
     1
  6
Continuous
370
    -3
390
F
  0
LAYER
  5
118
330
2
100
AcDbSymbolTableRecord
100
AcDbLayerTableRecord
  2
LAYER-201
 70
     0
 62
     1
  6
Continuous
370
    -3
390
F
  0
LAYER
  5
119
330
2
100
AcDbSymbolTableRecord
100
AcDbLayerTableRecord
  2
LAYER-202
 70
     0
 62
     2
  6
Continuous
370
    -3
390
F
  0
LAYER
  5
11A
330
2
100
AcDbSymbolTableRecord
100
AcDbLayerTableRecord
  2
LAYER-203
 70
     0
 62
     2
  6
Continuous
370
    -3
390
F
  0
LAYER
  5
11B
330
2
100
AcDbSymbolTableRecord
100
AcDbLayerTableRecord
  2
LAYER-204
 70
     0
 62
     7
  6
Continuous
370
    -3
390
F
  0
LAYER
  5
11C
330
2
100
AcDbSymbolTableRecord
100
AcDbLayerTableRecord
  2
LAYER-205
 70
     0
 62
     7
  6
Continuous
370
    -3
390
F
  0
LAYER
  5
11D
330
2
100
AcDbSymbolTableRecord
100
AcDbLayerTableRecord
  2
LAYER-206
 70
     0
 62
     7
  6
Continuous
370
    -3
390
F
  0
LAYER
  5
11E
330
2
100
AcDbSymbolTableRecord
100
AcDbLayerTableRecord
  2
LAYER-207
 70
     0
 62
    -7
  6
Continuous
370
    -3
390
F
  0
LAYER
  5
11F
330
2
100
AcDbSymbolTableRecord
100
AcDbLayerTableRecord
  2
LAYER-208
 70
     0
 62
     2
  6
Continuous
370
    -3
390
F
  0
LAYER
  5
120
330
2
100
AcDbSymbolTableRecord
100
AcDbLayerTableRecord
  2
LAYER-209
 70
     0
 62
     7
  6
Continuous
370
    -3
390
F
  0
LAYER
  5
121
330
2
100
AcDbSymbolTableRecord
100
AcDbLayerTableRecord
  2
LAYER-210
 70
     0
 62
     2
  6
Continuous
290
     0
370
    -3
390
F
  0
LAYER
  5
122
330
2
100
AcDbSymbolTableRecord
100
AcDbLayerTableRecord
  2
LAYER-211
 70
     0
 62
     7
  6
Continuous
370
    -3
390
F
  0
LAYER
  5
123
330
2
100
AcDbSymbolTableRecord
100
AcDbLayerTableRecord
  2
LAYER-212
 70
     0
 62
     7
  6
Continuous
370
    -3
390
F
  0
LAYER
  5
124
330
2
100
AcDbSymbolTableRecord
100
AcDbLayerTableRecord
  2
LAYER-213
 70
     0
 62
     2
  6
Continuous
370
    -3
390
F
  0
LAYER
  5
125
330
2
100
AcDbSymbolTableRecord
100
AcDbLayerTableRecord
  2
LAYER-214
 70
     0
 62
     7
  6
Continuous
370
    -3
390
F
  0
LAYER
  5
126
330
2
100
AcDbSymbolTableRecord
100
AcDbLayerTableRecord
  2
LAYER-215
 70
     0
 62
     7
  6
Continuous
370
    -3
390
F
  0
LAYER
  5
127
330
2
100
AcDbSymbolTableRecord
100
AcDbLayerTableRecord
  2
LAYER-216
 70
     0
 62
     4
  6
Continuous
370
    -3
390
F
  0
LAYER
  5
128
330
2
100
AcDbSymbolTableRecord
100
AcDbLayerTableRecord
  2
LAYER-217
 70
     0
 62
     7
  6
Continuous
370
    -3
390
F
  0
LAYER
  5
129
330
2
100
AcDbSymbolTableRecord
100
AcDbLayerTableRecord
  2
LAYER-218
 70
     0
 62
     7
  6
Continuous
370
    -3
390
F
  0
LAYER
  5
12A
330
2
100
AcDbSymbolTableRecord
100
AcDbLayerTableRecord
  2
LAYER-219
 70
     0
 62
     7
  6
Continuous
370
    -3
390
F
  0
LAYER
  5
12B
330
2
100
AcDbSymbolTableRecord
100
AcDbLayerTableRecord
  2
LAYER-220
 70
     0
 62
     4
  6
Continuous
370
    -3
390
F
  0
LAYER
  5
12C
330
2
100
AcDbSymbolTableRecord
100
AcDbLayerTableRecord
  2
LAYER-221
 70
     0
 62
    -7
  6
Continuous
290
     0
370
    -3
390
F
  0
LAYER
  5
12D
330
2
100
AcDbSymbolTableRecord
100
AcDbLayerTableRecord
  2
LAYER-222
 70
     0
 62
    -4
  6
Continuous
290
     0
370
    -3
390
F
  0
LAYER
  5
12E
330
2
100
AcDbSymbolTableRecord
100
AcDbLayerTableRecord
  2
LAYER-223
 70
     0
 62
    -1
  6
Continuous
290
     0
370
    -3
390
F
  0
LAYER
  5
12F
330
2
100
AcDbSymbolTableRecord
100
AcDbLayerTableRecord
  2
LAYER-224
 70
     0
 62
    -1
  6
Continuous
290
     0
370
    -3
390
F
  0
LAYER
  5
130
330
2
100
AcDbSymbolTableRecord
100
AcDbLayerTableRecord
  2
LAYER-225
 70
     0
 62
     7
  6
Continuous
370
    -3
390
F
  0
LAYER
  5
131
330
2
100
AcDbSymbolTableRecord
100
AcDbLayerTableRecord
  2
LAYER-226
 70
     0
 62
     2
  6
Continuous
370
    -3
390
F
  0
LAYER
  5
132
330
2
100
AcDbSymbolTableRecord
100
AcDbLayerTableRecord
  2
LAYER-227
 70
     0
 62
     7
  6
Continuous
370
    -3
390
F
  0
LAYER
  5
133
330
2
100
AcDbSymbolTableRecord
100
AcDbLayerTableRecord
  2
LAYER-228
 70
     0
 62
     7
  6
Continuous
370
    -3
390
F
  0
LAYER
  5
134
330
2
100
AcDbSymbolTableRecord
100
AcDbLayerTableRecord
  2
LAYER-229
 70
     0
 62
     7
  6
Continuous
370
    -3
390
F
  0
LAYER
  5
135
330
2
100
AcDbSymbolTableRecord
100
AcDbLayerTableRecord
  2
LAYER-230
 70
     0
 62
     7
  6
Continuous
370
    -3
390
F
  0
LAYER
  5
136
330
2
100
AcDbSymbolTableRecord
100
AcDbLayerTableRecord
  2
LAYER-231
 70
     0
 62
     7
  6
Continuous
370
    -3
390
F
  0
LAYER
  5
137
330
2
100
AcDbSymbolTableRecord
100
AcDbLayerTableRecord
  2
LAYER-232
 70
     0
 62
     7
  6
Continuous
370
    -3
390
F
  0
LAYER
  5
138
330
2
100
AcDbSymbolTableRecord
100
AcDbLayerTableRecord
  2
LAYER-233
 70
     0
 62
     7
  6
Continuous
370
    -3
390
F
  0
LAYER
  5
139
330
2
100
AcDbSymbolTableRecord
100
AcDbLayerTableRecord
  2
LAYER-234
 70
     0
 62
     7
  6
Continuous
370
    -3
390
F
  0
LAYER
  5
13A
330
2
100
AcDbSymbolTableRecord
100
AcDbLayerTableRecord
  2
LAYER-235
 70
     0
 62
     7
  6
Continuous
370
    -3
390
F
  0
LAYER
  5
13B
330
2
100
AcDbSymbolTableRecord
100
AcDbLayerTableRecord
  2
LAYER-236
 70
     0
 62
     7
  6
Continuous
370
    -3
390
F
  0
LAYER
  5
13C
330
2
100
AcDbSymbolTableRecord
100
AcDbLayerTableRecord
  2
LAYER-237
 70
     0
 62
     7
  6
Continuous
370
    -3
390
F
  0
LAYER
  5
13D
330
2
100
AcDbSymbolTableRecord
100
AcDbLayerTableRecord
  2
LAYER-238
 70
     0
 62
     7
  6
Continuous
370
    -3
390
F
  0
LAYER
  5
13E
330
2
100
AcDbSymbolTableRecord
100
AcDbLayerTableRecord
  2
LAYER-239
 70
     0
 62
     7
  6
Continuous
370
    -3
390
F
  0
LAYER
  5
13F
330
2
100
AcDbSymbolTableRecord
100
AcDbLayerTableRecord
  2
LAYER-240
 70
     0
 62
     7
  6
Continuous
370
    -3
390
F
  0
LAYER
  5
140
330
2
100
AcDbSymbolTableRecord
100
AcDbLayerTableRecord
  2
LAYER-241
 70
     0
 62
     7
  6
Continuous
370
    -3
390
F
  0
LAYER
  5
141
330
2
100
AcDbSymbolTableRecord
100
AcDbLayerTableRecord
  2
LAYER-242
 70
     0
 62
     7
  6
Continuous
370
    -3
390
F
  0
LAYER
  5
142
330
2
100
AcDbSymbolTableRecord
100
AcDbLayerTableRecord
  2
LAYER-243
 70
     0
 62
     7
  6
Continuous
370
    -3
390
F
  0
LAYER
  5
143
330
2
100
AcDbSymbolTableRecord
100
AcDbLayerTableRecord
  2
LAYER-244
 70
     0
 62
     7
  6
Continuous
370
    -3
390
F
  0
LAYER
  5
144
330
2
100
AcDbSymbolTableRecord
100
AcDbLayerTableRecord
  2
LAYER-245
 70
     0
 62
     7
  6
Continuous
370
    -3
390
F
  0
LAYER
  5
145
330
2
100
AcDbSymbolTableRecord
100
AcDbLayerTableRecord
  2
LAYER-246
 70
     0
 62
     7
  6
Continuous
370
    -3
390
F
  0
LAYER
  5
146
330
2
100
AcDbSymbolTableRecord
100
AcDbLayerTableRecord
  2
LAYER-247
 70
     0
 62
     7
  6
Continuous
370
    -3
390
F
  0
LAYER
  5
147
330
2
100
AcDbSymbolTableRecord
100
AcDbLayerTableRecord
  2
LAYER-248
 70
     0
 62
     7
  6
Continuous
370
    -3
390
F
  0
LAYER
  5
148
330
2
100
AcDbSymbolTableRecord
100
AcDbLayerTableRecord
  2
LAYER-249
 70
     0
 62
     7
  6
Continuous
370
    -3
390
F
  0
LAYER
  5
149
330
2
100
AcDbSymbolTableRecord
100
AcDbLayerTableRecord
  2
LAYER-250
 70
     0
 62
     7
  6
Continuous
370
    -3
390
F
  0
LAYER
  5
14A
330
2
100
AcDbSymbolTableRecord
100
AcDbLayerTableRecord
  2
LAYER-251
 70
     0
 62
     7
  6
Continuous
370
    -3
390
F
  0
LAYER
  5
14B
330
2
100
AcDbSymbolTableRecord
100
AcDbLayerTableRecord
  2
LAYER-252
 70
     0
 62
     7
  6
Continuous
370
    -3
390
F
  0
LAYER
  5
14C
330
2
100
AcDbSymbolTableRecord
100
AcDbLayerTableRecord
  2
LAYER-253
 70
     0
 62
     7
  6
Continuous
370
    -3
390
F
  0
LAYER
  5
14D
330
2
100
AcDbSymbolTableRecord
100
AcDbLayerTableRecord
  2
LAYER-254
 70
     0
 62
     7
  6
Continuous
370
    -3
390
F
  0
LAYER
  5
14E
330
2
100
AcDbSymbolTableRecord
100
AcDbLayerTableRecord
  2
LAYER-255
 70
     0
 62
     7
  6
Continuous
370
    -3
390
F
  0
LAYER
  5
14F
330
2
100
AcDbSymbolTableRecord
100
AcDbLayerTableRecord
  2
LAYER-256
 70
     0
 62
     7
  6
Continuous
370
    -3
390
F
  0
LAYER
  5
150
330
2
100
AcDbSymbolTableRecord
100
AcDbLayerTableRecord
  2
SUPLINE
 70
     0
 62
    -7
  6
Continuous
290
     0
370
    -3
390
F
  0
LAYER
  5
151
330
2
100
AcDbSymbolTableRecord
100
AcDbLayerTableRecord
  2
FRAMELAYER-001
 70
     0
 62
     7
  6
Continuous
370
    -3
390
F
  0
LAYER
  5
152
330
2
100
AcDbSymbolTableRecord
100
AcDbLayerTableRecord
  2
FRAMELAYER-002
 70
     0
 62
     7
  6
Continuous
370
    -3
390
F
  0
LAYER
  5
153
330
2
100
AcDbSymbolTableRecord
100
AcDbLayerTableRecord
  2
FRAMELAYER-003
 70
     0
 62
     7
  6
Continuous
370
    -3
390
F
  0
LAYER
  5
154
330
2
100
AcDbSymbolTableRecord
100
AcDbLayerTableRecord
  2
FRAMELAYER-004
 70
     0
 62
     7
  6
Continuous
370
    -3
390
F
  0
LAYER
  5
155
330
2
100
AcDbSymbolTableRecord
100
AcDbLayerTableRecord
  2
FRAMELAYER-005
 70
     0
 62
     7
  6
Continuous
370
    -3
390
F
  0
LAYER
  5
156
330
2
100
AcDbSymbolTableRecord
100
AcDbLayerTableRecord
  2
FRAMELAYER-006
 70
     0
 62
     7
  6
Continuous
370
    -3
390
F
  0
LAYER
  5
157
330
2
100
AcDbSymbolTableRecord
100
AcDbLayerTableRecord
  2
FRAMELAYER-007
 70
     0
 62
     7
  6
Continuous
370
    -3
390
F
  0
LAYER
  5
158
330
2
100
AcDbSymbolTableRecord
100
AcDbLayerTableRecord
  2
FRAMELAYER-008
 70
     0
 62
     7
  6
Continuous
370
    -3
390
F
  0
LAYER
  5
159
330
2
100
AcDbSymbolTableRecord
100
AcDbLayerTableRecord
  2
FRAMELAYER-009
 70
     0
 62
     7
  6
Continuous
370
    -3
390
F
  0
LAYER
  5
15A
330
2
100
AcDbSymbolTableRecord
100
AcDbLayerTableRecord
  2
FRAMELAYER-010
 70
     0
 62
     7
  6
Continuous
370
    -3
390
F
  0
LAYER
  5
15B
330
2
100
AcDbSymbolTableRecord
100
AcDbLayerTableRecord
  2
FRAMELAYER-011
 70
     0
 62
     7
  6
Continuous
370
    -3
390
F
  0
LAYER
  5
15C
330
2
100
AcDbSymbolTableRecord
100
AcDbLayerTableRecord
  2
FRAMELAYER-012
 70
     0
 62
     7
  6
Continuous
370
    -3
390
F
  0
LAYER
  5
15D
330
2
100
AcDbSymbolTableRecord
100
AcDbLayerTableRecord
  2
FRAMELAYER-013
 70
     0
 62
     7
  6
Continuous
370
    -3
390
F
  0
LAYER
  5
15E
330
2
100
AcDbSymbolTableRecord
100
AcDbLayerTableRecord
  2
FRAMELAYER-014
 70
     0
 62
     7
  6
Continuous
370
    -3
390
F
  0
LAYER
  5
15F
330
2
100
AcDbSymbolTableRecord
100
AcDbLayerTableRecord
  2
FRAMELAYER-015
 70
     0
 62
    -7
  6
Continuous
370
    -3
390
F
  0
LAYER
  5
160
330
2
100
AcDbSymbolTableRecord
100
AcDbLayerTableRecord
  2
FRAMELAYER-016
 70
     0
 62
     4
  6
Continuous
370
    -3
390
F
  0
LAYER
  5
161
330
2
100
AcDbSymbolTableRecord
100
AcDbLayerTableRecord
  2
FRAMELAYER-017
 70
     0
 62
     7
  6
Continuous
370
    -3
390
F
  0
LAYER
  5
162
330
2
100
AcDbSymbolTableRecord
100
AcDbLayerTableRecord
  2
FRAMELAYER-018
 70
     0
 62
     2
  6
Continuous
370
    -3
390
F
  0
LAYER
  5
163
330
2
100
AcDbSymbolTableRecord
100
AcDbLayerTableRecord
  2
FRAMELAYER-019
 70
     0
 62
     3
  6
Continuous
370
    -3
390
F
  0
LAYER
  5
164
330
2
100
AcDbSymbolTableRecord
100
AcDbLayerTableRecord
  2
FRAMELAYER-020
 70
     0
 62
     2
  6
Continuous
370
    -3
390
F
  0
LAYER
  5
165
330
2
100
AcDbSymbolTableRecord
100
AcDbLayerTableRecord
  2
FRAMELAYER-021
 70
     0
 62
     7
  6
Continuous
370
    -3
390
F
  0
LAYER
  5
166
330
2
100
AcDbSymbolTableRecord
100
AcDbLayerTableRecord
  2
FRAMELAYER-022
 70
     0
 62
     4
  6
Continuous
370
    -3
390
F
  0
LAYER
  5
167
330
2
100
AcDbSymbolTableRecord
100
AcDbLayerTableRecord
  2
FRAMELAYER-023
 70
     0
 62
     4
  6
Continuous
370
    -3
390
F
  0
LAYER
  5
168
330
2
100
AcDbSymbolTableRecord
100
AcDbLayerTableRecord
  2
FRAMELAYER-024
 70
     0
 62
     7
  6
Continuous
370
    -3
390
F
  0
LAYER
  5
169
330
2
100
AcDbSymbolTableRecord
100
AcDbLayerTableRecord
  2
FRAMELAYER-025
 70
     0
 62
     7
  6
Continuous
370
    -3
390
F
  0
LAYER
  5
16A
330
2
100
AcDbSymbolTableRecord
100
AcDbLayerTableRecord
  2
FRAMELAYER-026
 70
     0
 62
    -7
  6
Continuous
370
    -3
390
F
  0
LAYER
  5
16B
330
2
100
AcDbSymbolTableRecord
100
AcDbLayerTableRecord
  2
FRAMELAYER-027
 70
     0
 62
     7
  6
Continuous
370
    -3
390
F
  0
LAYER
  5
16C
330
2
100
AcDbSymbolTableRecord
100
AcDbLayerTableRecord
  2
FRAMELAYER-028
 70
     0
 62
     7
  6
Continuous
370
    -3
390
F
  0
LAYER
  5
16D
330
2
100
AcDbSymbolTableRecord
100
AcDbLayerTableRecord
  2
FRAMELAYER-029
 70
     0
 62
     7
  6
Continuous
370
    -3
390
F
  0
LAYER
  5
16E
330
2
100
AcDbSymbolTableRecord
100
AcDbLayerTableRecord
  2
FRAMELAYER-030
 70
     0
 62
     2
  6
Continuous
370
    -3
390
F
  0
LAYER
  5
16F
330
2
100
AcDbSymbolTableRecord
100
AcDbLayerTableRecord
  2
FRAMELAYER-031
 70
     0
 62
     7
  6
Continuous
370
    -3
390
F
  0
LAYER
  5
170
330
2
100
AcDbSymbolTableRecord
100
AcDbLayerTableRecord
  2
FRAMELAYER-032
 70
     0
 62
     2
  6
Continuous
370
    -3
390
F
  0
LAYER
  5
171
330
2
100
AcDbSymbolTableRecord
100
AcDbLayerTableRecord
  2
FRAMELAYER-033
 70
     0
 62
     7
  6
Continuous
370
    -3
390
F
  0
LAYER
  5
172
330
2
100
AcDbSymbolTableRecord
100
AcDbLayerTableRecord
  2
FRAMELAYER-034
 70
     0
 62
     7
  6
Continuous
370
    -3
390
F
  0
LAYER
  5
173
330
2
100
AcDbSymbolTableRecord
100
AcDbLayerTableRecord
  2
FRAMELAYER-035
 70
     0
 62
     3
  6
Continuous
370
    -3
390
F
  0
LAYER
  5
174
330
2
100
AcDbSymbolTableRecord
100
AcDbLayerTableRecord
  2
FRAMELAYER-036
 70
     0
 62
     2
  6
Continuous
370
    -3
390
F
  0
LAYER
  5
175
330
2
100
AcDbSymbolTableRecord
100
AcDbLayerTableRecord
  2
FRAMELAYER-037
 70
     0
 62
     7
  6
Continuous
370
    -3
390
F
  0
LAYER
  5
176
330
2
100
AcDbSymbolTableRecord
100
AcDbLayerTableRecord
  2
FRAMELAYER-038
 70
     0
 62
     7
  6
Continuous
370
    -3
390
F
  0
LAYER
  5
177
330
2
100
AcDbSymbolTableRecord
100
AcDbLayerTableRecord
  2
FRAMELAYER-039
 70
     0
 62
     7
  6
Continuous
370
    -3
390
F
  0
LAYER
  5
178
330
2
100
AcDbSymbolTableRecord
100
AcDbLayerTableRecord
  2
FRAMELAYER-040
 70
     0
 62
     7
  6
Continuous
370
    -3
390
F
  0
LAYER
  5
179
330
2
100
AcDbSymbolTableRecord
100
AcDbLayerTableRecord
  2
FRAMELAYER-041
 70
     0
 62
     7
  6
Continuous
370
    -3
390
F
  0
LAYER
  5
17A
330
2
100
AcDbSymbolTableRecord
100
AcDbLayerTableRecord
  2
FRAMELAYER-042
 70
     0
 62
     7
  6
Continuous
370
    -3
390
F
  0
LAYER
  5
17B
330
2
100
AcDbSymbolTableRecord
100
AcDbLayerTableRecord
  2
FRAMELAYER-043
 70
     0
 62
     7
  6
Continuous
370
    -3
390
F
  0
LAYER
  5
17C
330
2
100
AcDbSymbolTableRecord
100
AcDbLayerTableRecord
  2
FRAMELAYER-044
 70
     0
 62
     7
  6
Continuous
370
    -3
390
F
  0
LAYER
  5
17D
330
2
100
AcDbSymbolTableRecord
100
AcDbLayerTableRecord
  2
FRAMELAYER-045
 70
     0
 62
     7
  6
Continuous
370
    -3
390
F
  0
LAYER
  5
17E
330
2
100
AcDbSymbolTableRecord
100
AcDbLayerTableRecord
  2
FRAMELAYER-046
 70
     0
 62
     7
  6
Continuous
370
    -3
390
F
  0
LAYER
  5
17F
330
2
100
AcDbSymbolTableRecord
100
AcDbLayerTableRecord
  2
FRAMELAYER-047
 70
     0
 62
     7
  6
Continuous
370
    -3
390
F
  0
LAYER
  5
180
330
2
100
AcDbSymbolTableRecord
100
AcDbLayerTableRecord
  2
FRAMELAYER-048
 70
     0
 62
     2
  6
Continuous
370
    -3
390
F
  0
LAYER
  5
181
330
2
100
AcDbSymbolTableRecord
100
AcDbLayerTableRecord
  2
FRAMELAYER-049
 70
     0
 62
     3
  6
Continuous
370
    -3
390
F
  0
LAYER
  5
182
330
2
100
AcDbSymbolTableRecord
100
AcDbLayerTableRecord
  2
FRAMELAYER-050
 70
     0
 62
     7
  6
Continuous
370
    -3
390
F
  0
LAYER
  5
183
330
2
100
AcDbSymbolTableRecord
100
AcDbLayerTableRecord
  2
FRAMELAYER-051
 70
     0
 62
     2
  6
Continuous
370
    -3
390
F
  0
LAYER
  5
184
330
2
100
AcDbSymbolTableRecord
100
AcDbLayerTableRecord
  2
FRAMELAYER-052
 70
     0
 62
     7
  6
Continuous
370
    -3
390
F
  0
LAYER
  5
185
330
2
100
AcDbSymbolTableRecord
100
AcDbLayerTableRecord
  2
FRAMELAYER-053
 70
     0
 62
     7
  6
Continuous
370
    -3
390
F
  0
LAYER
  5
186
330
2
100
AcDbSymbolTableRecord
100
AcDbLayerTableRecord
  2
FRAMELAYER-054
 70
     0
 62
     7
  6
Continuous
370
    -3
390
F
  0
LAYER
  5
187
330
2
100
AcDbSymbolTableRecord
100
AcDbLayerTableRecord
  2
FRAMELAYER-055
 70
     0
 62
     7
  6
Continuous
370
    -3
390
F
  0
LAYER
  5
188
330
2
100
AcDbSymbolTableRecord
100
AcDbLayerTableRecord
  2
FRAMELAYER-056
 70
     0
 62
     7
  6
Continuous
370
    -3
390
F
  0
LAYER
  5
189
330
2
100
AcDbSymbolTableRecord
100
AcDbLayerTableRecord
  2
FRAMELAYER-057
 70
     0
 62
     7
  6
Continuous
370
    -3
390
F
  0
LAYER
  5
18A
330
2
100
AcDbSymbolTableRecord
100
AcDbLayerTableRecord
  2
FRAMELAYER-058
 70
     0
 62
     7
  6
Continuous
370
    -3
390
F
  0
LAYER
  5
18B
330
2
100
AcDbSymbolTableRecord
100
AcDbLayerTableRecord
  2
FRAMELAYER-059
 70
     0
 62
     7
  6
Continuous
370
    -3
390
F
  0
LAYER
  5
18C
330
2
100
AcDbSymbolTableRecord
100
AcDbLayerTableRecord
  2
FRAMELAYER-060
 70
     0
 62
     7
  6
Continuous
370
    -3
390
F
  0
LAYER
  5
18D
330
2
100
AcDbSymbolTableRecord
100
AcDbLayerTableRecord
  2
FRAMELAYER-061
 70
     0
 62
     7
  6
Continuous
370
    -3
390
F
  0
LAYER
  5
18E
330
2
100
AcDbSymbolTableRecord
100
AcDbLayerTableRecord
  2
FRAMELAYER-062
 70
     0
 62
     7
  6
Continuous
370
    -3
390
F
  0
LAYER
  5
18F
330
2
100
AcDbSymbolTableRecord
100
AcDbLayerTableRecord
  2
FRAMELAYER-063
 70
     0
 62
     7
  6
Continuous
370
    -3
390
F
  0
LAYER
  5
190
330
2
100
AcDbSymbolTableRecord
100
AcDbLayerTableRecord
  2
FRAMELAYER-064
 70
     0
 62
     2
  6
Continuous
370
    -3
390
F
  0
LAYER
  5
191
330
2
100
AcDbSymbolTableRecord
100
AcDbLayerTableRecord
  2
FRAMELAYER-065
 70
     0
 62
     7
  6
Continuous
370
    -3
390
F
  0
LAYER
  5
192
330
2
100
AcDbSymbolTableRecord
100
AcDbLayerTableRecord
  2
FRAMELAYER-066
 70
     0
 62
     2
  6
Continuous
370
    -3
390
F
  0
LAYER
  5
193
330
2
100
AcDbSymbolTableRecord
100
AcDbLayerTableRecord
  2
FRAMELAYER-067
 70
     0
 62
     2
  6
Continuous
370
    -3
390
F
  0
LAYER
  5
194
330
2
100
AcDbSymbolTableRecord
100
AcDbLayerTableRecord
  2
FRAMELAYER-068
 70
     0
 62
     7
  6
Continuous
370
    -3
390
F
  0
LAYER
  5
195
330
2
100
AcDbSymbolTableRecord
100
AcDbLayerTableRecord
  2
FRAMELAYER-069
 70
     0
 62
     7
  6
Continuous
370
    -3
390
F
  0
LAYER
  5
196
330
2
100
AcDbSymbolTableRecord
100
AcDbLayerTableRecord
  2
FRAMELAYER-070
 70
     0
 62
     7
  6
Continuous
370
    -3
390
F
  0
LAYER
  5
197
330
2
100
AcDbSymbolTableRecord
100
AcDbLayerTableRecord
  2
FRAMELAYER-071
 70
     0
 62
     7
  6
Continuous
370
    -3
390
F
  0
LAYER
  5
198
330
2
100
AcDbSymbolTableRecord
100
AcDbLayerTableRecord
  2
FRAMELAYER-072
 70
     0
 62
     7
  6
Continuous
370
    -3
390
F
  0
LAYER
  5
199
330
2
100
AcDbSymbolTableRecord
100
AcDbLayerTableRecord
  2
FRAMELAYER-073
 70
     0
 62
     7
  6
Continuous
370
    -3
390
F
  0
LAYER
  5
19A
330
2
100
AcDbSymbolTableRecord
100
AcDbLayerTableRecord
  2
FRAMELAYER-074
 70
     0
 62
     7
  6
Continuous
370
    -3
390
F
  0
LAYER
  5
19B
330
2
100
AcDbSymbolTableRecord
100
AcDbLayerTableRecord
  2
FRAMELAYER-075
 70
     0
 62
     7
  6
Continuous
370
    -3
390
F
  0
LAYER
  5
19C
330
2
100
AcDbSymbolTableRecord
100
AcDbLayerTableRecord
  2
FRAMELAYER-076
 70
     0
 62
     7
  6
Continuous
370
    -3
390
F
  0
LAYER
  5
19D
330
2
100
AcDbSymbolTableRecord
100
AcDbLayerTableRecord
  2
FRAMELAYER-077
 70
     0
 62
     7
  6
Continuous
370
    -3
390
F
  0
LAYER
  5
19E
330
2
100
AcDbSymbolTableRecord
100
AcDbLayerTableRecord
  2
FRAMELAYER-078
 70
     0
 62
     7
  6
Continuous
370
    -3
390
F
  0
LAYER
  5
19F
330
2
100
AcDbSymbolTableRecord
100
AcDbLayerTableRecord
  2
FRAMELAYER-079
 70
     0
 62
     7
  6
Continuous
370
    -3
390
F
  0
LAYER
  5
1A0
330
2
100
AcDbSymbolTableRecord
100
AcDbLayerTableRecord
  2
FRAMELAYER-080
 70
     0
 62
     2
  6
Continuous
370
    -3
390
F
  0
LAYER
  5
1A1
330
2
100
AcDbSymbolTableRecord
100
AcDbLayerTableRecord
  2
FRAMELAYER-081
 70
     0
 62
     7
  6
Continuous
370
    -3
390
F
  0
LAYER
  5
1A2
330
2
100
AcDbSymbolTableRecord
100
AcDbLayerTableRecord
  2
FRAMELAYER-082
 70
     0
 62
     7
  6
Continuous
370
    -3
390
F
  0
LAYER
  5
1A3
330
2
100
AcDbSymbolTableRecord
100
AcDbLayerTableRecord
  2
FRAMELAYER-083
 70
     0
 62
     7
  6
Continuous
370
    -3
390
F
  0
LAYER
  5
1A4
330
2
100
AcDbSymbolTableRecord
100
AcDbLayerTableRecord
  2
FRAMELAYER-084
 70
     0
 62
     7
  6
Continuous
370
    -3
390
F
  0
LAYER
  5
1A5
330
2
100
AcDbSymbolTableRecord
100
AcDbLayerTableRecord
  2
FRAMELAYER-085
 70
     0
 62
     7
  6
Continuous
370
    -3
390
F
  0
LAYER
  5
1A6
330
2
100
AcDbSymbolTableRecord
100
AcDbLayerTableRecord
  2
FRAMELAYER-086
 70
     0
 62
     7
  6
Continuous
370
    -3
390
F
  0
LAYER
  5
1A7
330
2
100
AcDbSymbolTableRecord
100
AcDbLayerTableRecord
  2
FRAMELAYER-087
 70
     0
 62
     7
  6
Continuous
370
    -3
390
F
  0
LAYER
  5
1A8
330
2
100
AcDbSymbolTableRecord
100
AcDbLayerTableRecord
  2
FRAMELAYER-088
 70
     0
 62
     7
  6
Continuous
370
    -3
390
F
  0
LAYER
  5
1A9
330
2
100
AcDbSymbolTableRecord
100
AcDbLayerTableRecord
  2
FRAMELAYER-089
 70
     0
 62
     7
  6
Continuous
370
    -3
390
F
  0
LAYER
  5
1AA
330
2
100
AcDbSymbolTableRecord
100
AcDbLayerTableRecord
  2
FRAMELAYER-090
 70
     0
 62
     7
  6
Continuous
370
    -3
390
F
  0
LAYER
  5
1AB
330
2
100
AcDbSymbolTableRecord
100
AcDbLayerTableRecord
  2
FRAMELAYER-091
 70
     0
 62
     7
  6
Continuous
370
    -3
390
F
  0
LAYER
  5
1AC
330
2
100
AcDbSymbolTableRecord
100
AcDbLayerTableRecord
  2
FRAMELAYER-092
 70
     0
 62
     7
  6
Continuous
370
    -3
390
F
  0
LAYER
  5
1AD
330
2
100
AcDbSymbolTableRecord
100
AcDbLayerTableRecord
  2
FRAMELAYER-093
 70
     0
 62
     7
  6
Continuous
370
    -3
390
F
  0
LAYER
  5
1AE
330
2
100
AcDbSymbolTableRecord
100
AcDbLayerTableRecord
  2
FRAMELAYER-094
 70
     0
 62
     7
  6
Continuous
370
    -3
390
F
  0
LAYER
  5
1AF
330
2
100
AcDbSymbolTableRecord
100
AcDbLayerTableRecord
  2
FRAMELAYER-095
 70
     0
 62
     7
  6
Continuous
370
    -3
390
F
  0
LAYER
  5
1B0
330
2
100
AcDbSymbolTableRecord
100
AcDbLayerTableRecord
  2
FRAMELAYER-096
 70
     0
 62
     7
  6
Continuous
370
    -3
390
F
  0
LAYER
  5
1B1
330
2
100
AcDbSymbolTableRecord
100
AcDbLayerTableRecord
  2
FRAMELAYER-097
 70
     0
 62
     7
  6
Continuous
370
    -3
390
F
  0
LAYER
  5
1B2
330
2
100
AcDbSymbolTableRecord
100
AcDbLayerTableRecord
  2
FRAMELAYER-098
 70
     0
 62
     7
  6
Continuous
370
    -3
390
F
  0
LAYER
  5
1B3
330
2
100
AcDbSymbolTableRecord
100
AcDbLayerTableRecord
  2
FRAMELAYER-099
 70
     0
 62
     7
  6
Continuous
370
    -3
390
F
  0
LAYER
  5
1B4
330
2
100
AcDbSymbolTableRecord
100
AcDbLayerTableRecord
  2
FRAMELAYER-100
 70
     0
 62
     7
  6
Continuous
370
    -3
390
F
  0
LAYER
  5
1B5
330
2
100
AcDbSymbolTableRecord
100
AcDbLayerTableRecord
  2
FRAMELAYER-101
 70
     0
 62
     7
  6
Continuous
370
    -3
390
F
  0
LAYER
  5
1B6
330
2
100
AcDbSymbolTableRecord
100
AcDbLayerTableRecord
  2
FRAMELAYER-102
 70
     0
 62
     7
  6
Continuous
370
    -3
390
F
  0
LAYER
  5
1B7
330
2
100
AcDbSymbolTableRecord
100
AcDbLayerTableRecord
  2
FRAMELAYER-103
 70
     0
 62
     7
  6
Continuous
370
    -3
390
F
  0
LAYER
  5
1B8
330
2
100
AcDbSymbolTableRecord
100
AcDbLayerTableRecord
  2
FRAMELAYER-104
 70
     0
 62
     7
  6
Continuous
370
    -3
390
F
  0
LAYER
  5
1B9
330
2
100
AcDbSymbolTableRecord
100
AcDbLayerTableRecord
  2
FRAMELAYER-105
 70
     0
 62
     7
  6
Continuous
370
    -3
390
F
  0
LAYER
  5
1BA
330
2
100
AcDbSymbolTableRecord
100
AcDbLayerTableRecord
  2
FRAMELAYER-106
 70
     0
 62
     7
  6
Continuous
370
    -3
390
F
  0
LAYER
  5
1BB
330
2
100
AcDbSymbolTableRecord
100
AcDbLayerTableRecord
  2
FRAMELAYER-107
 70
     0
 62
     7
  6
Continuous
370
    -3
390
F
  0
LAYER
  5
1BC
330
2
100
AcDbSymbolTableRecord
100
AcDbLayerTableRecord
  2
FRAMELAYER-108
 70
     0
 62
     7
  6
Continuous
370
    -3
390
F
  0
LAYER
  5
1BD
330
2
100
AcDbSymbolTableRecord
100
AcDbLayerTableRecord
  2
FRAMELAYER-109
 70
     0
 62
     7
  6
Continuous
370
    -3
390
F
  0
LAYER
  5
1BE
330
2
100
AcDbSymbolTableRecord
100
AcDbLayerTableRecord
  2
FRAMELAYER-110
 70
     0
 62
     7
  6
Continuous
370
    -3
390
F
  0
LAYER
  5
1BF
330
2
100
AcDbSymbolTableRecord
100
AcDbLayerTableRecord
  2
FRAMELAYER-111
 70
     0
 62
     7
  6
Continuous
370
    -3
390
F
  0
LAYER
  5
1C0
330
2
100
AcDbSymbolTableRecord
100
AcDbLayerTableRecord
  2
FRAMELAYER-112
 70
     0
 62
     7
  6
Continuous
370
    -3
390
F
  0
LAYER
  5
1C1
330
2
100
AcDbSymbolTableRecord
100
AcDbLayerTableRecord
  2
FRAMELAYER-113
 70
     0
 62
     7
  6
Continuous
370
    -3
390
F
  0
LAYER
  5
1C2
330
2
100
AcDbSymbolTableRecord
100
AcDbLayerTableRecord
  2
FRAMELAYER-114
 70
     0
 62
     7
  6
Continuous
370
    -3
390
F
  0
LAYER
  5
1C3
330
2
100
AcDbSymbolTableRecord
100
AcDbLayerTableRecord
  2
FRAMELAYER-115
 70
     0
 62
     7
  6
Continuous
370
    -3
390
F
  0
LAYER
  5
1C4
330
2
100
AcDbSymbolTableRecord
100
AcDbLayerTableRecord
  2
FRAMELAYER-116
 70
     0
 62
     7
  6
Continuous
370
    -3
390
F
  0
LAYER
  5
1C5
330
2
100
AcDbSymbolTableRecord
100
AcDbLayerTableRecord
  2
FRAMELAYER-117
 70
     0
 62
     7
  6
Continuous
370
    -3
390
F
  0
LAYER
  5
1C6
330
2
100
AcDbSymbolTableRecord
100
AcDbLayerTableRecord
  2
FRAMELAYER-118
 70
     0
 62
     7
  6
Continuous
370
    -3
390
F
  0
LAYER
  5
1C7
330
2
100
AcDbSymbolTableRecord
100
AcDbLayerTableRecord
  2
FRAMELAYER-119
 70
     0
 62
     7
  6
Continuous
370
    -3
390
F
  0
LAYER
  5
1C8
330
2
100
AcDbSymbolTableRecord
100
AcDbLayerTableRecord
  2
FRAMELAYER-120
 70
     0
 62
     7
  6
Continuous
370
    -3
390
F
  0
LAYER
  5
1C9
330
2
100
AcDbSymbolTableRecord
100
AcDbLayerTableRecord
  2
FRAMELAYER-121
 70
     0
 62
     7
  6
Continuous
370
    -3
390
F
  0
LAYER
  5
1CA
330
2
100
AcDbSymbolTableRecord
100
AcDbLayerTableRecord
  2
FRAMELAYER-122
 70
     0
 62
     7
  6
Continuous
370
    -3
390
F
  0
LAYER
  5
1CB
330
2
100
AcDbSymbolTableRecord
100
AcDbLayerTableRecord
  2
FRAMELAYER-123
 70
     0
 62
     7
  6
Continuous
370
    -3
390
F
  0
LAYER
  5
1CC
330
2
100
AcDbSymbolTableRecord
100
AcDbLayerTableRecord
  2
FRAMELAYER-124
 70
     0
 62
     7
  6
Continuous
370
    -3
390
F
  0
LAYER
  5
1CD
330
2
100
AcDbSymbolTableRecord
100
AcDbLayerTableRecord
  2
FRAMELAYER-125
 70
     0
 62
     7
  6
Continuous
370
    -3
390
F
  0
LAYER
  5
1CE
330
2
100
AcDbSymbolTableRecord
100
AcDbLayerTableRecord
  2
FRAMELAYER-126
 70
     0
 62
     7
  6
Continuous
370
    -3
390
F
  0
LAYER
  5
1CF
330
2
100
AcDbSymbolTableRecord
100
AcDbLayerTableRecord
  2
FRAMELAYER-127
 70
     0
 62
     7
  6
Continuous
370
    -3
390
F
  0
LAYER
  5
1D0
330
2
100
AcDbSymbolTableRecord
100
AcDbLayerTableRecord
  2
FRAMELAYER-128
 70
     0
 62
     7
  6
Continuous
370
    -3
390
F
  0
LAYER
  5
1D1
330
2
100
AcDbSymbolTableRecord
100
AcDbLayerTableRecord
  2
FRAMELAYER-129
 70
     0
 62
     7
  6
Continuous
370
    -3
390
F
  0
LAYER
  5
1D2
330
2
100
AcDbSymbolTableRecord
100
AcDbLayerTableRecord
  2
FRAMELAYER-130
 70
     0
 62
     7
  6
Continuous
370
    -3
390
F
  0
LAYER
  5
1D3
330
2
100
AcDbSymbolTableRecord
100
AcDbLayerTableRecord
  2
FRAMELAYER-131
 70
     0
 62
     7
  6
Continuous
370
    -3
390
F
  0
LAYER
  5
1D4
330
2
100
AcDbSymbolTableRecord
100
AcDbLayerTableRecord
  2
FRAMELAYER-132
 70
     0
 62
     7
  6
Continuous
370
    -3
390
F
  0
LAYER
  5
1D5
330
2
100
AcDbSymbolTableRecord
100
AcDbLayerTableRecord
  2
FRAMELAYER-133
 70
     0
 62
     7
  6
Continuous
370
    -3
390
F
  0
LAYER
  5
1D6
330
2
100
AcDbSymbolTableRecord
100
AcDbLayerTableRecord
  2
FRAMELAYER-134
 70
     0
 62
     7
  6
Continuous
370
    -3
390
F
  0
LAYER
  5
1D7
330
2
100
AcDbSymbolTableRecord
100
AcDbLayerTableRecord
  2
FRAMELAYER-135
 70
     0
 62
    -4
  6
Continuous
370
    -3
390
F
  0
LAYER
  5
1D8
330
2
100
AcDbSymbolTableRecord
100
AcDbLayerTableRecord
  2
FRAMELAYER-136
 70
     0
 62
    -3
  6
Continuous
370
    -3
390
F
  0
LAYER
  5
1D9
330
2
100
AcDbSymbolTableRecord
100
AcDbLayerTableRecord
  2
FRAMELAYER-137
 70
     0
 62
    -1
  6
Continuous
370
    -3
390
F
  0
LAYER
  5
1DA
330
2
100
AcDbSymbolTableRecord
100
AcDbLayerTableRecord
  2
FRAMELAYER-138
 70
     0
 62
     7
  6
Continuous
370
    -3
390
F
  0
LAYER
  5
1DB
330
2
100
AcDbSymbolTableRecord
100
AcDbLayerTableRecord
  2
FRAMELAYER-139
 70
     0
 62
     7
  6
Continuous
370
    -3
390
F
  0
LAYER
  5
1DC
330
2
100
AcDbSymbolTableRecord
100
AcDbLayerTableRecord
  2
FRAMELAYER-140
 70
     0
 62
     7
  6
Continuous
370
    -3
390
F
  0
LAYER
  5
1DD
330
2
100
AcDbSymbolTableRecord
100
AcDbLayerTableRecord
  2
FRAMELAYER-141
 70
     0
 62
     7
  6
Continuous
370
    -3
390
F
  0
LAYER
  5
1DE
330
2
100
AcDbSymbolTableRecord
100
AcDbLayerTableRecord
  2
FRAMELAYER-142
 70
     0
 62
     3
  6
Continuous
370
    -3
390
F
  0
LAYER
  5
1DF
330
2
100
AcDbSymbolTableRecord
100
AcDbLayerTableRecord
  2
FRAMELAYER-143
 70
     0
 62
     7
  6
Continuous
370
    -3
390
F
  0
LAYER
  5
1E0
330
2
100
AcDbSymbolTableRecord
100
AcDbLayerTableRecord
  2
FRAMELAYER-144
 70
     0
 62
     7
  6
Continuous
370
    -3
390
F
  0
LAYER
  5
1E1
330
2
100
AcDbSymbolTableRecord
100
AcDbLayerTableRecord
  2
FRAMELAYER-145
 70
     0
 62
     3
  6
Continuous
370
    -3
390
F
  0
LAYER
  5
1E2
330
2
100
AcDbSymbolTableRecord
100
AcDbLayerTableRecord
  2
FRAMELAYER-146
 70
     0
 62
     7
  6
Continuous
370
    -3
390
F
  0
LAYER
  5
1E3
330
2
100
AcDbSymbolTableRecord
100
AcDbLayerTableRecord
  2
FRAMELAYER-147
 70
     0
 62
     7
  6
Continuous
370
    -3
390
F
  0
LAYER
  5
1E4
330
2
100
AcDbSymbolTableRecord
100
AcDbLayerTableRecord
  2
FRAMELAYER-148
 70
     0
 62
     7
  6
Continuous
370
    -3
390
F
  0
LAYER
  5
1E5
330
2
100
AcDbSymbolTableRecord
100
AcDbLayerTableRecord
  2
FRAMELAYER-149
 70
     0
 62
     7
  6
Continuous
370
    -3
390
F
  0
LAYER
  5
1E6
330
2
100
AcDbSymbolTableRecord
100
AcDbLayerTableRecord
  2
FRAMELAYER-150
 70
     0
 62
     7
  6
Continuous
370
    -3
390
F
  0
LAYER
  5
1E7
330
2
100
AcDbSymbolTableRecord
100
AcDbLayerTableRecord
  2
FRAMELAYER-151
 70
     0
 62
     7
  6
Continuous
370
    -3
390
F
  0
LAYER
  5
1E8
330
2
100
AcDbSymbolTableRecord
100
AcDbLayerTableRecord
  2
FRAMELAYER-152
 70
     0
 62
     7
  6
Continuous
370
    -3
390
F
  0
LAYER
  5
1E9
330
2
100
AcDbSymbolTableRecord
100
AcDbLayerTableRecord
  2
FRAMELAYER-153
 70
     0
 62
     7
  6
Continuous
370
    -3
390
F
  0
LAYER
  5
1EA
330
2
100
AcDbSymbolTableRecord
100
AcDbLayerTableRecord
  2
FRAMELAYER-154
 70
     0
 62
     7
  6
Continuous
370
    -3
390
F
  0
LAYER
  5
1EB
330
2
100
AcDbSymbolTableRecord
100
AcDbLayerTableRecord
  2
FRAMELAYER-155
 70
     0
 62
     7
  6
Continuous
370
    -3
390
F
  0
LAYER
  5
1EC
330
2
100
AcDbSymbolTableRecord
100
AcDbLayerTableRecord
  2
FRAMELAYER-156
 70
     0
 62
     7
  6
Continuous
370
    -3
390
F
  0
LAYER
  5
1ED
330
2
100
AcDbSymbolTableRecord
100
AcDbLayerTableRecord
  2
FRAMELAYER-157
 70
     0
 62
     7
  6
Continuous
370
    -3
390
F
  0
LAYER
  5
1EE
330
2
100
AcDbSymbolTableRecord
100
AcDbLayerTableRecord
  2
FRAMELAYER-158
 70
     0
 62
     7
  6
Continuous
370
    -3
390
F
  0
LAYER
  5
1EF
330
2
100
AcDbSymbolTableRecord
100
AcDbLayerTableRecord
  2
FRAMELAYER-159
 70
     0
 62
     7
  6
Continuous
370
    -3
390
F
  0
LAYER
  5
1F0
330
2
100
AcDbSymbolTableRecord
100
AcDbLayerTableRecord
  2
FRAMELAYER-160
 70
     0
 62
     7
  6
Continuous
370
    -3
390
F
  0
LAYER
  5
1F1
330
2
100
AcDbSymbolTableRecord
100
AcDbLayerTableRecord
  2
FRAMELAYER-161
 70
     0
 62
     7
  6
Continuous
370
    -3
390
F
  0
LAYER
  5
1F2
330
2
100
AcDbSymbolTableRecord
100
AcDbLayerTableRecord
  2
FRAMELAYER-162
 70
     0
 62
     7
  6
Continuous
370
    -3
390
F
  0
LAYER
  5
1F3
330
2
100
AcDbSymbolTableRecord
100
AcDbLayerTableRecord
  2
FRAMELAYER-163
 70
     0
 62
     7
  6
Continuous
370
    -3
390
F
  0
LAYER
  5
1F4
330
2
100
AcDbSymbolTableRecord
100
AcDbLayerTableRecord
  2
FRAMELAYER-164
 70
     0
 62
     7
  6
Continuous
370
    -3
390
F
  0
LAYER
  5
1F5
330
2
100
AcDbSymbolTableRecord
100
AcDbLayerTableRecord
  2
FRAMELAYER-165
 70
     0
 62
     7
  6
Continuous
370
    -3
390
F
  0
LAYER
  5
1F6
330
2
100
AcDbSymbolTableRecord
100
AcDbLayerTableRecord
  2
FRAMELAYER-166
 70
     0
 62
     7
  6
Continuous
370
    -3
390
F
  0
LAYER
  5
1F7
330
2
100
AcDbSymbolTableRecord
100
AcDbLayerTableRecord
  2
FRAMELAYER-167
 70
     0
 62
     7
  6
Continuous
370
    -3
390
F
  0
LAYER
  5
1F8
330
2
100
AcDbSymbolTableRecord
100
AcDbLayerTableRecord
  2
FRAMELAYER-168
 70
     0
 62
     7
  6
Continuous
370
    -3
390
F
  0
LAYER
  5
1F9
330
2
100
AcDbSymbolTableRecord
100
AcDbLayerTableRecord
  2
FRAMELAYER-169
 70
     0
 62
     7
  6
Continuous
370
    -3
390
F
  0
LAYER
  5
1FA
330
2
100
AcDbSymbolTableRecord
100
AcDbLayerTableRecord
  2
FRAMELAYER-170
 70
     0
 62
     7
  6
Continuous
370
    -3
390
F
  0
LAYER
  5
1FB
330
2
100
AcDbSymbolTableRecord
100
AcDbLayerTableRecord
  2
FRAMELAYER-171
 70
     0
 62
     7
  6
Continuous
370
    -3
390
F
  0
LAYER
  5
1FC
330
2
100
AcDbSymbolTableRecord
100
AcDbLayerTableRecord
  2
FRAMELAYER-172
 70
     0
 62
     7
  6
Continuous
370
    -3
390
F
  0
LAYER
  5
1FD
330
2
100
AcDbSymbolTableRecord
100
AcDbLayerTableRecord
  2
FRAMELAYER-173
 70
     0
 62
     7
  6
Continuous
370
    -3
390
F
  0
LAYER
  5
1FE
330
2
100
AcDbSymbolTableRecord
100
AcDbLayerTableRecord
  2
FRAMELAYER-174
 70
     0
 62
     7
  6
Continuous
370
    -3
390
F
  0
LAYER
  5
1FF
330
2
100
AcDbSymbolTableRecord
100
AcDbLayerTableRecord
  2
FRAMELAYER-175
 70
     0
 62
     7
  6
Continuous
370
    -3
390
F
  0
LAYER
  5
200
330
2
100
AcDbSymbolTableRecord
100
AcDbLayerTableRecord
  2
FRAMELAYER-176
 70
     0
 62
     7
  6
Continuous
370
    -3
390
F
  0
LAYER
  5
201
330
2
100
AcDbSymbolTableRecord
100
AcDbLayerTableRecord
  2
FRAMELAYER-177
 70
     0
 62
     7
  6
Continuous
370
    -3
390
F
  0
LAYER
  5
202
330
2
100
AcDbSymbolTableRecord
100
AcDbLayerTableRecord
  2
FRAMELAYER-178
 70
     0
 62
     7
  6
Continuous
370
    -3
390
F
  0
LAYER
  5
203
330
2
100
AcDbSymbolTableRecord
100
AcDbLayerTableRecord
  2
FRAMELAYER-179
 70
     0
 62
     7
  6
Continuous
370
    -3
390
F
  0
LAYER
  5
204
330
2
100
AcDbSymbolTableRecord
100
AcDbLayerTableRecord
  2
FRAMELAYER-180
 70
     0
 62
     7
  6
Continuous
370
    -3
390
F
  0
LAYER
  5
205
330
2
100
AcDbSymbolTableRecord
100
AcDbLayerTableRecord
  2
FRAMELAYER-181
 70
     0
 62
     7
  6
Continuous
370
    -3
390
F
  0
LAYER
  5
206
330
2
100
AcDbSymbolTableRecord
100
AcDbLayerTableRecord
  2
FRAMELAYER-182
 70
     0
 62
     7
  6
Continuous
370
    -3
390
F
  0
LAYER
  5
207
330
2
100
AcDbSymbolTableRecord
100
AcDbLayerTableRecord
  2
FRAMELAYER-183
 70
     0
 62
     7
  6
Continuous
370
    -3
390
F
  0
LAYER
  5
208
330
2
100
AcDbSymbolTableRecord
100
AcDbLayerTableRecord
  2
FRAMELAYER-184
 70
     0
 62
     7
  6
Continuous
370
    -3
390
F
  0
LAYER
  5
209
330
2
100
AcDbSymbolTableRecord
100
AcDbLayerTableRecord
  2
FRAMELAYER-185
 70
     0
 62
     7
  6
Continuous
370
    -3
390
F
  0
LAYER
  5
20A
330
2
100
AcDbSymbolTableRecord
100
AcDbLayerTableRecord
  2
FRAMELAYER-186
 70
     0
 62
     7
  6
Continuous
370
    -3
390
F
  0
LAYER
  5
20B
330
2
100
AcDbSymbolTableRecord
100
AcDbLayerTableRecord
  2
FRAMELAYER-187
 70
     0
 62
     7
  6
Continuous
370
    -3
390
F
  0
LAYER
  5
20C
330
2
100
AcDbSymbolTableRecord
100
AcDbLayerTableRecord
  2
FRAMELAYER-188
 70
     0
 62
     7
  6
Continuous
370
    -3
390
F
  0
LAYER
  5
20D
330
2
100
AcDbSymbolTableRecord
100
AcDbLayerTableRecord
  2
FRAMELAYER-189
 70
     0
 62
     7
  6
Continuous
370
    -3
390
F
  0
LAYER
  5
20E
330
2
100
AcDbSymbolTableRecord
100
AcDbLayerTableRecord
  2
FRAMELAYER-190
 70
     0
 62
     7
  6
Continuous
370
    -3
390
F
  0
LAYER
  5
20F
330
2
100
AcDbSymbolTableRecord
100
AcDbLayerTableRecord
  2
FRAMELAYER-191
 70
     0
 62
     7
  6
Continuous
370
    -3
390
F
  0
LAYER
  5
210
330
2
100
AcDbSymbolTableRecord
100
AcDbLayerTableRecord
  2
FRAMELAYER-192
 70
     0
 62
     7
  6
Continuous
370
    -3
390
F
  0
LAYER
  5
211
330
2
100
AcDbSymbolTableRecord
100
AcDbLayerTableRecord
  2
FRAMELAYER-193
 70
     0
 62
     7
  6
Continuous
370
    -3
390
F
  0
LAYER
  5
212
330
2
100
AcDbSymbolTableRecord
100
AcDbLayerTableRecord
  2
FRAMELAYER-194
 70
     0
 62
     2
  6
Continuous
370
    -3
390
F
  0
LAYER
  5
213
330
2
100
AcDbSymbolTableRecord
100
AcDbLayerTableRecord
  2
FRAMELAYER-195
 70
     0
 62
     2
  6
Continuous
370
    -3
390
F
  0
LAYER
  5
214
330
2
100
AcDbSymbolTableRecord
100
AcDbLayerTableRecord
  2
FRAMELAYER-196
 70
     0
 62
     2
  6
Continuous
370
    -3
390
F
  0
LAYER
  5
215
330
2
100
AcDbSymbolTableRecord
100
AcDbLayerTableRecord
  2
FRAMELAYER-197
 70
     0
 62
     7
  6
Continuous
370
    -3
390
F
  0
LAYER
  5
216
330
2
100
AcDbSymbolTableRecord
100
AcDbLayerTableRecord
  2
FRAMELAYER-198
 70
     0
 62
     7
  6
Continuous
370
    -3
390
F
  0
LAYER
  5
217
330
2
100
AcDbSymbolTableRecord
100
AcDbLayerTableRecord
  2
FRAMELAYER-199
 70
     0
 62
     4
  6
Continuous
370
    -3
390
F
  0
LAYER
  5
218
330
2
100
AcDbSymbolTableRecord
100
AcDbLayerTableRecord
  2
FRAMELAYER-200
 70
     0
 62
     1
  6
Continuous
370
    -3
390
F
  0
LAYER
  5
219
330
2
100
AcDbSymbolTableRecord
100
AcDbLayerTableRecord
  2
FRAMELAYER-201
 70
     0
 62
     1
  6
Continuous
370
    -3
390
F
  0
LAYER
  5
21A
330
2
100
AcDbSymbolTableRecord
100
AcDbLayerTableRecord
  2
FRAMELAYER-202
 70
     0
 62
     2
  6
Continuous
370
    -3
390
F
  0
LAYER
  5
21B
330
2
100
AcDbSymbolTableRecord
100
AcDbLayerTableRecord
  2
FRAMELAYER-203
 70
     0
 62
     2
  6
Continuous
370
    -3
390
F
  0
LAYER
  5
21C
330
2
100
AcDbSymbolTableRecord
100
AcDbLayerTableRecord
  2
FRAMELAYER-204
 70
     0
 62
     7
  6
Continuous
370
    -3
390
F
  0
LAYER
  5
21D
330
2
100
AcDbSymbolTableRecord
100
AcDbLayerTableRecord
  2
FRAMELAYER-205
 70
     0
 62
     7
  6
Continuous
370
    -3
390
F
  0
LAYER
  5
21E
330
2
100
AcDbSymbolTableRecord
100
AcDbLayerTableRecord
  2
FRAMELAYER-206
 70
     0
 62
     7
  6
Continuous
370
    -3
390
F
  0
LAYER
  5
21F
330
2
100
AcDbSymbolTableRecord
100
AcDbLayerTableRecord
  2
FRAMELAYER-207
 70
     0
 62
    -7
  6
Continuous
370
    -3
390
F
  0
LAYER
  5
220
330
2
100
AcDbSymbolTableRecord
100
AcDbLayerTableRecord
  2
FRAMELAYER-208
 70
     0
 62
     2
  6
Continuous
370
    -3
390
F
  0
LAYER
  5
221
330
2
100
AcDbSymbolTableRecord
100
AcDbLayerTableRecord
  2
FRAMELAYER-209
 70
     0
 62
     7
  6
Continuous
370
    -3
390
F
  0
LAYER
  5
222
330
2
100
AcDbSymbolTableRecord
100
AcDbLayerTableRecord
  2
FRAMELAYER-210
 70
     0
 62
     2
  6
Continuous
290
     0
370
    -3
390
F
  0
LAYER
  5
223
330
2
100
AcDbSymbolTableRecord
100
AcDbLayerTableRecord
  2
FRAMELAYER-211
 70
     0
 62
     7
  6
Continuous
370
    -3
390
F
  0
LAYER
  5
224
330
2
100
AcDbSymbolTableRecord
100
AcDbLayerTableRecord
  2
FRAMELAYER-212
 70
     0
 62
     7
  6
Continuous
370
    -3
390
F
  0
LAYER
  5
225
330
2
100
AcDbSymbolTableRecord
100
AcDbLayerTableRecord
  2
FRAMELAYER-213
 70
     0
 62
     2
  6
Continuous
370
    -3
390
F
  0
LAYER
  5
226
330
2
100
AcDbSymbolTableRecord
100
AcDbLayerTableRecord
  2
FRAMELAYER-214
 70
     0
 62
     7
  6
Continuous
370
    -3
390
F
  0
LAYER
  5
227
330
2
100
AcDbSymbolTableRecord
100
AcDbLayerTableRecord
  2
FRAMELAYER-215
 70
     0
 62
     7
  6
Continuous
370
    -3
390
F
  0
LAYER
  5
228
330
2
100
AcDbSymbolTableRecord
100
AcDbLayerTableRecord
  2
FRAMELAYER-216
 70
     0
 62
     4
  6
Continuous
370
    -3
390
F
  0
LAYER
  5
229
330
2
100
AcDbSymbolTableRecord
100
AcDbLayerTableRecord
  2
FRAMELAYER-217
 70
     0
 62
     7
  6
Continuous
370
    -3
390
F
  0
LAYER
  5
22A
330
2
100
AcDbSymbolTableRecord
100
AcDbLayerTableRecord
  2
FRAMELAYER-218
 70
     0
 62
     7
  6
Continuous
370
    -3
390
F
  0
LAYER
  5
22B
330
2
100
AcDbSymbolTableRecord
100
AcDbLayerTableRecord
  2
FRAMELAYER-219
 70
     0
 62
     7
  6
Continuous
370
    -3
390
F
  0
LAYER
  5
22C
330
2
100
AcDbSymbolTableRecord
100
AcDbLayerTableRecord
  2
FRAMELAYER-220
 70
     0
 62
     4
  6
Continuous
370
    -3
390
F
  0
LAYER
  5
22D
330
2
100
AcDbSymbolTableRecord
100
AcDbLayerTableRecord
  2
FRAMELAYER-221
 70
     0
 62
    -7
  6
Continuous
290
     0
370
    -3
390
F
  0
LAYER
  5
22E
330
2
100
AcDbSymbolTableRecord
100
AcDbLayerTableRecord
  2
FRAMELAYER-222
 70
     0
 62
    -4
  6
Continuous
290
     0
370
    -3
390
F
  0
LAYER
  5
22F
330
2
100
AcDbSymbolTableRecord
100
AcDbLayerTableRecord
  2
FRAMELAYER-223
 70
     0
 62
    -1
  6
Continuous
290
     0
370
    -3
390
F
  0
LAYER
  5
230
330
2
100
AcDbSymbolTableRecord
100
AcDbLayerTableRecord
  2
FRAMELAYER-224
 70
     0
 62
    -1
  6
Continuous
290
     0
370
    -3
390
F
  0
LAYER
  5
231
330
2
100
AcDbSymbolTableRecord
100
AcDbLayerTableRecord
  2
FRAMELAYER-225
 70
     0
 62
     7
  6
Continuous
370
    -3
390
F
  0
LAYER
  5
232
330
2
100
AcDbSymbolTableRecord
100
AcDbLayerTableRecord
  2
FRAMELAYER-226
 70
     0
 62
     2
  6
Continuous
370
    -3
390
F
  0
LAYER
  5
233
330
2
100
AcDbSymbolTableRecord
100
AcDbLayerTableRecord
  2
FRAMELAYER-227
 70
     0
 62
     7
  6
Continuous
370
    -3
390
F
  0
LAYER
  5
234
330
2
100
AcDbSymbolTableRecord
100
AcDbLayerTableRecord
  2
FRAMELAYER-228
 70
     0
 62
     7
  6
Continuous
370
    -3
390
F
  0
LAYER
  5
235
330
2
100
AcDbSymbolTableRecord
100
AcDbLayerTableRecord
  2
FRAMELAYER-229
 70
     0
 62
     7
  6
Continuous
370
    -3
390
F
  0
LAYER
  5
236
330
2
100
AcDbSymbolTableRecord
100
AcDbLayerTableRecord
  2
FRAMELAYER-230
 70
     0
 62
     7
  6
Continuous
370
    -3
390
F
  0
LAYER
  5
237
330
2
100
AcDbSymbolTableRecord
100
AcDbLayerTableRecord
  2
FRAMELAYER-231
 70
     0
 62
     7
  6
Continuous
370
    -3
390
F
  0
LAYER
  5
238
330
2
100
AcDbSymbolTableRecord
100
AcDbLayerTableRecord
  2
FRAMELAYER-232
 70
     0
 62
     7
  6
Continuous
370
    -3
390
F
  0
LAYER
  5
239
330
2
100
AcDbSymbolTableRecord
100
AcDbLayerTableRecord
  2
FRAMELAYER-233
 70
     0
 62
     7
  6
Continuous
370
    -3
390
F
  0
LAYER
  5
23A
330
2
100
AcDbSymbolTableRecord
100
AcDbLayerTableRecord
  2
FRAMELAYER-234
 70
     0
 62
     7
  6
Continuous
370
    -3
390
F
  0
LAYER
  5
23B
330
2
100
AcDbSymbolTableRecord
100
AcDbLayerTableRecord
  2
FRAMELAYER-235
 70
     0
 62
     7
  6
Continuous
370
    -3
390
F
  0
LAYER
  5
23C
330
2
100
AcDbSymbolTableRecord
100
AcDbLayerTableRecord
  2
FRAMELAYER-236
 70
     0
 62
     7
  6
Continuous
370
    -3
390
F
  0
LAYER
  5
23D
330
2
100
AcDbSymbolTableRecord
100
AcDbLayerTableRecord
  2
FRAMELAYER-237
 70
     0
 62
     7
  6
Continuous
370
    -3
390
F
  0
LAYER
  5
23E
330
2
100
AcDbSymbolTableRecord
100
AcDbLayerTableRecord
  2
FRAMELAYER-238
 70
     0
 62
     7
  6
Continuous
370
    -3
390
F
  0
LAYER
  5
23F
330
2
100
AcDbSymbolTableRecord
100
AcDbLayerTableRecord
  2
FRAMELAYER-239
 70
     0
 62
     7
  6
Continuous
370
    -3
390
F
  0
LAYER
  5
240
330
2
100
AcDbSymbolTableRecord
100
AcDbLayerTableRecord
  2
FRAMELAYER-240
 70
     0
 62
     7
  6
Continuous
370
    -3
390
F
  0
LAYER
  5
241
330
2
100
AcDbSymbolTableRecord
100
AcDbLayerTableRecord
  2
FRAMELAYER-241
 70
     0
 62
     7
  6
Continuous
370
    -3
390
F
  0
LAYER
  5
242
330
2
100
AcDbSymbolTableRecord
100
AcDbLayerTableRecord
  2
FRAMELAYER-242
 70
     0
 62
     7
  6
Continuous
370
    -3
390
F
  0
LAYER
  5
243
330
2
100
AcDbSymbolTableRecord
100
AcDbLayerTableRecord
  2
FRAMELAYER-243
 70
     0
 62
     7
  6
Continuous
370
    -3
390
F
  0
LAYER
  5
244
330
2
100
AcDbSymbolTableRecord
100
AcDbLayerTableRecord
  2
FRAMELAYER-244
 70
     0
 62
     7
  6
Continuous
370
    -3
390
F
  0
LAYER
  5
245
330
2
100
AcDbSymbolTableRecord
100
AcDbLayerTableRecord
  2
FRAMELAYER-245
 70
     0
 62
     7
  6
Continuous
370
    -3
390
F
  0
LAYER
  5
246
330
2
100
AcDbSymbolTableRecord
100
AcDbLayerTableRecord
  2
FRAMELAYER-246
 70
     0
 62
     7
  6
Continuous
370
    -3
390
F
  0
LAYER
  5
247
330
2
100
AcDbSymbolTableRecord
100
AcDbLayerTableRecord
  2
FRAMELAYER-247
 70
     0
 62
     7
  6
Continuous
370
    -3
390
F
  0
LAYER
  5
248
330
2
100
AcDbSymbolTableRecord
100
AcDbLayerTableRecord
  2
FRAMELAYER-248
 70
     0
 62
     7
  6
Continuous
370
    -3
390
F
  0
LAYER
  5
249
330
2
100
AcDbSymbolTableRecord
100
AcDbLayerTableRecord
  2
FRAMELAYER-249
 70
     0
 62
     7
  6
Continuous
370
    -3
390
F
  0
LAYER
  5
24A
330
2
100
AcDbSymbolTableRecord
100
AcDbLayerTableRecord
  2
FRAMELAYER-250
 70
     0
 62
     7
  6
Continuous
370
    -3
390
F
  0
LAYER
  5
24B
330
2
100
AcDbSymbolTableRecord
100
AcDbLayerTableRecord
  2
FRAMELAYER-251
 70
     0
 62
     7
  6
Continuous
370
    -3
390
F
  0
LAYER
  5
24C
330
2
100
AcDbSymbolTableRecord
100
AcDbLayerTableRecord
  2
FRAMELAYER-252
 70
     0
 62
     7
  6
Continuous
370
    -3
390
F
  0
LAYER
  5
24D
330
2
100
AcDbSymbolTableRecord
100
AcDbLayerTableRecord
  2
FRAMELAYER-253
 70
     0
 62
     7
  6
Continuous
370
    -3
390
F
  0
LAYER
  5
24E
330
2
100
AcDbSymbolTableRecord
100
AcDbLayerTableRecord
  2
FRAMELAYER-254
 70
     0
 62
     7
  6
Continuous
370
    -3
390
F
  0
LAYER
  5
24F
330
2
100
AcDbSymbolTableRecord
100
AcDbLayerTableRecord
  2
FRAMELAYER-255
 70
     0
 62
     7
  6
Continuous
370
    -3
390
F
  0
LAYER
  5
250
330
2
100
AcDbSymbolTableRecord
100
AcDbLayerTableRecord
  2
FRAMELAYER-256
 70
     0
 62
     7
  6
Continuous
370
    -3
390
F
  0
ENDTAB
  0
TABLE
  2
STYLE
  5
3
330
0
100
AcDbSymbolTable
 70
     7
  0
STYLE
  5
11
330
3
100
AcDbSymbolTableRecord
100
AcDbTextStyleTableRecord
  2
Standard
 70
     0
 40
0.0
 41
1.0
 50
0.0
 71
     0
 42
2.5
  3
txt
  4

  0
STYLE
  5
31
330
3
100
AcDbSymbolTableRecord
100
AcDbTextStyleTableRecord
  2
STANDARD2
 70
     0
 40
0.0
 41
1.0
 50
0.0
 71
     0
 42
4.0
  3
MS Mincho.ttf
  4

1001
ACAD
1000
MS Mincho
1071
    32785
  0
STYLE
  5
32
330
3
100
AcDbSymbolTableRecord
100
AcDbTextStyleTableRecord
  2
STRING_H
 70
     0
 40
0.0
 41
1.0
 50
0.0
 71
     0
 42
4.0
  3
MS Mincho.ttf
  4

1001
ACAD
1000
MS Mincho
1071
    32785
  0
STYLE
  5
33
330
3
100
AcDbSymbolTableRecord
100
AcDbTextStyleTableRecord
  2
STRING_H_ITALIC
 70
     0
 40
0.0
 41
1.0
 50
15.0
 71
     0
 42
4.0
  3
MS Mincho.ttf
  4

1001
ACAD
1000
MS Mincho
1071
    32785
  0
STYLE
  5
34
330
3
100
AcDbSymbolTableRecord
100
AcDbTextStyleTableRecord
  2
STRING_V
 70
     0
 40
0.0
 41
1.0
 50
0.0
 71
     0
 42
4.0
  3
@MS Mincho.ttf
  4

1001
ACAD
1000
@MS Mincho
1071
    32785
  0
STYLE
  5
35
330
3
100
AcDbSymbolTableRecord
100
AcDbTextStyleTableRecord
  2
STRING_V_ITALIC
 70
     0
 40
0.0
 41
1.0
 50
15.0
 71
     0
 42
4.0
  3
@MS Mincho.ttf
  4

1001
ACAD
1000
@MS Mincho
1071
    32785
  0
STYLE
  5
36
330
3
100
AcDbSymbolTableRecord
100
AcDbTextStyleTableRecord
  2

 70
     1
 40
0.0
 41
1.0
 50
0.0
 71
     0
 42
0.2
  3
ltypeshp.shx
  4

  0
ENDTAB
  0
TABLE
  2
VIEW
  5
6
330
0
100
AcDbSymbolTable
 70
     0
  0
ENDTAB
  0
TABLE
  2
UCS
  5
7
330
0
100
AcDbSymbolTable
 70
     0
  0
ENDTAB
  0
TABLE
  2
APPID
  5
9
330
0
100
AcDbSymbolTable
 70
     1
  0
APPID
  5
12
330
9
100
AcDbSymbolTableRecord
100
AcDbRegAppTableRecord
  2
ACAD
 70
     0
  0
ENDTAB
  0
TABLE
  2
DIMSTYLE
  5
A
330
0
100
AcDbSymbolTable
 70
     2
100
AcDbDimStyleTable
  0
DIMSTYLE
105
27
330
A
100
AcDbSymbolTableRecord
100
AcDbDimStyleTableRecord
  2
ISO-25
 70
     0
 41
2.5
 42
0.625
 43
3.75
 44
1.25
 73
     0
 74
     0
 77
     1
 78
     8
140
2.5
141
2.5
143
0.03937007874016
147
0.625
171
     3
172
     1
271
     2
272
     2
274
     3
283
     0
284
     8
340
11
  0
DIMSTYLE
105
251
102
{ACAD_REACTORS
330
45C
330
466
330
470
330
47A
330
484
330
48E
102
}
330
A
100
AcDbSymbolTableRecord
100
AcDbDimStyleTableRecord
  2
DIO_DIMSTYLE
 70
     0
 41
4.0
 42
1.0
 43
3.75
 44
1.0
 45
0.1
 73
     0
 74
     0
 77
     1
 78
     8
 79
     2
140
3.0
141
2.5
143
0.03937007874016
147
0.5
171
     3
172
     1
173
     1
179
     1
271
     1
272
     1
274
     3
283
     0
284
     8
288
     1
289
     0
340
31
  0
ENDTAB
  0
TABLE
  2
BLOCK_RECORD
  5
1
330
0
100
AcDbSymbolTable
 70
     8
  0
BLOCK_RECORD
  5
1F
330
1
100
AcDbSymbolTableRecord
100
AcDbBlockTableRecord
  2
*Model_Space
340
22
  0
BLOCK_RECORD
  5
1B
330
1
100
AcDbSymbolTableRecord
100
AcDbBlockTableRecord
  2
*Paper_Space
340
1E
  0
BLOCK_RECORD
  5
23
330
1
100
AcDbSymbolTableRecord
100
AcDbBlockTableRecord
  2
*Paper_Space0
340
26
  0
BLOCK_RECORD
  5
44B
330
1
100
AcDbSymbolTableRecord
100
AcDbBlockTableRecord
  2
_OPEN
340
0
102
{BLKREFS
331
454
331
455
331
460
331
461
331
46A
331
46B
331
474
331
475
331
47E
331
47F
331
488
331
489
102
}
  0
BLOCK_RECORD
  5
451
330
1
100
AcDbSymbolTableRecord
100
AcDbBlockTableRecord
  2
*D02
340
0
  0
BLOCK_RECORD
  5
45D
330
1
100
AcDbSymbolTableRecord
100
AcDbBlockTableRecord
  2
*D13
340
0
  0
BLOCK_RECORD
  5
467
330
1
100
AcDbSymbolTableRecord
100
AcDbBlockTableRecord
  2
*D24
340
0
  0
BLOCK_RECORD
  5
471
330
1
100
AcDbSymbolTableRecord
100
AcDbBlockTableRecord
  2
*D35
340
0
  0
BLOCK_RECORD
  5
47B
330
1
100
AcDbSymbolTableRecord
100
AcDbBlockTableRecord
  2
*D46
340
0
  0
BLOCK_RECORD
  5
485
330
1
100
AcDbSymbolTableRecord
100
AcDbBlockTableRecord
  2
*D57
340
0
  0
ENDTAB
  0
ENDSEC
  0
SECTION
  2
BLOCKS
  0
BLOCK
  5
20
330
1F
100
AcDbEntity
  8
0
100
AcDbBlockBegin
  2
*Model_Space
 70
     0
 71
     0
 10
0.0
 20
0.0
 30
0.0
  3
*Model_Space
  1

  0
ENDBLK
  5
21
330
1F
100
AcDbEntity
  8
0
100
AcDbBlockEnd
  0
BLOCK
  5
1C
330
1B
100
AcDbEntity
 67
     1
  8
0
100
AcDbBlockBegin
  2
*Paper_Space
 70
     0
 71
     0
 10
0.0
 20
0.0
 30
0.0
  3
*Paper_Space
  1

  0
ENDBLK
  5
1D
330
1B
100
AcDbEntity
 67
     1
  8
0
100
AcDbBlockEnd
  0
BLOCK
  5
24
330
23
100
AcDbEntity
  8
0
100
AcDbBlockBegin
  2
*Paper_Space0
 70
     0
 71
     0
 10
0.0
 20
0.0
 30
0.0
  3
*Paper_Space0
  1

  0
ENDBLK
  5
25
330
23
100
AcDbEntity
  8
0
100
AcDbBlockEnd
  0
BLOCK
  5
44C
330
44B
100
AcDbEntity
  8
0
100
AcDbBlockBegin
  2
_OPEN
 70
     0
 71
     0
 10
0.0
 20
0.0
 30
0.0
  3
_OPEN
  1

  0
LINE
  5
44E
330
44B
100
AcDbEntity
  8
LAYER-035
  6
Continuous
 62
     0
100
AcDbLine
 10
0.0
 20
0.0
 30
0.0
 11
-1.0
 21
0.0
 31
0.0
  0
LINE
  5
44F
330
44B
100
AcDbEntity
  8
LAYER-035
  6
Continuous
 62
     0
100
AcDbLine
 10
0.0
 20
0.0
 30
0.0
 11
-1.0
 21
0.1666250109338451
 31
0.0
  0
LINE
  5
450
330
44B
100
AcDbEntity
  8
LAYER-035
  6
Continuous
 62
     0
100
AcDbLine
 10
0.0
 20
0.0
 30
0.0
 11
-1.0
 21
-0.1666250109338451
 31
0.0
  0
ENDBLK
  5
44D
330
44B
100
AcDbEntity
  8
0
100
AcDbBlockEnd
  0
BLOCK
  5
452
330
451
100
AcDbEntity
  8
0
100
AcDbBlockBegin
  2
*D02
 70
     1
 71
     0
 10
0.0
 20
0.0
 30
0.0
  3
*D02
  1

  0
INSERT
  5
454
330
451
100
AcDbEntity
  8
LAYER-035
  6
Continuous
 62
     5
100
AcDbBlockReference
  2
_OPEN
 10
220.7039901107193
 20
114.2356977097626
 30
0.0
 41
4.0
 42
4.0
 43
4.0
  0
INSERT
  5
455
330
451
100
AcDbEntity
  8
LAYER-035
  6
Continuous
 62
     5
100
AcDbBlockReference
  2
_OPEN
 10
230.2039901107193
 20
114.2356977097626
 30
0.0
 41
4.0
 42
4.0
 43
4.0
 50
180.0
  0
LINE
  5
456
330
451
100
AcDbEntity
  8
LAYER-035
  6
Continuous
 62
     5
100
AcDbLine
 10
220.7039901107193
 20
104.8440517000377
 30
0.0
 11
220.7039901107193
 21
115.2356977097626
 31
0.0
  0
LINE
  5
457
330
451
100
AcDbEntity
  8
LAYER-035
  6
Continuous
 62
     5
100
AcDbLine
 10
230.2039901107193
 20
104.8440517000377
 30
0.0
 11
230.2039901107193
 21
115.2356977097626
 31
0.0
  0
LINE
  5
458
330
451
100
AcDbEntity
  8
LAYER-035
  6
Continuous
 62
     5
100
AcDbLine
 10
220.7039901107193
 20
114.2356977097626
 30
0.0
 11
230.2039901107193
 21
114.2356977097626
 31
0.0
  0
LINE
  5
459
330
451
100
AcDbEntity
  8
LAYER-035
  6
Continuous
 62
     5
100
AcDbLine
 10
230.2039901107193
 20
114.2356977097626
 30
0.0
 11
246.600341346
 21
114.2356977097626
 31
0.0
  0
LINE
  5
45A
330
451
100
AcDbEntity
  8
LAYER-035
  6
Continuous
 62
     5
100
AcDbLine
 10
220.7039901107193
 20
114.2356977097626
 30
0.0
 11
212.7039901107193
 21
114.2356977097626
 31
0.0
  0
MTEXT
  5
45B
330
451
100
AcDbEntity
  8
LAYER-036
  6
Continuous
 62
     5
100
AcDbMText
 10
234.600341346
 20
114.73569771
 30
0.0
 40
4.0
 41
0.0
 71
     7
 72
     1
  1
9.5
  7
STRING_H
 73
     1
 44
1.0
  0
ENDBLK
  5
453
330
451
100
AcDbEntity
  8
0
100
AcDbBlockEnd
  0
BLOCK
  5
45E
330
45D
100
AcDbEntity
  8
0
100
AcDbBlockBegin
  2
*D13
 70
     1
 71
     0
 10
0.0
 20
0.0
 30
0.0
  3
*D13
  1

  0
INSERT
  5
460
330
45D
100
AcDbEntity
  8
LAYER-035
  6
Continuous
 62
     5
100
AcDbBlockReference
  2
_OPEN
 10
-190.588873573778
 20
144.1244681891535
 30
0.0
 41
4.0
 42
4.0
 43
4.0
  0
INSERT
  5
461
330
45D
100
AcDbEntity
  8
LAYER-035
  6
Continuous
 62
     5
100
AcDbBlockReference
  2
_OPEN
 10
-390.588873573778
 20
144.1244681891535
 30
0.0
 41
4.0
 42
4.0
 43
4.0
 50
180.0
  0
LINE
  5
462
330
45D
100
AcDbEntity
  8
LAYER-035
  6
Continuous
 62
     5
100
AcDbLine
 10
-190.588873573778
 20
113.8190502899224
 30
0.0
 11
-190.588873573778
 21
145.1244681891535
 31
0.0
  0
LINE
  5
463
330
45D
100
AcDbEntity
  8
LAYER-035
  6
Continuous
 62
     5
100
AcDbLine
 10
-390.588873573778
 20
113.8190502899224
 30
0.0
 11
-390.588873573778
 21
145.1244681891535
 31
0.0
  0
LINE
  5
464
330
45D
100
AcDbEntity
  8
LAYER-035
  6
Continuous
 62
     5
100
AcDbLine
 10
-190.588873573778
 20
144.1244681891535
 30
0.0
 11
-390.588873573778
 21
144.1244681891535
 31
0.0
  0
MTEXT
  5
465
330
45D
100
AcDbEntity
  8
LAYER-036
  6
Continuous
 62
     5
100
AcDbMText
 10
-290.588873573778
 20
144.6244681891535
 30
0.0
 40
4.0
 41
0.0
 71
     8
 72
     1
  1
200
  7
STRING_H
 73
     1
 44
1.0
  0
ENDBLK
  5
45F
330
45D
100
AcDbEntity
  8
0
100
AcDbBlockEnd
  0
BLOCK
  5
468
330
467
100
AcDbEntity
  8
0
100
AcDbBlockBegin
  2
*D24
 70
     1
 71
     0
 10
0.0
 20
0.0
 30
0.0
  3
*D24
  1

  0
INSERT
  5
46A
330
467
100
AcDbEntity
  8
LAYER-035
  6
Continuous
 62
     5
100
AcDbBlockReference
  2
_OPEN
 10
-154.1852410757475
 20
123.8440501244899
 30
0.0
 41
4.0
 42
4.0
 43
4.0
 50
90.0
  0
INSERT
  5
46B
330
467
100
AcDbEntity
  8
LAYER-035
  6
Continuous
 62
     5
100
AcDbBlockReference
  2
_OPEN
 10
-154.1852410757475
 20
-106.1559467244144
 30
0.0
 41
4.0
 42
4.0
 43
4.0
 50
-90.0
  0
LINE
  5
46C
330
467
100
AcDbEntity
  8
LAYER-035
  6
Continuous
 62
     5
100
AcDbLine
 10
-202.1888733847123
 20
123.8440501244899
 30
0.0
 11
-153.1852410757475
 21
123.8440501244899
 31
0.0
  0
LINE
  5
46D
330
467
100
AcDbEntity
  8
LAYER-035
  6
Continuous
 62
     5
100
AcDbLine
 10
-202.1888702349063
 20
-106.1559467244144
 30
0.0
 11
-153.1852410757475
 21
-106.1559467244144
 31
0.0
  0
LINE
  5
46E
330
467
100
AcDbEntity
  8
LAYER-035
  6
Continuous
 62
     5
100
AcDbLine
 10
-154.1852410757475
 20
123.8440501244899
 30
0.0
 11
-154.1852410757475
 21
-106.1559467244144
 31
0.0
  0
MTEXT
  5
46F
330
467
100
AcDbEntity
  8
LAYER-036
  6
Continuous
 62
     5
100
AcDbMText
 10
-154.6852410757475
 20
8.844051700037738
 30
0.0
 40
4.0
 41
0.0
 71
     8
 72
     1
  1
230
  7
STRING_H
 11
6.123031769111886E-17
 21
1.0
 31
0.0
 73
     1
 44
1.0
  0
ENDBLK
  5
469
330
467
100
AcDbEntity
  8
0
100
AcDbBlockEnd
  0
BLOCK
  5
472
330
471
100
AcDbEntity
  8
0
100
AcDbBlockBegin
  2
*D35
 70
     1
 71
     0
 10
0.0
 20
0.0
 30
0.0
  3
*D35
  1

  0
INSERT
  5
474
330
471
100
AcDbEntity
  8
LAYER-035
  6
Continuous
 62
     5
100
AcDbBlockReference
  2
_OPEN
 10
55.14896638406046
 20
144.1244681891535
 30
0.0
 41
4.0
 42
4.0
 43
4.0
  0
INSERT
  5
475
330
471
100
AcDbEntity
  8
LAYER-035
  6
Continuous
 62
     5
100
AcDbBlockReference
  2
_OPEN
 10
-109.8510336159396
 20
144.1244681891535
 30
0.0
 41
4.0
 42
4.0
 43
4.0
 50
180.0
  0
LINE
  5
476
330
471
100
AcDbEntity
  8
LAYER-035
  6
Continuous
 62
     5
100
AcDbLine
 10
55.14896638406043
 20
104.8440517000377
 30
0.0
 11
55.14896638406046
 21
145.1244681891535
 31
0.0
  0
LINE
  5
477
330
471
100
AcDbEntity
  8
LAYER-035
  6
Continuous
 62
     5
100
AcDbLine
 10
-109.8510336159396
 20
107.6086871227056
 30
0.0
 11
-109.8510336159396
 21
145.1244681891535
 31
0.0
  0
LINE
  5
478
330
471
100
AcDbEntity
  8
LAYER-035
  6
Continuous
 62
     5
100
AcDbLine
 10
55.14896638406046
 20
144.1244681891535
 30
0.0
 11
-109.8510336159396
 21
144.1244681891535
 31
0.0
  0
MTEXT
  5
479
330
471
100
AcDbEntity
  8
LAYER-036
  6
Continuous
 62
     5
100
AcDbMText
 10
-27.35103361593957
 20
144.6244681891535
 30
0.0
 40
4.0
 41
0.0
 71
     8
 72
     1
  1
165
  7
STRING_H
 73
     1
 44
1.0
  0
ENDBLK
  5
473
330
471
100
AcDbEntity
  8
0
100
AcDbBlockEnd
  0
BLOCK
  5
47C
330
47B
100
AcDbEntity
  8
0
100
AcDbBlockBegin
  2
*D46
 70
     1
 71
     0
 10
0.0
 20
0.0
 30
0.0
  3
*D46
  1

  0
INSERT
  5
47E
330
47B
100
AcDbEntity
  8
LAYER-035
  6
Continuous
 62
     5
100
AcDbBlockReference
  2
_OPEN
 10
160.4539901107193
 20
144.1244681891535
 30
0.0
 41
4.0
 42
4.0
 43
4.0
 50
180.0
  0
INSERT
  5
47F
330
47B
100
AcDbEntity
  8
LAYER-035
  6
Continuous
 62
     5
100
AcDbBlockReference
  2
_OPEN
 10
225.4539901107193
 20
144.1244681891535
 30
0.0
 41
4.0
 42
4.0
 43
4.0
  0
LINE
  5
480
330
47B
100
AcDbEntity
  8
LAYER-035
  6
Continuous
 62
     5
100
AcDbLine
 10
160.4539901107193
 20
103.0829698568073
 30
0.0
 11
160.4539901107193
 21
145.1244681891535
 31
0.0
  0
LINE
  5
481
330
47B
100
AcDbEntity
  8
LAYER-035
  6
Continuous
 62
     5
100
AcDbLine
 10
225.4539901107193
 20
103.4041689600377
 30
0.0
 11
225.4539901107193
 21
145.1244681891535
 31
0.0
  0
LINE
  5
482
330
47B
100
AcDbEntity
  8
LAYER-035
  6
Continuous
 62
     5
100
AcDbLine
 10
160.4539901107193
 20
144.1244681891535
 30
0.0
 11
225.4539901107193
 21
144.1244681891535
 31
0.0
  0
MTEXT
  5
483
330
47B
100
AcDbEntity
  8
LAYER-036
  6
Continuous
 62
     5
100
AcDbMText
 10
192.9539901107193
 20
144.6244681891535
 30
0.0
 40
4.0
 41
0.0
 71
     8
 72
     1
  1
65
  7
STRING_H
 73
     1
 44
1.0
  0
ENDBLK
  5
47D
330
47B
100
AcDbEntity
  8
0
100
AcDbBlockEnd
  0
BLOCK
  5
486
330
485
100
AcDbEntity
  8
0
100
AcDbBlockBegin
  2
*D57
 70
     1
 71
     0
 10
0.0
 20
0.0
 30
0.0
  3
*D57
  1

  0
INSERT
  5
488
330
485
100
AcDbEntity
  8
LAYER-035
  6
Continuous
 62
     5
100
AcDbBlockReference
  2
_OPEN
 10
295.8161670497335
 20
96.3440517000377
 30
0.0
 41
4.0
 42
4.0
 43
4.0
 50
90.0
  0
INSERT
  5
489
330
485
100
AcDbEntity
  8
LAYER-035
  6
Continuous
 62
     5
100
AcDbBlockReference
  2
_OPEN
 10
295.8161670497335
 20
-78.65594829996226
 30
0.0
 41
4.0
 42
4.0
 43
4.0
 50
-90.0
  0
LINE
  5
48A
330
485
100
AcDbEntity
  8
LAYER-035
  6
Continuous
 62
     5
100
AcDbLine
 10
234.1042827223429
 20
96.34405170003771
 30
0.0
 11
296.8161670497335
 21
96.3440517000377
 31
0.0
  0
LINE
  5
48B
330
485
100
AcDbEntity
  8
LAYER-035
  6
Continuous
 62
     5
100
AcDbLine
 10
233.4618748797963
 20
-78.65594829996226
 30
0.0
 11
296.8161670497335
 21
-78.65594829996226
 31
0.0
  0
LINE
  5
48C
330
485
100
AcDbEntity
  8
LAYER-035
  6
Continuous
 62
     5
100
AcDbLine
 10
295.8161670497335
 20
96.3440517000377
 30
0.0
 11
295.8161670497335
 21
-78.65594829996225
 31
0.0
  0
MTEXT
  5
48D
330
485
100
AcDbEntity
  8
LAYER-036
  6
Continuous
 62
     5
100
AcDbMText
 10
295.3161670497335
 20
8.84405170003771
 30
0.0
 40
4.0
 41
0.0
 71
     8
 72
     1
  1
175
  7
STRING_H
 11
6.123031769111886E-17
 21
1.0
 31
0.0
 73
     1
 44
1.0
  0
ENDBLK
  5
487
330
485
100
AcDbEntity
  8
0
100
AcDbBlockEnd
  0
ENDSEC
  0
SECTION
  2
ENTITIES
  0
LINE
  5
252
330
1F
100
AcDbEntity
  8
LAYER-033
  6
Continuous
 62
     1
100
AcDbLine
 10
-80.71560684896083
 20
-235.2017527596956
 30
0.0
 11
42.0988454132267
 21
-235.2017527596956
 31
0.0
  0
LINE
  5
253
330
1F
100
AcDbEntity
  8
LAYER-033
  6
Continuous
 62
     1
100
AcDbLine
 10
-80.71560684896083
 20
-243.287202861
 30
0.0
 11
-22.64859653968249
 21
-243.287202861
 31
0.0
  0
LINE
  5
254
330
1F
100
AcDbEntity
  8
LAYER-033
  6
Continuous
 62
     1
100
AcDbLine
 10
-80.71560684896083
 20
-227.1163026583913
 30
0.0
 11
-22.64859653968249
 21
-227.1163026583913
 31
0.0
  0
LINE
  5
255
330
1F
100
AcDbEntity
  8
LAYER-006
  6
Continuous
 62
     4
100
AcDbLine
 10
-377.358880072297
 20
123.8440532755856
 30
0.0
 11
-382.0838768513975
 21
119.1190501953896
 31
0.0
  0
LINE
  5
256
330
1F
100
AcDbEntity
  8
LAYER-006
  6
Continuous
 62
     4
100
AcDbLine
 10
-342.3988793666707
 20
123.8440532755856
 30
0.0
 11
-347.1238761457713
 21
119.1190501953896
 31
0.0
  0
LINE
  5
257
330
1F
100
AcDbEntity
  8
LAYER-006
  6
Continuous
 62
     4
100
AcDbLine
 10
-307.4388786610443
 20
123.8440532755856
 30
0.0
 11
-312.1638754401449
 21
119.1190501953896
 31
0.0
  0
LINE
  5
258
330
1F
100
AcDbEntity
  8
LAYER-006
  6
Continuous
 62
     4
100
AcDbLine
 10
-272.4788779554181
 20
123.8440532755856
 30
0.0
 11
-277.2038747345184
 21
119.1190501953896
 31
0.0
  0
LINE
  5
259
330
1F
100
AcDbEntity
  8
LAYER-006
  6
Continuous
 62
     4
100
AcDbLine
 10
-237.5188772497916
 20
123.8440532755856
 30
0.0
 11
-242.2438740288922
 21
119.1190501953896
 31
0.0
  0
LINE
  5
25A
330
1F
100
AcDbEntity
  8
LAYER-006
  6
Continuous
 62
     4
100
AcDbLine
 10
-202.5588765441654
 20
123.8440532755856
 30
0.0
 11
-207.2838733232659
 21
119.1190501953896
 31
0.0
  0
LINE
  5
25B
330
1F
100
AcDbEntity
  8
LAYER-006
  6
Continuous
 62
     1
100
AcDbLine
 10
-89.87542404731374
 20
123.8440532755856
 30
0.0
 11
28.51481696329076
 21
123.8440532755856
 31
0.0
  0
LINE
  5
25C
330
1F
100
AcDbEntity
  8
LAYER-007
  6
CENTER
 62
     4
100
AcDbLine
 10
225.4539901107193
 20
102.4041689600377
 30
0.0
 11
225.4539901107193
 21
84.45956603763776
 31
0.0
  0
LINE
  5
25D
330
1F
100
AcDbEntity
  8
LAYER-007
  6
CENTER
 62
     4
100
AcDbLine
 10
160.4539901107193
 20
102.0829698568073
 30
0.0
 11
160.4539901107193
 21
84.45956603763776
 31
0.0
  0
LINE
  5
25E
330
1F
100
AcDbEntity
  8
LAYER-006
  6
Continuous
 62
     4
100
AcDbLine
 10
-380.1938737297573
 20
123.214050135039
 30
0.0
 11
-381.7688737061243
 21
121.6390501586264
 31
0.0
  0
LINE
  5
25F
330
1F
100
AcDbEntity
  8
LAYER-006
  6
Continuous
 62
     4
100
AcDbLine
 10
-375.7838800971709
 20
123.214050135039
 30
0.0
 11
-379.878876884484
 21
119.1190501953896
 31
0.0
  0
LINE
  5
260
330
1F
100
AcDbEntity
  8
LAYER-006
  6
Continuous
 62
     4
100
AcDbLine
 10
-345.233873024131
 20
123.214050135039
 30
0.0
 11
-346.8088730004979
 21
121.6390501586264
 31
0.0
  0
LINE
  5
261
330
1F
100
AcDbEntity
  8
LAYER-006
  6
Continuous
 62
     4
100
AcDbLine
 10
-340.823879390304
 20
123.214050135039
 30
0.0
 11
-344.9188761788577
 21
119.1190501953896
 31
0.0
  0
LINE
  5
262
330
1F
100
AcDbEntity
  8
LAYER-006
  6
Continuous
 62
     4
100
AcDbLine
 10
-310.2738723185047
 20
123.214050135039
 30
0.0
 11
-311.8488722948716
 21
121.6390501586264
 31
0.0
  0
LINE
  5
263
330
1F
100
AcDbEntity
  8
LAYER-006
  6
Continuous
 62
     4
100
AcDbLine
 10
-305.8638786846777
 20
123.214050135039
 30
0.0
 11
-309.9588754732313
 21
119.1190501953896
 31
0.0
  0
LINE
  5
264
330
1F
100
AcDbEntity
  8
LAYER-006
  6
Continuous
 62
     4
100
AcDbLine
 10
-275.3138716128782
 20
123.214050135039
 30
0.0
 11
-276.8888715892451
 21
121.6390501586264
 31
0.0
  0
LINE
  5
265
330
1F
100
AcDbEntity
  8
LAYER-006
  6
Continuous
 62
     4
100
AcDbLine
 10
-270.903877980292
 20
123.214050135039
 30
0.0
 11
-274.9988747676049
 21
119.1190501953896
 31
0.0
  0
LINE
  5
266
330
1F
100
AcDbEntity
  8
LAYER-006
  6
Continuous
 62
     4
100
AcDbLine
 10
-240.3538709072519
 20
123.214050135039
 30
0.0
 11
-241.9288708836188
 21
121.6390501586264
 31
0.0
  0
LINE
  5
267
330
1F
100
AcDbEntity
  8
LAYER-006
  6
Continuous
 62
     4
100
AcDbLine
 10
-235.9438772734249
 20
123.214050135039
 30
0.0
 11
-240.0388740619786
 21
119.1190501953896
 31
0.0
  0
LINE
  5
268
330
1F
100
AcDbEntity
  8
LAYER-006
  6
Continuous
 62
     4
100
AcDbLine
 10
-200.9838765677987
 20
123.214050135039
 30
0.0
 11
-205.0788733563525
 21
119.1190501953896
 31
0.0
  0
LINE
  5
269
330
1F
100
AcDbEntity
  8
LAYER-006
  6
Continuous
 62
     4
100
AcDbLine
 10
-374.5238769648369
 20
122.2690532992189
 30
0.0
 11
-377.6738769175705
 21
119.1190501953896
 31
0.0
  0
LINE
  5
26A
330
1F
100
AcDbEntity
  8
LAYER-006
  6
Continuous
 62
     4
100
AcDbLine
 10
-339.5638762592105
 20
122.2690532992189
 30
0.0
 11
-342.7138762119442
 21
119.1190501953896
 31
0.0
  0
LINE
  5
26B
330
1F
100
AcDbEntity
  8
LAYER-006
  6
Continuous
 62
     4
100
AcDbLine
 10
-304.6038755535843
 20
122.2690532992189
 30
0.0
 11
-307.7538755063179
 21
119.1190501953896
 31
0.0
  0
LINE
  5
26C
330
1F
100
AcDbEntity
  8
LAYER-006
  6
Continuous
 62
     4
100
AcDbLine
 10
-269.6438748479577
 20
122.2690532992189
 30
0.0
 11
-272.7938748006914
 21
119.1190501953896
 31
0.0
  0
LINE
  5
26D
330
1F
100
AcDbEntity
  8
LAYER-006
  6
Continuous
 62
     4
100
AcDbLine
 10
-234.6838741423315
 20
122.2690532992189
 30
0.0
 11
-237.8338740950651
 21
119.1190501953896
 31
0.0
  0
LINE
  5
26E
330
1F
100
AcDbEntity
  8
LAYER-006
  6
Continuous
 62
     4
100
AcDbLine
 10
-199.7238734367053
 20
122.2690532992189
 30
0.0
 11
-202.873873389439
 21
119.1190501953896
 31
0.0
  0
LINE
  5
26F
330
1F
100
AcDbEntity
  8
LAYER-006
  6
Continuous
 62
     4
100
AcDbLine
 10
-373.5788769790168
 20
121.0090533181255
 30
0.0
 11
-375.468873801
 21
119.1190501953896
 31
0.0
  0
LINE
  5
270
330
1F
100
AcDbEntity
  8
LAYER-006
  6
Continuous
 62
     4
100
AcDbLine
 10
-338.6188762733905
 20
121.0090533181255
 30
0.0
 11
-340.5088730950307
 21
119.1190501953896
 31
0.0
  0
LINE
  5
271
330
1F
100
AcDbEntity
  8
LAYER-006
  6
Continuous
 62
     4
100
AcDbLine
 10
-303.6588755677641
 20
121.0090533181255
 30
0.0
 11
-305.5488723894044
 21
119.1190501953896
 31
0.0
  0
LINE
  5
272
330
1F
100
AcDbEntity
  8
LAYER-006
  6
Continuous
 62
     4
100
AcDbLine
 10
-268.6988748621377
 20
121.0090533181255
 30
0.0
 11
-270.5888716841211
 21
119.1190501953896
 31
0.0
  0
LINE
  5
273
330
1F
100
AcDbEntity
  8
LAYER-006
  6
Continuous
 62
     4
100
AcDbLine
 10
-233.7388741565114
 20
121.0090533181255
 30
0.0
 11
-235.6288709781516
 21
119.1190501953896
 31
0.0
  0
LINE
  5
274
330
1F
100
AcDbEntity
  8
LAYER-006
  6
Continuous
 62
     4
100
AcDbLine
 10
-198.7788734508852
 20
121.0090533181255
 30
0.0
 11
-200.6688702725255
 21
119.1190501953896
 31
0.0
  0
LINE
  5
275
330
1F
100
AcDbEntity
  8
LAYER-007
  6
CENTER
 62
     4
100
AcDbLine
 10
192.9539901107193
 20
111.7142507337144
 30
0.0
 11
192.9539901107193
 21
-94.66855175199999
 31
0.0
  0
LINE
  5
276
330
1F
100
AcDbEntity
  8
LAYER-006
  6
Continuous
 62
     4
100
AcDbLine
 10
-373.2638769837436
 20
119.4340533417588
 30
0.0
 11
-377.6738769175705
 21
123.8440532755856
 31
0.0
  0
LINE
  5
277
330
1F
100
AcDbEntity
  8
LAYER-006
  6
Continuous
 62
     4
100
AcDbLine
 10
-338.3038762781172
 20
119.4340533417588
 30
0.0
 11
-342.7138762119442
 21
123.8440532755856
 31
0.0
  0
LINE
  5
278
330
1F
100
AcDbEntity
  8
LAYER-006
  6
Continuous
 62
     4
100
AcDbLine
 10
-303.3438755724908
 20
119.4340533417588
 30
0.0
 11
-307.7538755063179
 21
123.8440532755856
 31
0.0
  0
LINE
  5
279
330
1F
100
AcDbEntity
  8
LAYER-006
  6
Continuous
 62
     4
100
AcDbLine
 10
-268.3838748668644
 20
119.4340533417588
 30
0.0
 11
-272.7938748006914
 21
123.8440532755856
 31
0.0
  0
LINE
  5
27A
330
1F
100
AcDbEntity
  8
LAYER-006
  6
Continuous
 62
     4
100
AcDbLine
 10
-233.4238741612381
 20
119.4340533417588
 30
0.0
 11
-237.8338740950651
 21
123.8440532755856
 31
0.0
  0
LINE
  5
27B
330
1F
100
AcDbEntity
  8
LAYER-006
  6
Continuous
 62
     4
100
AcDbLine
 10
-198.4638734556119
 20
119.4340533417588
 30
0.0
 11
-202.873873389439
 21
123.8440532755856
 31
0.0
  0
LINE
  5
27C
330
1F
100
AcDbEntity
  8
LAYER-006
  6
Continuous
 62
     4
100
AcDbLine
 10
-381.7688737061243
 20
119.1190501953896
 30
0.0
 11
-382.7138768419441
 21
120.0640501823054
 31
0.0
  0
LINE
  5
27D
330
1F
100
AcDbEntity
  8
LAYER-006
  6
Continuous
 62
     4
100
AcDbLine
 10
-379.5638768892105
 20
119.1190501953896
 30
0.0
 11
-382.0838768513975
 21
121.3240533133988
 31
0.0
  0
ARC
  5
27E
330
1F
100
AcDbEntity
  8
LAYER-006
  6
Continuous
 62
     1
100
AcDbCircle
 10
-377.9888769128438
 20
119.1190501953896
 30
0.0
 40
4.724999929100349
100
AcDbArc
 50
0.0233390132879826
 51
179.9893829867116
  0
LINE
  5
27F
330
1F
100
AcDbEntity
  8
LAYER-006
  6
Continuous
 62
     4
100
AcDbLine
 10
-377.358880072297
 20
119.1190501953896
 30
0.0
 11
-381.1388768655774
 21
122.5840532944922
 31
0.0
  0
LINE
  5
280
330
1F
100
AcDbEntity
  8
LAYER-006
  6
Continuous
 62
     4
100
AcDbLine
 10
-375.1538769553837
 20
119.1190501953896
 30
0.0
 11
-379.5638768892105
 21
123.5290501303123
 31
0.0
  0
LINE
  5
281
330
1F
100
AcDbEntity
  8
LAYER-006
  6
Continuous
 62
     1
100
AcDbLine
 10
-373.2638769837436
 20
119.1190501953896
 30
0.0
 11
-382.7138768419441
 21
119.1190501953896
 31
0.0
  0
LINE
  5
282
330
1F
100
AcDbEntity
  8
LAYER-006
  6
Continuous
 62
     4
100
AcDbLine
 10
-346.8088730004979
 20
119.1190501953896
 30
0.0
 11
-347.7538761363178
 21
120.0640501823054
 31
0.0
  0
LINE
  5
283
330
1F
100
AcDbEntity
  8
LAYER-006
  6
Continuous
 62
     4
100
AcDbLine
 10
-344.6038761835842
 20
119.1190501953896
 30
0.0
 11
-347.1238761457713
 21
121.3240533133988
 31
0.0
  0
ARC
  5
284
330
1F
100
AcDbEntity
  8
LAYER-006
  6
Continuous
 62
     1
100
AcDbCircle
 10
-343.0288762072175
 20
119.1190501953896
 30
0.0
 40
4.724999929100349
100
AcDbArc
 50
0.0233390132911514
 51
179.9893829867116
  0
LINE
  5
285
330
1F
100
AcDbEntity
  8
LAYER-006
  6
Continuous
 62
     4
100
AcDbLine
 10
-342.3988793666707
 20
119.1190501953896
 30
0.0
 11
-346.1788761599511
 21
122.5840532944922
 31
0.0
  0
LINE
  5
286
330
1F
100
AcDbEntity
  8
LAYER-006
  6
Continuous
 62
     4
100
AcDbLine
 10
-340.1938762502175
 20
119.1190501953896
 30
0.0
 11
-344.6038761835842
 21
123.5290501303123
 31
0.0
  0
LINE
  5
287
330
1F
100
AcDbEntity
  8
LAYER-006
  6
Continuous
 62
     1
100
AcDbLine
 10
-338.3038762781172
 20
119.1190501953896
 30
0.0
 11
-347.7538761363178
 21
119.1190501953896
 31
0.0
  0
LINE
  5
288
330
1F
100
AcDbEntity
  8
LAYER-006
  6
Continuous
 62
     4
100
AcDbLine
 10
-311.8488722948716
 20
119.1190501953896
 30
0.0
 11
-312.7938754306915
 21
120.0640501823054
 31
0.0
  0
LINE
  5
289
330
1F
100
AcDbEntity
  8
LAYER-006
  6
Continuous
 62
     4
100
AcDbLine
 10
-309.6438754779579
 20
119.1190501953896
 30
0.0
 11
-312.1638754401449
 21
121.3240533133988
 31
0.0
  0
ARC
  5
28A
330
1F
100
AcDbEntity
  8
LAYER-006
  6
Continuous
 62
     1
100
AcDbCircle
 10
-308.0688755015912
 20
119.1190501953896
 30
0.0
 40
4.724999929100349
100
AcDbArc
 50
0.0233390132911514
 51
179.9893829867116
  0
LINE
  5
28B
330
1F
100
AcDbEntity
  8
LAYER-006
  6
Continuous
 62
     4
100
AcDbLine
 10
-307.4388786610443
 20
119.1190501953896
 30
0.0
 11
-311.2188754538789
 21
122.5840532944922
 31
0.0
  0
LINE
  5
28C
330
1F
100
AcDbEntity
  8
LAYER-006
  6
Continuous
 62
     4
100
AcDbLine
 10
-305.2338755445912
 20
119.1190501953896
 30
0.0
 11
-309.6438754779579
 21
123.5290501303123
 31
0.0
  0
LINE
  5
28D
330
1F
100
AcDbEntity
  8
LAYER-006
  6
Continuous
 62
     1
100
AcDbLine
 10
-303.3438755724908
 20
119.1190501953896
 30
0.0
 11
-312.7938754306915
 21
119.1190501953896
 31
0.0
  0
LINE
  5
28E
330
1F
100
AcDbEntity
  8
LAYER-006
  6
Continuous
 62
     4
100
AcDbLine
 10
-276.8888715892451
 20
119.1190501953896
 30
0.0
 11
-277.833874724778
 21
120.0640501823054
 31
0.0
  0
LINE
  5
28F
330
1F
100
AcDbEntity
  8
LAYER-006
  6
Continuous
 62
     4
100
AcDbLine
 10
-274.6838747723314
 20
119.1190501953896
 30
0.0
 11
-277.2038747345184
 21
121.3240533133988
 31
0.0
  0
ARC
  5
290
330
1F
100
AcDbEntity
  8
LAYER-006
  6
Continuous
 62
     1
100
AcDbCircle
 10
-273.1088747959648
 20
119.1190501953896
 30
0.0
 40
4.724999929100349
100
AcDbArc
 50
0.0233390111479138
 51
179.9893829867116
  0
LINE
  5
291
330
1F
100
AcDbEntity
  8
LAYER-006
  6
Continuous
 62
     4
100
AcDbLine
 10
-272.4788779554181
 20
119.1190501953896
 30
0.0
 11
-276.2588747486984
 21
122.5840532944922
 31
0.0
  0
LINE
  5
292
330
1F
100
AcDbEntity
  8
LAYER-006
  6
Continuous
 62
     4
100
AcDbLine
 10
-270.2738748389648
 20
119.1190501953896
 30
0.0
 11
-274.6838747723314
 21
123.5290501303123
 31
0.0
  0
LINE
  5
293
330
1F
100
AcDbEntity
  8
LAYER-006
  6
Continuous
 62
     1
100
AcDbLine
 10
-268.3838748668644
 20
119.1190501953896
 30
0.0
 11
-277.833874724778
 21
119.1190501953896
 31
0.0
  0
LINE
  5
294
330
1F
100
AcDbEntity
  8
LAYER-006
  6
Continuous
 62
     4
100
AcDbLine
 10
-241.9288708836188
 20
119.1190501953896
 30
0.0
 11
-242.8738740194387
 21
120.0640501823054
 31
0.0
  0
LINE
  5
295
330
1F
100
AcDbEntity
  8
LAYER-006
  6
Continuous
 62
     4
100
AcDbLine
 10
-239.7238740667051
 20
119.1190501953896
 30
0.0
 11
-242.2438740288922
 21
121.3240533133988
 31
0.0
  0
ARC
  5
296
330
1F
100
AcDbEntity
  8
LAYER-006
  6
Continuous
 62
     1
100
AcDbCircle
 10
-238.1488740903385
 20
119.1190501953896
 30
0.0
 40
4.724999929100349
100
AcDbArc
 50
0.0233390132911512
 51
179.9893829867092
  0
LINE
  5
297
330
1F
100
AcDbEntity
  8
LAYER-006
  6
Continuous
 62
     4
100
AcDbLine
 10
-237.5188772497916
 20
119.1190501953896
 30
0.0
 11
-241.2988740430721
 21
122.5840532944922
 31
0.0
  0
LINE
  5
298
330
1F
100
AcDbEntity
  8
LAYER-006
  6
Continuous
 62
     4
100
AcDbLine
 10
-235.3138741333385
 20
119.1190501953896
 30
0.0
 11
-239.7238740667051
 21
123.5290501303123
 31
0.0
  0
LINE
  5
299
330
1F
100
AcDbEntity
  8
LAYER-006
  6
Continuous
 62
     1
100
AcDbLine
 10
-233.4238741612381
 20
119.1190501953896
 30
0.0
 11
-242.8738740194387
 21
119.1190501953896
 31
0.0
  0
LINE
  5
29A
330
1F
100
AcDbEntity
  8
LAYER-006
  6
Continuous
 62
     4
100
AcDbLine
 10
-206.9688701779927
 20
119.1190501953896
 30
0.0
 11
-207.9138733138126
 21
120.0640501823054
 31
0.0
  0
LINE
  5
29B
330
1F
100
AcDbEntity
  8
LAYER-006
  6
Continuous
 62
     4
100
AcDbLine
 10
-204.7638733610789
 20
119.1190501953896
 30
0.0
 11
-207.2838733232659
 21
121.3240533133988
 31
0.0
  0
ARC
  5
29C
330
1F
100
AcDbEntity
  8
LAYER-006
  6
Continuous
 62
     1
100
AcDbCircle
 10
-203.1888733847123
 20
119.1190501953896
 30
0.0
 40
4.724999929100349
100
AcDbArc
 50
0.023339013291151
 51
179.9893829867092
  0
LINE
  5
29D
330
1F
100
AcDbEntity
  8
LAYER-006
  6
Continuous
 62
     4
100
AcDbLine
 10
-202.5588765441654
 20
119.1190501953896
 30
0.0
 11
-206.338873337
 21
122.5840532944922
 31
0.0
  0
LINE
  5
29E
330
1F
100
AcDbEntity
  8
LAYER-006
  6
Continuous
 62
     4
100
AcDbLine
 10
-200.3538734272521
 20
119.1190501953896
 30
0.0
 11
-204.7638733610789
 21
123.5290501303123
 31
0.0
  0
LINE
  5
29F
330
1F
100
AcDbEntity
  8
LAYER-006
  6
Continuous
 62
     1
100
AcDbLine
 10
-198.4638734556119
 20
119.1190501953896
 30
0.0
 11
-207.9138733138126
 21
119.1190501953896
 31
0.0
  0
LINE
  5
2A0
330
1F
100
AcDbEntity
  8
LAYER-006
  6
Continuous
 62
     1
100
AcDbLine
 10
-104.8571312239396
 20
119.925756839188
 30
0.0
 11
-104.8571312239396
 21
111.6025861855939
 31
0.0
  0
LINE
  5
2A1
330
1F
100
AcDbEntity
  8
LAYER-006
  6
Continuous
 62
     1
100
AcDbLine
 10
-104.8571312239396
 20
119.925756839188
 30
0.0
 11
-91.54005817803238
 21
119.925756839188
 31
0.0
  0
LINE
  5
2A2
330
1F
100
AcDbEntity
  8
LAYER-007
  6
HIDDEN
 62
     4
100
AcDbLine
 10
-96.53396057018892
 20
119.925756839188
 30
0.0
 11
-96.53396057018892
 21
109.937952054875
 31
0.0
  0
LINE
  5
2A3
330
1F
100
AcDbEntity
  8
LAYER-007
  6
HIDDEN
 62
     4
100
AcDbLine
 10
-93.20469230875131
 20
119.925756839188
 30
0.0
 11
-93.20469230875131
 21
110.9367325333063
 31
0.0
  0
LINE
  5
2A4
330
1F
100
AcDbEntity
  8
LAYER-006
  6
Continuous
 62
     1
100
AcDbLine
 10
-91.54005817803238
 20
119.925756839188
 30
0.0
 11
-91.54005817803238
 21
111.6025861855939
 31
0.0
  0
ARC
  5
2A5
330
1F
100
AcDbEntity
  8
LAYER-006
  6
Continuous
 62
     1
100
AcDbCircle
 10
-89.87542404731374
 20
118.850150883429
 30
0.0
 40
4.993902392156484
100
AcDbArc
 50
90.01166999975827
 51
180.0233389999999
  0
ARC
  5
2A6
330
1F
100
AcDbEntity
  8
LAYER-006
  6
Continuous
 62
     1
100
AcDbCircle
 10
28.51481696329076
 20
113.8562484912726
 30
0.0
 40
9.987804784312965
100
AcDbArc
 50
269.9777129971632
 51
90.00105199999875
  0
LINE
  5
2A7
330
1F
100
AcDbEntity
  8
LAYER-006
  6
Continuous
 62
     1
100
AcDbLine
 10
-390.588873573778
 20
112.8190502899224
 30
0.0
 11
-382.7138736919441
 21
112.8190502899224
 31
0.0
  0
LINE
  5
2A8
330
1F
100
AcDbEntity
  8
LAYER-006
  6
Continuous
 62
     1
100
AcDbLine
 10
-373.2638769837436
 20
112.8190502899224
 30
0.0
 11
-347.753876136318
 21
112.8190502899224
 31
0.0
  0
LINE
  5
2A9
330
1F
100
AcDbEntity
  8
LAYER-006
  6
Continuous
 62
     1
100
AcDbLine
 10
-303.3438755724908
 20
112.8190502899224
 30
0.0
 11
-277.833874724778
 21
112.8190502899224
 31
0.0
  0
LINE
  5
2AA
330
1F
100
AcDbEntity
  8
LAYER-006
  6
Continuous
 62
     1
100
AcDbLine
 10
-233.4238710112383
 20
112.8190502899224
 30
0.0
 11
-207.9138733138126
 21
112.8190502899224
 31
0.0
  0
LINE
  5
2AB
330
1F
100
AcDbEntity
  8
LAYER-006
  6
Continuous
 62
     1
100
AcDbLine
 10
-198.4638734556119
 20
112.8190502899224
 30
0.0
 11
-190.588873573778
 21
112.8190502899224
 31
0.0
  0
LINE
  5
2AC
330
1F
100
AcDbEntity
  8
LAYER-006
  6
Continuous
 62
     1
100
AcDbLine
 10
-190.588873573778
 20
112.8190502899224
 30
0.0
 11
-190.588873573778
 21
86.04404754278309
 31
0.0
  0
LINE
  5
2AD
330
1F
100
AcDbEntity
  8
LAYER-007
  6
HIDDEN
 62
     4
100
AcDbLine
 10
-381.4538768608507
 20
111.5590534599249
 30
0.0
 11
-381.4538768608507
 21
119.1190501953896
 31
0.0
  0
LINE
  5
2AE
330
1F
100
AcDbEntity
  8
LAYER-007
  6
HIDDEN
 62
     4
100
AcDbLine
 10
-374.5238769648369
 20
111.5590534599249
 30
0.0
 11
-374.5238769648369
 21
119.1190501953896
 31
0.0
  0
LINE
  5
2AF
330
1F
100
AcDbEntity
  8
LAYER-007
  6
HIDDEN
 62
     4
100
AcDbLine
 10
-373.2638769837436
 20
111.5590534599249
 30
0.0
 11
-382.7138768419441
 21
111.5590534599249
 31
0.0
  0
LINE
  5
2B0
330
1F
100
AcDbEntity
  8
LAYER-007
  6
HIDDEN
 62
     4
100
AcDbLine
 10
-346.4938761552244
 20
111.5590534599249
 30
0.0
 11
-346.4938761552244
 21
119.1190501953896
 31
0.0
  0
LINE
  5
2B1
330
1F
100
AcDbEntity
  8
LAYER-007
  6
HIDDEN
 62
     4
100
AcDbLine
 10
-339.5638762592105
 20
111.5590534599249
 30
0.0
 11
-339.5638762592105
 21
119.1190501953896
 31
0.0
  0
LINE
  5
2B2
330
1F
100
AcDbEntity
  8
LAYER-007
  6
HIDDEN
 62
     4
100
AcDbLine
 10
-338.3038762781172
 20
111.5590534599249
 30
0.0
 11
-347.7538761363178
 21
111.5590534599249
 31
0.0
  0
LINE
  5
2B3
330
1F
100
AcDbEntity
  8
LAYER-007
  6
HIDDEN
 62
     4
100
AcDbLine
 10
-311.5338754495981
 20
111.5590534599249
 30
0.0
 11
-311.5338754495981
 21
119.1190501953896
 31
0.0
  0
LINE
  5
2B4
330
1F
100
AcDbEntity
  8
LAYER-007
  6
HIDDEN
 62
     4
100
AcDbLine
 10
-304.6038755535843
 20
111.5590534599249
 30
0.0
 11
-304.6038755535843
 21
119.1190501953896
 31
0.0
  0
LINE
  5
2B5
330
1F
100
AcDbEntity
  8
LAYER-007
  6
HIDDEN
 62
     4
100
AcDbLine
 10
-303.3438755724908
 20
111.5590534599249
 30
0.0
 11
-312.7938754306915
 21
111.5590534599249
 31
0.0
  0
LINE
  5
2B6
330
1F
100
AcDbEntity
  8
LAYER-007
  6
HIDDEN
 62
     4
100
AcDbLine
 10
-276.5738747439716
 20
111.5590534599249
 30
0.0
 11
-276.5738747439716
 21
119.1190501953896
 31
0.0
  0
LINE
  5
2B7
330
1F
100
AcDbEntity
  8
LAYER-007
  6
HIDDEN
 62
     4
100
AcDbLine
 10
-269.6438748479577
 20
111.5590534599249
 30
0.0
 11
-269.6438748479577
 21
119.1190501953896
 31
0.0
  0
LINE
  5
2B8
330
1F
100
AcDbEntity
  8
LAYER-007
  6
HIDDEN
 62
     4
100
AcDbLine
 10
-268.3838748668644
 20
111.5590534599249
 30
0.0
 11
-277.833874724778
 21
111.5590534599249
 31
0.0
  0
LINE
  5
2B9
330
1F
100
AcDbEntity
  8
LAYER-007
  6
HIDDEN
 62
     4
100
AcDbLine
 10
-241.6138740383453
 20
111.5590534599249
 30
0.0
 11
-241.6138740383453
 21
119.1190501953896
 31
0.0
  0
LINE
  5
2BA
330
1F
100
AcDbEntity
  8
LAYER-007
  6
HIDDEN
 62
     4
100
AcDbLine
 10
-234.6838741423315
 20
111.5590534599249
 30
0.0
 11
-234.6838741423315
 21
119.1190501953896
 31
0.0
  0
LINE
  5
2BB
330
1F
100
AcDbEntity
  8
LAYER-007
  6
HIDDEN
 62
     4
100
AcDbLine
 10
-233.4238741612381
 20
111.5590534599249
 30
0.0
 11
-242.8738740194387
 21
111.5590534599249
 31
0.0
  0
LINE
  5
2BC
330
1F
100
AcDbEntity
  8
LAYER-007
  6
HIDDEN
 62
     4
100
AcDbLine
 10
-206.6538733327191
 20
111.5590534599249
 30
0.0
 11
-206.6538733327191
 21
119.1190501953896
 31
0.0
  0
LINE
  5
2BD
330
1F
100
AcDbEntity
  8
LAYER-007
  6
HIDDEN
 62
     4
100
AcDbLine
 10
-199.7238734367053
 20
111.5590534599249
 30
0.0
 11
-199.7238734367053
 21
119.1190501953896
 31
0.0
  0
LINE
  5
2BE
330
1F
100
AcDbEntity
  8
LAYER-007
  6
HIDDEN
 62
     4
100
AcDbLine
 10
-198.4638734556119
 20
111.5590534599249
 30
0.0
 11
-207.9138733138126
 21
111.5590534599249
 31
0.0
  0
LINE
  5
2BF
330
1F
100
AcDbEntity
  8
LAYER-006
  6
Continuous
 62
     1
100
AcDbLine
 10
-104.8571312239396
 20
111.6025861855939
 30
0.0
 11
-99.86322883193958
 21
109.937952054875
 31
0.0
  0
LINE
  5
2C0
330
1F
100
AcDbEntity
  8
LAYER-006
  6
Continuous
 62
     1
100
AcDbLine
 10
-96.53396057018892
 20
109.937952054875
 30
0.0
 11
-91.54005817803238
 21
111.6025861855939
 31
0.0
  0
LINE
  5
2C1
330
1F
100
AcDbEntity
  8
LAYER-006
  6
Continuous
 62
     1
100
AcDbLine
 10
-89.87542404731374
 20
109.937952054875
 30
0.0
 11
-73.22908274012548
 21
109.937952054875
 31
0.0
  0
LINE
  5
2C2
330
1F
100
AcDbEntity
  8
LAYER-006
  6
Continuous
 62
     1
100
AcDbLine
 10
-103.1924970930643
 20
108.2733179241563
 30
0.0
 11
-99.86322883193958
 21
108.2733179241563
 31
0.0
  0
LINE
  5
2C3
330
1F
100
AcDbEntity
  8
LAYER-006
  6
Continuous
 62
     1
100
AcDbLine
 10
-103.1924970930643
 20
108.2733179241563
 30
0.0
 11
-103.1924970930643
 21
101.6147847305492
 31
0.0
  0
LINE
  5
2C4
330
1F
100
AcDbEntity
  8
LAYER-006
  6
Continuous
 62
     1
100
AcDbLine
 10
-96.53396057018892
 20
108.2733179241563
 30
0.0
 11
-89.87542404731374
 21
108.2733179241563
 31
0.0
  0
LINE
  5
2C5
330
1F
100
AcDbEntity
  8
LAYER-006
  6
Continuous
 62
     1
100
AcDbLine
 10
-93.20469230875131
 20
108.2733179241563
 30
0.0
 11
-93.20469230875131
 21
101.6147847305492
 31
0.0
  0
LINE
  5
2C6
330
1F
100
AcDbEntity
  8
LAYER-006
  6
Continuous
 62
     1
100
AcDbLine
 10
-73.22908274012548
 20
108.2733179241563
 30
0.0
 11
-69.89981447868784
 21
108.2733179241563
 31
0.0
  0
LINE
  5
2C7
330
1F
100
AcDbEntity
  8
LAYER-006
  6
Continuous
 62
     1
100
AcDbLine
 10
-69.89981447868784
 20
108.2733179241563
 30
0.0
 11
-69.89981447868784
 21
101.6147847305492
 31
0.0
  0
LINE
  5
2C8
330
1F
100
AcDbEntity
  8
LAYER-007
  6
CENTER
 62
     4
100
AcDbLine
 10
155.3733192317963
 20
96.34405170003771
 30
0.0
 11
233.1042827223429
 21
96.34405170003771
 31
0.0
  0
LINE
  5
2C9
330
1F
100
AcDbEntity
  8
LAYER-006
  6
Continuous
 62
     1
100
AcDbLine
 10
-109.8510336159396
 20
106.6086871227056
 30
0.0
 11
-99.86322883193958
 21
106.6086871227056
 31
0.0
  0
LINE
  5
2CA
330
1F
100
AcDbEntity
  8
LAYER-006
  6
Continuous
 62
     1
100
AcDbLine
 10
-109.8510336159396
 20
106.6086871227056
 30
0.0
 11
-109.8510336159396
 21
103.279418861268
 31
0.0
  0
LINE
  5
2CB
330
1F
100
AcDbEntity
  8
LAYER-006
  6
Continuous
 62
     1
100
AcDbLine
 10
-96.53396057018892
 20
106.6086871227056
 30
0.0
 11
-89.87542404731374
 21
106.6086871227056
 31
0.0
  0
LINE
  5
2CC
330
1F
100
AcDbEntity
  8
LAYER-006
  6
Continuous
 62
     1
100
AcDbLine
 10
-73.22908274012548
 20
106.6086871227056
 30
0.0
 11
-69.89981447868784
 21
106.6086871227056
 31
0.0
  0
LINE
  5
2CD
330
1F
100
AcDbEntity
  8
LAYER-006
  6
Continuous
 62
     1
100
AcDbLine
 10
-382.7138768419441
 20
104.9440504080885
 30
0.0
 11
-382.7138768419441
 21
119.1190501953896
 31
0.0
  0
ARC
  5
2CE
330
1F
100
AcDbEntity
  8
LAYER-006
  6
Continuous
 62
     1
100
AcDbCircle
 10
-377.9888769128438
 20
104.9440504080885
 30
0.0
 40
4.724999929100349
100
AcDbArc
 50
180.0
 51
0.0233390132869487
  0
CIRCLE
  5
2CF
330
1F
100
AcDbEntity
  8
LAYER-006
  6
Continuous
 62
     1
100
AcDbCircle
 10
-377.9888769128438
 20
104.9440504080885
 30
0.0
 40
1.574999976366783
  0
LINE
  5
2D0
330
1F
100
AcDbEntity
  8
LAYER-006
  6
Continuous
 62
     1
100
AcDbLine
 10
-373.2638769837436
 20
104.9440504080885
 30
0.0
 11
-373.2638769837436
 21
119.1190501953896
 31
0.0
  0
LINE
  5
2D1
330
1F
100
AcDbEntity
  8
LAYER-006
  6
Continuous
 62
     1
100
AcDbLine
 10
-347.7538761363178
 20
104.9440504080885
 30
0.0
 11
-347.7538761363178
 21
119.1190501953896
 31
0.0
  0
ARC
  5
2D2
330
1F
100
AcDbEntity
  8
LAYER-006
  6
Continuous
 62
     1
100
AcDbCircle
 10
-343.0288762072175
 20
104.9440504080885
 30
0.0
 40
4.724999929100349
100
AcDbArc
 50
180.0
 51
0.0233390132901175
  0
CIRCLE
  5
2D3
330
1F
100
AcDbEntity
  8
LAYER-006
  6
Continuous
 62
     1
100
AcDbCircle
 10
-343.0288762072175
 20
104.9440504080885
 30
0.0
 40
1.574999976366783
  0
LINE
  5
2D4
330
1F
100
AcDbEntity
  8
LAYER-006
  6
Continuous
 62
     1
100
AcDbLine
 10
-338.3038762781172
 20
104.9440504080885
 30
0.0
 11
-338.3038762781172
 21
119.1190501953896
 31
0.0
  0
LINE
  5
2D5
330
1F
100
AcDbEntity
  8
LAYER-006
  6
Continuous
 62
     1
100
AcDbLine
 10
-312.7938754306915
 20
104.9440504080885
 30
0.0
 11
-312.7938754306915
 21
119.1190501953896
 31
0.0
  0
ARC
  5
2D6
330
1F
100
AcDbEntity
  8
LAYER-006
  6
Continuous
 62
     1
100
AcDbCircle
 10
-308.0688755015912
 20
104.9440504080885
 30
0.0
 40
4.724999929100349
100
AcDbArc
 50
180.0
 51
0.0233390132901175
  0
CIRCLE
  5
2D7
330
1F
100
AcDbEntity
  8
LAYER-006
  6
Continuous
 62
     1
100
AcDbCircle
 10
-308.0688755015912
 20
104.9440504080885
 30
0.0
 40
1.574999976366783
  0
LINE
  5
2D8
330
1F
100
AcDbEntity
  8
LAYER-006
  6
Continuous
 62
     1
100
AcDbLine
 10
-303.3438755724908
 20
104.9440504080885
 30
0.0
 11
-303.3438755724908
 21
119.1190501953896
 31
0.0
  0
LINE
  5
2D9
330
1F
100
AcDbEntity
  8
LAYER-006
  6
Continuous
 62
     1
100
AcDbLine
 10
-277.833874724778
 20
104.9440504080885
 30
0.0
 11
-277.833874724778
 21
119.1190501953896
 31
0.0
  0
ARC
  5
2DA
330
1F
100
AcDbEntity
  8
LAYER-006
  6
Continuous
 62
     1
100
AcDbCircle
 10
-273.1088747959648
 20
104.9440504080885
 30
0.0
 40
4.724999929100349
100
AcDbArc
 50
180.0
 51
0.0233390132869481
  0
CIRCLE
  5
2DB
330
1F
100
AcDbEntity
  8
LAYER-006
  6
Continuous
 62
     1
100
AcDbCircle
 10
-273.1088747959648
 20
104.9440504080885
 30
0.0
 40
1.574999976366783
  0
LINE
  5
2DC
330
1F
100
AcDbEntity
  8
LAYER-006
  6
Continuous
 62
     1
100
AcDbLine
 10
-268.3838748668644
 20
104.9440504080885
 30
0.0
 11
-268.3838748668644
 21
119.1190501953896
 31
0.0
  0
LINE
  5
2DD
330
1F
100
AcDbEntity
  8
LAYER-006
  6
Continuous
 62
     1
100
AcDbLine
 10
-242.8738740194387
 20
104.9440504080885
 30
0.0
 11
-242.8738740194387
 21
119.1190501953896
 31
0.0
  0
ARC
  5
2DE
330
1F
100
AcDbEntity
  8
LAYER-006
  6
Continuous
 62
     1
100
AcDbCircle
 10
-238.1488740903385
 20
104.9440504080885
 30
0.0
 40
4.724999929100349
100
AcDbArc
 50
180.0
 51
0.0233390132901172
  0
CIRCLE
  5
2DF
330
1F
100
AcDbEntity
  8
LAYER-006
  6
Continuous
 62
     1
100
AcDbCircle
 10
-238.1488740903385
 20
104.9440504080885
 30
0.0
 40
1.574999976366783
  0
LINE
  5
2E0
330
1F
100
AcDbEntity
  8
LAYER-006
  6
Continuous
 62
     1
100
AcDbLine
 10
-233.4238741612381
 20
104.9440504080885
 30
0.0
 11
-233.4238741612381
 21
119.1190501953896
 31
0.0
  0
LINE
  5
2E1
330
1F
100
AcDbEntity
  8
LAYER-006
  6
Continuous
 62
     1
100
AcDbLine
 10
-207.9138733138126
 20
104.9440504080885
 30
0.0
 11
-207.9138733138126
 21
119.1190501953896
 31
0.0
  0
ARC
  5
2E2
330
1F
100
AcDbEntity
  8
LAYER-006
  6
Continuous
 62
     1
100
AcDbCircle
 10
-203.1888733847123
 20
104.9440504080885
 30
0.0
 40
4.724999929100349
100
AcDbArc
 50
180.0
 51
0.0233390132901171
  0
CIRCLE
  5
2E3
330
1F
100
AcDbEntity
  8
LAYER-006
  6
Continuous
 62
     1
100
AcDbCircle
 10
-203.1888733847123
 20
104.9440504080885
 30
0.0
 40
1.574999976366783
  0
LINE
  5
2E4
330
1F
100
AcDbEntity
  8
LAYER-006
  6
Continuous
 62
     1
100
AcDbLine
 10
-198.4638734556119
 20
104.9440504080885
 30
0.0
 11
-198.4638734556119
 21
119.1190501953896
 31
0.0
  0
LINE
  5
2E5
330
1F
100
AcDbEntity
  8
LAYER-006
  6
Continuous
 62
     1
100
AcDbLine
 10
28.51481696329076
 20
103.8684470362279
 30
0.0
 11
28.51481696329076
 21
-86.18033697783653
 31
0.0
  0
LINE
  5
2E6
330
1F
100
AcDbEntity
  8
LAYER-006
  6
Continuous
 62
     1
100
AcDbLine
 10
28.51481696329076
 20
103.8684470362279
 30
0.0
 11
-66.57054621687594
 21
103.8684470362279
 31
0.0
  0
LINE
  5
2E7
330
1F
100
AcDbEntity
  8
LAYER-006
  6
Continuous
 62
     1
100
AcDbLine
 10
-109.8510336159396
 20
103.279418861268
 30
0.0
 11
-99.86322883193958
 21
103.279418861268
 31
0.0
  0
LINE
  5
2E8
330
1F
100
AcDbEntity
  8
LAYER-006
  6
Continuous
 62
     1
100
AcDbLine
 10
-96.53396057018892
 20
103.279418861268
 30
0.0
 11
-89.87542404731374
 21
103.279418861268
 31
0.0
  0
LINE
  5
2E9
330
1F
100
AcDbEntity
  8
LAYER-006
  6
Continuous
 62
     1
100
AcDbLine
 10
-73.22908274012548
 20
103.279418861268
 30
0.0
 11
-69.89981447868784
 21
103.279418861268
 31
0.0
  0
LINE
  5
2EA
330
1F
100
AcDbEntity
  8
LAYER-006
  6
Continuous
 62
     1
100
AcDbLine
 10
-103.1924970930643
 20
101.6147847305492
 30
0.0
 11
-99.86322883193958
 21
101.6147847305492
 31
0.0
  0
LINE
  5
2EB
330
1F
100
AcDbEntity
  8
LAYER-006
  6
Continuous
 62
     1
100
AcDbLine
 10
-96.53396057018892
 20
101.6147847305492
 30
0.0
 11
-89.87542404731374
 21
101.6147847305492
 31
0.0
  0
LINE
  5
2EC
330
1F
100
AcDbEntity
  8
LAYER-006
  6
Continuous
 62
     1
100
AcDbLine
 10
-73.22908274012548
 20
101.6147847305492
 30
0.0
 11
-69.89981447868784
 21
101.6147847305492
 31
0.0
  0
LINE
  5
2ED
330
1F
100
AcDbEntity
  8
LAYER-006
  6
Continuous
 62
     1
100
AcDbLine
 10
-99.86322883193958
 20
99.95015059983035
 30
0.0
 11
-99.86322883193958
 21
109.937952054875
 31
0.0
  0
LINE
  5
2EE
330
1F
100
AcDbEntity
  8
LAYER-006
  6
Continuous
 62
     1
100
AcDbLine
 10
-99.86322883193958
 20
99.95015059983035
 30
0.0
 11
-96.53396057018892
 21
99.95015059983035
 31
0.0
  0
LINE
  5
2EF
330
1F
100
AcDbEntity
  8
LAYER-006
  6
Continuous
 62
     1
100
AcDbLine
 10
-98.19859470090788
 20
99.95015059983035
 30
0.0
 11
-98.19859470090788
 21
119.925756839188
 31
0.0
  0
LINE
  5
2F0
330
1F
100
AcDbEntity
  8
LAYER-006
  6
Continuous
 62
     1
100
AcDbLine
 10
-96.53396057018892
 20
99.95015059983035
 30
0.0
 11
-96.53396057018892
 21
109.937952054875
 31
0.0
  0
LINE
  5
2F1
330
1F
100
AcDbEntity
  8
LAYER-007
  6
Continuous
 62
     4
100
AcDbLine
 10
-379.3433737425193
 20
97.11505627709522
 30
0.0
 11
-380.4143768764486
 21
94.09105947334103
 31
0.0
  0
LINE
  5
2F2
330
1F
100
AcDbEntity
  8
LAYER-007
  6
Continuous
 62
     4
100
AcDbLine
 10
-375.4216206516609
 20
97.11505627709522
 30
0.0
 11
-376.6658769326957
 21
94.26430946939038
 31
0.0
  0
LINE
  5
2F3
330
1F
100
AcDbEntity
  8
LAYER-007
  6
Continuous
 62
     4
100
AcDbLine
 10
-344.4148761864204
 20
97.09930942689641
 30
0.0
 11
-343.863629344692
 21
96.92605627945028
 31
0.0
  0
LINE
  5
2F4
330
1F
100
AcDbEntity
  8
LAYER-007
  6
Continuous
 62
     4
100
AcDbLine
 10
-340.7766293910129
 20
97.09930942689641
 30
0.0
 11
-346.0528793118418
 21
90.7363063712788
 31
0.0
  0
LINE
  5
2F5
330
1F
100
AcDbEntity
  8
LAYER-007
  6
Continuous
 62
     4
100
AcDbLine
 10
-240.763374051
 20
97.09930942689641
 30
0.0
 11
-240.621620902778
 21
96.3748062877676
 31
0.0
  0
LINE
  5
2F6
330
1F
100
AcDbEntity
  8
LAYER-007
  6
Continuous
 62
     4
100
AcDbLine
 10
-235.8651209743275
 20
97.09930942689641
 30
0.0
 11
-235.5658709790971
 21
96.7370594323321
 31
0.0
  0
LINE
  5
2F7
330
1F
100
AcDbEntity
  8
LAYER-007
  6
Continuous
 62
     4
100
AcDbLine
 10
-202.1493702503104
 20
97.08355627713266
 30
0.0
 11
-201.3303702625996
 21
96.94180627952966
 31
0.0
  0
LINE
  5
2F8
330
1F
100
AcDbEntity
  8
LAYER-007
  6
Continuous
 62
     4
100
AcDbLine
 10
-310.0691254704731
 20
97.06780627736916
 30
0.0
 11
-309.7068754770126
 21
96.89455627996887
 31
0.0
  0
LINE
  5
2F9
330
1F
100
AcDbEntity
  8
LAYER-007
  6
Continuous
 62
     4
100
AcDbLine
 10
-274.2586216287126
 20
97.06780627736916
 30
0.0
 11
-275.2193684642964
 21
94.76830631187366
 31
0.0
  0
LINE
  5
2FA
330
1F
100
AcDbEntity
  8
LAYER-007
  6
Continuous
 62
     4
100
AcDbLine
 10
-306.3521223773906
 20
96.98905627855066
 30
0.0
 11
-306.0056255325507
 21
96.35905943800407
 31
0.0
  0
LINE
  5
2FB
330
1F
100
AcDbEntity
  8
LAYER-007
  6
Continuous
 62
     4
100
AcDbLine
 10
-344.7771261809847
 20
96.92605627945028
 30
0.0
 11
-344.4148761864204
 21
97.09930942689641
 31
0.0
  0
LINE
  5
2FC
330
1F
100
AcDbEntity
  8
LAYER-007
  6
Continuous
 62
     4
100
AcDbLine
 10
-343.863629344692
 20
96.92605627945028
 30
0.0
 11
-343.6903793469032
 21
94.73680946234615
 31
0.0
  0
LINE
  5
2FD
330
1F
100
AcDbEntity
  8
LAYER-007
  6
Continuous
 62
     4
100
AcDbLine
 10
-201.3303702625996
 20
96.94180627952966
 30
0.0
 11
-200.9208734187832
 21
96.40630943729508
 31
0.0
  0
LINE
  5
2FE
330
1F
100
AcDbEntity
  8
LAYER-007
  6
Continuous
 62
     4
100
AcDbLine
 10
-309.7068754770126
 20
96.89455627996887
 30
0.0
 11
-309.5336223296123
 21
96.35905943800407
 31
0.0
  0
LINE
  5
2FF
330
1F
100
AcDbEntity
  8
LAYER-007
  6
Continuous
 62
     4
100
AcDbLine
 10
-270.9983748276334
 20
96.80005628138687
 30
0.0
 11
-272.4946216551818
 21
93.80755947628978
 31
0.0
  0
LINE
  5
300
330
1F
100
AcDbEntity
  8
LAYER-007
  6
Continuous
 62
     4
100
AcDbLine
 10
-203.2361202340032
 20
96.81580943115037
 30
0.0
 11
-202.1493702503104
 21
97.08355627713266
 31
0.0
  0
LINE
  5
301
330
1F
100
AcDbEntity
  8
LAYER-007
  6
Continuous
 62
     4
100
AcDbLine
 10
-238.4008740865572
 20
96.7370594323321
 30
0.0
 11
-238.9521209282858
 21
92.57905634472388
 31
0.0
  0
LINE
  5
302
330
1F
100
AcDbEntity
  8
LAYER-007
  6
Continuous
 62
     4
100
AcDbLine
 10
-235.5658709790971
 20
96.7370594323321
 30
0.0
 11
-235.1406209854781
 21
96.56380628493162
 31
0.0
  0
LINE
  5
303
330
1F
100
AcDbEntity
  8
LAYER-007
  6
Continuous
 62
     4
100
AcDbLine
 10
-200.9208734187832
 20
96.40630943729508
 30
0.0
 11
-201.204373413778
 21
95.44555630061547
 31
0.0
  0
LINE
  5
304
330
1F
100
AcDbEntity
  8
LAYER-007
  6
Continuous
 62
     4
100
AcDbLine
 10
-309.5336223296123
 20
96.35905943800407
 30
0.0
 11
-310.0691254704731
 21
94.76830631187366
 31
0.0
  0
LINE
  5
305
330
1F
100
AcDbEntity
  8
LAYER-007
  6
Continuous
 62
     4
100
AcDbLine
 10
-306.0056255325507
 20
96.35905943800407
 30
0.0
 11
-305.6433723879864
 21
96.18580629060358
 31
0.0
  0
LINE
  5
306
330
1F
100
AcDbEntity
  8
LAYER-007
  6
Continuous
 62
     4
100
AcDbLine
 10
-240.621620902778
 20
96.3748062877676
 30
0.0
 11
-240.9366208970831
 21
92.39005634755986
 31
0.0
  0
LINE
  5
307
330
1F
100
AcDbEntity
  8
LAYER-007
  6
Continuous
 62
     4
100
AcDbLine
 10
-305.6433723879864
 20
96.18580629060358
 30
0.0
 11
-305.1078755460216
 21
95.99680629343956
 31
0.0
  0
LINE
  5
308
330
1F
100
AcDbEntity
  8
LAYER-007
  6
Continuous
 62
     4
100
AcDbLine
 10
-203.9291202236048
 20
96.12280944154907
 30
0.0
 11
-203.2361202340032
 21
96.81580943115037
 31
0.0
  0
LINE
  5
309
330
1F
100
AcDbEntity
  8
LAYER-007
  6
Continuous
 62
     4
100
AcDbLine
 10
-201.204373413778
 20
95.44555630061547
 30
0.0
 11
-202.2911202481832
 21
94.48480631716848
 31
0.0
  0
LINE
  5
30A
330
1F
100
AcDbEntity
  8
LAYER-007
  6
Continuous
 62
     4
100
AcDbLine
 10
-272.3686216570726
 20
95.03605630785594
 30
0.0
 11
-270.9983748276334
 21
96.80005628138687
 31
0.0
  0
LINE
  5
30B
330
1F
100
AcDbEntity
  8
LAYER-007
  6
Continuous
 62
     4
100
AcDbLine
 10
-310.0691254704731
 20
94.76830631187366
 30
0.0
 11
-310.6046223135418
 21
92.9885563385792
 31
0.0
  0
LINE
  5
30C
330
1F
100
AcDbEntity
  8
LAYER-007
  6
Continuous
 62
     4
100
AcDbLine
 10
-306.8876223693163
 20
94.76830631187366
 30
0.0
 11
-306.3521223773906
 21
96.98905627855066
 31
0.0
  0
LINE
  5
30D
330
1F
100
AcDbEntity
  8
LAYER-007
  6
Continuous
 62
     4
100
AcDbLine
 10
-275.2193684642964
 20
94.76830631187366
 30
0.0
 11
-275.3453716124056
 21
94.07530947227207
 31
0.0
  0
LINE
  5
30E
330
1F
100
AcDbEntity
  8
LAYER-007
  6
Continuous
 62
     4
100
AcDbLine
 10
-343.6903793469032
 20
94.73680946234615
 30
0.0
 11
-343.312379353
 21
92.37430949779611
 31
0.0
  0
LINE
  5
30F
330
1F
100
AcDbEntity
  8
LAYER-007
  6
Continuous
 62
     4
100
AcDbLine
 10
-202.2911202481832
 20
94.48480631716848
 30
0.0
 11
-203.5196233797493
 21
94.09105947334103
 31
0.0
  0
LINE
  5
310
330
1F
100
AcDbEntity
  8
LAYER-007
  6
Continuous
 62
     4
100
AcDbLine
 10
-202.1493702503104
 20
94.48480631716848
 30
0.0
 11
-201.6138702583455
 21
94.35880946729682
 31
0.0
  0
LINE
  5
311
330
1F
100
AcDbEntity
  8
LAYER-007
  6
Continuous
 62
     4
100
AcDbLine
 10
-236.4163678163352
 20
94.39030631682422
 30
0.0
 11
-235.8651209743275
 21
97.09930942689641
 31
0.0
  0
LINE
  5
312
330
1F
100
AcDbEntity
  8
LAYER-007
  6
Continuous
 62
     4
100
AcDbLine
 10
-201.6138702583455
 20
94.35880946729682
 30
0.0
 11
-201.4721202605116
 21
93.80755947628978
 31
0.0
  0
LINE
  5
313
330
1F
100
AcDbEntity
  8
LAYER-007
  6
Continuous
 62
     4
100
AcDbLine
 10
-376.6658769326957
 20
94.26430946939038
 30
0.0
 11
-377.3903737718245
 21
91.24030636409066
 31
0.0
  0
LINE
  5
314
330
1F
100
AcDbEntity
  8
LAYER-007
  6
Continuous
 62
     4
100
AcDbLine
 10
-273.1718747950194
 20
94.2170594701451
 30
0.0
 11
-272.3686216570726
 21
95.03605630785594
 31
0.0
  0
LINE
  5
315
330
1F
100
AcDbEntity
  8
LAYER-007
  6
Continuous
 62
     4
100
AcDbLine
 10
-271.5496248193617
 20
94.2170594701451
 30
0.0
 11
-270.8723716795241
 21
94.62655631400062
 31
0.0
  0
LINE
  5
316
330
1F
100
AcDbEntity
  8
LAYER-007
  6
Continuous
 62
     4
100
AcDbLine
 10
-380.4143768764486
 20
94.09105947334103
 30
0.0
 11
-380.9498737184134
 21
91.96480635394059
 31
0.0
  0
LINE
  5
317
330
1F
100
AcDbEntity
  8
LAYER-007
  6
Continuous
 62
     4
100
AcDbLine
 10
-203.5196233797493
 20
94.09105947334103
 30
0.0
 11
-202.1493702503104
 21
94.48480631716848
 31
0.0
  0
LINE
  5
318
330
1F
100
AcDbEntity
  8
LAYER-007
  6
Continuous
 62
     4
100
AcDbLine
 10
-275.3453716124056
 20
94.07530947227207
 30
0.0
 11
-274.9358747685503
 21
93.53980633030753
 31
0.0
  0
LINE
  5
319
330
1F
100
AcDbEntity
  8
LAYER-007
  6
Continuous
 62
     4
100
AcDbLine
 10
-272.4946216551818
 20
93.80755947628978
 30
0.0
 11
-274.542121624
 21
90.83080952095668
 31
0.0
  0
LINE
  5
31A
330
1F
100
AcDbEntity
  8
LAYER-007
  6
Continuous
 62
     4
100
AcDbLine
 10
-201.4721202605116
 20
93.80755947628978
 30
0.0
 11
-202.4328702460564
 21
92.04355950275905
 31
0.0
  0
LINE
  5
31B
330
1F
100
AcDbEntity
  8
LAYER-007
  6
Continuous
 62
     4
100
AcDbLine
 10
-273.8491216348572
 20
93.68155632818051
 30
0.0
 11
-273.1718747950194
 21
94.2170594701451
 31
0.0
  0
LINE
  5
31C
330
1F
100
AcDbEntity
  8
LAYER-007
  6
Continuous
 62
     4
100
AcDbLine
 10
-272.7623685011641
 20
93.68155632818051
 30
0.0
 11
-271.5496248193617
 21
94.2170594701451
 31
0.0
  0
LINE
  5
31D
330
1F
100
AcDbEntity
  8
LAYER-007
  6
Continuous
 62
     4
100
AcDbLine
 10
-274.9358747685503
 20
93.53980633030753
 30
0.0
 11
-273.8491216348572
 21
93.68155632818051
 31
0.0
  0
LINE
  5
31E
330
1F
100
AcDbEntity
  8
LAYER-007
  6
Continuous
 62
     4
100
AcDbLine
 10
-201.4721202605116
 20
93.53980633030753
 30
0.0
 11
-200.9208734187832
 21
94.09105947334103
 31
0.0
  0
LINE
  5
31F
330
1F
100
AcDbEntity
  8
LAYER-007
  6
Continuous
 62
     4
100
AcDbLine
 10
-273.8491216348572
 20
93.27205633432521
 30
0.0
 11
-272.7623685011641
 21
93.68155632818051
 31
0.0
  0
LINE
  5
320
330
1F
100
AcDbEntity
  8
LAYER-007
  6
Continuous
 62
     4
100
AcDbLine
 10
-377.2013737746605
 20
93.20905948527047
 30
0.0
 11
-375.4216206516609
 21
97.11505627709522
 31
0.0
  0
LINE
  5
321
330
1F
100
AcDbEntity
  8
LAYER-007
  6
Continuous
 62
     4
100
AcDbLine
 10
-310.6046223135418
 20
92.9885563385792
 30
0.0
 11
-310.9511254583425
 21
91.58680950961275
 31
0.0
  0
LINE
  5
322
330
1F
100
AcDbEntity
  8
LAYER-007
  6
Continuous
 62
     4
100
AcDbLine
 10
-307.7696223560816
 20
92.9885563385792
 30
0.0
 11
-306.8876223693163
 21
94.76830631187366
 31
0.0
  0
LINE
  5
323
330
1F
100
AcDbEntity
  8
LAYER-007
  6
Continuous
 62
     4
100
AcDbLine
 10
-239.125370925686
 20
92.9413063392056
 30
0.0
 11
-238.4008740865572
 21
96.7370594323321
 31
0.0
  0
LINE
  5
324
330
1F
100
AcDbEntity
  8
LAYER-007
  6
Continuous
 62
     4
100
AcDbLine
 10
-202.7006233920387
 20
92.86255634046992
 30
0.0
 11
-201.4721202605116
 21
93.53980633030753
 31
0.0
  0
LINE
  5
325
330
1F
100
AcDbEntity
  8
LAYER-007
  6
Continuous
 62
     4
100
AcDbLine
 10
-238.9521209282858
 20
92.57905634472388
 30
0.0
 11
-239.125370925686
 21
91.13005636646622
 31
0.0
  0
LINE
  5
326
330
1F
100
AcDbEntity
  8
LAYER-007
  6
Continuous
 62
     4
100
AcDbLine
 10
-240.9366208970831
 20
92.39005634755986
 30
0.0
 11
-241.1256208956718
 21
91.13005636646622
 31
0.0
  0
LINE
  5
327
330
1F
100
AcDbEntity
  8
LAYER-007
  6
Continuous
 62
     4
100
AcDbLine
 10
-343.312379353
 20
92.37430949779611
 30
0.0
 11
-342.7768762109989
 21
91.27180636448989
 31
0.0
  0
LINE
  5
328
330
1F
100
AcDbEntity
  8
LAYER-007
  6
Continuous
 62
     4
100
AcDbLine
 10
-274.9358747685503
 20
92.18530950063209
 30
0.0
 11
-273.8491216348572
 21
93.27205633432521
 31
0.0
  0
LINE
  5
329
330
1F
100
AcDbEntity
  8
LAYER-007
  6
Continuous
 62
     4
100
AcDbLine
 10
-202.4328702460564
 20
92.04355950275905
 30
0.0
 11
-204.055120221778
 21
91.08280951717521
 31
0.0
  0
LINE
  5
32A
330
1F
100
AcDbEntity
  8
LAYER-007
  6
Continuous
 62
     4
100
AcDbLine
 10
-380.9498737184134
 20
91.96480635394059
 30
0.0
 11
-380.7608737212494
 21
91.11430951665682
 31
0.0
  0
LINE
  5
32B
330
1F
100
AcDbEntity
  8
LAYER-007
  6
Continuous
 62
     4
100
AcDbLine
 10
-378.0361237621348
 20
91.96480635394059
 30
0.0
 11
-377.2013737746605
 21
93.20905948527047
 31
0.0
  0
LINE
  5
32C
330
1F
100
AcDbEntity
  8
LAYER-007
  6
Continuous
 62
     4
100
AcDbLine
 10
-204.8741233594247
 20
91.90180950488607
 30
0.0
 11
-202.7006233920387
 21
92.86255634046992
 31
0.0
  0
LINE
  5
32D
330
1F
100
AcDbEntity
  8
LAYER-007
  6
Continuous
 62
     4
100
AcDbLine
 10
-310.9511254583425
 20
91.58680950961275
 30
0.0
 11
-310.7778754606408
 21
91.22455636504824
 31
0.0
  0
LINE
  5
32E
330
1F
100
AcDbEntity
  8
LAYER-007
  6
Continuous
 62
     4
100
AcDbLine
 10
-275.3453716124056
 20
91.50805636079429
 30
0.0
 11
-274.9358747685503
 21
92.18530950063209
 31
0.0
  0
LINE
  5
32F
330
1F
100
AcDbEntity
  8
LAYER-007
  6
Continuous
 62
     4
100
AcDbLine
 10
-309.0138754874113
 20
91.39780951244873
 30
0.0
 11
-307.7696223560816
 21
92.9885563385792
 31
0.0
  0
LINE
  5
330
330
1F
100
AcDbEntity
  8
LAYER-007
  6
Continuous
 62
     4
100
AcDbLine
 10
-342.7768762109989
 20
91.27180636448989
 30
0.0
 11
-341.6743762275421
 21
90.7363063712788
 31
0.0
  0
LINE
  5
331
330
1F
100
AcDbEntity
  8
LAYER-007
  6
Continuous
 62
     4
100
AcDbLine
 10
-377.3903737718245
 20
91.24030636409066
 30
0.0
 11
-377.02812377726
 21
90.89380952001119
 31
0.0
  0
LINE
  5
332
330
1F
100
AcDbEntity
  8
LAYER-007
  6
Continuous
 62
     4
100
AcDbLine
 10
-310.7778754606408
 20
91.22455636504824
 30
0.0
 11
-310.3683723170867
 21
90.87805952024746
 31
0.0
  0
LINE
  5
333
330
1F
100
AcDbEntity
  8
LAYER-007
  6
Continuous
 62
     4
100
AcDbLine
 10
-241.1256208956718
 20
91.13005636646622
 30
0.0
 11
-240.763374051
 21
90.76780637190194
 31
0.0
  0
LINE
  5
334
330
1F
100
AcDbEntity
  8
LAYER-007
  6
Continuous
 62
     4
100
AcDbLine
 10
-239.125370925686
 20
91.13005636646622
 30
0.0
 11
-238.6371177830969
 21
90.76780637190194
 31
0.0
  0
LINE
  5
335
330
1F
100
AcDbEntity
  8
LAYER-007
  6
Continuous
 62
     4
100
AcDbLine
 10
-237.5503709493193
 20
91.13005636646622
 30
0.0
 11
-236.4163678163352
 21
94.39030631682422
 31
0.0
  0
LINE
  5
336
330
1F
100
AcDbEntity
  8
LAYER-007
  6
Continuous
 62
     4
100
AcDbLine
 10
-380.7608737212494
 20
91.11430951665682
 30
0.0
 11
-379.8788737344841
 21
90.89380952001119
 31
0.0
  0
LINE
  5
337
330
1F
100
AcDbEntity
  8
LAYER-007
  6
Continuous
 62
     4
100
AcDbLine
 10
-378.9811268979549
 20
91.06705951741148
 30
0.0
 11
-378.0361237621348
 21
91.96480635394059
 31
0.0
  0
LINE
  5
338
330
1F
100
AcDbEntity
  8
LAYER-007
  6
Continuous
 62
     4
100
AcDbLine
 10
-376.1303737907435
 20
91.06705951741148
 30
0.0
 11
-375.0751238065652
 21
91.60255635937628
 31
0.0
  0
LINE
  5
339
330
1F
100
AcDbEntity
  8
LAYER-007
  6
Continuous
 62
     4
100
AcDbLine
 10
-205.425373351153
 20
91.08280951717521
 30
0.0
 11
-204.8741233594247
 21
91.90180950488607
 31
0.0
  0
LINE
  5
33A
330
1F
100
AcDbEntity
  8
LAYER-007
  6
Continuous
 62
     4
100
AcDbLine
 10
-204.055120221778
 20
91.08280951717521
 30
0.0
 11
-204.8741233594247
 21
90.81505637162809
 31
0.0
  0
LINE
  5
33B
330
1F
100
AcDbEntity
  8
LAYER-007
  6
Continuous
 62
     4
100
AcDbLine
 10
-309.7068754770126
 20
91.05130636764795
 30
0.0
 11
-309.0138754874113
 21
91.39780951244873
 31
0.0
  0
LINE
  5
33C
330
1F
100
AcDbEntity
  8
LAYER-007
  6
Continuous
 62
     4
100
AcDbLine
 10
-275.2193684642964
 20
90.95680636906596
 30
0.0
 11
-275.3453716124056
 21
91.50805636079429
 31
0.0
  0
LINE
  5
33D
330
1F
100
AcDbEntity
  8
LAYER-007
  6
Continuous
 62
     4
100
AcDbLine
 10
-239.9443709133969
 20
90.94105952060747
 30
0.0
 11
-239.125370925686
 21
92.9413063392056
 31
0.0
  0
LINE
  5
33E
330
1F
100
AcDbEntity
  8
LAYER-007
  6
Continuous
 62
     4
100
AcDbLine
 10
-340.7766293910129
 20
90.90955636977498
 30
0.0
 11
-340.0363794021206
 21
91.82305950606755
 31
0.0
  0
LINE
  5
33F
330
1F
100
AcDbEntity
  8
LAYER-007
  6
Continuous
 62
     4
100
AcDbLine
 10
-379.8788737344841
 20
90.89380952001119
 30
0.0
 11
-378.9811268979549
 21
91.06705951741148
 31
0.0
  0
LINE
  5
340
330
1F
100
AcDbEntity
  8
LAYER-007
  6
Continuous
 62
     4
100
AcDbLine
 10
-377.02812377726
 20
90.89380952001119
 30
0.0
 11
-376.1303737907435
 21
91.06705951741148
 31
0.0
  0
LINE
  5
341
330
1F
100
AcDbEntity
  8
LAYER-007
  6
Continuous
 62
     4
100
AcDbLine
 10
-310.3683723170867
 20
90.87805952024746
 30
0.0
 11
-309.7068754770126
 21
91.05130636764795
 31
0.0
  0
LINE
  5
342
330
1F
100
AcDbEntity
  8
LAYER-007
  6
Continuous
 62
     4
100
AcDbLine
 10
-274.542121624
 20
90.83080952095668
 30
0.0
 11
-275.2193684642964
 21
90.95680636906596
 31
0.0
  0
LINE
  5
343
330
1F
100
AcDbEntity
  8
LAYER-007
  6
Continuous
 62
     4
100
AcDbLine
 10
-204.8741233594247
 20
90.81505637162809
 30
0.0
 11
-205.425373351153
 21
91.08280951717521
 31
0.0
  0
LINE
  5
344
330
1F
100
AcDbEntity
  8
LAYER-007
  6
Continuous
 62
     4
100
AcDbLine
 10
-240.763374051
 20
90.76780637190194
 30
0.0
 11
-239.9443709133969
 21
90.94105952060747
 31
0.0
  0
LINE
  5
345
330
1F
100
AcDbEntity
  8
LAYER-007
  6
Continuous
 62
     4
100
AcDbLine
 10
-238.6371177830969
 20
90.76780637190194
 30
0.0
 11
-237.5503709493193
 21
91.13005636646622
 31
0.0
  0
LINE
  5
346
330
1F
100
AcDbEntity
  8
LAYER-007
  6
Continuous
 62
     4
100
AcDbLine
 10
-341.6743762275421
 20
90.7363063712788
 30
0.0
 11
-340.7766293910129
 21
90.90955636977498
 31
0.0
  0
LINE
  5
347
330
1F
100
AcDbEntity
  8
LAYER-006
  6
Continuous
 62
     1
100
AcDbLine
 10
-390.588873573778
 20
87.61904751914966
 30
0.0
 11
-190.588873573778
 21
87.61904751914966
 31
0.0
  0
LINE
  5
348
330
1F
100
AcDbEntity
  8
LAYER-006
  6
Continuous
 62
     1
100
AcDbLine
 10
-93.20469230875131
 20
87.61904958202132
 30
0.0
 11
-66.57054621687594
 21
87.61904958202132
 31
0.0
  0
LINE
  5
349
330
1F
100
AcDbEntity
  8
LAYER-006
  6
Continuous
 62
     1
100
AcDbLine
 10
-93.20469230875131
 20
87.61904958202132
 30
0.0
 11
-93.20469230875131
 21
-69.93094933194612
 31
0.0
  0
LINE
  5
34A
330
1F
100
AcDbEntity
  8
LAYER-006
  6
PHANTOM
 62
     1
100
AcDbLine
 10
126.7863131789043
 20
70.84405170003771
 30
0.0
 11
258.4792656229273
 21
70.84405170003771
 31
0.0
  0
LINE
  5
34B
330
1F
100
AcDbEntity
  8
LAYER-006
  6
Continuous
 62
     1
100
AcDbLine
 10
-390.588873573778
 20
86.04404754278309
 30
0.0
 11
-390.588873573778
 21
112.8190502899224
 31
0.0
  0
LINE
  5
34C
330
1F
100
AcDbEntity
  8
LAYER-006
  6
Continuous
 62
     1
100
AcDbLine
 10
-387.4388736210444
 20
86.04404754278309
 30
0.0
 11
-387.4388736210444
 21
-68.35594729161167
 31
0.0
  0
LINE
  5
34D
330
1F
100
AcDbEntity
  8
LAYER-006
  6
Continuous
 62
     1
100
AcDbLine
 10
-376.4138737864772
 20
86.04404754278309
 30
0.0
 11
-376.4138737864772
 21
-68.35594729161167
 31
0.0
  0
LINE
  5
34E
330
1F
100
AcDbEntity
  8
LAYER-006
  6
Continuous
 62
     1
100
AcDbLine
 10
-204.7638702110791
 20
86.04404754278309
 30
0.0
 11
-204.7638702110791
 21
-68.35594729161167
 31
0.0
  0
LINE
  5
34F
330
1F
100
AcDbEntity
  8
LAYER-006
  6
Continuous
 62
     1
100
AcDbLine
 10
-193.7388735265116
 20
86.04404754278309
 30
0.0
 11
-193.7388735265116
 21
-68.35594729161167
 31
0.0
  0
LINE
  5
350
330
1F
100
AcDbEntity
  8
LAYER-006
  6
Continuous
 62
     1
100
AcDbLine
 10
-190.588873573778
 20
86.04404754278309
 30
0.0
 11
-390.588873573778
 21
86.04404754278309
 31
0.0
  0
LINE
  5
351
330
1F
100
AcDbEntity
  8
LAYER-006
  6
Continuous
 62
     1
100
AcDbLine
 10
-93.20469230875131
 20
85.95441545130251
 30
0.0
 11
-66.57054621687594
 21
85.95441545130251
 31
0.0
  0
LINE
  5
352
330
1F
100
AcDbEntity
  8
LAYER-006
  6
Continuous
 62
     1
100
AcDbLine
 10
28.51481696329076
 20
68.84405170003771
 30
0.0
 11
55.14896638406043
 21
68.84405170003771
 31
0.0
  0
LINE
  5
353
330
1F
100
AcDbEntity
  8
LAYER-006
  6
PHANTOM
 62
     1
100
AcDbLine
 10
258.4792656229273
 20
68.84405170003771
 30
0.0
 11
126.7863131789043
 21
68.84405170003771
 31
0.0
  0
LINE
  5
354
330
1F
100
AcDbEntity
  8
LAYER-006
  6
Continuous
 62
     1
100
AcDbLine
 10
-376.4138737864772
 20
83.52405073051352
 30
0.0
 11
-344.9138774091412
 21
83.52405073051352
 31
0.0
  0
LINE
  5
355
330
1F
100
AcDbEntity
  8
LAYER-006
  6
Continuous
 62
     1
100
AcDbLine
 10
36.83798761688507
 20
66.18064042015585
 30
0.0
 11
55.14896638406043
 21
66.18064042015585
 31
0.0
  0
LINE
  5
356
330
1F
100
AcDbEntity
  8
LAYER-006
  6
Continuous
 62
     1
100
AcDbLine
 10
-376.4138737864772
 20
81.00405076840909
 30
0.0
 11
-348.0638773618749
 21
81.00405076840909
 31
0.0
  0
LINE
  5
357
330
1F
100
AcDbEntity
  8
LAYER-006
  6
Continuous
 62
     1
100
AcDbLine
 10
38.83555190301598
 20
63.51722581100572
 30
0.0
 11
55.14896638406043
 21
63.51722581100572
 31
0.0
  0
LINE
  5
358
330
1F
100
AcDbEntity
  8
LAYER-006
  6
Continuous
 62
     1
100
AcDbLine
 10
39.83432905217888
 20
61.85259168028684
 30
0.0
 11
55.14896638406043
 21
61.85259168028684
 31
0.0
  0
LINE
  5
359
330
1F
100
AcDbEntity
  8
LAYER-006
  6
Continuous
 62
     1
100
AcDbLine
 10
-376.4138737864772
 20
78.48405395622231
 30
0.0
 11
-351.213877314778
 21
78.48405395622231
 31
0.0
  0
LINE
  5
35A
330
1F
100
AcDbEntity
  8
LAYER-006
  6
Continuous
 62
     1
100
AcDbLine
 10
41.49896318289775
 20
59.18917374186844
 30
0.0
 11
55.14896638406043
 21
59.18917374186844
 31
0.0
  0
LINE
  5
35B
330
1F
100
AcDbEntity
  8
LAYER-006
  6
Continuous
 62
     1
100
AcDbLine
 10
-376.4138737864772
 20
75.96405084403551
 30
0.0
 11
-354.3638741173421
 21
75.96405084403551
 31
0.0
  0
LINE
  5
35C
330
1F
100
AcDbEntity
  8
LAYER-006
  6
Continuous
 62
     1
100
AcDbLine
 10
43.49652746753546
 20
56.52576246198664
 30
0.0
 11
55.14896638406043
 21
56.52576246198664
 31
0.0
  0
LINE
  5
35D
330
1F
100
AcDbEntity
  8
LAYER-006
  6
Continuous
 62
     1
100
AcDbLine
 10
-376.4138737864772
 20
73.44405088075285
 30
0.0
 11
-357.5138740700757
 21
73.44405088075285
 31
0.0
  0
LINE
  5
35E
330
1F
100
AcDbEntity
  8
LAYER-006
  6
Continuous
 62
     1
100
AcDbLine
 10
45.16116160004275
 20
53.86234785303326
 30
0.0
 11
55.14896638406043
 21
53.86234785303326
 31
0.0
  0
LINE
  5
35F
330
1F
100
AcDbEntity
  8
LAYER-006
  6
Continuous
 62
     1
100
AcDbLine
 10
-376.4138737864772
 20
70.92405406966168
 30
0.0
 11
-360.6638740228094
 21
70.92405406966168
 31
0.0
  0
LINE
  5
360
330
1F
100
AcDbEntity
  8
LAYER-006
  6
Continuous
 62
     1
100
AcDbLine
 10
-322.0888762511137
 20
24.59405146370554
 30
0.0
 11
-259.0888740464424
 21
24.59405146370554
 31
0.0
  0
LINE
  5
361
330
1F
100
AcDbEntity
  8
LAYER-006
  6
Continuous
 62
     1
100
AcDbLine
 10
-259.0888740464424
 20
24.59405146370554
 30
0.0
 11
-259.0888740464424
 21
-6.905951213629962
 31
0.0
  0
LINE
  5
362
330
1F
100
AcDbEntity
  8
LAYER-007
  6
CENTER
 62
     4
100
AcDbLine
 10
118.1138506685042
 20
8.84405170003771
 30
0.0
 11
267.1517249213041
 21
8.84405170003771
 31
0.0
  0
LINE
  5
363
330
1F
100
AcDbEntity
  8
LAYER-006
  6
Continuous
 62
     1
100
AcDbLine
 10
-322.0888762511137
 20
-6.905951213629962
 30
0.0
 11
-322.0888762511137
 21
24.59405146370554
 31
0.0
  0
LINE
  5
364
330
1F
100
AcDbEntity
  8
LAYER-006
  6
Continuous
 62
     1
100
AcDbLine
 10
-259.0888740464424
 20
-6.905951213629962
 30
0.0
 11
-322.0888762511137
 21
-6.905951213629962
 31
0.0
  0
LINE
  5
365
330
1F
100
AcDbEntity
  8
LAYER-006
  6
Continuous
 62
     1
100
AcDbLine
 10
-204.7638702110791
 20
-53.23594751849074
 30
0.0
 11
-220.5138699747469
 21
-53.23594751849074
 31
0.0
  0
LINE
  5
366
330
1F
100
AcDbEntity
  8
LAYER-006
  6
Continuous
 62
     1
100
AcDbLine
 10
-83.21688752443845
 20
-53.28461135402612
 30
0.0
 11
-93.20469230875131
 21
-53.28461135402612
 31
0.0
  0
LINE
  5
367
330
1F
100
AcDbEntity
  8
LAYER-006
  6
Continuous
 62
     1
100
AcDbLine
 10
-204.7638702110791
 20
-55.7559506308471
 30
0.0
 11
-223.6638699274805
 21
-55.7559506308471
 31
0.0
  0
LINE
  5
368
330
1F
100
AcDbEntity
  8
LAYER-006
  6
Continuous
 62
     1
100
AcDbLine
 10
-81.55225339371961
 20
-55.94802263399526
 30
0.0
 11
-93.20469230875131
 21
-55.94802263399526
 31
0.0
  0
LINE
  5
369
330
1F
100
AcDbEntity
  8
LAYER-006
  6
Continuous
 62
     1
100
AcDbLine
 10
-204.7638702110791
 20
-58.27594744294688
 30
0.0
 11
-226.8138698802141
 21
-58.27594744294688
 31
0.0
  0
LINE
  5
36A
330
1F
100
AcDbEntity
  8
LAYER-006
  6
Continuous
 62
     1
100
AcDbLine
 10
-79.55469243685698
 20
-58.61143724305816
 30
0.0
 11
-93.20469230875131
 21
-58.61143724305816
 31
0.0
  0
LINE
  5
36B
330
1F
100
AcDbEntity
  8
LAYER-006
  6
Continuous
 62
     1
100
AcDbLine
 10
-204.7638702110791
 20
-60.79594740505115
 30
0.0
 11
-229.963869832778
 21
-60.79594740505115
 31
0.0
  0
LINE
  5
36C
330
1F
100
AcDbEntity
  8
LAYER-006
  6
Continuous
 62
     1
100
AcDbLine
 10
-77.89005830613803
 20
-61.27485518147648
 30
0.0
 11
-93.20469230875131
 21
-61.27485518147648
 31
0.0
  0
LINE
  5
36D
330
1F
100
AcDbEntity
  8
LAYER-006
  6
Continuous
 62
     1
100
AcDbLine
 10
-204.7638702110791
 20
-63.31595051723792
 30
0.0
 11
-233.1138729356812
 21
-63.31595051723792
 31
0.0
  0
LINE
  5
36E
330
1F
100
AcDbEntity
  8
LAYER-006
  6
Continuous
 62
     1
100
AcDbLine
 10
-76.89127782770675
 20
-62.93948931033773
 30
0.0
 11
-93.20469230875131
 21
-62.93948931033773
 31
0.0
  0
LINE
  5
36F
330
1F
100
AcDbEntity
  8
LAYER-006
  6
Continuous
 62
     1
100
AcDbLine
 10
-204.7638702110791
 20
-65.83594732942493
 30
0.0
 11
-236.2638728884148
 21
-65.83594732942493
 31
0.0
  0
LINE
  5
370
330
1F
100
AcDbEntity
  8
LAYER-006
  6
Continuous
 62
     1
100
AcDbLine
 10
-74.89371687064744
 20
-65.60290059161764
 30
0.0
 11
-93.20469230875131
 21
-65.60290059161764
 31
0.0
  0
LINE
  5
371
330
1F
100
AcDbEntity
  8
LAYER-006
  6
Continuous
 62
     1
100
AcDbLine
 10
-390.588873573778
 20
-68.35594729161167
 30
0.0
 11
-190.588873573778
 21
-68.35594729161167
 31
0.0
  0
LINE
  5
372
330
1F
100
AcDbEntity
  8
LAYER-006
  6
Continuous
 62
     1
100
AcDbLine
 10
-190.588873573778
 20
-68.35594729161167
 30
0.0
 11
-190.588873573778
 21
-95.13094688984711
 31
0.0
  0
LINE
  5
373
330
1F
100
AcDbEntity
  8
LAYER-006
  6
Continuous
 62
     1
100
AcDbLine
 10
-93.20469230875131
 20
-68.26631520122729
 30
0.0
 11
-66.57054621687594
 21
-68.26631520122729
 31
0.0
  0
LINE
  5
374
330
1F
100
AcDbEntity
  8
LAYER-006
  6
Continuous
 62
     1
100
AcDbLine
 10
28.51481696329076
 20
-51.15594829996229
 30
0.0
 11
55.14896638406043
 21
-51.15594829996229
 31
0.0
  0
LINE
  5
375
330
1F
100
AcDbEntity
  8
LAYER-006
  6
PHANTOM
 62
     1
100
AcDbLine
 10
126.7863131789043
 20
-51.15594829996229
 30
0.0
 11
258.4792656229273
 21
-51.15594829996229
 31
0.0
  0
LINE
  5
376
330
1F
100
AcDbEntity
  8
LAYER-006
  6
Continuous
 62
     1
100
AcDbLine
 10
-390.588873573778
 20
-69.93094726797843
 30
0.0
 11
-190.588873573778
 21
-69.93094726797843
 31
0.0
  0
LINE
  5
377
330
1F
100
AcDbEntity
  8
LAYER-006
  6
Continuous
 62
     1
100
AcDbLine
 10
-93.20469230875131
 20
-69.93094933194611
 30
0.0
 11
-66.57054621687594
 21
-69.93094933194611
 31
0.0
  0
LINE
  5
378
330
1F
100
AcDbEntity
  8
LAYER-006
  6
PHANTOM
 62
     1
100
AcDbLine
 10
126.4651140757274
 20
-53.15594829996229
 30
0.0
 11
258.4792656229273
 21
-53.15594829996229
 31
0.0
  0
LINE
  5
379
330
1F
100
AcDbEntity
  8
LAYER-007
  6
CENTER
 62
     4
100
AcDbLine
 10
160.4539901107193
 20
-66.77146584958547
 30
0.0
 11
160.4539901107193
 21
-83.15278071276231
 31
0.0
  0
LINE
  5
37A
330
1F
100
AcDbEntity
  8
LAYER-007
  6
CENTER
 62
     4
100
AcDbLine
 10
225.4539901107193
 20
-66.77146584958547
 30
0.0
 11
225.4539901107193
 21
-83.15278071276231
 31
0.0
  0
LINE
  5
37B
330
1F
100
AcDbEntity
  8
LAYER-006
  6
Continuous
 62
     1
100
AcDbLine
 10
-99.86322883193958
 20
-82.26204719936168
 30
0.0
 11
-99.86322883193958
 21
-92.24985198367467
 31
0.0
  0
LINE
  5
37C
330
1F
100
AcDbEntity
  8
LAYER-006
  6
Continuous
 62
     1
100
AcDbLine
 10
-99.86322883193958
 20
-82.26204719936168
 30
0.0
 11
-96.53396057018892
 21
-82.26204719936168
 31
0.0
  0
LINE
  5
37D
330
1F
100
AcDbEntity
  8
LAYER-006
  6
Continuous
 62
     1
100
AcDbLine
 10
-98.19859470090788
 20
-82.26204719936168
 30
0.0
 11
-98.19859470090788
 21
-102.2376567679876
 31
0.0
  0
LINE
  5
37E
330
1F
100
AcDbEntity
  8
LAYER-006
  6
Continuous
 62
     1
100
AcDbLine
 10
-96.53396057018892
 20
-82.26204719936168
 30
0.0
 11
-96.53396057018892
 21
-92.24985198367467
 31
0.0
  0
LINE
  5
37F
330
1F
100
AcDbEntity
  8
LAYER-006
  6
Continuous
 62
     1
100
AcDbLine
 10
-103.1924970930643
 20
-83.92668133008048
 30
0.0
 11
-99.86322883193958
 21
-83.92668133008048
 31
0.0
  0
LINE
  5
380
330
1F
100
AcDbEntity
  8
LAYER-006
  6
Continuous
 62
     1
100
AcDbLine
 10
-96.53396057018892
 20
-83.92668133008048
 30
0.0
 11
-89.87542404731374
 21
-83.92668133008048
 31
0.0
  0
LINE
  5
381
330
1F
100
AcDbEntity
  8
LAYER-006
  6
Continuous
 62
     1
100
AcDbLine
 10
-73.22908274012548
 20
-83.92668133008048
 30
0.0
 11
-69.8998144790813
 21
-83.92668133008048
 31
0.0
  0
LINE
  5
382
330
1F
100
AcDbEntity
  8
LAYER-006
  6
Continuous
 62
     1
100
AcDbLine
 10
-109.8510336159396
 20
-85.59131546079935
 30
0.0
 11
-99.86322883193958
 21
-85.59131546079935
 31
0.0
  0
LINE
  5
383
330
1F
100
AcDbEntity
  8
LAYER-006
  6
Continuous
 62
     1
100
AcDbLine
 10
-96.53396057018892
 20
-85.59131546079935
 30
0.0
 11
-89.87542404731374
 21
-85.59131546079935
 31
0.0
  0
LINE
  5
384
330
1F
100
AcDbEntity
  8
LAYER-006
  6
Continuous
 62
     1
100
AcDbLine
 10
-73.22908274012548
 20
-85.59131546079935
 30
0.0
 11
-69.8998144790813
 21
-85.59131546079935
 31
0.0
  0
LINE
  5
385
330
1F
100
AcDbEntity
  8
LAYER-006
  6
Continuous
 62
     1
100
AcDbLine
 10
-382.7138736919441
 20
-87.25594700801307
 30
0.0
 11
-382.7138736919441
 21
-101.4309467953141
 31
0.0
  0
ARC
  5
386
330
1F
100
AcDbEntity
  8
LAYER-006
  6
Continuous
 62
     1
100
AcDbCircle
 10
-377.9888737628438
 20
-87.25594700801307
 30
0.0
 40
4.724999929100349
100
AcDbArc
 50
0.0
 51
180.0233389982519
  0
CIRCLE
  5
387
330
1F
100
AcDbEntity
  8
LAYER-006
  6
Continuous
 62
     1
100
AcDbCircle
 10
-377.9888737628438
 20
-87.25594700801307
 30
0.0
 40
1.574999976366783
  0
LINE
  5
388
330
1F
100
AcDbEntity
  8
LAYER-006
  6
Continuous
 62
     1
100
AcDbLine
 10
-373.2638738337436
 20
-87.25594700801307
 30
0.0
 11
-373.2638738337436
 21
-101.4309467953141
 31
0.0
  0
LINE
  5
389
330
1F
100
AcDbEntity
  8
LAYER-006
  6
Continuous
 62
     1
100
AcDbLine
 10
-347.753876136318
 20
-87.25594700801307
 30
0.0
 11
-347.753876136318
 21
-101.4309467953141
 31
0.0
  0
ARC
  5
38A
330
1F
100
AcDbEntity
  8
LAYER-006
  6
Continuous
 62
     1
100
AcDbCircle
 10
-343.0288762072175
 20
-87.25594700801307
 30
0.0
 40
4.724999929100349
100
AcDbArc
 50
0.0
 51
180.0233389982515
  0
CIRCLE
  5
38B
330
1F
100
AcDbEntity
  8
LAYER-006
  6
Continuous
 62
     1
100
AcDbCircle
 10
-343.0288762072175
 20
-87.25594700801307
 30
0.0
 40
1.574999976366783
  0
LINE
  5
38C
330
1F
100
AcDbEntity
  8
LAYER-006
  6
Continuous
 62
     1
100
AcDbLine
 10
-338.3038762781173
 20
-87.25594700801307
 30
0.0
 11
-338.3038762781173
 21
-101.4309467953141
 31
0.0
  0
LINE
  5
38D
330
1F
100
AcDbEntity
  8
LAYER-006
  6
Continuous
 62
     1
100
AcDbLine
 10
-312.7938754304976
 20
-87.25594700801307
 30
0.0
 11
-312.7938754304976
 21
-101.4309467953141
 31
0.0
  0
ARC
  5
38E
330
1F
100
AcDbEntity
  8
LAYER-006
  6
Continuous
 62
     1
100
AcDbCircle
 10
-308.0688755015912
 20
-87.25594700801307
 30
0.0
 40
4.724999929100349
100
AcDbArc
 50
0.0
 51
180.0233389982525
  0
CIRCLE
  5
38F
330
1F
100
AcDbEntity
  8
LAYER-006
  6
Continuous
 62
     1
100
AcDbCircle
 10
-308.0688755015912
 20
-87.25594700801307
 30
0.0
 40
1.574999976366783
  0
LINE
  5
390
330
1F
100
AcDbEntity
  8
LAYER-006
  6
Continuous
 62
     1
100
AcDbLine
 10
-303.3438755722968
 20
-87.25594700801307
 30
0.0
 11
-303.3438755722968
 21
-101.4309467953141
 31
0.0
  0
LINE
  5
391
330
1F
100
AcDbEntity
  8
LAYER-006
  6
Continuous
 62
     1
100
AcDbLine
 10
-277.833874724778
 20
-87.25594700801307
 30
0.0
 11
-277.833874724778
 21
-101.4309467953141
 31
0.0
  0
ARC
  5
392
330
1F
100
AcDbEntity
  8
LAYER-006
  6
Continuous
 62
     1
100
AcDbCircle
 10
-273.1088747959648
 20
-87.25594700801307
 30
0.0
 40
4.724999929100349
100
AcDbArc
 50
0.0
 51
180.0233389982515
  0
CIRCLE
  5
393
330
1F
100
AcDbEntity
  8
LAYER-006
  6
Continuous
 62
     1
100
AcDbCircle
 10
-273.1088747959648
 20
-87.25594700801307
 30
0.0
 40
1.574999976366783
  0
LINE
  5
394
330
1F
100
AcDbEntity
  8
LAYER-006
  6
Continuous
 62
     1
100
AcDbLine
 10
-268.3838748668645
 20
-87.25594700801307
 30
0.0
 11
-268.3838748668645
 21
-101.4309467953141
 31
0.0
  0
LINE
  5
395
330
1F
100
AcDbEntity
  8
LAYER-006
  6
Continuous
 62
     1
100
AcDbLine
 10
-242.8738740194388
 20
-87.25594700801307
 30
0.0
 11
-242.8738740194388
 21
-101.4309467953141
 31
0.0
  0
ARC
  5
396
330
1F
100
AcDbEntity
  8
LAYER-006
  6
Continuous
 62
     1
100
AcDbCircle
 10
-238.1488740903385
 20
-87.25594700801307
 30
0.0
 40
4.724999929100349
100
AcDbArc
 50
0.0
 51
180.0233389982515
  0
CIRCLE
  5
397
330
1F
100
AcDbEntity
  8
LAYER-006
  6
Continuous
 62
     1
100
AcDbCircle
 10
-238.1488740903385
 20
-87.25594700801307
 30
0.0
 40
1.574999976366783
  0
LINE
  5
398
330
1F
100
AcDbEntity
  8
LAYER-006
  6
Continuous
 62
     1
100
AcDbLine
 10
-233.4238741612382
 20
-87.25594700801307
 30
0.0
 11
-233.4238741612382
 21
-101.4309467953141
 31
0.0
  0
LINE
  5
399
330
1F
100
AcDbEntity
  8
LAYER-006
  6
Continuous
 62
     1
100
AcDbLine
 10
-207.9138701638127
 20
-87.25594700801307
 30
0.0
 11
-207.9138701638127
 21
-101.4309467953141
 31
0.0
  0
ARC
  5
39A
330
1F
100
AcDbEntity
  8
LAYER-006
  6
Continuous
 62
     1
100
AcDbCircle
 10
-203.1888702349063
 20
-87.25594700801307
 30
0.0
 40
4.724999929100349
100
AcDbArc
 50
0.0
 51
180.0233389982528
  0
CIRCLE
  5
39B
330
1F
100
AcDbEntity
  8
LAYER-006
  6
Continuous
 62
     1
100
AcDbCircle
 10
-203.1888702349063
 20
-87.25594700801307
 30
0.0
 40
1.574999976366783
  0
LINE
  5
39C
330
1F
100
AcDbEntity
  8
LAYER-006
  6
Continuous
 62
     1
100
AcDbLine
 10
-198.463870305612
 20
-87.25594700801307
 30
0.0
 11
-198.463870305612
 21
-101.4309467953141
 31
0.0
  0
LINE
  5
39D
330
1F
100
AcDbEntity
  8
LAYER-006
  6
Continuous
 62
     1
100
AcDbLine
 10
-66.57054621687594
 20
-86.18033697783653
 30
0.0
 11
-66.57054621687594
 21
103.8684470362279
 31
0.0
  0
LINE
  5
39E
330
1F
100
AcDbEntity
  8
LAYER-006
  6
Continuous
 62
     1
100
AcDbLine
 10
28.51481696329076
 20
-86.18033697783653
 30
0.0
 11
-66.57054621687594
 21
-86.18033697783653
 31
0.0
  0
LINE
  5
39F
330
1F
100
AcDbEntity
  8
LAYER-006
  6
Continuous
 62
     1
100
AcDbLine
 10
-109.8510336159396
 20
-88.92058372223698
 30
0.0
 11
-99.86322883193958
 21
-88.92058372223698
 31
0.0
  0
LINE
  5
3A0
330
1F
100
AcDbEntity
  8
LAYER-006
  6
Continuous
 62
     1
100
AcDbLine
 10
-109.8510336159396
 20
-88.92058372223698
 30
0.0
 11
-109.8510336159396
 21
-85.59131546079935
 31
0.0
  0
LINE
  5
3A1
330
1F
100
AcDbEntity
  8
LAYER-006
  6
Continuous
 62
     1
100
AcDbLine
 10
-96.53396057018892
 20
-88.92058372223698
 30
0.0
 11
-89.87542404731374
 21
-88.92058372223698
 31
0.0
  0
LINE
  5
3A2
330
1F
100
AcDbEntity
  8
LAYER-006
  6
Continuous
 62
     1
100
AcDbLine
 10
-73.22908274012548
 20
-88.92058372223698
 30
0.0
 11
-69.8998144790813
 21
-88.92058372223698
 31
0.0
  0
LINE
  5
3A3
330
1F
100
AcDbEntity
  8
LAYER-006
  6
Continuous
 62
     1
100
AcDbLine
 10
-103.1924970930643
 20
-90.58521785295579
 30
0.0
 11
-99.86322883193958
 21
-90.58521785295579
 31
0.0
  0
LINE
  5
3A4
330
1F
100
AcDbEntity
  8
LAYER-006
  6
Continuous
 62
     1
100
AcDbLine
 10
-103.1924970930643
 20
-90.58521785295579
 30
0.0
 11
-103.1924970930643
 21
-83.92668133008048
 31
0.0
  0
LINE
  5
3A5
330
1F
100
AcDbEntity
  8
LAYER-006
  6
Continuous
 62
     1
100
AcDbLine
 10
-96.53396057018892
 20
-90.58521785295579
 30
0.0
 11
-89.87542404731374
 21
-90.58521785295579
 31
0.0
  0
LINE
  5
3A6
330
1F
100
AcDbEntity
  8
LAYER-006
  6
Continuous
 62
     1
100
AcDbLine
 10
-93.20469230875131
 20
-90.58521785295579
 30
0.0
 11
-93.20469230875131
 21
-83.92668133008048
 31
0.0
  0
LINE
  5
3A7
330
1F
100
AcDbEntity
  8
LAYER-006
  6
Continuous
 62
     1
100
AcDbLine
 10
-73.22908274012548
 20
-90.58521785295579
 30
0.0
 11
-69.8998144790813
 21
-90.58521785295579
 31
0.0
  0
LINE
  5
3A8
330
1F
100
AcDbEntity
  8
LAYER-006
  6
Continuous
 62
     1
100
AcDbLine
 10
-69.8998144790813
 20
-90.58521785295579
 30
0.0
 11
-69.8998144790813
 21
-83.92668133008048
 31
0.0
  0
LINE
  5
3A9
330
1F
100
AcDbEntity
  8
LAYER-007
  6
CENTER
 62
     4
100
AcDbLine
 10
155.3733192317963
 20
-78.65594829996226
 30
0.0
 11
232.4618748797963
 21
-78.65594829996226
 31
0.0
  0
LINE
  5
3AA
330
1F
100
AcDbEntity
  8
LAYER-006
  6
Continuous
 62
     1
100
AcDbLine
 10
-96.53396057018892
 20
-92.24985198367467
 30
0.0
 11
-91.54005817803238
 21
-93.91448611439343
 31
0.0
  0
LINE
  5
3AB
330
1F
100
AcDbEntity
  8
LAYER-006
  6
Continuous
 62
     1
100
AcDbLine
 10
-89.87542404731374
 20
-92.24985198367467
 30
0.0
 11
-73.22908274012548
 21
-92.24985198367467
 31
0.0
  0
LINE
  5
3AC
330
1F
100
AcDbEntity
  8
LAYER-006
  6
Continuous
 62
     1
100
AcDbLine
 10
-104.8571312239396
 20
-93.91448611439343
 30
0.0
 11
-99.86322883193958
 21
-92.24985198367467
 31
0.0
  0
LINE
  5
3AD
330
1F
100
AcDbEntity
  8
LAYER-007
  6
HIDDEN
 62
     4
100
AcDbLine
 10
-382.7138736919441
 20
-93.87095005875369
 30
0.0
 11
-373.2638738337436
 21
-93.87095005875369
 31
0.0
  0
LINE
  5
3AE
330
1F
100
AcDbEntity
  8
LAYER-007
  6
HIDDEN
 62
     4
100
AcDbLine
 10
-381.4538737108508
 20
-93.87095005875369
 30
0.0
 11
-381.4538737108508
 21
-101.4309467953141
 31
0.0
  0
LINE
  5
3AF
330
1F
100
AcDbEntity
  8
LAYER-007
  6
HIDDEN
 62
     4
100
AcDbLine
 10
-374.523873814837
 20
-93.87095005875369
 30
0.0
 11
-374.523873814837
 21
-101.4309467953141
 31
0.0
  0
LINE
  5
3B0
330
1F
100
AcDbEntity
  8
LAYER-007
  6
HIDDEN
 62
     4
100
AcDbLine
 10
-347.753876136318
 20
-93.87095005875369
 30
0.0
 11
-338.3038762781173
 21
-93.87095005875369
 31
0.0
  0
LINE
  5
3B1
330
1F
100
AcDbEntity
  8
LAYER-007
  6
HIDDEN
 62
     4
100
AcDbLine
 10
-346.4938761552245
 20
-93.87095005875369
 30
0.0
 11
-346.4938761552245
 21
-101.4309467953141
 31
0.0
  0
LINE
  5
3B2
330
1F
100
AcDbEntity
  8
LAYER-007
  6
HIDDEN
 62
     4
100
AcDbLine
 10
-339.5638762592108
 20
-93.87095005875369
 30
0.0
 11
-339.5638762592108
 21
-101.4309467953141
 31
0.0
  0
LINE
  5
3B3
330
1F
100
AcDbEntity
  8
LAYER-007
  6
HIDDEN
 62
     4
100
AcDbLine
 10
-312.7938754304976
 20
-93.87095005875369
 30
0.0
 11
-303.3438755722968
 21
-93.87095005875369
 31
0.0
  0
LINE
  5
3B4
330
1F
100
AcDbEntity
  8
LAYER-007
  6
HIDDEN
 62
     4
100
AcDbLine
 10
-311.5338754494043
 20
-93.87095005875369
 30
0.0
 11
-311.5338754494043
 21
-101.4309467953141
 31
0.0
  0
LINE
  5
3B5
330
1F
100
AcDbEntity
  8
LAYER-007
  6
HIDDEN
 62
     4
100
AcDbLine
 10
-304.6038755533904
 20
-93.87095005875369
 30
0.0
 11
-304.6038755533904
 21
-101.4309467953141
 31
0.0
  0
LINE
  5
3B6
330
1F
100
AcDbEntity
  8
LAYER-007
  6
HIDDEN
 62
     4
100
AcDbLine
 10
-277.833874724778
 20
-93.87095005875369
 30
0.0
 11
-268.3838748668645
 21
-93.87095005875369
 31
0.0
  0
LINE
  5
3B7
330
1F
100
AcDbEntity
  8
LAYER-007
  6
HIDDEN
 62
     4
100
AcDbLine
 10
-276.5738747439717
 20
-93.87095005875369
 30
0.0
 11
-276.5738747439717
 21
-101.4309467953141
 31
0.0
  0
LINE
  5
3B8
330
1F
100
AcDbEntity
  8
LAYER-007
  6
HIDDEN
 62
     4
100
AcDbLine
 10
-269.6438748479579
 20
-93.87095005875369
 30
0.0
 11
-269.6438748479579
 21
-101.4309467953141
 31
0.0
  0
LINE
  5
3B9
330
1F
100
AcDbEntity
  8
LAYER-007
  6
HIDDEN
 62
     4
100
AcDbLine
 10
-242.8738740194388
 20
-93.87095005875369
 30
0.0
 11
-233.4238741612382
 21
-93.87095005875369
 31
0.0
  0
LINE
  5
3BA
330
1F
100
AcDbEntity
  8
LAYER-007
  6
HIDDEN
 62
     4
100
AcDbLine
 10
-241.6138740383454
 20
-93.87095005875369
 30
0.0
 11
-241.6138740383454
 21
-101.4309467953141
 31
0.0
  0
LINE
  5
3BB
330
1F
100
AcDbEntity
  8
LAYER-007
  6
HIDDEN
 62
     4
100
AcDbLine
 10
-234.6838741423316
 20
-93.87095005875369
 30
0.0
 11
-234.6838741423316
 21
-101.4309467953141
 31
0.0
  0
LINE
  5
3BC
330
1F
100
AcDbEntity
  8
LAYER-007
  6
HIDDEN
 62
     4
100
AcDbLine
 10
-207.9138701638127
 20
-93.87095005875369
 30
0.0
 11
-198.463870305612
 21
-93.87095005875369
 31
0.0
  0
LINE
  5
3BD
330
1F
100
AcDbEntity
  8
LAYER-007
  6
HIDDEN
 62
     4
100
AcDbLine
 10
-206.6538701827192
 20
-93.87095005875369
 30
0.0
 11
-206.6538701827192
 21
-101.4309467953141
 31
0.0
  0
LINE
  5
3BE
330
1F
100
AcDbEntity
  8
LAYER-007
  6
HIDDEN
 62
     4
100
AcDbLine
 10
-199.7238702867053
 20
-93.87095005875369
 30
0.0
 11
-199.7238702867053
 21
-101.4309467953141
 31
0.0
  0
LINE
  5
3BF
330
1F
100
AcDbEntity
  8
LAYER-006
  6
Continuous
 62
     1
100
AcDbLine
 10
-390.588873573778
 20
-95.13094688984711
 30
0.0
 11
-390.588873573778
 21
-68.35594729161167
 31
0.0
  0
LINE
  5
3C0
330
1F
100
AcDbEntity
  8
LAYER-006
  6
Continuous
 62
     1
100
AcDbLine
 10
-390.588873573778
 20
-95.13094688984711
 30
0.0
 11
-382.7138736919441
 21
-95.13094688984711
 31
0.0
  0
LINE
  5
3C1
330
1F
100
AcDbEntity
  8
LAYER-006
  6
Continuous
 62
     1
100
AcDbLine
 10
-373.2638738337436
 20
-95.13094688984711
 30
0.0
 11
-347.753876136318
 21
-95.13094688984711
 31
0.0
  0
LINE
  5
3C2
330
1F
100
AcDbEntity
  8
LAYER-006
  6
Continuous
 62
     1
100
AcDbLine
 10
-338.3038762781173
 20
-95.13094688984711
 30
0.0
 11
-312.7938754304976
 21
-95.13094688984711
 31
0.0
  0
LINE
  5
3C3
330
1F
100
AcDbEntity
  8
LAYER-006
  6
Continuous
 62
     1
100
AcDbLine
 10
-303.3438755722968
 20
-95.13094688984711
 30
0.0
 11
-277.833874724778
 21
-95.13094688984711
 31
0.0
  0
LINE
  5
3C4
330
1F
100
AcDbEntity
  8
LAYER-006
  6
Continuous
 62
     1
100
AcDbLine
 10
-233.4238710112381
 20
-95.13094688984711
 30
0.0
 11
-207.9138701638127
 21
-95.13094688984711
 31
0.0
  0
LINE
  5
3C5
330
1F
100
AcDbEntity
  8
LAYER-006
  6
Continuous
 62
     1
100
AcDbLine
 10
-198.4638734556119
 20
-95.13094688984711
 30
0.0
 11
-190.588873573778
 21
-95.13094688984711
 31
0.0
  0
ARC
  5
3C6
330
1F
100
AcDbEntity
  8
LAYER-006
  6
Continuous
 62
     1
100
AcDbCircle
 10
28.51481696329076
 20
-96.16814176192889
 30
0.0
 40
9.987804784312965
100
AcDbArc
 50
269.9777129971617
 51
90.00105199999879
  0
LINE
  5
3C7
330
1F
100
AcDbEntity
  8
LAYER-006
  6
Continuous
 62
     1
100
AcDbLine
 10
53.04896635254947
 20
-86.15594829995615
 30
0.0
 11
55.14896638406043
 21
-86.15594829995615
 31
0.0
  0
LINE
  5
3C8
330
1F
100
AcDbEntity
  8
LAYER-006
  6
Continuous
 62
     1
100
AcDbLine
 10
-382.7138736919441
 20
-101.4309467953141
 30
0.0
 11
-373.2638738337436
 21
-101.4309467953141
 31
0.0
  0
LINE
  5
3C9
330
1F
100
AcDbEntity
  8
LAYER-006
  6
Continuous
 62
     4
100
AcDbLine
 10
-380.8238737203039
 20
-101.4309467953141
 30
0.0
 11
-376.4138737864772
 21
-105.8409467291411
 31
0.0
  0
LINE
  5
3CA
330
1F
100
AcDbEntity
  8
LAYER-006
  6
Continuous
 62
     4
100
AcDbLine
 10
-378.6188706033906
 20
-101.4309467953141
 30
0.0
 11
-374.8388738101102
 21
-104.895949893321
 31
0.0
  0
ARC
  5
3CB
330
1F
100
AcDbEntity
  8
LAYER-006
  6
Continuous
 62
     1
100
AcDbCircle
 10
-377.9888737628438
 20
-101.4309467953141
 30
0.0
 40
4.724999929100349
100
AcDbArc
 50
180.0233390000012
 51
359.989382999999
  0
LINE
  5
3CC
330
1F
100
AcDbEntity
  8
LAYER-006
  6
Continuous
 62
     4
100
AcDbLine
 10
-376.4138737864772
 20
-101.4309467953141
 30
0.0
 11
-373.8938738242901
 21
-103.6359499122276
 31
0.0
  0
LINE
  5
3CD
330
1F
100
AcDbEntity
  8
LAYER-006
  6
Continuous
 62
     4
100
AcDbLine
 10
-374.2088769695634
 20
-101.4309467953141
 30
0.0
 11
-373.2638738337436
 21
-102.3759467806991
 31
0.0
  0
LINE
  5
3CE
330
1F
100
AcDbEntity
  8
LAYER-006
  6
Continuous
 62
     1
100
AcDbLine
 10
-347.753876136318
 20
-101.4309467953141
 30
0.0
 11
-338.3038762781173
 21
-101.4309467953141
 31
0.0
  0
LINE
  5
3CF
330
1F
100
AcDbEntity
  8
LAYER-006
  6
Continuous
 62
     4
100
AcDbLine
 10
-345.8638761642175
 20
-101.4309467953141
 30
0.0
 11
-341.4538762308509
 21
-105.8409467291411
 31
0.0
  0
LINE
  5
3D0
330
1F
100
AcDbEntity
  8
LAYER-006
  6
Continuous
 62
     4
100
AcDbLine
 10
-343.6588730477645
 20
-101.4309467953141
 30
0.0
 11
-339.8788762544839
 21
-104.895949893321
 31
0.0
  0
ARC
  5
3D1
330
1F
100
AcDbEntity
  8
LAYER-006
  6
Continuous
 62
     1
100
AcDbCircle
 10
-343.0288762072175
 20
-101.4309467953141
 30
0.0
 40
4.724999929100349
100
AcDbArc
 50
180.0233390000012
 51
359.989383000181
  0
LINE
  5
3D2
330
1F
100
AcDbEntity
  8
LAYER-006
  6
Continuous
 62
     4
100
AcDbLine
 10
-341.4538762308509
 20
-101.4309467953141
 30
0.0
 11
-338.9338762686639
 21
-103.6359499122276
 31
0.0
  0
LINE
  5
3D3
330
1F
100
AcDbEntity
  8
LAYER-006
  6
Continuous
 62
     4
100
AcDbLine
 10
-339.2488794139372
 20
-101.4309467953141
 30
0.0
 11
-338.3038762781173
 21
-102.3759467806991
 31
0.0
  0
LINE
  5
3D4
330
1F
100
AcDbEntity
  8
LAYER-006
  6
Continuous
 62
     1
100
AcDbLine
 10
-312.7938754304976
 20
-101.4309467953141
 30
0.0
 11
-303.3438755722968
 21
-101.4309467953141
 31
0.0
  0
LINE
  5
3D5
330
1F
100
AcDbEntity
  8
LAYER-006
  6
Continuous
 62
     4
100
AcDbLine
 10
-310.9038754585911
 20
-101.4309467953141
 30
0.0
 11
-306.4938755250304
 21
-105.8409467291411
 31
0.0
  0
LINE
  5
3D6
330
1F
100
AcDbEntity
  8
LAYER-006
  6
Continuous
 62
     4
100
AcDbLine
 10
-308.6988723419441
 20
-101.4309467953141
 30
0.0
 11
-304.9188755488576
 21
-104.895949893321
 31
0.0
  0
ARC
  5
3D7
330
1F
100
AcDbEntity
  8
LAYER-006
  6
Continuous
 62
     1
100
AcDbCircle
 10
-308.0688755015912
 20
-101.4309467953141
 30
0.0
 40
4.724999929100349
100
AcDbArc
 50
180.0233390000022
 51
359.9893830001814
  0
LINE
  5
3D8
330
1F
100
AcDbEntity
  8
LAYER-006
  6
Continuous
 62
     4
100
AcDbLine
 10
-306.4938755250304
 20
-101.4309467953141
 30
0.0
 11
-303.9738755628437
 21
-103.6359499122276
 31
0.0
  0
LINE
  5
3D9
330
1F
100
AcDbEntity
  8
LAYER-006
  6
Continuous
 62
     4
100
AcDbLine
 10
-304.2888787081169
 20
-101.4309467953141
 30
0.0
 11
-303.3438755722968
 21
-102.3759467806991
 31
0.0
  0
LINE
  5
3DA
330
1F
100
AcDbEntity
  8
LAYER-006
  6
Continuous
 62
     1
100
AcDbLine
 10
-277.833874724778
 20
-101.4309467953141
 30
0.0
 11
-268.3838748668645
 21
-101.4309467953141
 31
0.0
  0
LINE
  5
3DB
330
1F
100
AcDbEntity
  8
LAYER-006
  6
Continuous
 62
     4
100
AcDbLine
 10
-275.9438747529648
 20
-101.4309467953141
 30
0.0
 11
-271.5338748195982
 21
-105.8409467291411
 31
0.0
  0
LINE
  5
3DC
330
1F
100
AcDbEntity
  8
LAYER-006
  6
Continuous
 62
     4
100
AcDbLine
 10
-273.7388716365117
 20
-101.4309467953141
 30
0.0
 11
-269.9588748432312
 21
-104.895949893321
 31
0.0
  0
ARC
  5
3DD
330
1F
100
AcDbEntity
  8
LAYER-006
  6
Continuous
 62
     1
100
AcDbCircle
 10
-273.1088747959648
 20
-101.4309467953141
 30
0.0
 40
4.724999929100349
100
AcDbArc
 50
180.0233390000012
 51
359.9893829999995
  0
LINE
  5
3DE
330
1F
100
AcDbEntity
  8
LAYER-006
  6
Continuous
 62
     4
100
AcDbLine
 10
-271.5338748195982
 20
-101.4309467953141
 30
0.0
 11
-269.0138748574111
 21
-103.6359499122276
 31
0.0
  0
LINE
  5
3DF
330
1F
100
AcDbEntity
  8
LAYER-006
  6
Continuous
 62
     4
100
AcDbLine
 10
-269.3288780026844
 20
-101.4309467953141
 30
0.0
 11
-268.3838748668645
 21
-102.3759467806991
 31
0.0
  0
LINE
  5
3E0
330
1F
100
AcDbEntity
  8
LAYER-006
  6
Continuous
 62
     1
100
AcDbLine
 10
-242.8738740194388
 20
-101.4309467953141
 30
0.0
 11
-233.4238741612382
 21
-101.4309467953141
 31
0.0
  0
LINE
  5
3E1
330
1F
100
AcDbEntity
  8
LAYER-006
  6
Continuous
 62
     4
100
AcDbLine
 10
-240.9838740473385
 20
-101.4309467953141
 30
0.0
 11
-236.5738741139718
 21
-105.8409467291411
 31
0.0
  0
LINE
  5
3E2
330
1F
100
AcDbEntity
  8
LAYER-006
  6
Continuous
 62
     4
100
AcDbLine
 10
-238.7788709308853
 20
-101.4309467953141
 30
0.0
 11
-234.9988741376049
 21
-104.895949893321
 31
0.0
  0
ARC
  5
3E3
330
1F
100
AcDbEntity
  8
LAYER-006
  6
Continuous
 62
     1
100
AcDbCircle
 10
-238.1488740903385
 20
-101.4309467953141
 30
0.0
 40
4.724999929100349
100
AcDbArc
 50
180.0233390000012
 51
359.9893829999995
  0
LINE
  5
3E4
330
1F
100
AcDbEntity
  8
LAYER-006
  6
Continuous
 62
     4
100
AcDbLine
 10
-236.5738741139718
 20
-101.4309467953141
 30
0.0
 11
-234.0538741517848
 21
-103.6359499122276
 31
0.0
  0
LINE
  5
3E5
330
1F
100
AcDbEntity
  8
LAYER-006
  6
Continuous
 62
     4
100
AcDbLine
 10
-234.3688772970581
 20
-101.4309467953141
 30
0.0
 11
-233.4238741612382
 21
-102.3759467806991
 31
0.0
  0
LINE
  5
3E6
330
1F
100
AcDbEntity
  8
LAYER-006
  6
Continuous
 62
     1
100
AcDbLine
 10
-207.9138701638127
 20
-101.4309467953141
 30
0.0
 11
-198.463870305612
 21
-101.4309467953141
 31
0.0
  0
LINE
  5
3E7
330
1F
100
AcDbEntity
  8
LAYER-006
  6
Continuous
 62
     4
100
AcDbLine
 10
-206.0238701921724
 20
-101.4309467953141
 30
0.0
 11
-201.6138702583455
 21
-105.8409467291411
 31
0.0
  0
LINE
  5
3E8
330
1F
100
AcDbEntity
  8
LAYER-006
  6
Continuous
 62
     4
100
AcDbLine
 10
-203.8188670752591
 20
-101.4309467953141
 30
0.0
 11
-200.0388702821727
 21
-104.895949893321
 31
0.0
  0
ARC
  5
3E9
330
1F
100
AcDbEntity
  8
LAYER-006
  6
Continuous
 62
     1
100
AcDbCircle
 10
-203.1888702349063
 20
-101.4309467953141
 30
0.0
 40
4.724999929100349
100
AcDbArc
 50
180.0233390000022
 51
359.9893829999991
  0
LINE
  5
3EA
330
1F
100
AcDbEntity
  8
LAYER-006
  6
Continuous
 62
     4
100
AcDbLine
 10
-201.6138702583455
 20
-101.4309467953141
 30
0.0
 11
-199.0938702961585
 21
-103.6359499122276
 31
0.0
  0
LINE
  5
3EB
330
1F
100
AcDbEntity
  8
LAYER-006
  6
Continuous
 62
     4
100
AcDbLine
 10
-199.4088734414318
 20
-101.4309467953141
 30
0.0
 11
-198.463870305612
 21
-102.3759467806991
 31
0.0
  0
LINE
  5
3EC
330
1F
100
AcDbEntity
  8
LAYER-006
  6
Continuous
 62
     1
100
AcDbLine
 10
-104.8571312239396
 20
-102.2376567679876
 30
0.0
 11
-104.8571312239396
 21
-93.91448611439343
 31
0.0
  0
LINE
  5
3ED
330
1F
100
AcDbEntity
  8
LAYER-006
  6
Continuous
 62
     1
100
AcDbLine
 10
-104.8571312239396
 20
-102.2376567679876
 30
0.0
 11
-91.54005817803238
 21
-102.2376567679876
 31
0.0
  0
LINE
  5
3EE
330
1F
100
AcDbEntity
  8
LAYER-007
  6
HIDDEN
 62
     4
100
AcDbLine
 10
-96.53396057018892
 20
-102.2376567679876
 30
0.0
 11
-96.53396057018892
 21
-92.24985198367467
 31
0.0
  0
LINE
  5
3EF
330
1F
100
AcDbEntity
  8
LAYER-007
  6
HIDDEN
 62
     4
100
AcDbLine
 10
-93.20469230875131
 20
-102.2376567679876
 30
0.0
 11
-93.20469230875131
 21
-93.24863579137424
 31
0.0
  0
LINE
  5
3F0
330
1F
100
AcDbEntity
  8
LAYER-006
  6
Continuous
 62
     1
100
AcDbLine
 10
-91.54005817803238
 20
-102.2376567679876
 30
0.0
 11
-91.54005817803238
 21
-93.91448611439343
 31
0.0
  0
LINE
  5
3F1
330
1F
100
AcDbEntity
  8
LAYER-006
  6
Continuous
 62
     4
100
AcDbLine
 10
-382.7138736919441
 20
-101.7459499405876
 30
0.0
 11
-378.3038737581171
 21
-106.1559498744144
 31
0.0
  0
LINE
  5
3F2
330
1F
100
AcDbEntity
  8
LAYER-006
  6
Continuous
 62
     4
100
AcDbLine
 10
-347.753876136318
 20
-101.7459499405876
 30
0.0
 11
-343.343876202491
 21
-106.1559498744144
 31
0.0
  0
LINE
  5
3F3
330
1F
100
AcDbEntity
  8
LAYER-006
  6
Continuous
 62
     4
100
AcDbLine
 10
-312.7938754304976
 20
-101.7459499405876
 30
0.0
 11
-308.3838754966706
 21
-106.1559498744144
 31
0.0
  0
LINE
  5
3F4
330
1F
100
AcDbEntity
  8
LAYER-006
  6
Continuous
 62
     4
100
AcDbLine
 10
-277.833874724778
 20
-101.7459499405876
 30
0.0
 11
-273.4238747912381
 21
-106.1559498744144
 31
0.0
  0
LINE
  5
3F5
330
1F
100
AcDbEntity
  8
LAYER-006
  6
Continuous
 62
     4
100
AcDbLine
 10
-242.8738740194388
 20
-101.7459499405876
 30
0.0
 11
-238.4638740856118
 21
-106.1559498744144
 31
0.0
  0
LINE
  5
3F6
330
1F
100
AcDbEntity
  8
LAYER-006
  6
Continuous
 62
     4
100
AcDbLine
 10
-207.9138701638127
 20
-101.7459499405876
 30
0.0
 11
-203.5038702299855
 21
-106.1559498744144
 31
0.0
  0
LINE
  5
3F7
330
1F
100
AcDbEntity
  8
LAYER-006
  6
Continuous
 62
     4
100
AcDbLine
 10
-382.3988736966709
 20
-103.3209499169543
 30
0.0
 11
-380.5088768750306
 21
-101.4309467953141
 31
0.0
  0
LINE
  5
3F8
330
1F
100
AcDbEntity
  8
LAYER-006
  6
Continuous
 62
     4
100
AcDbLine
 10
-347.4388761410447
 20
-103.3209499169543
 30
0.0
 11
-345.5488793194045
 21
-101.4309467953141
 31
0.0
  0
LINE
  5
3F9
330
1F
100
AcDbEntity
  8
LAYER-006
  6
Continuous
 62
     4
100
AcDbLine
 10
-312.4788754352244
 20
-103.3209499169543
 30
0.0
 11
-310.5888786135841
 21
-101.4309467953141
 31
0.0
  0
LINE
  5
3FA
330
1F
100
AcDbEntity
  8
LAYER-006
  6
Continuous
 62
     4
100
AcDbLine
 10
-277.5188747297919
 20
-103.3209499169543
 30
0.0
 11
-275.6288779081516
 21
-101.4309467953141
 31
0.0
  0
LINE
  5
3FB
330
1F
100
AcDbEntity
  8
LAYER-006
  6
Continuous
 62
     4
100
AcDbLine
 10
-242.5588740240967
 20
-103.3209499169543
 30
0.0
 11
-240.6688772025253
 21
-101.4309467953141
 31
0.0
  0
LINE
  5
3FC
330
1F
100
AcDbEntity
  8
LAYER-006
  6
Continuous
 62
     4
100
AcDbLine
 10
-207.5988701685392
 20
-103.3209499169543
 30
0.0
 11
-205.708873346899
 21
-101.4309467953141
 31
0.0
  0
LINE
  5
3FD
330
1F
100
AcDbEntity
  8
LAYER-006
  6
Continuous
 62
     4
100
AcDbLine
 10
-381.4538737108508
 20
-104.5809498980477
 30
0.0
 11
-378.3038737581171
 21
-101.4309467953141
 31
0.0
  0
LINE
  5
3FE
330
1F
100
AcDbEntity
  8
LAYER-006
  6
Continuous
 62
     4
100
AcDbLine
 10
-346.4938761552245
 20
-104.5809498980477
 30
0.0
 11
-343.343876202491
 21
-101.4309467953141
 31
0.0
  0
LINE
  5
3FF
330
1F
100
AcDbEntity
  8
LAYER-006
  6
Continuous
 62
     4
100
AcDbLine
 10
-311.5338754494043
 20
-104.5809498980477
 30
0.0
 11
-308.3838754966706
 21
-101.4309467953141
 31
0.0
  0
LINE
  5
400
330
1F
100
AcDbEntity
  8
LAYER-006
  6
Continuous
 62
     4
100
AcDbLine
 10
-276.5738747439717
 20
-104.5809498980477
 30
0.0
 11
-273.4238747912381
 21
-101.4309467953141
 31
0.0
  0
LINE
  5
401
330
1F
100
AcDbEntity
  8
LAYER-006
  6
Continuous
 62
     4
100
AcDbLine
 10
-241.6138740383454
 20
-104.5809498980477
 30
0.0
 11
-238.4638740856118
 21
-101.4309467953141
 31
0.0
  0
LINE
  5
402
330
1F
100
AcDbEntity
  8
LAYER-006
  6
Continuous
 62
     4
100
AcDbLine
 10
-206.6538701827192
 20
-104.5809498980477
 30
0.0
 11
-203.5038702299855
 21
-101.4309467953141
 31
0.0
  0
LINE
  5
403
330
1F
100
AcDbEntity
  8
LAYER-006
  6
Continuous
 62
     4
100
AcDbLine
 10
-380.1938705797573
 20
-105.5259467334327
 30
0.0
 11
-376.0988737912036
 21
-101.4309467953141
 31
0.0
  0
LINE
  5
404
330
1F
100
AcDbEntity
  8
LAYER-006
  6
Continuous
 62
     4
100
AcDbLine
 10
-375.7838769459303
 20
-105.5259467334327
 30
0.0
 11
-374.2088769695634
 21
-103.9509467564601
 31
0.0
  0
LINE
  5
405
330
1F
100
AcDbEntity
  8
LAYER-006
  6
Continuous
 62
     4
100
AcDbLine
 10
-345.2338730241311
 20
-105.5259467334327
 30
0.0
 11
-341.1388762351173
 21
-101.4309467953141
 31
0.0
  0
LINE
  5
406
330
1F
100
AcDbEntity
  8
LAYER-006
  6
Continuous
 62
     4
100
AcDbLine
 10
-340.8238793903041
 20
-105.5259467334327
 30
0.0
 11
-339.2488794139372
 21
-103.9509467564601
 31
0.0
  0
LINE
  5
407
330
1F
100
AcDbEntity
  8
LAYER-006
  6
Continuous
 62
     4
100
AcDbLine
 10
-310.2738723183109
 20
-105.5259467334327
 30
0.0
 11
-306.1788755292968
 21
-101.4309467953141
 31
0.0
  0
LINE
  5
408
330
1F
100
AcDbEntity
  8
LAYER-006
  6
Continuous
 62
     4
100
AcDbLine
 10
-305.8638786844838
 20
-105.5259467334327
 30
0.0
 11
-304.2888787081169
 21
-103.9509467564601
 31
0.0
  0
LINE
  5
409
330
1F
100
AcDbEntity
  8
LAYER-006
  6
Continuous
 62
     4
100
AcDbLine
 10
-275.3138716128784
 20
-105.5259467334327
 30
0.0
 11
-271.2188748243246
 21
-101.4309467953141
 31
0.0
  0
LINE
  5
40A
330
1F
100
AcDbEntity
  8
LAYER-006
  6
Continuous
 62
     4
100
AcDbLine
 10
-270.9038779790513
 20
-105.5259467334327
 30
0.0
 11
-269.3288780026844
 21
-103.9509467564601
 31
0.0
  0
LINE
  5
40B
330
1F
100
AcDbEntity
  8
LAYER-006
  6
Continuous
 62
     4
100
AcDbLine
 10
-240.353870907252
 20
-105.5259467334327
 30
0.0
 11
-236.2588741186983
 21
-101.4309467953141
 31
0.0
  0
LINE
  5
40C
330
1F
100
AcDbEntity
  8
LAYER-006
  6
Continuous
 62
     4
100
AcDbLine
 10
-235.943877273425
 20
-105.5259467334327
 30
0.0
 11
-234.3688772970581
 21
-103.9509467564601
 31
0.0
  0
LINE
  5
40D
330
1F
100
AcDbEntity
  8
LAYER-006
  6
Continuous
 62
     4
100
AcDbLine
 10
-205.3938670516258
 20
-105.5259467334327
 30
0.0
 11
-201.2988702630721
 21
-101.4309467953141
 31
0.0
  0
LINE
  5
40E
330
1F
100
AcDbEntity
  8
LAYER-006
  6
Continuous
 62
     4
100
AcDbLine
 10
-200.9838734177988
 20
-105.5259467334327
 30
0.0
 11
-199.4088734414318
 21
-103.9509467564601
 31
0.0
  0
LINE
  5
40F
330
1F
100
AcDbEntity
  8
LAYER-006
  6
Continuous
 62
     4
100
AcDbLine
 10
-378.6188706033906
 20
-106.1559498744144
 30
0.0
 11
-373.8938738242901
 21
-101.4309467953141
 31
0.0
  0
LINE
  5
410
330
1F
100
AcDbEntity
  8
LAYER-006
  6
Continuous
 62
     4
100
AcDbLine
 10
-343.6588730477645
 20
-106.1559498744144
 30
0.0
 11
-338.9338762686639
 21
-101.4309467953141
 31
0.0
  0
LINE
  5
411
330
1F
100
AcDbEntity
  8
LAYER-006
  6
Continuous
 62
     4
100
AcDbLine
 10
-308.6988723419441
 20
-106.1559498744144
 30
0.0
 11
-303.9738755628437
 21
-101.4309467953141
 31
0.0
  0
LINE
  5
412
330
1F
100
AcDbEntity
  8
LAYER-006
  6
Continuous
 62
     4
100
AcDbLine
 10
-273.7388716365117
 20
-106.1559498744144
 30
0.0
 11
-269.0138748574111
 21
-101.4309467953141
 31
0.0
  0
LINE
  5
413
330
1F
100
AcDbEntity
  8
LAYER-006
  6
Continuous
 62
     4
100
AcDbLine
 10
-238.7788709308853
 20
-106.1559498744144
 30
0.0
 11
-234.0538741517848
 21
-101.4309467953141
 31
0.0
  0
LINE
  5
414
330
1F
100
AcDbEntity
  8
LAYER-006
  6
Continuous
 62
     4
100
AcDbLine
 10
-203.8188670752591
 20
-106.1559498744144
 30
0.0
 11
-199.0938702961585
 21
-101.4309467953141
 31
0.0
  0
LINE
  5
415
330
1F
100
AcDbEntity
  8
LAYER-006
  6
Continuous
 62
     1
100
AcDbLine
 10
-89.87542404731374
 20
-106.1559498755101
 30
0.0
 11
28.51481696329076
 21
-106.1559498755101
 31
0.0
  0
LINE
  5
416
330
1F
100
AcDbEntity
  8
LAYER-007
  6
Continuous
 62
     1
100
AcDbLine
 10
179.2487931800641
 20
-129.308746275
 30
0.0
 11
204.6487931803549
 21
-129.308746275
 31
0.0
  0
LINE
  5
417
330
1F
100
AcDbEntity
  8
LAYER-007
  6
CENTER
 62
     4
100
AcDbLine
 10
-259.0888740464424
 20
8.84405170003771
 30
0.0
 11
-211.8388747554389
 21
8.84405170003771
 31
0.0
  0
LINE
  5
418
330
1F
100
AcDbEntity
  8
LAYER-007
  6
CENTER
 62
     4
100
AcDbLine
 10
-369.3388723921171
 20
8.84405170003771
 30
0.0
 11
-322.0888762511137
 21
8.84405170003771
 31
0.0
  0
LINE
  5
419
330
1F
100
AcDbEntity
  8
LAYER-007
  6
CENTER
 62
     4
100
AcDbLine
 10
-290.588873573778
 20
118.4890533559385
 30
0.0
 11
-290.588873573778
 21
24.59405146370554
 31
0.0
  0
LINE
  5
41A
330
1F
100
AcDbEntity
  8
LAYER-007
  6
CENTER
 62
     4
100
AcDbLine
 10
-290.588873573778
 20
-6.905951213629962
 30
0.0
 11
-290.588873573778
 21
-81.27095024781929
 31
0.0
  0
LINE
  5
41B
330
1F
100
AcDbEntity
  8
LAYER-007
  6
CENTER
 62
     4
100
AcDbLine
 10
-101.1949361362016
 20
8.84405170003771
 30
0.0
 11
55.14896638406043
 21
8.84405170003771
 31
0.0
  0
LINE
  5
41C
330
1F
100
AcDbEntity
  8
LAYER-007
  6
CENTER
 62
     4
100
AcDbLine
 10
-109.8510336159396
 20
104.944052991987
 30
0.0
 11
-68.23518034796892
 21
104.944052991987
 31
0.0
  0
LINE
  5
41D
330
1F
100
AcDbEntity
  8
LAYER-007
  6
CENTER
 62
     4
100
AcDbLine
 10
-109.8510336159396
 20
-87.25594959191153
 30
0.0
 11
-68.56810717411263
 21
-87.25594959191153
 31
0.0
  0
LINE
  5
41E
330
1F
100
AcDbEntity
  8
LAYER-006
  6
Continuous
 62
     1
100
AcDbLine
 10
-73.22908274012548
 20
109.937952054875
 30
0.0
 11
-73.22908274012548
 21
87.61904958202132
 31
0.0
  0
LINE
  5
41F
330
1F
100
AcDbEntity
  8
LAYER-006
  6
Continuous
 62
     1
100
AcDbLine
 10
-89.87542404731374
 20
109.937952054875
 30
0.0
 11
-89.87542404731374
 21
87.61904958202132
 31
0.0
  0
ARC
  5
420
330
1F
100
AcDbEntity
  8
LAYER-006
  6
Continuous
 62
     1
100
AcDbCircle
 10
-89.87542404731374
 20
-101.1620441540854
 30
0.0
 40
4.993902392156484
100
AcDbArc
 50
192.4381265097269
 51
269.9777130000007
  0
LINE
  5
421
330
1F
100
AcDbEntity
  8
LAYER-006
  6
Continuous
 62
     1
100
AcDbLine
 10
-73.22908274012548
 20
-92.24985198367467
 30
0.0
 11
-73.22908274012548
 21
-69.93094933194611
 31
0.0
  0
LINE
  5
422
330
1F
100
AcDbEntity
  8
LAYER-006
  6
Continuous
 62
     1
100
AcDbLine
 10
-89.87542404731374
 20
-92.24985198367467
 30
0.0
 11
-89.87542404731374
 21
-69.93094933194611
 31
0.0
  0
LINE
  5
423
330
1F
100
AcDbEntity
  8
LAYER-006
  6
PHANTOM
 62
     1
100
AcDbLine
 10
165.2039901107193
 20
103.8440517000377
 30
0.0
 11
220.7039901107193
 21
103.8440517000377
 31
0.0
  0
LINE
  5
424
330
1F
100
AcDbEntity
  8
LAYER-006
  6
PHANTOM
 62
     1
100
AcDbLine
 10
165.2039901107193
 20
-86.15594829996229
 30
0.0
 11
220.7039901107193
 21
-86.15594829996229
 31
0.0
  0
LINE
  5
425
330
1F
100
AcDbEntity
  8
LAYER-006
  6
Continuous
 62
     1
100
AcDbLine
 10
28.51481696329076
 20
70.84405170003771
 30
0.0
 11
53.04896635254947
 21
70.84405170003771
 31
0.0
  0
LINE
  5
426
330
1F
100
AcDbEntity
  8
LAYER-006
  6
Continuous
 62
     1
100
AcDbLine
 10
28.51481696329076
 20
-53.15594829996229
 30
0.0
 11
53.14896638406043
 21
-53.15594829996229
 31
0.0
  0
LINE
  5
427
330
1F
100
AcDbEntity
  8
LAYER-006
  6
PHANTOM
 62
     1
100
AcDbLine
 10
258.4792656229273
 20
103.8440517000377
 30
0.0
 11
258.4792656229273
 21
-86.15594829996229
 31
0.0
  0
LINE
  5
428
330
1F
100
AcDbEntity
  8
LAYER-006
  6
PHANTOM
 62
     1
100
AcDbLine
 10
126.7863131789043
 20
-86.15594829996229
 30
0.0
 11
126.7863131789043
 21
103.8440517000377
 31
0.0
  0
LINE
  5
429
330
1F
100
AcDbEntity
  8
LAYER-033
  6
PHANTOM
 62
     1
100
AcDbLine
 10
230.2039901107193
 20
103.8440517000377
 30
0.0
 11
230.2039901107193
 21
96.34405170003771
 31
0.0
  0
LINE
  5
42A
330
1F
100
AcDbEntity
  8
LAYER-033
  6
PHANTOM
 62
     1
100
AcDbLine
 10
220.7039901107193
 20
103.8440517000377
 30
0.0
 11
220.7039901107193
 21
96.34405170003771
 31
0.0
  0
ARC
  5
42B
330
1F
100
AcDbEntity
  8
LAYER-033
  6
PHANTOM
 62
     1
100
AcDbCircle
 10
225.4539901107193
 20
96.34405170003771
 30
0.0
 40
4.75
100
AcDbArc
 50
180.0
 51
0.0
  0
LINE
  5
42C
330
1F
100
AcDbEntity
  8
LAYER-033
  6
PHANTOM
 62
     1
100
AcDbLine
 10
165.2039901107193
 20
103.8440517000377
 30
0.0
 11
165.2039901107193
 21
96.34405170003771
 31
0.0
  0
LINE
  5
42D
330
1F
100
AcDbEntity
  8
LAYER-033
  6
PHANTOM
 62
     1
100
AcDbLine
 10
155.7039901107193
 20
103.8440517000377
 30
0.0
 11
155.7039901107193
 21
96.34405170003771
 31
0.0
  0
ARC
  5
42E
330
1F
100
AcDbEntity
  8
LAYER-033
  6
PHANTOM
 62
     1
100
AcDbCircle
 10
160.4539901107193
 20
96.34405170003771
 30
0.0
 40
4.75
100
AcDbArc
 50
180.0
 51
0.0
  0
LINE
  5
42F
330
1F
100
AcDbEntity
  8
LAYER-033
  6
PHANTOM
 62
     1
100
AcDbLine
 10
230.2039901107193
 20
-78.65594829996226
 30
0.0
 11
230.2039901107193
 21
-86.15594829996229
 31
0.0
  0
LINE
  5
430
330
1F
100
AcDbEntity
  8
LAYER-033
  6
PHANTOM
 62
     1
100
AcDbLine
 10
220.7039901107193
 20
-78.65594829996226
 30
0.0
 11
220.7039901107193
 21
-86.15594829996229
 31
0.0
  0
ARC
  5
431
330
1F
100
AcDbEntity
  8
LAYER-033
  6
PHANTOM
 62
     1
100
AcDbCircle
 10
225.4539901107193
 20
-78.65594829996226
 30
0.0
 40
4.75
100
AcDbArc
 50
0.0
 51
180.0
  0
LINE
  5
432
330
1F
100
AcDbEntity
  8
LAYER-033
  6
PHANTOM
 62
     1
100
AcDbLine
 10
165.2039901107193
 20
-78.65594829996226
 30
0.0
 11
165.2039901107193
 21
-86.15594829996229
 31
0.0
  0
LINE
  5
433
330
1F
100
AcDbEntity
  8
LAYER-033
  6
PHANTOM
 62
     1
100
AcDbLine
 10
155.7039901107193
 20
-78.65594829996226
 30
0.0
 11
155.7039901107193
 21
-86.15594829996229
 31
0.0
  0
ARC
  5
434
330
1F
100
AcDbEntity
  8
LAYER-033
  6
PHANTOM
 62
     1
100
AcDbCircle
 10
160.4539901107193
 20
-78.65594829996226
 30
0.0
 40
4.75
100
AcDbArc
 50
0.0
 51
180.0
  0
LINE
  5
435
330
1F
100
AcDbEntity
  8
LAYER-006
  6
Continuous
 62
     1
100
AcDbLine
 10
-268.3838748668644
 20
112.8190502899224
 30
0.0
 11
-242.8738740194387
 21
112.8190502899224
 31
0.0
  0
LINE
  5
436
330
1F
100
AcDbEntity
  8
LAYER-006
  6
Continuous
 62
     1
100
AcDbLine
 10
-338.3038762781172
 20
112.8190502899224
 30
0.0
 11
-312.7938754306915
 21
112.8190502899224
 31
0.0
  0
LINE
  5
437
330
1F
100
AcDbEntity
  8
LAYER-006
  6
Continuous
 62
     1
100
AcDbLine
 10
-268.3838748668645
 20
-95.13094688984711
 30
0.0
 11
-242.8738740194388
 21
-95.13094688984711
 31
0.0
  0
LINE
  5
438
330
1F
100
AcDbEntity
  8
LAYER-006
  6
PHANTOM
 62
     1
100
AcDbLine
 10
230.2039901107193
 20
103.8440517000377
 30
0.0
 11
258.4792656229273
 21
103.8440517000377
 31
0.0
  0
LINE
  5
439
330
1F
100
AcDbEntity
  8
LAYER-006
  6
PHANTOM
 62
     1
100
AcDbLine
 10
126.7863131789043
 20
103.8440517000377
 30
0.0
 11
155.7039901107193
 21
103.8440517000377
 31
0.0
  0
LINE
  5
43A
330
1F
100
AcDbEntity
  8
LAYER-006
  6
PHANTOM
 62
     1
100
AcDbLine
 10
230.2039901107193
 20
-86.15594829996229
 30
0.0
 11
258.8004679383429
 21
-86.15594829996229
 31
0.0
  0
LINE
  5
43B
330
1F
100
AcDbEntity
  8
LAYER-006
  6
PHANTOM
 62
     1
100
AcDbLine
 10
126.4651140757274
 20
-86.15594829996229
 30
0.0
 11
155.7039901107193
 21
-86.15594829996229
 31
0.0
  0
LINE
  5
43C
330
1F
100
AcDbEntity
  8
LAYER-006
  6
Continuous
 62
     1
100
AcDbLine
 10
53.14896638406043
 20
-86.15594829995615
 30
0.0
 11
53.14896638406043
 21
-53.15594829996229
 31
0.0
  0
LINE
  5
43D
330
1F
100
AcDbEntity
  8
LAYER-006
  6
Continuous
 62
     1
100
AcDbLine
 10
53.14896638406043
 20
103.8440517000377
 30
0.0
 11
55.14896638406043
 21
103.8440517000377
 31
0.0
  0
LINE
  5
43E
330
1F
100
AcDbEntity
  8
LAYER-006
  6
Continuous
 62
     1
100
AcDbLine
 10
53.14896638406043
 20
103.8440517000377
 30
0.0
 11
53.14896638406043
 21
70.84405170003771
 31
0.0
  0
LINE
  5
43F
330
1F
100
AcDbEntity
  8
LAYER-006
  6
Continuous
 62
     1
100
AcDbLine
 10
55.14896638406043
 20
103.8440517000377
 30
0.0
 11
55.14896638406043
 21
-86.15594829995615
 31
0.0
  0
TEXT
  5
440
330
1F
100
AcDbEntity
  8
LAYER-033
  6
Continuous
 62
     7
100
AcDbText
 10
-78.59006319201528
 20
-233.7017527596956
 30
0.0
 40
4.0
  1
４００／４４０Ｖ　５０／６０Ｈｚ　１９～２２ｋＷ
  7
STRING_H
 11
-78.59006319201528
 21
-231.7017527596956
 31
0.0
100
AcDbText
 73
     2
  0
TEXT
  5
441
330
1F
100
AcDbEntity
  8
LAYER-033
  6
Continuous
 62
     7
100
AcDbText
 10
-78.59006319201528
 20
-241.7872028606628
 30
0.0
 40
4.0
  1
質　　量　　２４㎏
  7
STRING_H
 11
-78.59006319201528
 21
-239.7872028606628
 31
0.0
100
AcDbText
 73
     2
  0
TEXT
  5
442
330
1F
100
AcDbEntity
  8
LAYER-033
  6
Continuous
 62
     7
100
AcDbText
 10
-78.59006319201528
 20
-225.6163026583913
 30
0.0
 40
4.0
  1
ＫＲ－１Ｐ(低　圧)
  7
STRING_H
 11
-78.59006319201528
 21
-223.6163026583913
 31
0.0
100
AcDbText
 73
     2
  0
TEXT
  5
443
330
1F
100
AcDbEntity
  8
LAYER-007
  6
Continuous
 62
     4
100
AcDbText
 10
-309.0379219369135
 20
2.859048639843905
 30
0.0
 40
12.75749665857099
  1
N P
 41
1.666666
  7
STRING_H
 11
-309.0379219369135
 21
2.859048639843905
 31
0.0
100
AcDbText
 73
     1
  0
TEXT
  5
444
330
1F
100
AcDbEntity
  8
LAYER-007
  6
Continuous
 62
     4
100
AcDbText
 10
-380.6437537336897
 20
-81.18999175500738
 30
0.0
 40
8.662499870017305
  1
R
 41
1.272727272727273
  7
STRING_H
 11
-380.6437537336897
 21
-81.18999175500738
 31
0.0
100
AcDbText
 73
     1
  0
TEXT
  5
445
330
1F
100
AcDbEntity
  8
LAYER-007
  6
Continuous
 62
     4
100
AcDbText
 10
-345.6847185244484
 20
-81.18999185300851
 30
0.0
 40
8.662499870017305
  1
U
 41
1.272727272727273
  7
STRING_H
 11
-345.6847185244484
 21
-81.18999185300851
 31
0.0
100
AcDbText
 73
     1
  0
TEXT
  5
446
330
1F
100
AcDbEntity
  8
LAYER-007
  6
Continuous
 62
     4
100
AcDbText
 10
-310.7237554722431
 20
-81.18999175500736
 30
0.0
 40
8.662499870017305
  1
S
 41
1.272727272727273
  7
STRING_H
 11
-310.7237554722431
 21
-81.18999175500736
 31
0.0
100
AcDbText
 73
     1
  0
TEXT
  5
447
330
1F
100
AcDbEntity
  8
LAYER-007
  6
Continuous
 62
     4
100
AcDbText
 10
-275.7647171131956
 20
-81.18999185300851
 30
0.0
 40
8.662499870017305
  1
V
 41
1.272727272727273
  7
STRING_H
 11
-275.7647171131956
 21
-81.18999185300851
 31
0.0
100
AcDbText
 73
     1
  0
TEXT
  5
448
330
1F
100
AcDbEntity
  8
LAYER-007
  6
Continuous
 62
     4
100
AcDbText
 10
-240.8037540611843
 20
-81.18999175500736
 30
0.0
 40
8.662499870017305
  1
T
 41
1.272727272727273
  7
STRING_H
 11
-240.8037540611843
 21
-81.18999175500736
 31
0.0
100
AcDbText
 73
     1
  0
TEXT
  5
449
330
1F
100
AcDbEntity
  8
LAYER-007
  6
Continuous
 62
     4
100
AcDbText
 10
-205.844712551778
 20
-81.18999185300851
 30
0.0
 40
8.662499870017305
  1
W
 41
1.272727272727273
  7
STRING_H
 11
-205.844712551778
 21
-81.18999185300851
 31
0.0
100
AcDbText
 73
     1
  0
TEXT
  5
44A
330
1F
100
AcDbEntity
  8
LAYER-008
  6
Continuous
 62
     4
100
AcDbText
 10
182.2487931800641
 20
-128.008748275
 30
0.0
 40
3.0
  1
取付穴寸法
 41
1.111111
  7
STRING_H
 11
182.2487931800641
 21
-128.008748275
 31
0.0
100
AcDbText
 73
     1
  0
DIMENSION
  5
45C
330
1F
100
AcDbEntity
  8
LAYER-035
  6
Continuous
 62
     5
100
AcDbDimension
  2
*D02
 10
230.2039901107193
 20
114.2356977097626
 30
0.0
 11
240.600341346
 21
114.2356977097626
 31
0.0
 70
   129
  1
<>
 71
     0
 42
0.0
  3
DIO_DIMSTYLE
100
AcDbAlignedDimension
 13
220.7039901107193
 23
103.8440517000377
 33
0.0
 14
230.2039901107193
 24
103.8440517000377
 34
0.0
1001
ACAD
1000
DSTYLE
1002
{
1070
    41
1040
4.0
1070
    44
1040
1.0
1070
    42
1040
1.0
1070
     6
1000
_OPEN
1070
     7
1000
_OPEN
1070
   173
1070
     1
1070
   140
1040
4.0
1070
   178
1070
     5
1070
   147
1040
0.5
1002
}
  0
DIMENSION
  5
466
330
1F
100
AcDbEntity
  8
LAYER-035
  6
Continuous
 62
     5
100
AcDbDimension
  2
*D13
 10
-390.588873573778
 20
144.1244681891535
 30
0.0
 11
-290.588873573778
 21
144.1244681891535
 31
0.0
 70
   129
  1
<>
 71
     0
 42
0.0
  3
DIO_DIMSTYLE
100
AcDbAlignedDimension
 13
-190.588873573778
 23
112.8190502899224
 33
0.0
 14
-390.588873573778
 24
112.8190502899224
 34
0.0
1001
ACAD
1000
DSTYLE
1002
{
1070
    41
1040
4.0
1070
    44
1040
1.0
1070
    42
1040
1.0
1070
     6
1000
_OPEN
1070
     7
1000
_OPEN
1070
   173
1070
     1
1070
   140
1040
4.0
1070
   178
1070
     5
1070
   147
1040
0.5
1002
}
  0
DIMENSION
  5
470
330
1F
100
AcDbEntity
  8
LAYER-035
  6
Continuous
 62
     5
100
AcDbDimension
  2
*D24
 10
-154.1852410757475
 20
-106.1559467244144
 30
0.0
 11
-154.1852410757475
 21
8.844051700037738
 31
0.0
 70
   129
  1
<>
 71
     0
 42
0.0
  3
DIO_DIMSTYLE
100
AcDbAlignedDimension
 13
-203.1888733847123
 23
123.8440501244899
 33
0.0
 14
-203.1888702349063
 24
-106.1559467244144
 34
0.0
1001
ACAD
1000
DSTYLE
1002
{
1070
    41
1040
4.0
1070
    44
1040
1.0
1070
    42
1040
1.0
1070
     6
1000
_OPEN
1070
     7
1000
_OPEN
1070
   173
1070
     1
1070
   140
1040
4.0
1070
   178
1070
     5
1070
   147
1040
0.5
1002
}
  0
DIMENSION
  5
47A
330
1F
100
AcDbEntity
  8
LAYER-035
  6
Continuous
 62
     5
100
AcDbDimension
  2
*D35
 10
-109.8510336159396
 20
144.1244681891535
 30
0.0
 11
-27.35103361593957
 21
144.1244681891535
 31
0.0
 70
   128
  1
<>
 71
     0
 42
0.0
  3
DIO_DIMSTYLE
100
AcDbAlignedDimension
 13
55.14896638406043
 23
103.8440517000377
 33
0.0
 14
-109.8510336159396
 24
106.6086871227056
 34
0.0
100
AcDbRotatedDimension
1001
ACAD
1000
DSTYLE
1002
{
1070
    41
1040
4.0
1070
    44
1040
1.0
1070
    42
1040
1.0
1070
     6
1000
_OPEN
1070
     7
1000
_OPEN
1070
   173
1070
     1
1070
   140
1040
4.0
1070
   178
1070
     5
1070
   147
1040
0.5
1002
}
  0
DIMENSION
  5
484
330
1F
100
AcDbEntity
  8
LAYER-035
  6
Continuous
 62
     5
100
AcDbDimension
  2
*D46
 10
225.4539901107193
 20
144.1244681891535
 30
0.0
 11
192.9539901107193
 21
144.1244681891535
 31
0.0
 70
   128
  1
<>
 71
     0
 42
0.0
  3
DIO_DIMSTYLE
100
AcDbAlignedDimension
 13
160.4539901107193
 23
102.0829698568073
 33
0.0
 14
225.4539901107193
 24
102.4041689600377
 34
0.0
 50
180.0
100
AcDbRotatedDimension
1001
ACAD
1000
DSTYLE
1002
{
1070
    41
1040
4.0
1070
    44
1040
1.0
1070
    42
1040
1.0
1070
     6
1000
_OPEN
1070
     7
1000
_OPEN
1070
   173
1070
     1
1070
   140
1040
4.0
1070
   178
1070
     5
1070
   147
1040
0.5
1002
}
  0
DIMENSION
  5
48E
330
1F
100
AcDbEntity
  8
LAYER-035
  6
Continuous
 62
     5
100
AcDbDimension
  2
*D57
 10
295.8161670497335
 20
-78.65594829996226
 30
0.0
 11
295.8161670497335
 21
8.844051700037696
 31
0.0
 70
   128
  1
<>
 71
     0
 42
0.0
  3
DIO_DIMSTYLE
100
AcDbAlignedDimension
 13
233.1042827223429
 23
96.34405170003771
 33
0.0
 14
232.4618748797963
 24
-78.65594829996226
 34
0.0
 50
90.0
100
AcDbRotatedDimension
1001
ACAD
1000
DSTYLE
1002
{
1070
    41
1040
4.0
1070
    44
1040
1.0
1070
    42
1040
1.0
1070
     6
1000
_OPEN
1070
     7
1000
_OPEN
1070
   173
1070
     1
1070
   140
1040
4.0
1070
   178
1070
     5
1070
   147
1040
0.5
1002
}
  0
ENDSEC
  0
SECTION
  2
OBJECTS
  0
DICTIONARY
  5
C
330
0
100
AcDbDictionary
281
     1
  3
ACAD_GROUP
350
D
  3
ACAD_LAYOUT
350
1A
  3
ACAD_MLINESTYLE
350
17
  3
ACAD_PLOTSETTINGS
350
19
  3
ACAD_PLOTSTYLENAME
350
E
  0
DICTIONARY
  5
D
102
{ACAD_REACTORS
330
C
102
}
330
C
100
AcDbDictionary
281
     1
  0
DICTIONARY
  5
1A
102
{ACAD_REACTORS
330
C
102
}
330
C
100
AcDbDictionary
281
     1
  3
Model
350
22
  3
ﾚｲｱｳﾄ1
350
1E
  3
ﾚｲｱｳﾄ2
350
26
  0
DICTIONARY
  5
17
102
{ACAD_REACTORS
330
C
102
}
330
C
100
AcDbDictionary
281
     1
  3
Standard
350
18
  0
DICTIONARY
  5
19
102
{ACAD_REACTORS
330
C
102
}
330
C
100
AcDbDictionary
281
     1
  0
ACDBDICTIONARYWDFLT
  5
E
102
{ACAD_REACTORS
330
C
102
}
330
C
100
AcDbDictionary
281
     1
  3
Normal
350
F
100
AcDbDictionaryWithDefault
340
F
  0
LAYOUT
  5
22
102
{ACAD_REACTORS
330
1A
102
}
330
1A
100
AcDbPlotSettings
  1

  2
DWF ePlot.pc3
  4
ANSI_A_(8.50_x_11.00_Inches)
  6

 40
5.793749809265137
 41
17.79375076293945
 42
5.793746948242188
 43
17.79376220703125
 44
215.8999938964844
 45
279.3999938964844
 46
0.0
 47
0.0
 48
0.0
 49
0.0
140
0.0
141
0.0
142
1.0
143
39.26051453979704
 70
 11952
 72
     0
 73
     1
 74
     0
  7
acad.ctb
 75
     0
147
0.0254708837039396
148
-1793.922354682663
149
1.490346453088415
100
AcDbLayout
  1
Model
 70
     1
 71
     0
 10
-594.5
 20
-420.5
 11
594.5
 21
420.5
 12
0.0
 22
0.0
 32
0.0
 14
-594.5
 24
-420.5
 34
0.0
 15
594.5
 25
420.5
 35
0.0
146
0.0
 13
0.0
 23
0.0
 33
0.0
 16
1.0
 26
0.0
 36
0.0
 17
0.0
 27
1.0
 37
0.0
 76
     0
330
1F
  0
LAYOUT
  5
1E
102
{ACAD_REACTORS
330
1A
102
}
330
1A
100
AcDbPlotSettings
  1

  2
RICOH IPSiO NX700
  4

  6

 40
0.0
 41
0.0
 42
0.0
 43
0.0
 44
0.0
 45
0.0
 46
0.0
 47
0.0
 48
0.0
 49
0.0
140
0.0
141
0.0
142
1.0
143
1.0
 70
   688
 72
     0
 73
     0
 74
     5
  7
acad.ctb
 75
    16
147
1.0
148
0.0
149
0.0
100
AcDbLayout
  1
ﾚｲｱｳﾄ1
 70
     1
 71
     1
 10
-594.5
 20
-420.5
 11
594.5
 21
420.5
 12
0.0
 22
0.0
 32
0.0
 14
-594.5
 24
-420.5
 34
0.0
 15
594.5
 25
420.5
 35
0.0
146
0.0
 13
0.0
 23
0.0
 33
0.0
 16
1.0
 26
0.0
 36
0.0
 17
0.0
 27
1.0
 37
0.0
 76
     0
330
1B
  0
LAYOUT
  5
26
102
{ACAD_REACTORS
330
1A
102
}
330
1A
100
AcDbPlotSettings
  1

  2
RICOH IPSiO NX700
  4

  6

 40
0.0
 41
0.0
 42
0.0
 43
0.0
 44
0.0
 45
0.0
 46
0.0
 47
0.0
 48
0.0
 49
0.0
140
0.0
141
0.0
142
1.0
143
1.0
 70
   688
 72
     0
 73
     0
 74
     5
  7
acad.ctb
 75
    16
147
1.0
148
0.0
149
0.0
100
AcDbLayout
  1
ﾚｲｱｳﾄ2
 70
     1
 71
     2
 10
0.0
 20
0.0
 11
12.0
 21
9.0
 12
0.0
 22
0.0
 32
0.0
 14
0.0
 24
0.0
 34
0.0
 15
0.0
 25
0.0
 35
0.0
146
0.0
 13
0.0
 23
0.0
 33
0.0
 16
1.0
 26
0.0
 36
0.0
 17
0.0
 27
1.0
 37
0.0
 76
     0
330
23
  0
MLINESTYLE
  5
18
102
{ACAD_REACTORS
330
17
102
}
330
17
100
AcDbMlineStyle
  2
STANDARD
 70
     0
  3

 62
   256
 51
90.0
 52
90.0
 71
     2
 49
0.5
 62
   256
  6
BYLAYER
 49
-0.5
 62
   256
  6
BYLAYER
  0
ACDBPLACEHOLDER
  5
F
102
{ACAD_REACTORS
330
E
102
}
330
E
  0
ENDSEC
  0
EOF
