  0
SECTION
  2
HEADER
  9
$ACADVER
  1
AC1015
  9
$ACADMAINTVER
 70
     6
  9
$DWGCODEPAGE
  3
ANSI_932
  9
$INSBASE
 10
0.0
 20
0.0
 30
0.0
  9
$EXTMIN
 10
-594.5
 20
-420.5
 30
0.0
  9
$EXTMAX
 10
594.5
 20
420.5
 30
0.0
  9
$LIMMIN
 10
-594.5
 20
-420.5
  9
$LIMMAX
 10
594.5
 20
420.5
  9
$ORTHOMODE
 70
     0
  9
$REGENMODE
 70
     1
  9
$FILLMODE
 70
     1
  9
$QTEXTMODE
 70
     0
  9
$MIRRTEXT
 70
     1
  9
$LTSCALE
 40
4.0
  9
$ATTMODE
 70
     1
  9
$TEXTSIZE
 40
2.5
  9
$TRACEWID
 40
1.0
  9
$TEXTSTYLE
  7
Standard
  9
$CLAYER
  8
0
  9
$CELTYPE
  6
ByLayer
  9
$CECOLOR
 62
   256
  9
$CELTSCALE
 40
1.0
  9
$DISPSILH
 70
     0
  9
$DIMSCALE
 40
1.0
  9
$DIMASZ
 40
4.0
  9
$DIMEXO
 40
1.0
  9
$DIMDLI
 40
3.75
  9
$DIMRND
 40
0.1
  9
$DIMDLE
 40
0.0
  9
$DIMEXE
 40
1.0
  9
$DIMTP
 40
0.0
  9
$DIMTM
 40
0.0
  9
$DIMTXT
 40
2.5
  9
$DIMCEN
 40
2.5
  9
$DIMTSZ
 40
0.0
  9
$DIMTOL
 70
     0
  9
$DIMLIM
 70
     0
  9
$DIMTIH
 70
     0
  9
$DIMTOH
 70
     0
  9
$DIMSE1
 70
     0
  9
$DIMSE2
 70
     0
  9
$DIMTAD
 70
     1
  9
$DIMZIN
 70
     8
  9
$DIMBLK
  1

  9
$DIMASO
 70
     1
  9
$DIMSHO
 70
     1
  9
$DIMPOST
  1

  9
$DIMAPOST
  1

  9
$DIMALT
 70
     0
  9
$DIMALTD
 70
     3
  9
$DIMALTF
 40
0.03937007874016
  9
$DIMLFAC
 40
1.0
  9
$DIMTOFL
 70
     1
  9
$DIMTVP
 40
0.0
  9
$DIMTIX
 70
     0
  9
$DIMSOXD
 70
     0
  9
$DIMSAH
 70
     1
  9
$DIMBLK1
  1

  9
$DIMBLK2
  1

  9
$DIMSTYLE
  2
ISO-25
  9
$DIMCLRD
 70
     0
  9
$DIMCLRE
 70
     0
  9
$DIMCLRT
 70
     0
  9
$DIMTFAC
 40
1.0
  9
$DIMGAP
 40
0.5
  9
$DIMJUST
 70
     0
  9
$DIMSD1
 70
     0
  9
$DIMSD2
 70
     0
  9
$DIMTOLJ
 70
     0
  9
$DIMTZIN
 70
     8
  9
$DIMALTZ
 70
     0
  9
$DIMALTTZ
 70
     0
  9
$DIMUPT
 70
     1
  9
$DIMDEC
 70
     1
  9
$DIMTDEC
 70
     2
  9
$DIMALTU
 70
     2
  9
$DIMALTTD
 70
     3
  9
$DIMTXSTY
  7
Standard
  9
$DIMAUNIT
 70
     0
  9
$DIMADEC
 70
     1
  9
$DIMALTRND
 40
0.0
  9
$DIMAZIN
 70
     2
  9
$DIMDSEP
 70
    46
  9
$DIMATFIT
 70
     0
  9
$DIMFRAC
 70
     0
  9
$DIMLDRBLK
  1

  9
$DIMLUNIT
 70
     2
  9
$DIMLWD
 70
    -2
  9
$DIMLWE
 70
    -2
  9
$DIMTMOVE
 70
     0
  9
$LUNITS
 70
     2
  9
$LUPREC
 70
     4
  9
$SKETCHINC
 40
1.0
  9
$FILLETRAD
 40
10.0
  9
$AUNITS
 70
     0
  9
$AUPREC
 70
     0
  9
$MENU
  1
.
  9
$ELEVATION
 40
0.0
  9
$PELEVATION
 40
0.0
  9
$THICKNESS
 40
0.0
  9
$LIMCHECK
 70
     0
  9
$CHAMFERA
 40
10.0
  9
$CHAMFERB
 40
10.0
  9
$CHAMFERC
 40
20.0
  9
$CHAMFERD
 40
0.0
  9
$SKPOLY
 70
     0
  9
$TDCREATE
 40
2455091.0
  9
$TDUCREATE
 40
2451562.87528772
  9
$TDUPDATE
 40
2455120.0
  9
$TDUUPDATE
 40
2452026.917654526
  9
$TDINDWG
 40
0.0010008681
  9
$TDUSRTIMER
 40
0.0009680671
  9
$USRTIMER
 70
     1
  9
$ANGBASE
 50
0.0
  9
$ANGDIR
 70
     0
  9
$PDMODE
 70
     0
  9
$PDSIZE
 40
0.0
  9
$PLINEWID
 40
0.0
  9
$SPLFRAME
 70
     0
  9
$SPLINETYPE
 70
     6
  9
$SPLINESEGS
 70
     8
  9
$HANDSEED
  5
4E7
  9
$SURFTAB1
 70
     6
  9
$SURFTAB2
 70
     6
  9
$SURFTYPE
 70
     6
  9
$SURFU
 70
     6
  9
$SURFV
 70
     6
  9
$UCSBASE
  2

  9
$UCSNAME
  2

  9
$UCSORG
 10
0.0
 20
0.0
 30
0.0
  9
$UCSXDIR
 10
1.0
 20
0.0
 30
0.0
  9
$UCSYDIR
 10
0.0
 20
1.0
 30
0.0
  9
$UCSORTHOREF
  2

  9
$UCSORTHOVIEW
 70
     0
  9
$UCSORGTOP
 10
0.0
 20
0.0
 30
0.0
  9
$UCSORGBOTTOM
 10
0.0
 20
0.0
 30
0.0
  9
$UCSORGLEFT
 10
0.0
 20
0.0
 30
0.0
  9
$UCSORGRIGHT
 10
0.0
 20
0.0
 30
0.0
  9
$UCSORGFRONT
 10
0.0
 20
0.0
 30
0.0
  9
$UCSORGBACK
 10
0.0
 20
0.0
 30
0.0
  9
$PUCSBASE
  2

  9
$PUCSNAME
  2

  9
$PUCSORG
 10
0.0
 20
0.0
 30
0.0
  9
$PUCSXDIR
 10
1.0
 20
0.0
 30
0.0
  9
$PUCSYDIR
 10
0.0
 20
1.0
 30
0.0
  9
$PUCSORTHOREF
  2

  9
$PUCSORTHOVIEW
 70
     0
  9
$PUCSORGTOP
 10
0.0
 20
0.0
 30
0.0
  9
$PUCSORGBOTTOM
 10
0.0
 20
0.0
 30
0.0
  9
$PUCSORGLEFT
 10
0.0
 20
0.0
 30
0.0
  9
$PUCSORGRIGHT
 10
0.0
 20
0.0
 30
0.0
  9
$PUCSORGFRONT
 10
0.0
 20
0.0
 30
0.0
  9
$PUCSORGBACK
 10
0.0
 20
0.0
 30
0.0
  9
$USERI1
 70
     0
  9
$USERI2
 70
     0
  9
$USERI3
 70
     0
  9
$USERI4
 70
     0
  9
$USERI5
 70
     0
  9
$USERR1
 40
0.0
  9
$USERR2
 40
0.0
  9
$USERR3
 40
0.0
  9
$USERR4
 40
0.0
  9
$USERR5
 40
0.0
  9
$WORLDVIEW
 70
     1
  9
$SHADEDGE
 70
     3
  9
$SHADEDIF
 70
    70
  9
$TILEMODE
 70
     1
  9
$MAXACTVP
 70
    64
  9
$PINSBASE
 10
0.0
 20
0.0
 30
0.0
  9
$PLIMCHECK
 70
     0
  9
$PEXTMIN
 10
-594.5
 20
-420.5
 30
0.0
  9
$PEXTMAX
 10
594.5
 20
420.5
 30
0.0
  9
$PLIMMIN
 10
-594.5
 20
-420.5
  9
$PLIMMAX
 10
594.5
 20
420.5
  9
$UNITMODE
 70
     0
  9
$VISRETAIN
 70
     1
  9
$PLINEGEN
 70
     0
  9
$PSLTSCALE
 70
     1
  9
$TREEDEPTH
 70
  3020
  9
$CMLSTYLE
  2
Standard
  9
$CMLJUST
 70
     0
  9
$CMLSCALE
 40
20.0
  9
$PROXYGRAPHICS
 70
     1
  9
$MEASUREMENT
 70
     1
  9
$CELWEIGHT
370
    -1
  9
$ENDCAPS
280
     0
  9
$JOINSTYLE
280
     0
  9
$LWDISPLAY
290
     0
  9
$INSUNITS
 70
     4
  9
$HYPERLINKBASE
  1

  9
$STYLESHEET
  1

  9
$XEDIT
290
     1
  9
$CEPSNTYPE
380
     0
  9
$PSTYLEMODE
290
     1
  9
$FINGERPRINTGUID
  2
{B6423330-CE35-11D3-AA43-00E0292263AD}
  9
$VERSIONGUID
  2
{EAA0F794-BAE8-4B09-85E0-65C527BE2B8E}
  9
$EXTNAMES
290
     1
  9
$PSVPSCALE
 40
0.0
  9
$OLESTARTUP
290
     0
  0
ENDSEC
  0
SECTION
  2
CLASSES
  0
CLASS
  1
ACDBDICTIONARYWDFLT
  2
AcDbDictionaryWithDefault
  3
ObjectDBX Classes
 90
        0
280
     0
281
     0
  0
CLASS
  1
ACDBPLACEHOLDER
  2
AcDbPlaceHolder
  3
ObjectDBX Classes
 90
        0
280
     0
281
     0
  0
CLASS
  1
LAYOUT
  2
AcDbLayout
  3
ObjectDBX Classes
 90
        0
280
     0
281
     0
  0
ENDSEC
  0
SECTION
  2
TABLES
  0
TABLE
  2
VPORT
  5
8
330
0
100
AcDbSymbolTable
 70
     3
  0
VPORT
  5
30
330
8
100
AcDbSymbolTableRecord
100
AcDbViewportTableRecord
  2
*Active
 70
     0
 10
0.0
 20
0.0
 11
1.0
 21
1.0
 12
259.0560661764706
 22
148.5
 13
0.0
 23
0.0
 14
10.0
 24
10.0
 15
10.0
 25
10.0
 16
0.0
 26
0.0
 36
1.0
 17
0.0
 27
0.0
 37
0.0
 40
297.1173501144164
 41
1.268382352941176
 42
50.0
 43
0.0
 44
0.0
 50
0.0
 51
0.0
 71
     0
 72
   100
 73
     1
 74
     3
 75
     0
 76
     0
 77
     0
 78
     0
281
     0
 65
     1
110
0.0
120
0.0
130
0.0
111
1.0
121
0.0
131
0.0
112
0.0
122
1.0
132
0.0
 79
     0
146
0.0
  0
ENDTAB
  0
TABLE
  2
LTYPE
  5
5
330
0
100
AcDbSymbolTable
 70
    26
  0
LTYPE
  5
14
330
5
100
AcDbSymbolTableRecord
100
AcDbLinetypeTableRecord
  2
ByBlock
 70
     0
  3

 72
    65
 73
     0
 40
0.0
  0
LTYPE
  5
15
330
5
100
AcDbSymbolTableRecord
100
AcDbLinetypeTableRecord
  2
ByLayer
 70
     0
  3

 72
    65
 73
     0
 40
0.0
  0
LTYPE
  5
16
330
5
100
AcDbSymbolTableRecord
100
AcDbLinetypeTableRecord
  2
Continuous
 70
     0
  3
Solid line
 72
    65
 73
     0
 40
0.0
  0
LTYPE
  5
37
330
5
100
AcDbSymbolTableRecord
100
AcDbLinetypeTableRecord
  2
BORDER
 70
     0
  3
 __ __ . __ __ . __ __ . __ __ . __ __ . __ __
 72
    65
 73
     6
 40
1.75
 49
0.5
 74
     0
 49
-0.25
 74
     0
 49
0.5
 74
     0
 49
-0.25
 74
     0
 49
0.0
 74
     0
 49
-0.25
 74
     0
  0
LTYPE
  5
38
330
5
100
AcDbSymbolTableRecord
100
AcDbLinetypeTableRecord
  2
BORDER2
 70
     0
  3
__.__.__.__.__.__.__.__.__.__.__.__.__.__.__
 72
    65
 73
     6
 40
0.875
 49
0.25
 74
     0
 49
-0.125
 74
     0
 49
0.25
 74
     0
 49
-0.125
 74
     0
 49
0.0
 74
     0
 49
-0.125
 74
     0
  0
LTYPE
  5
39
330
5
100
AcDbSymbolTableRecord
100
AcDbLinetypeTableRecord
  2
BORDERX2
 70
     0
  3
____  ____  .  ____  ____  .  ____  ____  .
 72
    65
 73
     6
 40
3.5
 49
1.0
 74
     0
 49
-0.5
 74
     0
 49
1.0
 74
     0
 49
-0.5
 74
     0
 49
0.0
 74
     0
 49
-0.5
 74
     0
  0
LTYPE
  5
3A
330
5
100
AcDbSymbolTableRecord
100
AcDbLinetypeTableRecord
  2
CENTER
 70
     0
  3
____ _ ____ _ ____ _ ____ _ ____ _ ____ _ ____
 72
    65
 73
     4
 40
2.0
 49
1.25
 74
     0
 49
-0.25
 74
     0
 49
0.25
 74
     0
 49
-0.25
 74
     0
  0
LTYPE
  5
3B
330
5
100
AcDbSymbolTableRecord
100
AcDbLinetypeTableRecord
  2
CENTER2
 70
     0
  3
___ _ ___ _ ___ _ ___ _ ___ _ ___ _ ___ _ ___ 
 72
    65
 73
     4
 40
1.125
 49
0.75
 74
     0
 49
-0.125
 74
     0
 49
0.125
 74
     0
 49
-0.125
 74
     0
  0
LTYPE
  5
3C
330
5
100
AcDbSymbolTableRecord
100
AcDbLinetypeTableRecord
  2
CENTERX2
 70
     0
  3
________  __  ________  __  ________  __
 72
    65
 73
     4
 40
4.0
 49
2.5
 74
     0
 49
-0.5
 74
     0
 49
0.5
 74
     0
 49
-0.5
 74
     0
  0
LTYPE
  5
3D
330
5
100
AcDbSymbolTableRecord
100
AcDbLinetypeTableRecord
  2
DASHDOT
 70
     0
  3
__ . __ . __ . __ . __ . __ . __ . __ . __ .
 72
    65
 73
     4
 40
1.0
 49
0.5
 74
     0
 49
-0.25
 74
     0
 49
0.0
 74
     0
 49
-0.25
 74
     0
  0
LTYPE
  5
3E
330
5
100
AcDbSymbolTableRecord
100
AcDbLinetypeTableRecord
  2
DASHDOT2
 70
     0
  3
_._._._._._._._._._._._._._._._._._._._._._._.
 72
    65
 73
     4
 40
0.5
 49
0.25
 74
     0
 49
-0.125
 74
     0
 49
0.0
 74
     0
 49
-0.125
 74
     0
  0
LTYPE
  5
3F
330
5
100
AcDbSymbolTableRecord
100
AcDbLinetypeTableRecord
  2
DASHDOTX2
 70
     0
  3
____  .  ____  .  ____  .  ____  .  ____  .
 72
    65
 73
     4
 40
2.0
 49
1.0
 74
     0
 49
-0.5
 74
     0
 49
0.0
 74
     0
 49
-0.5
 74
     0
  0
LTYPE
  5
40
330
5
100
AcDbSymbolTableRecord
100
AcDbLinetypeTableRecord
  2
DASHED
 70
     0
  3
__ __ __ __ __ __ __ __ __ __ __ __ __ __ __
 72
    65
 73
     2
 40
0.75
 49
0.5
 74
     0
 49
-0.25
 74
     0
  0
LTYPE
  5
41
330
5
100
AcDbSymbolTableRecord
100
AcDbLinetypeTableRecord
  2
DASHED2
 70
     0
  3
_ _ _ _ _ _ _ _ _ _ _ _ _ _ _ _ _ _ _ _ _ _ _
 72
    65
 73
     2
 40
0.375
 49
0.25
 74
     0
 49
-0.125
 74
     0
  0
LTYPE
  5
42
330
5
100
AcDbSymbolTableRecord
100
AcDbLinetypeTableRecord
  2
DASHEDX2
 70
     0
  3
____  ____  ____  ____  ____  ____  ____  ____
 72
    65
 73
     2
 40
1.5
 49
1.0
 74
     0
 49
-0.5
 74
     0
  0
LTYPE
  5
43
330
5
100
AcDbSymbolTableRecord
100
AcDbLinetypeTableRecord
  2
DIVIDE
 70
     0
  3
____ . . ____ . . ____ . . ____ . . ____ . .
 72
    65
 73
     6
 40
1.25
 49
0.5
 74
     0
 49
-0.25
 74
     0
 49
0.0
 74
     0
 49
-0.25
 74
     0
 49
0.0
 74
     0
 49
-0.25
 74
     0
  0
LTYPE
  5
44
330
5
100
AcDbSymbolTableRecord
100
AcDbLinetypeTableRecord
  2
DIVIDE2
 70
     0
  3
__..__..__..__..__..__..__..__..__..__..__..__
 72
    65
 73
     6
 40
0.625
 49
0.25
 74
     0
 49
-0.125
 74
     0
 49
0.0
 74
     0
 49
-0.125
 74
     0
 49
0.0
 74
     0
 49
-0.125
 74
     0
  0
LTYPE
  5
45
330
5
100
AcDbSymbolTableRecord
100
AcDbLinetypeTableRecord
  2
DIVIDEX2
 70
     0
  3
________  .  .  ________  .  .  ________  .  .
 72
    65
 73
     6
 40
2.5
 49
1.0
 74
     0
 49
-0.5
 74
     0
 49
0.0
 74
     0
 49
-0.5
 74
     0
 49
0.0
 74
     0
 49
-0.5
 74
     0
  0
LTYPE
  5
46
330
5
100
AcDbSymbolTableRecord
100
AcDbLinetypeTableRecord
  2
DOT
 70
     0
  3
. . . . . . . . . . . . . . . . . . . . . . .
 72
    65
 73
     2
 40
0.25
 49
0.0
 74
     0
 49
-0.25
 74
     0
  0
LTYPE
  5
47
330
5
100
AcDbSymbolTableRecord
100
AcDbLinetypeTableRecord
  2
DOT2
 70
     0
  3
..............................................
 72
    65
 73
     2
 40
0.125
 49
0.0
 74
     0
 49
-0.125
 74
     0
  0
LTYPE
  5
48
330
5
100
AcDbSymbolTableRecord
100
AcDbLinetypeTableRecord
  2
DOTX2
 70
     0
  3
.  .  .  .  .  .  .  .  .  .  .  .  .  .  .  .
 72
    65
 73
     2
 40
0.5
 49
0.0
 74
     0
 49
-0.5
 74
     0
  0
LTYPE
  5
49
330
5
100
AcDbSymbolTableRecord
100
AcDbLinetypeTableRecord
  2
HIDDEN
 70
     0
  3
__ __ __ __ __ __ __ __ __ __ __ __ __ __ __
 72
    65
 73
     2
 40
0.375
 49
0.25
 74
     0
 49
-0.125
 74
     0
  0
LTYPE
  5
4A
330
5
100
AcDbSymbolTableRecord
100
AcDbLinetypeTableRecord
  2
HIDDEN2
 70
     0
  3
_ _ _ _ _ _ _ _ _ _ _ _ _ _ _ _ _ _ _ _ _ _ _
 72
    65
 73
     2
 40
0.1875
 49
0.125
 74
     0
 49
-0.0625
 74
     0
  0
LTYPE
  5
4B
330
5
100
AcDbSymbolTableRecord
100
AcDbLinetypeTableRecord
  2
HIDDENX2
 70
     0
  3
____ ____ ____ ____ ____ ____ ____ ____ ____
 72
    65
 73
     2
 40
0.75
 49
0.5
 74
     0
 49
-0.25
 74
     0
  0
LTYPE
  5
4C
330
5
100
AcDbSymbolTableRecord
100
AcDbLinetypeTableRecord
  2
PHANTOM
 70
     0
  3
______  __  __  ______  __  __  ______  __
 72
    65
 73
     6
 40
2.5
 49
1.25
 74
     0
 49
-0.25
 74
     0
 49
0.25
 74
     0
 49
-0.25
 74
     0
 49
0.25
 74
     0
 49
-0.25
 74
     0
  0
LTYPE
  5
4D
330
5
100
AcDbSymbolTableRecord
100
AcDbLinetypeTableRecord
  2
PHANTOM2
 70
     0
  3
___ _ _ ___ _ _ ___ _ _ ___ _ _ ___ _ _ ___ _
 72
    65
 73
     6
 40
1.25
 49
0.625
 74
     0
 49
-0.125
 74
     0
 49
0.125
 74
     0
 49
-0.125
 74
     0
 49
0.125
 74
     0
 49
-0.125
 74
     0
  0
LTYPE
  5
4E
330
5
100
AcDbSymbolTableRecord
100
AcDbLinetypeTableRecord
  2
PHANTOMX2
 70
     0
  3
____________    ____    ____    ____________
 72
    65
 73
     6
 40
5.0
 49
2.5
 74
     0
 49
-0.5
 74
     0
 49
0.5
 74
     0
 49
-0.5
 74
     0
 49
0.5
 74
     0
 49
-0.5
 74
     0
  0
LTYPE
  5
4F
330
5
100
AcDbSymbolTableRecord
100
AcDbLinetypeTableRecord
  2
CONTINUOUS2
 70
     0
  3
Solid line
 72
    65
 73
     0
 40
0.0
  0
ENDTAB
  0
TABLE
  2
LAYER
  5
2
330
0
100
AcDbSymbolTable
 70
   514
  0
LAYER
  5
10
330
2
100
AcDbSymbolTableRecord
100
AcDbLayerTableRecord
  2
0
 70
     0
 62
     7
  6
Continuous
370
    -3
390
F
  0
LAYER
  5
50
330
2
100
AcDbSymbolTableRecord
100
AcDbLayerTableRecord
  2
LAYER-001
 70
     0
 62
     7
  6
Continuous
370
    -3
390
F
  0
LAYER
  5
51
330
2
100
AcDbSymbolTableRecord
100
AcDbLayerTableRecord
  2
LAYER-002
 70
     0
 62
     7
  6
Continuous
370
    -3
390
F
  0
LAYER
  5
52
330
2
100
AcDbSymbolTableRecord
100
AcDbLayerTableRecord
  2
LAYER-003
 70
     0
 62
     7
  6
Continuous
370
    -3
390
F
  0
LAYER
  5
53
330
2
100
AcDbSymbolTableRecord
100
AcDbLayerTableRecord
  2
LAYER-004
 70
     0
 62
     7
  6
Continuous
370
    -3
390
F
  0
LAYER
  5
54
330
2
100
AcDbSymbolTableRecord
100
AcDbLayerTableRecord
  2
LAYER-005
 70
     0
 62
     7
  6
Continuous
370
    -3
390
F
  0
LAYER
  5
55
330
2
100
AcDbSymbolTableRecord
100
AcDbLayerTableRecord
  2
LAYER-006
 70
     0
 62
     7
  6
Continuous
370
    -3
390
F
  0
LAYER
  5
56
330
2
100
AcDbSymbolTableRecord
100
AcDbLayerTableRecord
  2
LAYER-007
 70
     0
 62
     7
  6
Continuous
370
    -3
390
F
  0
LAYER
  5
57
330
2
100
AcDbSymbolTableRecord
100
AcDbLayerTableRecord
  2
LAYER-008
 70
     0
 62
     7
  6
Continuous
370
    -3
390
F
  0
LAYER
  5
58
330
2
100
AcDbSymbolTableRecord
100
AcDbLayerTableRecord
  2
LAYER-009
 70
     0
 62
     7
  6
Continuous
370
    -3
390
F
  0
LAYER
  5
59
330
2
100
AcDbSymbolTableRecord
100
AcDbLayerTableRecord
  2
LAYER-010
 70
     0
 62
     7
  6
Continuous
370
    -3
390
F
  0
LAYER
  5
5A
330
2
100
AcDbSymbolTableRecord
100
AcDbLayerTableRecord
  2
LAYER-011
 70
     0
 62
     7
  6
Continuous
370
    -3
390
F
  0
LAYER
  5
5B
330
2
100
AcDbSymbolTableRecord
100
AcDbLayerTableRecord
  2
LAYER-012
 70
     0
 62
     7
  6
Continuous
370
    -3
390
F
  0
LAYER
  5
5C
330
2
100
AcDbSymbolTableRecord
100
AcDbLayerTableRecord
  2
LAYER-013
 70
     0
 62
     7
  6
Continuous
370
    -3
390
F
  0
LAYER
  5
5D
330
2
100
AcDbSymbolTableRecord
100
AcDbLayerTableRecord
  2
LAYER-014
 70
     0
 62
     7
  6
Continuous
370
    -3
390
F
  0
LAYER
  5
5E
330
2
100
AcDbSymbolTableRecord
100
AcDbLayerTableRecord
  2
LAYER-015
 70
     0
 62
    -7
  6
Continuous
370
    -3
390
F
  0
LAYER
  5
5F
330
2
100
AcDbSymbolTableRecord
100
AcDbLayerTableRecord
  2
LAYER-016
 70
     0
 62
     4
  6
Continuous
370
    -3
390
F
  0
LAYER
  5
60
330
2
100
AcDbSymbolTableRecord
100
AcDbLayerTableRecord
  2
LAYER-017
 70
     0
 62
     7
  6
Continuous
370
    -3
390
F
  0
LAYER
  5
61
330
2
100
AcDbSymbolTableRecord
100
AcDbLayerTableRecord
  2
LAYER-018
 70
     0
 62
     2
  6
Continuous
370
    -3
390
F
  0
LAYER
  5
62
330
2
100
AcDbSymbolTableRecord
100
AcDbLayerTableRecord
  2
LAYER-019
 70
     0
 62
     3
  6
Continuous
370
    -3
390
F
  0
LAYER
  5
63
330
2
100
AcDbSymbolTableRecord
100
AcDbLayerTableRecord
  2
LAYER-020
 70
     0
 62
     2
  6
Continuous
370
    -3
390
F
  0
LAYER
  5
64
330
2
100
AcDbSymbolTableRecord
100
AcDbLayerTableRecord
  2
LAYER-021
 70
     0
 62
     7
  6
Continuous
370
    -3
390
F
  0
LAYER
  5
65
330
2
100
AcDbSymbolTableRecord
100
AcDbLayerTableRecord
  2
LAYER-022
 70
     0
 62
     4
  6
Continuous
370
    -3
390
F
  0
LAYER
  5
66
330
2
100
AcDbSymbolTableRecord
100
AcDbLayerTableRecord
  2
LAYER-023
 70
     0
 62
     4
  6
Continuous
370
    -3
390
F
  0
LAYER
  5
67
330
2
100
AcDbSymbolTableRecord
100
AcDbLayerTableRecord
  2
LAYER-024
 70
     0
 62
     7
  6
Continuous
370
    -3
390
F
  0
LAYER
  5
68
330
2
100
AcDbSymbolTableRecord
100
AcDbLayerTableRecord
  2
LAYER-025
 70
     0
 62
     7
  6
Continuous
370
    -3
390
F
  0
LAYER
  5
69
330
2
100
AcDbSymbolTableRecord
100
AcDbLayerTableRecord
  2
LAYER-026
 70
     0
 62
    -7
  6
Continuous
370
    -3
390
F
  0
LAYER
  5
6A
330
2
100
AcDbSymbolTableRecord
100
AcDbLayerTableRecord
  2
LAYER-027
 70
     0
 62
     7
  6
Continuous
370
    -3
390
F
  0
LAYER
  5
6B
330
2
100
AcDbSymbolTableRecord
100
AcDbLayerTableRecord
  2
LAYER-028
 70
     0
 62
     7
  6
Continuous
370
    -3
390
F
  0
LAYER
  5
6C
330
2
100
AcDbSymbolTableRecord
100
AcDbLayerTableRecord
  2
LAYER-029
 70
     0
 62
     7
  6
Continuous
370
    -3
390
F
  0
LAYER
  5
6D
330
2
100
AcDbSymbolTableRecord
100
AcDbLayerTableRecord
  2
LAYER-030
 70
     0
 62
     2
  6
Continuous
370
    -3
390
F
  0
LAYER
  5
6E
330
2
100
AcDbSymbolTableRecord
100
AcDbLayerTableRecord
  2
LAYER-031
 70
     0
 62
     7
  6
Continuous
370
    -3
390
F
  0
LAYER
  5
6F
330
2
100
AcDbSymbolTableRecord
100
AcDbLayerTableRecord
  2
LAYER-032
 70
     0
 62
     2
  6
Continuous
370
    -3
390
F
  0
LAYER
  5
70
330
2
100
AcDbSymbolTableRecord
100
AcDbLayerTableRecord
  2
LAYER-033
 70
     0
 62
     7
  6
Continuous
370
    -3
390
F
  0
LAYER
  5
71
330
2
100
AcDbSymbolTableRecord
100
AcDbLayerTableRecord
  2
LAYER-034
 70
     0
 62
     7
  6
Continuous
370
    -3
390
F
  0
LAYER
  5
72
330
2
100
AcDbSymbolTableRecord
100
AcDbLayerTableRecord
  2
LAYER-035
 70
     0
 62
     3
  6
Continuous
370
    -3
390
F
  0
LAYER
  5
73
330
2
100
AcDbSymbolTableRecord
100
AcDbLayerTableRecord
  2
LAYER-036
 70
     0
 62
     2
  6
Continuous
370
    -3
390
F
  0
LAYER
  5
74
330
2
100
AcDbSymbolTableRecord
100
AcDbLayerTableRecord
  2
LAYER-037
 70
     0
 62
     7
  6
Continuous
370
    -3
390
F
  0
LAYER
  5
75
330
2
100
AcDbSymbolTableRecord
100
AcDbLayerTableRecord
  2
LAYER-038
 70
     0
 62
     7
  6
Continuous
370
    -3
390
F
  0
LAYER
  5
76
330
2
100
AcDbSymbolTableRecord
100
AcDbLayerTableRecord
  2
LAYER-039
 70
     0
 62
     7
  6
Continuous
370
    -3
390
F
  0
LAYER
  5
77
330
2
100
AcDbSymbolTableRecord
100
AcDbLayerTableRecord
  2
LAYER-040
 70
     0
 62
     7
  6
Continuous
370
    -3
390
F
  0
LAYER
  5
78
330
2
100
AcDbSymbolTableRecord
100
AcDbLayerTableRecord
  2
LAYER-041
 70
     0
 62
     7
  6
Continuous
370
    -3
390
F
  0
LAYER
  5
79
330
2
100
AcDbSymbolTableRecord
100
AcDbLayerTableRecord
  2
LAYER-042
 70
     0
 62
     7
  6
Continuous
370
    -3
390
F
  0
LAYER
  5
7A
330
2
100
AcDbSymbolTableRecord
100
AcDbLayerTableRecord
  2
LAYER-043
 70
     0
 62
     7
  6
Continuous
370
    -3
390
F
  0
LAYER
  5
7B
330
2
100
AcDbSymbolTableRecord
100
AcDbLayerTableRecord
  2
LAYER-044
 70
     0
 62
     7
  6
Continuous
370
    -3
390
F
  0
LAYER
  5
7C
330
2
100
AcDbSymbolTableRecord
100
AcDbLayerTableRecord
  2
LAYER-045
 70
     0
 62
     7
  6
Continuous
370
    -3
390
F
  0
LAYER
  5
7D
330
2
100
AcDbSymbolTableRecord
100
AcDbLayerTableRecord
  2
LAYER-046
 70
     0
 62
     7
  6
Continuous
370
    -3
390
F
  0
LAYER
  5
7E
330
2
100
AcDbSymbolTableRecord
100
AcDbLayerTableRecord
  2
LAYER-047
 70
     0
 62
     7
  6
Continuous
370
    -3
390
F
  0
LAYER
  5
7F
330
2
100
AcDbSymbolTableRecord
100
AcDbLayerTableRecord
  2
LAYER-048
 70
     0
 62
     2
  6
Continuous
370
    -3
390
F
  0
LAYER
  5
80
330
2
100
AcDbSymbolTableRecord
100
AcDbLayerTableRecord
  2
LAYER-049
 70
     0
 62
     3
  6
Continuous
370
    -3
390
F
  0
LAYER
  5
81
330
2
100
AcDbSymbolTableRecord
100
AcDbLayerTableRecord
  2
LAYER-050
 70
     0
 62
     7
  6
Continuous
370
    -3
390
F
  0
LAYER
  5
82
330
2
100
AcDbSymbolTableRecord
100
AcDbLayerTableRecord
  2
LAYER-051
 70
     0
 62
     2
  6
Continuous
370
    -3
390
F
  0
LAYER
  5
83
330
2
100
AcDbSymbolTableRecord
100
AcDbLayerTableRecord
  2
LAYER-052
 70
     0
 62
     7
  6
Continuous
370
    -3
390
F
  0
LAYER
  5
84
330
2
100
AcDbSymbolTableRecord
100
AcDbLayerTableRecord
  2
LAYER-053
 70
     0
 62
     7
  6
Continuous
370
    -3
390
F
  0
LAYER
  5
85
330
2
100
AcDbSymbolTableRecord
100
AcDbLayerTableRecord
  2
LAYER-054
 70
     0
 62
     7
  6
Continuous
370
    -3
390
F
  0
LAYER
  5
86
330
2
100
AcDbSymbolTableRecord
100
AcDbLayerTableRecord
  2
LAYER-055
 70
     0
 62
     7
  6
Continuous
370
    -3
390
F
  0
LAYER
  5
87
330
2
100
AcDbSymbolTableRecord
100
AcDbLayerTableRecord
  2
LAYER-056
 70
     0
 62
     7
  6
Continuous
370
    -3
390
F
  0
LAYER
  5
88
330
2
100
AcDbSymbolTableRecord
100
AcDbLayerTableRecord
  2
LAYER-057
 70
     0
 62
     7
  6
Continuous
370
    -3
390
F
  0
LAYER
  5
89
330
2
100
AcDbSymbolTableRecord
100
AcDbLayerTableRecord
  2
LAYER-058
 70
     0
 62
     7
  6
Continuous
370
    -3
390
F
  0
LAYER
  5
8A
330
2
100
AcDbSymbolTableRecord
100
AcDbLayerTableRecord
  2
LAYER-059
 70
     0
 62
     7
  6
Continuous
370
    -3
390
F
  0
LAYER
  5
8B
330
2
100
AcDbSymbolTableRecord
100
AcDbLayerTableRecord
  2
LAYER-060
 70
     0
 62
     7
  6
Continuous
370
    -3
390
F
  0
LAYER
  5
8C
330
2
100
AcDbSymbolTableRecord
100
AcDbLayerTableRecord
  2
LAYER-061
 70
     0
 62
     7
  6
Continuous
370
    -3
390
F
  0
LAYER
  5
8D
330
2
100
AcDbSymbolTableRecord
100
AcDbLayerTableRecord
  2
LAYER-062
 70
     0
 62
     7
  6
Continuous
370
    -3
390
F
  0
LAYER
  5
8E
330
2
100
AcDbSymbolTableRecord
100
AcDbLayerTableRecord
  2
LAYER-063
 70
     0
 62
     7
  6
Continuous
370
    -3
390
F
  0
LAYER
  5
8F
330
2
100
AcDbSymbolTableRecord
100
AcDbLayerTableRecord
  2
LAYER-064
 70
     0
 62
     2
  6
Continuous
370
    -3
390
F
  0
LAYER
  5
90
330
2
100
AcDbSymbolTableRecord
100
AcDbLayerTableRecord
  2
LAYER-065
 70
     0
 62
     7
  6
Continuous
370
    -3
390
F
  0
LAYER
  5
91
330
2
100
AcDbSymbolTableRecord
100
AcDbLayerTableRecord
  2
LAYER-066
 70
     0
 62
     2
  6
Continuous
370
    -3
390
F
  0
LAYER
  5
92
330
2
100
AcDbSymbolTableRecord
100
AcDbLayerTableRecord
  2
LAYER-067
 70
     0
 62
     2
  6
Continuous
370
    -3
390
F
  0
LAYER
  5
93
330
2
100
AcDbSymbolTableRecord
100
AcDbLayerTableRecord
  2
LAYER-068
 70
     0
 62
     7
  6
Continuous
370
    -3
390
F
  0
LAYER
  5
94
330
2
100
AcDbSymbolTableRecord
100
AcDbLayerTableRecord
  2
LAYER-069
 70
     0
 62
     7
  6
Continuous
370
    -3
390
F
  0
LAYER
  5
95
330
2
100
AcDbSymbolTableRecord
100
AcDbLayerTableRecord
  2
LAYER-070
 70
     0
 62
     7
  6
Continuous
370
    -3
390
F
  0
LAYER
  5
96
330
2
100
AcDbSymbolTableRecord
100
AcDbLayerTableRecord
  2
LAYER-071
 70
     0
 62
     7
  6
Continuous
370
    -3
390
F
  0
LAYER
  5
97
330
2
100
AcDbSymbolTableRecord
100
AcDbLayerTableRecord
  2
LAYER-072
 70
     0
 62
     7
  6
Continuous
370
    -3
390
F
  0
LAYER
  5
98
330
2
100
AcDbSymbolTableRecord
100
AcDbLayerTableRecord
  2
LAYER-073
 70
     0
 62
     7
  6
Continuous
370
    -3
390
F
  0
LAYER
  5
99
330
2
100
AcDbSymbolTableRecord
100
AcDbLayerTableRecord
  2
LAYER-074
 70
     0
 62
     7
  6
Continuous
370
    -3
390
F
  0
LAYER
  5
9A
330
2
100
AcDbSymbolTableRecord
100
AcDbLayerTableRecord
  2
LAYER-075
 70
     0
 62
     7
  6
Continuous
370
    -3
390
F
  0
LAYER
  5
9B
330
2
100
AcDbSymbolTableRecord
100
AcDbLayerTableRecord
  2
LAYER-076
 70
     0
 62
     7
  6
Continuous
370
    -3
390
F
  0
LAYER
  5
9C
330
2
100
AcDbSymbolTableRecord
100
AcDbLayerTableRecord
  2
LAYER-077
 70
     0
 62
     7
  6
Continuous
370
    -3
390
F
  0
LAYER
  5
9D
330
2
100
AcDbSymbolTableRecord
100
AcDbLayerTableRecord
  2
LAYER-078
 70
     0
 62
     7
  6
Continuous
370
    -3
390
F
  0
LAYER
  5
9E
330
2
100
AcDbSymbolTableRecord
100
AcDbLayerTableRecord
  2
LAYER-079
 70
     0
 62
     7
  6
Continuous
370
    -3
390
F
  0
LAYER
  5
9F
330
2
100
AcDbSymbolTableRecord
100
AcDbLayerTableRecord
  2
LAYER-080
 70
     0
 62
     2
  6
Continuous
370
    -3
390
F
  0
LAYER
  5
A0
330
2
100
AcDbSymbolTableRecord
100
AcDbLayerTableRecord
  2
LAYER-081
 70
     0
 62
     7
  6
Continuous
370
    -3
390
F
  0
LAYER
  5
A1
330
2
100
AcDbSymbolTableRecord
100
AcDbLayerTableRecord
  2
LAYER-082
 70
     0
 62
     7
  6
Continuous
370
    -3
390
F
  0
LAYER
  5
A2
330
2
100
AcDbSymbolTableRecord
100
AcDbLayerTableRecord
  2
LAYER-083
 70
     0
 62
     7
  6
Continuous
370
    -3
390
F
  0
LAYER
  5
A3
330
2
100
AcDbSymbolTableRecord
100
AcDbLayerTableRecord
  2
LAYER-084
 70
     0
 62
     7
  6
Continuous
370
    -3
390
F
  0
LAYER
  5
A4
330
2
100
AcDbSymbolTableRecord
100
AcDbLayerTableRecord
  2
LAYER-085
 70
     0
 62
     7
  6
Continuous
370
    -3
390
F
  0
LAYER
  5
A5
330
2
100
AcDbSymbolTableRecord
100
AcDbLayerTableRecord
  2
LAYER-086
 70
     0
 62
     7
  6
Continuous
370
    -3
390
F
  0
LAYER
  5
A6
330
2
100
AcDbSymbolTableRecord
100
AcDbLayerTableRecord
  2
LAYER-087
 70
     0
 62
     7
  6
Continuous
370
    -3
390
F
  0
LAYER
  5
A7
330
2
100
AcDbSymbolTableRecord
100
AcDbLayerTableRecord
  2
LAYER-088
 70
     0
 62
     7
  6
Continuous
370
    -3
390
F
  0
LAYER
  5
A8
330
2
100
AcDbSymbolTableRecord
100
AcDbLayerTableRecord
  2
LAYER-089
 70
     0
 62
     7
  6
Continuous
370
    -3
390
F
  0
LAYER
  5
A9
330
2
100
AcDbSymbolTableRecord
100
AcDbLayerTableRecord
  2
LAYER-090
 70
     0
 62
     7
  6
Continuous
370
    -3
390
F
  0
LAYER
  5
AA
330
2
100
AcDbSymbolTableRecord
100
AcDbLayerTableRecord
  2
LAYER-091
 70
     0
 62
     7
  6
Continuous
370
    -3
390
F
  0
LAYER
  5
AB
330
2
100
AcDbSymbolTableRecord
100
AcDbLayerTableRecord
  2
LAYER-092
 70
     0
 62
     7
  6
Continuous
370
    -3
390
F
  0
LAYER
  5
AC
330
2
100
AcDbSymbolTableRecord
100
AcDbLayerTableRecord
  2
LAYER-093
 70
     0
 62
     7
  6
Continuous
370
    -3
390
F
  0
LAYER
  5
AD
330
2
100
AcDbSymbolTableRecord
100
AcDbLayerTableRecord
  2
LAYER-094
 70
     0
 62
     7
  6
Continuous
370
    -3
390
F
  0
LAYER
  5
AE
330
2
100
AcDbSymbolTableRecord
100
AcDbLayerTableRecord
  2
LAYER-095
 70
     0
 62
     7
  6
Continuous
370
    -3
390
F
  0
LAYER
  5
AF
330
2
100
AcDbSymbolTableRecord
100
AcDbLayerTableRecord
  2
LAYER-096
 70
     0
 62
     7
  6
Continuous
370
    -3
390
F
  0
LAYER
  5
B0
330
2
100
AcDbSymbolTableRecord
100
AcDbLayerTableRecord
  2
LAYER-097
 70
     0
 62
     7
  6
Continuous
370
    -3
390
F
  0
LAYER
  5
B1
330
2
100
AcDbSymbolTableRecord
100
AcDbLayerTableRecord
  2
LAYER-098
 70
     0
 62
     7
  6
Continuous
370
    -3
390
F
  0
LAYER
  5
B2
330
2
100
AcDbSymbolTableRecord
100
AcDbLayerTableRecord
  2
LAYER-099
 70
     0
 62
     7
  6
Continuous
370
    -3
390
F
  0
LAYER
  5
B3
330
2
100
AcDbSymbolTableRecord
100
AcDbLayerTableRecord
  2
LAYER-100
 70
     0
 62
     7
  6
Continuous
370
    -3
390
F
  0
LAYER
  5
B4
330
2
100
AcDbSymbolTableRecord
100
AcDbLayerTableRecord
  2
LAYER-101
 70
     0
 62
     7
  6
Continuous
370
    -3
390
F
  0
LAYER
  5
B5
330
2
100
AcDbSymbolTableRecord
100
AcDbLayerTableRecord
  2
LAYER-102
 70
     0
 62
     7
  6
Continuous
370
    -3
390
F
  0
LAYER
  5
B6
330
2
100
AcDbSymbolTableRecord
100
AcDbLayerTableRecord
  2
LAYER-103
 70
     0
 62
     7
  6
Continuous
370
    -3
390
F
  0
LAYER
  5
B7
330
2
100
AcDbSymbolTableRecord
100
AcDbLayerTableRecord
  2
LAYER-104
 70
     0
 62
     7
  6
Continuous
370
    -3
390
F
  0
LAYER
  5
B8
330
2
100
AcDbSymbolTableRecord
100
AcDbLayerTableRecord
  2
LAYER-105
 70
     0
 62
     7
  6
Continuous
370
    -3
390
F
  0
LAYER
  5
B9
330
2
100
AcDbSymbolTableRecord
100
AcDbLayerTableRecord
  2
LAYER-106
 70
     0
 62
     7
  6
Continuous
370
    -3
390
F
  0
LAYER
  5
BA
330
2
100
AcDbSymbolTableRecord
100
AcDbLayerTableRecord
  2
LAYER-107
 70
     0
 62
     7
  6
Continuous
370
    -3
390
F
  0
LAYER
  5
BB
330
2
100
AcDbSymbolTableRecord
100
AcDbLayerTableRecord
  2
LAYER-108
 70
     0
 62
     7
  6
Continuous
370
    -3
390
F
  0
LAYER
  5
BC
330
2
100
AcDbSymbolTableRecord
100
AcDbLayerTableRecord
  2
LAYER-109
 70
     0
 62
     7
  6
Continuous
370
    -3
390
F
  0
LAYER
  5
BD
330
2
100
AcDbSymbolTableRecord
100
AcDbLayerTableRecord
  2
LAYER-110
 70
     0
 62
     7
  6
Continuous
370
    -3
390
F
  0
LAYER
  5
BE
330
2
100
AcDbSymbolTableRecord
100
AcDbLayerTableRecord
  2
LAYER-111
 70
     0
 62
     7
  6
Continuous
370
    -3
390
F
  0
LAYER
  5
BF
330
2
100
AcDbSymbolTableRecord
100
AcDbLayerTableRecord
  2
LAYER-112
 70
     0
 62
     7
  6
Continuous
370
    -3
390
F
  0
LAYER
  5
C0
330
2
100
AcDbSymbolTableRecord
100
AcDbLayerTableRecord
  2
LAYER-113
 70
     0
 62
     7
  6
Continuous
370
    -3
390
F
  0
LAYER
  5
C1
330
2
100
AcDbSymbolTableRecord
100
AcDbLayerTableRecord
  2
LAYER-114
 70
     0
 62
     7
  6
Continuous
370
    -3
390
F
  0
LAYER
  5
C2
330
2
100
AcDbSymbolTableRecord
100
AcDbLayerTableRecord
  2
LAYER-115
 70
     0
 62
     7
  6
Continuous
370
    -3
390
F
  0
LAYER
  5
C3
330
2
100
AcDbSymbolTableRecord
100
AcDbLayerTableRecord
  2
LAYER-116
 70
     0
 62
     7
  6
Continuous
370
    -3
390
F
  0
LAYER
  5
C4
330
2
100
AcDbSymbolTableRecord
100
AcDbLayerTableRecord
  2
LAYER-117
 70
     0
 62
     7
  6
Continuous
370
    -3
390
F
  0
LAYER
  5
C5
330
2
100
AcDbSymbolTableRecord
100
AcDbLayerTableRecord
  2
LAYER-118
 70
     0
 62
     7
  6
Continuous
370
    -3
390
F
  0
LAYER
  5
C6
330
2
100
AcDbSymbolTableRecord
100
AcDbLayerTableRecord
  2
LAYER-119
 70
     0
 62
     7
  6
Continuous
370
    -3
390
F
  0
LAYER
  5
C7
330
2
100
AcDbSymbolTableRecord
100
AcDbLayerTableRecord
  2
LAYER-120
 70
     0
 62
     7
  6
Continuous
370
    -3
390
F
  0
LAYER
  5
C8
330
2
100
AcDbSymbolTableRecord
100
AcDbLayerTableRecord
  2
LAYER-121
 70
     0
 62
     7
  6
Continuous
370
    -3
390
F
  0
LAYER
  5
C9
330
2
100
AcDbSymbolTableRecord
100
AcDbLayerTableRecord
  2
LAYER-122
 70
     0
 62
     7
  6
Continuous
370
    -3
390
F
  0
LAYER
  5
CA
330
2
100
AcDbSymbolTableRecord
100
AcDbLayerTableRecord
  2
LAYER-123
 70
     0
 62
     7
  6
Continuous
370
    -3
390
F
  0
LAYER
  5
CB
330
2
100
AcDbSymbolTableRecord
100
AcDbLayerTableRecord
  2
LAYER-124
 70
     0
 62
     7
  6
Continuous
370
    -3
390
F
  0
LAYER
  5
CC
330
2
100
AcDbSymbolTableRecord
100
AcDbLayerTableRecord
  2
LAYER-125
 70
     0
 62
     7
  6
Continuous
370
    -3
390
F
  0
LAYER
  5
CD
330
2
100
AcDbSymbolTableRecord
100
AcDbLayerTableRecord
  2
LAYER-126
 70
     0
 62
     7
  6
Continuous
370
    -3
390
F
  0
LAYER
  5
CE
330
2
100
AcDbSymbolTableRecord
100
AcDbLayerTableRecord
  2
LAYER-127
 70
     0
 62
     7
  6
Continuous
370
    -3
390
F
  0
LAYER
  5
CF
330
2
100
AcDbSymbolTableRecord
100
AcDbLayerTableRecord
  2
LAYER-128
 70
     0
 62
     7
  6
Continuous
370
    -3
390
F
  0
LAYER
  5
D0
330
2
100
AcDbSymbolTableRecord
100
AcDbLayerTableRecord
  2
LAYER-129
 70
     0
 62
     7
  6
Continuous
370
    -3
390
F
  0
LAYER
  5
D1
330
2
100
AcDbSymbolTableRecord
100
AcDbLayerTableRecord
  2
LAYER-130
 70
     0
 62
     7
  6
Continuous
370
    -3
390
F
  0
LAYER
  5
D2
330
2
100
AcDbSymbolTableRecord
100
AcDbLayerTableRecord
  2
LAYER-131
 70
     0
 62
     7
  6
Continuous
370
    -3
390
F
  0
LAYER
  5
D3
330
2
100
AcDbSymbolTableRecord
100
AcDbLayerTableRecord
  2
LAYER-132
 70
     0
 62
     7
  6
Continuous
370
    -3
390
F
  0
LAYER
  5
D4
330
2
100
AcDbSymbolTableRecord
100
AcDbLayerTableRecord
  2
LAYER-133
 70
     0
 62
     7
  6
Continuous
370
    -3
390
F
  0
LAYER
  5
D5
330
2
100
AcDbSymbolTableRecord
100
AcDbLayerTableRecord
  2
LAYER-134
 70
     0
 62
     7
  6
Continuous
370
    -3
390
F
  0
LAYER
  5
D6
330
2
100
AcDbSymbolTableRecord
100
AcDbLayerTableRecord
  2
LAYER-135
 70
     0
 62
    -4
  6
Continuous
370
    -3
390
F
  0
LAYER
  5
D7
330
2
100
AcDbSymbolTableRecord
100
AcDbLayerTableRecord
  2
LAYER-136
 70
     0
 62
    -3
  6
Continuous
370
    -3
390
F
  0
LAYER
  5
D8
330
2
100
AcDbSymbolTableRecord
100
AcDbLayerTableRecord
  2
LAYER-137
 70
     0
 62
    -1
  6
Continuous
370
    -3
390
F
  0
LAYER
  5
D9
330
2
100
AcDbSymbolTableRecord
100
AcDbLayerTableRecord
  2
LAYER-138
 70
     0
 62
     7
  6
Continuous
370
    -3
390
F
  0
LAYER
  5
DA
330
2
100
AcDbSymbolTableRecord
100
AcDbLayerTableRecord
  2
LAYER-139
 70
     0
 62
     7
  6
Continuous
370
    -3
390
F
  0
LAYER
  5
DB
330
2
100
AcDbSymbolTableRecord
100
AcDbLayerTableRecord
  2
LAYER-140
 70
     0
 62
     7
  6
Continuous
370
    -3
390
F
  0
LAYER
  5
DC
330
2
100
AcDbSymbolTableRecord
100
AcDbLayerTableRecord
  2
LAYER-141
 70
     0
 62
     7
  6
Continuous
370
    -3
390
F
  0
LAYER
  5
DD
330
2
100
AcDbSymbolTableRecord
100
AcDbLayerTableRecord
  2
LAYER-142
 70
     0
 62
     3
  6
Continuous
370
    -3
390
F
  0
LAYER
  5
DE
330
2
100
AcDbSymbolTableRecord
100
AcDbLayerTableRecord
  2
LAYER-143
 70
     0
 62
     7
  6
Continuous
370
    -3
390
F
  0
LAYER
  5
DF
330
2
100
AcDbSymbolTableRecord
100
AcDbLayerTableRecord
  2
LAYER-144
 70
     0
 62
     7
  6
Continuous
370
    -3
390
F
  0
LAYER
  5
E0
330
2
100
AcDbSymbolTableRecord
100
AcDbLayerTableRecord
  2
LAYER-145
 70
     0
 62
     3
  6
Continuous
370
    -3
390
F
  0
LAYER
  5
E1
330
2
100
AcDbSymbolTableRecord
100
AcDbLayerTableRecord
  2
LAYER-146
 70
     0
 62
     7
  6
Continuous
370
    -3
390
F
  0
LAYER
  5
E2
330
2
100
AcDbSymbolTableRecord
100
AcDbLayerTableRecord
  2
LAYER-147
 70
     0
 62
     7
  6
Continuous
370
    -3
390
F
  0
LAYER
  5
E3
330
2
100
AcDbSymbolTableRecord
100
AcDbLayerTableRecord
  2
LAYER-148
 70
     0
 62
     7
  6
Continuous
370
    -3
390
F
  0
LAYER
  5
E4
330
2
100
AcDbSymbolTableRecord
100
AcDbLayerTableRecord
  2
LAYER-149
 70
     0
 62
     7
  6
Continuous
370
    -3
390
F
  0
LAYER
  5
E5
330
2
100
AcDbSymbolTableRecord
100
AcDbLayerTableRecord
  2
LAYER-150
 70
     0
 62
     7
  6
Continuous
370
    -3
390
F
  0
LAYER
  5
E6
330
2
100
AcDbSymbolTableRecord
100
AcDbLayerTableRecord
  2
LAYER-151
 70
     0
 62
     7
  6
Continuous
370
    -3
390
F
  0
LAYER
  5
E7
330
2
100
AcDbSymbolTableRecord
100
AcDbLayerTableRecord
  2
LAYER-152
 70
     0
 62
     7
  6
Continuous
370
    -3
390
F
  0
LAYER
  5
E8
330
2
100
AcDbSymbolTableRecord
100
AcDbLayerTableRecord
  2
LAYER-153
 70
     0
 62
     7
  6
Continuous
370
    -3
390
F
  0
LAYER
  5
E9
330
2
100
AcDbSymbolTableRecord
100
AcDbLayerTableRecord
  2
LAYER-154
 70
     0
 62
     7
  6
Continuous
370
    -3
390
F
  0
LAYER
  5
EA
330
2
100
AcDbSymbolTableRecord
100
AcDbLayerTableRecord
  2
LAYER-155
 70
     0
 62
     7
  6
Continuous
370
    -3
390
F
  0
LAYER
  5
EB
330
2
100
AcDbSymbolTableRecord
100
AcDbLayerTableRecord
  2
LAYER-156
 70
     0
 62
     7
  6
Continuous
370
    -3
390
F
  0
LAYER
  5
EC
330
2
100
AcDbSymbolTableRecord
100
AcDbLayerTableRecord
  2
LAYER-157
 70
     0
 62
     7
  6
Continuous
370
    -3
390
F
  0
LAYER
  5
ED
330
2
100
AcDbSymbolTableRecord
100
AcDbLayerTableRecord
  2
LAYER-158
 70
     0
 62
     7
  6
Continuous
370
    -3
390
F
  0
LAYER
  5
EE
330
2
100
AcDbSymbolTableRecord
100
AcDbLayerTableRecord
  2
LAYER-159
 70
     0
 62
     7
  6
Continuous
370
    -3
390
F
  0
LAYER
  5
EF
330
2
100
AcDbSymbolTableRecord
100
AcDbLayerTableRecord
  2
LAYER-160
 70
     0
 62
     7
  6
Continuous
370
    -3
390
F
  0
LAYER
  5
F0
330
2
100
AcDbSymbolTableRecord
100
AcDbLayerTableRecord
  2
LAYER-161
 70
     0
 62
     7
  6
Continuous
370
    -3
390
F
  0
LAYER
  5
F1
330
2
100
AcDbSymbolTableRecord
100
AcDbLayerTableRecord
  2
LAYER-162
 70
     0
 62
     7
  6
Continuous
370
    -3
390
F
  0
LAYER
  5
F2
330
2
100
AcDbSymbolTableRecord
100
AcDbLayerTableRecord
  2
LAYER-163
 70
     0
 62
     7
  6
Continuous
370
    -3
390
F
  0
LAYER
  5
F3
330
2
100
AcDbSymbolTableRecord
100
AcDbLayerTableRecord
  2
LAYER-164
 70
     0
 62
     7
  6
Continuous
370
    -3
390
F
  0
LAYER
  5
F4
330
2
100
AcDbSymbolTableRecord
100
AcDbLayerTableRecord
  2
LAYER-165
 70
     0
 62
     7
  6
Continuous
370
    -3
390
F
  0
LAYER
  5
F5
330
2
100
AcDbSymbolTableRecord
100
AcDbLayerTableRecord
  2
LAYER-166
 70
     0
 62
     7
  6
Continuous
370
    -3
390
F
  0
LAYER
  5
F6
330
2
100
AcDbSymbolTableRecord
100
AcDbLayerTableRecord
  2
LAYER-167
 70
     0
 62
     7
  6
Continuous
370
    -3
390
F
  0
LAYER
  5
F7
330
2
100
AcDbSymbolTableRecord
100
AcDbLayerTableRecord
  2
LAYER-168
 70
     0
 62
     7
  6
Continuous
370
    -3
390
F
  0
LAYER
  5
F8
330
2
100
AcDbSymbolTableRecord
100
AcDbLayerTableRecord
  2
LAYER-169
 70
     0
 62
     7
  6
Continuous
370
    -3
390
F
  0
LAYER
  5
F9
330
2
100
AcDbSymbolTableRecord
100
AcDbLayerTableRecord
  2
LAYER-170
 70
     0
 62
     7
  6
Continuous
370
    -3
390
F
  0
LAYER
  5
FA
330
2
100
AcDbSymbolTableRecord
100
AcDbLayerTableRecord
  2
LAYER-171
 70
     0
 62
     7
  6
Continuous
370
    -3
390
F
  0
LAYER
  5
FB
330
2
100
AcDbSymbolTableRecord
100
AcDbLayerTableRecord
  2
LAYER-172
 70
     0
 62
     7
  6
Continuous
370
    -3
390
F
  0
LAYER
  5
FC
330
2
100
AcDbSymbolTableRecord
100
AcDbLayerTableRecord
  2
LAYER-173
 70
     0
 62
     7
  6
Continuous
370
    -3
390
F
  0
LAYER
  5
FD
330
2
100
AcDbSymbolTableRecord
100
AcDbLayerTableRecord
  2
LAYER-174
 70
     0
 62
     7
  6
Continuous
370
    -3
390
F
  0
LAYER
  5
FE
330
2
100
AcDbSymbolTableRecord
100
AcDbLayerTableRecord
  2
LAYER-175
 70
     0
 62
     7
  6
Continuous
370
    -3
390
F
  0
LAYER
  5
FF
330
2
100
AcDbSymbolTableRecord
100
AcDbLayerTableRecord
  2
LAYER-176
 70
     0
 62
     7
  6
Continuous
370
    -3
390
F
  0
LAYER
  5
100
330
2
100
AcDbSymbolTableRecord
100
AcDbLayerTableRecord
  2
LAYER-177
 70
     0
 62
     7
  6
Continuous
370
    -3
390
F
  0
LAYER
  5
101
330
2
100
AcDbSymbolTableRecord
100
AcDbLayerTableRecord
  2
LAYER-178
 70
     0
 62
     7
  6
Continuous
370
    -3
390
F
  0
LAYER
  5
102
330
2
100
AcDbSymbolTableRecord
100
AcDbLayerTableRecord
  2
LAYER-179
 70
     0
 62
     7
  6
Continuous
370
    -3
390
F
  0
LAYER
  5
103
330
2
100
AcDbSymbolTableRecord
100
AcDbLayerTableRecord
  2
LAYER-180
 70
     0
 62
     7
  6
Continuous
370
    -3
390
F
  0
LAYER
  5
104
330
2
100
AcDbSymbolTableRecord
100
AcDbLayerTableRecord
  2
LAYER-181
 70
     0
 62
     7
  6
Continuous
370
    -3
390
F
  0
LAYER
  5
105
330
2
100
AcDbSymbolTableRecord
100
AcDbLayerTableRecord
  2
LAYER-182
 70
     0
 62
     7
  6
Continuous
370
    -3
390
F
  0
LAYER
  5
106
330
2
100
AcDbSymbolTableRecord
100
AcDbLayerTableRecord
  2
LAYER-183
 70
     0
 62
     7
  6
Continuous
370
    -3
390
F
  0
LAYER
  5
107
330
2
100
AcDbSymbolTableRecord
100
AcDbLayerTableRecord
  2
LAYER-184
 70
     0
 62
     7
  6
Continuous
370
    -3
390
F
  0
LAYER
  5
108
330
2
100
AcDbSymbolTableRecord
100
AcDbLayerTableRecord
  2
LAYER-185
 70
     0
 62
     7
  6
Continuous
370
    -3
390
F
  0
LAYER
  5
109
330
2
100
AcDbSymbolTableRecord
100
AcDbLayerTableRecord
  2
LAYER-186
 70
     0
 62
     7
  6
Continuous
370
    -3
390
F
  0
LAYER
  5
10A
330
2
100
AcDbSymbolTableRecord
100
AcDbLayerTableRecord
  2
LAYER-187
 70
     0
 62
     7
  6
Continuous
370
    -3
390
F
  0
LAYER
  5
10B
330
2
100
AcDbSymbolTableRecord
100
AcDbLayerTableRecord
  2
LAYER-188
 70
     0
 62
     7
  6
Continuous
370
    -3
390
F
  0
LAYER
  5
10C
330
2
100
AcDbSymbolTableRecord
100
AcDbLayerTableRecord
  2
LAYER-189
 70
     0
 62
     7
  6
Continuous
370
    -3
390
F
  0
LAYER
  5
10D
330
2
100
AcDbSymbolTableRecord
100
AcDbLayerTableRecord
  2
LAYER-190
 70
     0
 62
     7
  6
Continuous
370
    -3
390
F
  0
LAYER
  5
10E
330
2
100
AcDbSymbolTableRecord
100
AcDbLayerTableRecord
  2
LAYER-191
 70
     0
 62
     7
  6
Continuous
370
    -3
390
F
  0
LAYER
  5
10F
330
2
100
AcDbSymbolTableRecord
100
AcDbLayerTableRecord
  2
LAYER-192
 70
     0
 62
     7
  6
Continuous
370
    -3
390
F
  0
LAYER
  5
110
330
2
100
AcDbSymbolTableRecord
100
AcDbLayerTableRecord
  2
LAYER-193
 70
     0
 62
     7
  6
Continuous
370
    -3
390
F
  0
LAYER
  5
111
330
2
100
AcDbSymbolTableRecord
100
AcDbLayerTableRecord
  2
LAYER-194
 70
     0
 62
     2
  6
Continuous
370
    -3
390
F
  0
LAYER
  5
112
330
2
100
AcDbSymbolTableRecord
100
AcDbLayerTableRecord
  2
LAYER-195
 70
     0
 62
     2
  6
Continuous
370
    -3
390
F
  0
LAYER
  5
113
330
2
100
AcDbSymbolTableRecord
100
AcDbLayerTableRecord
  2
LAYER-196
 70
     0
 62
     2
  6
Continuous
370
    -3
390
F
  0
LAYER
  5
114
330
2
100
AcDbSymbolTableRecord
100
AcDbLayerTableRecord
  2
LAYER-197
 70
     0
 62
     7
  6
Continuous
370
    -3
390
F
  0
LAYER
  5
115
330
2
100
AcDbSymbolTableRecord
100
AcDbLayerTableRecord
  2
LAYER-198
 70
     0
 62
     7
  6
Continuous
370
    -3
390
F
  0
LAYER
  5
116
330
2
100
AcDbSymbolTableRecord
100
AcDbLayerTableRecord
  2
LAYER-199
 70
     0
 62
     4
  6
Continuous
370
    -3
390
F
  0
LAYER
  5
117
330
2
100
AcDbSymbolTableRecord
100
AcDbLayerTableRecord
  2
LAYER-200
 70
     0
 62
     1
  6
Continuous
370
    -3
390
F
  0
LAYER
  5
118
330
2
100
AcDbSymbolTableRecord
100
AcDbLayerTableRecord
  2
LAYER-201
 70
     0
 62
     1
  6
Continuous
370
    -3
390
F
  0
LAYER
  5
119
330
2
100
AcDbSymbolTableRecord
100
AcDbLayerTableRecord
  2
LAYER-202
 70
     0
 62
     2
  6
Continuous
370
    -3
390
F
  0
LAYER
  5
11A
330
2
100
AcDbSymbolTableRecord
100
AcDbLayerTableRecord
  2
LAYER-203
 70
     0
 62
     2
  6
Continuous
370
    -3
390
F
  0
LAYER
  5
11B
330
2
100
AcDbSymbolTableRecord
100
AcDbLayerTableRecord
  2
LAYER-204
 70
     0
 62
     7
  6
Continuous
370
    -3
390
F
  0
LAYER
  5
11C
330
2
100
AcDbSymbolTableRecord
100
AcDbLayerTableRecord
  2
LAYER-205
 70
     0
 62
     7
  6
Continuous
370
    -3
390
F
  0
LAYER
  5
11D
330
2
100
AcDbSymbolTableRecord
100
AcDbLayerTableRecord
  2
LAYER-206
 70
     0
 62
     7
  6
Continuous
370
    -3
390
F
  0
LAYER
  5
11E
330
2
100
AcDbSymbolTableRecord
100
AcDbLayerTableRecord
  2
LAYER-207
 70
     0
 62
    -7
  6
Continuous
370
    -3
390
F
  0
LAYER
  5
11F
330
2
100
AcDbSymbolTableRecord
100
AcDbLayerTableRecord
  2
LAYER-208
 70
     0
 62
     2
  6
Continuous
370
    -3
390
F
  0
LAYER
  5
120
330
2
100
AcDbSymbolTableRecord
100
AcDbLayerTableRecord
  2
LAYER-209
 70
     0
 62
     7
  6
Continuous
370
    -3
390
F
  0
LAYER
  5
121
330
2
100
AcDbSymbolTableRecord
100
AcDbLayerTableRecord
  2
LAYER-210
 70
     0
 62
     2
  6
Continuous
290
     0
370
    -3
390
F
  0
LAYER
  5
122
330
2
100
AcDbSymbolTableRecord
100
AcDbLayerTableRecord
  2
LAYER-211
 70
     0
 62
     7
  6
Continuous
370
    -3
390
F
  0
LAYER
  5
123
330
2
100
AcDbSymbolTableRecord
100
AcDbLayerTableRecord
  2
LAYER-212
 70
     0
 62
     7
  6
Continuous
370
    -3
390
F
  0
LAYER
  5
124
330
2
100
AcDbSymbolTableRecord
100
AcDbLayerTableRecord
  2
LAYER-213
 70
     0
 62
     2
  6
Continuous
370
    -3
390
F
  0
LAYER
  5
125
330
2
100
AcDbSymbolTableRecord
100
AcDbLayerTableRecord
  2
LAYER-214
 70
     0
 62
     7
  6
Continuous
370
    -3
390
F
  0
LAYER
  5
126
330
2
100
AcDbSymbolTableRecord
100
AcDbLayerTableRecord
  2
LAYER-215
 70
     0
 62
     7
  6
Continuous
370
    -3
390
F
  0
LAYER
  5
127
330
2
100
AcDbSymbolTableRecord
100
AcDbLayerTableRecord
  2
LAYER-216
 70
     0
 62
     4
  6
Continuous
370
    -3
390
F
  0
LAYER
  5
128
330
2
100
AcDbSymbolTableRecord
100
AcDbLayerTableRecord
  2
LAYER-217
 70
     0
 62
     7
  6
Continuous
370
    -3
390
F
  0
LAYER
  5
129
330
2
100
AcDbSymbolTableRecord
100
AcDbLayerTableRecord
  2
LAYER-218
 70
     0
 62
     7
  6
Continuous
370
    -3
390
F
  0
LAYER
  5
12A
330
2
100
AcDbSymbolTableRecord
100
AcDbLayerTableRecord
  2
LAYER-219
 70
     0
 62
     7
  6
Continuous
370
    -3
390
F
  0
LAYER
  5
12B
330
2
100
AcDbSymbolTableRecord
100
AcDbLayerTableRecord
  2
LAYER-220
 70
     0
 62
     4
  6
Continuous
370
    -3
390
F
  0
LAYER
  5
12C
330
2
100
AcDbSymbolTableRecord
100
AcDbLayerTableRecord
  2
LAYER-221
 70
     0
 62
    -7
  6
Continuous
290
     0
370
    -3
390
F
  0
LAYER
  5
12D
330
2
100
AcDbSymbolTableRecord
100
AcDbLayerTableRecord
  2
LAYER-222
 70
     0
 62
    -4
  6
Continuous
290
     0
370
    -3
390
F
  0
LAYER
  5
12E
330
2
100
AcDbSymbolTableRecord
100
AcDbLayerTableRecord
  2
LAYER-223
 70
     0
 62
    -1
  6
Continuous
290
     0
370
    -3
390
F
  0
LAYER
  5
12F
330
2
100
AcDbSymbolTableRecord
100
AcDbLayerTableRecord
  2
LAYER-224
 70
     0
 62
    -1
  6
Continuous
290
     0
370
    -3
390
F
  0
LAYER
  5
130
330
2
100
AcDbSymbolTableRecord
100
AcDbLayerTableRecord
  2
LAYER-225
 70
     0
 62
     7
  6
Continuous
370
    -3
390
F
  0
LAYER
  5
131
330
2
100
AcDbSymbolTableRecord
100
AcDbLayerTableRecord
  2
LAYER-226
 70
     0
 62
     2
  6
Continuous
370
    -3
390
F
  0
LAYER
  5
132
330
2
100
AcDbSymbolTableRecord
100
AcDbLayerTableRecord
  2
LAYER-227
 70
     0
 62
     7
  6
Continuous
370
    -3
390
F
  0
LAYER
  5
133
330
2
100
AcDbSymbolTableRecord
100
AcDbLayerTableRecord
  2
LAYER-228
 70
     0
 62
     7
  6
Continuous
370
    -3
390
F
  0
LAYER
  5
134
330
2
100
AcDbSymbolTableRecord
100
AcDbLayerTableRecord
  2
LAYER-229
 70
     0
 62
     7
  6
Continuous
370
    -3
390
F
  0
LAYER
  5
135
330
2
100
AcDbSymbolTableRecord
100
AcDbLayerTableRecord
  2
LAYER-230
 70
     0
 62
     7
  6
Continuous
370
    -3
390
F
  0
LAYER
  5
136
330
2
100
AcDbSymbolTableRecord
100
AcDbLayerTableRecord
  2
LAYER-231
 70
     0
 62
     7
  6
Continuous
370
    -3
390
F
  0
LAYER
  5
137
330
2
100
AcDbSymbolTableRecord
100
AcDbLayerTableRecord
  2
LAYER-232
 70
     0
 62
     7
  6
Continuous
370
    -3
390
F
  0
LAYER
  5
138
330
2
100
AcDbSymbolTableRecord
100
AcDbLayerTableRecord
  2
LAYER-233
 70
     0
 62
     7
  6
Continuous
370
    -3
390
F
  0
LAYER
  5
139
330
2
100
AcDbSymbolTableRecord
100
AcDbLayerTableRecord
  2
LAYER-234
 70
     0
 62
     7
  6
Continuous
370
    -3
390
F
  0
LAYER
  5
13A
330
2
100
AcDbSymbolTableRecord
100
AcDbLayerTableRecord
  2
LAYER-235
 70
     0
 62
     7
  6
Continuous
370
    -3
390
F
  0
LAYER
  5
13B
330
2
100
AcDbSymbolTableRecord
100
AcDbLayerTableRecord
  2
LAYER-236
 70
     0
 62
     7
  6
Continuous
370
    -3
390
F
  0
LAYER
  5
13C
330
2
100
AcDbSymbolTableRecord
100
AcDbLayerTableRecord
  2
LAYER-237
 70
     0
 62
     7
  6
Continuous
370
    -3
390
F
  0
LAYER
  5
13D
330
2
100
AcDbSymbolTableRecord
100
AcDbLayerTableRecord
  2
LAYER-238
 70
     0
 62
     7
  6
Continuous
370
    -3
390
F
  0
LAYER
  5
13E
330
2
100
AcDbSymbolTableRecord
100
AcDbLayerTableRecord
  2
LAYER-239
 70
     0
 62
     7
  6
Continuous
370
    -3
390
F
  0
LAYER
  5
13F
330
2
100
AcDbSymbolTableRecord
100
AcDbLayerTableRecord
  2
LAYER-240
 70
     0
 62
     7
  6
Continuous
370
    -3
390
F
  0
LAYER
  5
140
330
2
100
AcDbSymbolTableRecord
100
AcDbLayerTableRecord
  2
LAYER-241
 70
     0
 62
     7
  6
Continuous
370
    -3
390
F
  0
LAYER
  5
141
330
2
100
AcDbSymbolTableRecord
100
AcDbLayerTableRecord
  2
LAYER-242
 70
     0
 62
     7
  6
Continuous
370
    -3
390
F
  0
LAYER
  5
142
330
2
100
AcDbSymbolTableRecord
100
AcDbLayerTableRecord
  2
LAYER-243
 70
     0
 62
     7
  6
Continuous
370
    -3
390
F
  0
LAYER
  5
143
330
2
100
AcDbSymbolTableRecord
100
AcDbLayerTableRecord
  2
LAYER-244
 70
     0
 62
     7
  6
Continuous
370
    -3
390
F
  0
LAYER
  5
144
330
2
100
AcDbSymbolTableRecord
100
AcDbLayerTableRecord
  2
LAYER-245
 70
     0
 62
     7
  6
Continuous
370
    -3
390
F
  0
LAYER
  5
145
330
2
100
AcDbSymbolTableRecord
100
AcDbLayerTableRecord
  2
LAYER-246
 70
     0
 62
     7
  6
Continuous
370
    -3
390
F
  0
LAYER
  5
146
330
2
100
AcDbSymbolTableRecord
100
AcDbLayerTableRecord
  2
LAYER-247
 70
     0
 62
     7
  6
Continuous
370
    -3
390
F
  0
LAYER
  5
147
330
2
100
AcDbSymbolTableRecord
100
AcDbLayerTableRecord
  2
LAYER-248
 70
     0
 62
     7
  6
Continuous
370
    -3
390
F
  0
LAYER
  5
148
330
2
100
AcDbSymbolTableRecord
100
AcDbLayerTableRecord
  2
LAYER-249
 70
     0
 62
     7
  6
Continuous
370
    -3
390
F
  0
LAYER
  5
149
330
2
100
AcDbSymbolTableRecord
100
AcDbLayerTableRecord
  2
LAYER-250
 70
     0
 62
     7
  6
Continuous
370
    -3
390
F
  0
LAYER
  5
14A
330
2
100
AcDbSymbolTableRecord
100
AcDbLayerTableRecord
  2
LAYER-251
 70
     0
 62
     7
  6
Continuous
370
    -3
390
F
  0
LAYER
  5
14B
330
2
100
AcDbSymbolTableRecord
100
AcDbLayerTableRecord
  2
LAYER-252
 70
     0
 62
     7
  6
Continuous
370
    -3
390
F
  0
LAYER
  5
14C
330
2
100
AcDbSymbolTableRecord
100
AcDbLayerTableRecord
  2
LAYER-253
 70
     0
 62
     7
  6
Continuous
370
    -3
390
F
  0
LAYER
  5
14D
330
2
100
AcDbSymbolTableRecord
100
AcDbLayerTableRecord
  2
LAYER-254
 70
     0
 62
     7
  6
Continuous
370
    -3
390
F
  0
LAYER
  5
14E
330
2
100
AcDbSymbolTableRecord
100
AcDbLayerTableRecord
  2
LAYER-255
 70
     0
 62
     7
  6
Continuous
370
    -3
390
F
  0
LAYER
  5
14F
330
2
100
AcDbSymbolTableRecord
100
AcDbLayerTableRecord
  2
LAYER-256
 70
     0
 62
     7
  6
Continuous
370
    -3
390
F
  0
LAYER
  5
150
330
2
100
AcDbSymbolTableRecord
100
AcDbLayerTableRecord
  2
SUPLINE
 70
     0
 62
    -7
  6
Continuous
290
     0
370
    -3
390
F
  0
LAYER
  5
151
330
2
100
AcDbSymbolTableRecord
100
AcDbLayerTableRecord
  2
FRAMELAYER-001
 70
     0
 62
     7
  6
Continuous
370
    -3
390
F
  0
LAYER
  5
152
330
2
100
AcDbSymbolTableRecord
100
AcDbLayerTableRecord
  2
FRAMELAYER-002
 70
     0
 62
     7
  6
Continuous
370
    -3
390
F
  0
LAYER
  5
153
330
2
100
AcDbSymbolTableRecord
100
AcDbLayerTableRecord
  2
FRAMELAYER-003
 70
     0
 62
     7
  6
Continuous
370
    -3
390
F
  0
LAYER
  5
154
330
2
100
AcDbSymbolTableRecord
100
AcDbLayerTableRecord
  2
FRAMELAYER-004
 70
     0
 62
     7
  6
Continuous
370
    -3
390
F
  0
LAYER
  5
155
330
2
100
AcDbSymbolTableRecord
100
AcDbLayerTableRecord
  2
FRAMELAYER-005
 70
     0
 62
     7
  6
Continuous
370
    -3
390
F
  0
LAYER
  5
156
330
2
100
AcDbSymbolTableRecord
100
AcDbLayerTableRecord
  2
FRAMELAYER-006
 70
     0
 62
     7
  6
Continuous
370
    -3
390
F
  0
LAYER
  5
157
330
2
100
AcDbSymbolTableRecord
100
AcDbLayerTableRecord
  2
FRAMELAYER-007
 70
     0
 62
     7
  6
Continuous
370
    -3
390
F
  0
LAYER
  5
158
330
2
100
AcDbSymbolTableRecord
100
AcDbLayerTableRecord
  2
FRAMELAYER-008
 70
     0
 62
     7
  6
Continuous
370
    -3
390
F
  0
LAYER
  5
159
330
2
100
AcDbSymbolTableRecord
100
AcDbLayerTableRecord
  2
FRAMELAYER-009
 70
     0
 62
     7
  6
Continuous
370
    -3
390
F
  0
LAYER
  5
15A
330
2
100
AcDbSymbolTableRecord
100
AcDbLayerTableRecord
  2
FRAMELAYER-010
 70
     0
 62
     7
  6
Continuous
370
    -3
390
F
  0
LAYER
  5
15B
330
2
100
AcDbSymbolTableRecord
100
AcDbLayerTableRecord
  2
FRAMELAYER-011
 70
     0
 62
     7
  6
Continuous
370
    -3
390
F
  0
LAYER
  5
15C
330
2
100
AcDbSymbolTableRecord
100
AcDbLayerTableRecord
  2
FRAMELAYER-012
 70
     0
 62
     7
  6
Continuous
370
    -3
390
F
  0
LAYER
  5
15D
330
2
100
AcDbSymbolTableRecord
100
AcDbLayerTableRecord
  2
FRAMELAYER-013
 70
     0
 62
     7
  6
Continuous
370
    -3
390
F
  0
LAYER
  5
15E
330
2
100
AcDbSymbolTableRecord
100
AcDbLayerTableRecord
  2
FRAMELAYER-014
 70
     0
 62
     7
  6
Continuous
370
    -3
390
F
  0
LAYER
  5
15F
330
2
100
AcDbSymbolTableRecord
100
AcDbLayerTableRecord
  2
FRAMELAYER-015
 70
     0
 62
    -7
  6
Continuous
370
    -3
390
F
  0
LAYER
  5
160
330
2
100
AcDbSymbolTableRecord
100
AcDbLayerTableRecord
  2
FRAMELAYER-016
 70
     0
 62
     4
  6
Continuous
370
    -3
390
F
  0
LAYER
  5
161
330
2
100
AcDbSymbolTableRecord
100
AcDbLayerTableRecord
  2
FRAMELAYER-017
 70
     0
 62
     7
  6
Continuous
370
    -3
390
F
  0
LAYER
  5
162
330
2
100
AcDbSymbolTableRecord
100
AcDbLayerTableRecord
  2
FRAMELAYER-018
 70
     0
 62
     2
  6
Continuous
370
    -3
390
F
  0
LAYER
  5
163
330
2
100
AcDbSymbolTableRecord
100
AcDbLayerTableRecord
  2
FRAMELAYER-019
 70
     0
 62
     3
  6
Continuous
370
    -3
390
F
  0
LAYER
  5
164
330
2
100
AcDbSymbolTableRecord
100
AcDbLayerTableRecord
  2
FRAMELAYER-020
 70
     0
 62
     2
  6
Continuous
370
    -3
390
F
  0
LAYER
  5
165
330
2
100
AcDbSymbolTableRecord
100
AcDbLayerTableRecord
  2
FRAMELAYER-021
 70
     0
 62
     7
  6
Continuous
370
    -3
390
F
  0
LAYER
  5
166
330
2
100
AcDbSymbolTableRecord
100
AcDbLayerTableRecord
  2
FRAMELAYER-022
 70
     0
 62
     4
  6
Continuous
370
    -3
390
F
  0
LAYER
  5
167
330
2
100
AcDbSymbolTableRecord
100
AcDbLayerTableRecord
  2
FRAMELAYER-023
 70
     0
 62
     4
  6
Continuous
370
    -3
390
F
  0
LAYER
  5
168
330
2
100
AcDbSymbolTableRecord
100
AcDbLayerTableRecord
  2
FRAMELAYER-024
 70
     0
 62
     7
  6
Continuous
370
    -3
390
F
  0
LAYER
  5
169
330
2
100
AcDbSymbolTableRecord
100
AcDbLayerTableRecord
  2
FRAMELAYER-025
 70
     0
 62
     7
  6
Continuous
370
    -3
390
F
  0
LAYER
  5
16A
330
2
100
AcDbSymbolTableRecord
100
AcDbLayerTableRecord
  2
FRAMELAYER-026
 70
     0
 62
    -7
  6
Continuous
370
    -3
390
F
  0
LAYER
  5
16B
330
2
100
AcDbSymbolTableRecord
100
AcDbLayerTableRecord
  2
FRAMELAYER-027
 70
     0
 62
     7
  6
Continuous
370
    -3
390
F
  0
LAYER
  5
16C
330
2
100
AcDbSymbolTableRecord
100
AcDbLayerTableRecord
  2
FRAMELAYER-028
 70
     0
 62
     7
  6
Continuous
370
    -3
390
F
  0
LAYER
  5
16D
330
2
100
AcDbSymbolTableRecord
100
AcDbLayerTableRecord
  2
FRAMELAYER-029
 70
     0
 62
     7
  6
Continuous
370
    -3
390
F
  0
LAYER
  5
16E
330
2
100
AcDbSymbolTableRecord
100
AcDbLayerTableRecord
  2
FRAMELAYER-030
 70
     0
 62
     2
  6
Continuous
370
    -3
390
F
  0
LAYER
  5
16F
330
2
100
AcDbSymbolTableRecord
100
AcDbLayerTableRecord
  2
FRAMELAYER-031
 70
     0
 62
     7
  6
Continuous
370
    -3
390
F
  0
LAYER
  5
170
330
2
100
AcDbSymbolTableRecord
100
AcDbLayerTableRecord
  2
FRAMELAYER-032
 70
     0
 62
     2
  6
Continuous
370
    -3
390
F
  0
LAYER
  5
171
330
2
100
AcDbSymbolTableRecord
100
AcDbLayerTableRecord
  2
FRAMELAYER-033
 70
     0
 62
     7
  6
Continuous
370
    -3
390
F
  0
LAYER
  5
172
330
2
100
AcDbSymbolTableRecord
100
AcDbLayerTableRecord
  2
FRAMELAYER-034
 70
     0
 62
     7
  6
Continuous
370
    -3
390
F
  0
LAYER
  5
173
330
2
100
AcDbSymbolTableRecord
100
AcDbLayerTableRecord
  2
FRAMELAYER-035
 70
     0
 62
     3
  6
Continuous
370
    -3
390
F
  0
LAYER
  5
174
330
2
100
AcDbSymbolTableRecord
100
AcDbLayerTableRecord
  2
FRAMELAYER-036
 70
     0
 62
     2
  6
Continuous
370
    -3
390
F
  0
LAYER
  5
175
330
2
100
AcDbSymbolTableRecord
100
AcDbLayerTableRecord
  2
FRAMELAYER-037
 70
     0
 62
     7
  6
Continuous
370
    -3
390
F
  0
LAYER
  5
176
330
2
100
AcDbSymbolTableRecord
100
AcDbLayerTableRecord
  2
FRAMELAYER-038
 70
     0
 62
     7
  6
Continuous
370
    -3
390
F
  0
LAYER
  5
177
330
2
100
AcDbSymbolTableRecord
100
AcDbLayerTableRecord
  2
FRAMELAYER-039
 70
     0
 62
     7
  6
Continuous
370
    -3
390
F
  0
LAYER
  5
178
330
2
100
AcDbSymbolTableRecord
100
AcDbLayerTableRecord
  2
FRAMELAYER-040
 70
     0
 62
     7
  6
Continuous
370
    -3
390
F
  0
LAYER
  5
179
330
2
100
AcDbSymbolTableRecord
100
AcDbLayerTableRecord
  2
FRAMELAYER-041
 70
     0
 62
     7
  6
Continuous
370
    -3
390
F
  0
LAYER
  5
17A
330
2
100
AcDbSymbolTableRecord
100
AcDbLayerTableRecord
  2
FRAMELAYER-042
 70
     0
 62
     7
  6
Continuous
370
    -3
390
F
  0
LAYER
  5
17B
330
2
100
AcDbSymbolTableRecord
100
AcDbLayerTableRecord
  2
FRAMELAYER-043
 70
     0
 62
     7
  6
Continuous
370
    -3
390
F
  0
LAYER
  5
17C
330
2
100
AcDbSymbolTableRecord
100
AcDbLayerTableRecord
  2
FRAMELAYER-044
 70
     0
 62
     7
  6
Continuous
370
    -3
390
F
  0
LAYER
  5
17D
330
2
100
AcDbSymbolTableRecord
100
AcDbLayerTableRecord
  2
FRAMELAYER-045
 70
     0
 62
     7
  6
Continuous
370
    -3
390
F
  0
LAYER
  5
17E
330
2
100
AcDbSymbolTableRecord
100
AcDbLayerTableRecord
  2
FRAMELAYER-046
 70
     0
 62
     7
  6
Continuous
370
    -3
390
F
  0
LAYER
  5
17F
330
2
100
AcDbSymbolTableRecord
100
AcDbLayerTableRecord
  2
FRAMELAYER-047
 70
     0
 62
     7
  6
Continuous
370
    -3
390
F
  0
LAYER
  5
180
330
2
100
AcDbSymbolTableRecord
100
AcDbLayerTableRecord
  2
FRAMELAYER-048
 70
     0
 62
     2
  6
Continuous
370
    -3
390
F
  0
LAYER
  5
181
330
2
100
AcDbSymbolTableRecord
100
AcDbLayerTableRecord
  2
FRAMELAYER-049
 70
     0
 62
     3
  6
Continuous
370
    -3
390
F
  0
LAYER
  5
182
330
2
100
AcDbSymbolTableRecord
100
AcDbLayerTableRecord
  2
FRAMELAYER-050
 70
     0
 62
     7
  6
Continuous
370
    -3
390
F
  0
LAYER
  5
183
330
2
100
AcDbSymbolTableRecord
100
AcDbLayerTableRecord
  2
FRAMELAYER-051
 70
     0
 62
     2
  6
Continuous
370
    -3
390
F
  0
LAYER
  5
184
330
2
100
AcDbSymbolTableRecord
100
AcDbLayerTableRecord
  2
FRAMELAYER-052
 70
     0
 62
     7
  6
Continuous
370
    -3
390
F
  0
LAYER
  5
185
330
2
100
AcDbSymbolTableRecord
100
AcDbLayerTableRecord
  2
FRAMELAYER-053
 70
     0
 62
     7
  6
Continuous
370
    -3
390
F
  0
LAYER
  5
186
330
2
100
AcDbSymbolTableRecord
100
AcDbLayerTableRecord
  2
FRAMELAYER-054
 70
     0
 62
     7
  6
Continuous
370
    -3
390
F
  0
LAYER
  5
187
330
2
100
AcDbSymbolTableRecord
100
AcDbLayerTableRecord
  2
FRAMELAYER-055
 70
     0
 62
     7
  6
Continuous
370
    -3
390
F
  0
LAYER
  5
188
330
2
100
AcDbSymbolTableRecord
100
AcDbLayerTableRecord
  2
FRAMELAYER-056
 70
     0
 62
     7
  6
Continuous
370
    -3
390
F
  0
LAYER
  5
189
330
2
100
AcDbSymbolTableRecord
100
AcDbLayerTableRecord
  2
FRAMELAYER-057
 70
     0
 62
     7
  6
Continuous
370
    -3
390
F
  0
LAYER
  5
18A
330
2
100
AcDbSymbolTableRecord
100
AcDbLayerTableRecord
  2
FRAMELAYER-058
 70
     0
 62
     7
  6
Continuous
370
    -3
390
F
  0
LAYER
  5
18B
330
2
100
AcDbSymbolTableRecord
100
AcDbLayerTableRecord
  2
FRAMELAYER-059
 70
     0
 62
     7
  6
Continuous
370
    -3
390
F
  0
LAYER
  5
18C
330
2
100
AcDbSymbolTableRecord
100
AcDbLayerTableRecord
  2
FRAMELAYER-060
 70
     0
 62
     7
  6
Continuous
370
    -3
390
F
  0
LAYER
  5
18D
330
2
100
AcDbSymbolTableRecord
100
AcDbLayerTableRecord
  2
FRAMELAYER-061
 70
     0
 62
     7
  6
Continuous
370
    -3
390
F
  0
LAYER
  5
18E
330
2
100
AcDbSymbolTableRecord
100
AcDbLayerTableRecord
  2
FRAMELAYER-062
 70
     0
 62
     7
  6
Continuous
370
    -3
390
F
  0
LAYER
  5
18F
330
2
100
AcDbSymbolTableRecord
100
AcDbLayerTableRecord
  2
FRAMELAYER-063
 70
     0
 62
     7
  6
Continuous
370
    -3
390
F
  0
LAYER
  5
190
330
2
100
AcDbSymbolTableRecord
100
AcDbLayerTableRecord
  2
FRAMELAYER-064
 70
     0
 62
     2
  6
Continuous
370
    -3
390
F
  0
LAYER
  5
191
330
2
100
AcDbSymbolTableRecord
100
AcDbLayerTableRecord
  2
FRAMELAYER-065
 70
     0
 62
     7
  6
Continuous
370
    -3
390
F
  0
LAYER
  5
192
330
2
100
AcDbSymbolTableRecord
100
AcDbLayerTableRecord
  2
FRAMELAYER-066
 70
     0
 62
     2
  6
Continuous
370
    -3
390
F
  0
LAYER
  5
193
330
2
100
AcDbSymbolTableRecord
100
AcDbLayerTableRecord
  2
FRAMELAYER-067
 70
     0
 62
     2
  6
Continuous
370
    -3
390
F
  0
LAYER
  5
194
330
2
100
AcDbSymbolTableRecord
100
AcDbLayerTableRecord
  2
FRAMELAYER-068
 70
     0
 62
     7
  6
Continuous
370
    -3
390
F
  0
LAYER
  5
195
330
2
100
AcDbSymbolTableRecord
100
AcDbLayerTableRecord
  2
FRAMELAYER-069
 70
     0
 62
     7
  6
Continuous
370
    -3
390
F
  0
LAYER
  5
196
330
2
100
AcDbSymbolTableRecord
100
AcDbLayerTableRecord
  2
FRAMELAYER-070
 70
     0
 62
     7
  6
Continuous
370
    -3
390
F
  0
LAYER
  5
197
330
2
100
AcDbSymbolTableRecord
100
AcDbLayerTableRecord
  2
FRAMELAYER-071
 70
     0
 62
     7
  6
Continuous
370
    -3
390
F
  0
LAYER
  5
198
330
2
100
AcDbSymbolTableRecord
100
AcDbLayerTableRecord
  2
FRAMELAYER-072
 70
     0
 62
     7
  6
Continuous
370
    -3
390
F
  0
LAYER
  5
199
330
2
100
AcDbSymbolTableRecord
100
AcDbLayerTableRecord
  2
FRAMELAYER-073
 70
     0
 62
     7
  6
Continuous
370
    -3
390
F
  0
LAYER
  5
19A
330
2
100
AcDbSymbolTableRecord
100
AcDbLayerTableRecord
  2
FRAMELAYER-074
 70
     0
 62
     7
  6
Continuous
370
    -3
390
F
  0
LAYER
  5
19B
330
2
100
AcDbSymbolTableRecord
100
AcDbLayerTableRecord
  2
FRAMELAYER-075
 70
     0
 62
     7
  6
Continuous
370
    -3
390
F
  0
LAYER
  5
19C
330
2
100
AcDbSymbolTableRecord
100
AcDbLayerTableRecord
  2
FRAMELAYER-076
 70
     0
 62
     7
  6
Continuous
370
    -3
390
F
  0
LAYER
  5
19D
330
2
100
AcDbSymbolTableRecord
100
AcDbLayerTableRecord
  2
FRAMELAYER-077
 70
     0
 62
     7
  6
Continuous
370
    -3
390
F
  0
LAYER
  5
19E
330
2
100
AcDbSymbolTableRecord
100
AcDbLayerTableRecord
  2
FRAMELAYER-078
 70
     0
 62
     7
  6
Continuous
370
    -3
390
F
  0
LAYER
  5
19F
330
2
100
AcDbSymbolTableRecord
100
AcDbLayerTableRecord
  2
FRAMELAYER-079
 70
     0
 62
     7
  6
Continuous
370
    -3
390
F
  0
LAYER
  5
1A0
330
2
100
AcDbSymbolTableRecord
100
AcDbLayerTableRecord
  2
FRAMELAYER-080
 70
     0
 62
     2
  6
Continuous
370
    -3
390
F
  0
LAYER
  5
1A1
330
2
100
AcDbSymbolTableRecord
100
AcDbLayerTableRecord
  2
FRAMELAYER-081
 70
     0
 62
     7
  6
Continuous
370
    -3
390
F
  0
LAYER
  5
1A2
330
2
100
AcDbSymbolTableRecord
100
AcDbLayerTableRecord
  2
FRAMELAYER-082
 70
     0
 62
     7
  6
Continuous
370
    -3
390
F
  0
LAYER
  5
1A3
330
2
100
AcDbSymbolTableRecord
100
AcDbLayerTableRecord
  2
FRAMELAYER-083
 70
     0
 62
     7
  6
Continuous
370
    -3
390
F
  0
LAYER
  5
1A4
330
2
100
AcDbSymbolTableRecord
100
AcDbLayerTableRecord
  2
FRAMELAYER-084
 70
     0
 62
     7
  6
Continuous
370
    -3
390
F
  0
LAYER
  5
1A5
330
2
100
AcDbSymbolTableRecord
100
AcDbLayerTableRecord
  2
FRAMELAYER-085
 70
     0
 62
     7
  6
Continuous
370
    -3
390
F
  0
LAYER
  5
1A6
330
2
100
AcDbSymbolTableRecord
100
AcDbLayerTableRecord
  2
FRAMELAYER-086
 70
     0
 62
     7
  6
Continuous
370
    -3
390
F
  0
LAYER
  5
1A7
330
2
100
AcDbSymbolTableRecord
100
AcDbLayerTableRecord
  2
FRAMELAYER-087
 70
     0
 62
     7
  6
Continuous
370
    -3
390
F
  0
LAYER
  5
1A8
330
2
100
AcDbSymbolTableRecord
100
AcDbLayerTableRecord
  2
FRAMELAYER-088
 70
     0
 62
     7
  6
Continuous
370
    -3
390
F
  0
LAYER
  5
1A9
330
2
100
AcDbSymbolTableRecord
100
AcDbLayerTableRecord
  2
FRAMELAYER-089
 70
     0
 62
     7
  6
Continuous
370
    -3
390
F
  0
LAYER
  5
1AA
330
2
100
AcDbSymbolTableRecord
100
AcDbLayerTableRecord
  2
FRAMELAYER-090
 70
     0
 62
     7
  6
Continuous
370
    -3
390
F
  0
LAYER
  5
1AB
330
2
100
AcDbSymbolTableRecord
100
AcDbLayerTableRecord
  2
FRAMELAYER-091
 70
     0
 62
     7
  6
Continuous
370
    -3
390
F
  0
LAYER
  5
1AC
330
2
100
AcDbSymbolTableRecord
100
AcDbLayerTableRecord
  2
FRAMELAYER-092
 70
     0
 62
     7
  6
Continuous
370
    -3
390
F
  0
LAYER
  5
1AD
330
2
100
AcDbSymbolTableRecord
100
AcDbLayerTableRecord
  2
FRAMELAYER-093
 70
     0
 62
     7
  6
Continuous
370
    -3
390
F
  0
LAYER
  5
1AE
330
2
100
AcDbSymbolTableRecord
100
AcDbLayerTableRecord
  2
FRAMELAYER-094
 70
     0
 62
     7
  6
Continuous
370
    -3
390
F
  0
LAYER
  5
1AF
330
2
100
AcDbSymbolTableRecord
100
AcDbLayerTableRecord
  2
FRAMELAYER-095
 70
     0
 62
     7
  6
Continuous
370
    -3
390
F
  0
LAYER
  5
1B0
330
2
100
AcDbSymbolTableRecord
100
AcDbLayerTableRecord
  2
FRAMELAYER-096
 70
     0
 62
     7
  6
Continuous
370
    -3
390
F
  0
LAYER
  5
1B1
330
2
100
AcDbSymbolTableRecord
100
AcDbLayerTableRecord
  2
FRAMELAYER-097
 70
     0
 62
     7
  6
Continuous
370
    -3
390
F
  0
LAYER
  5
1B2
330
2
100
AcDbSymbolTableRecord
100
AcDbLayerTableRecord
  2
FRAMELAYER-098
 70
     0
 62
     7
  6
Continuous
370
    -3
390
F
  0
LAYER
  5
1B3
330
2
100
AcDbSymbolTableRecord
100
AcDbLayerTableRecord
  2
FRAMELAYER-099
 70
     0
 62
     7
  6
Continuous
370
    -3
390
F
  0
LAYER
  5
1B4
330
2
100
AcDbSymbolTableRecord
100
AcDbLayerTableRecord
  2
FRAMELAYER-100
 70
     0
 62
     7
  6
Continuous
370
    -3
390
F
  0
LAYER
  5
1B5
330
2
100
AcDbSymbolTableRecord
100
AcDbLayerTableRecord
  2
FRAMELAYER-101
 70
     0
 62
     7
  6
Continuous
370
    -3
390
F
  0
LAYER
  5
1B6
330
2
100
AcDbSymbolTableRecord
100
AcDbLayerTableRecord
  2
FRAMELAYER-102
 70
     0
 62
     7
  6
Continuous
370
    -3
390
F
  0
LAYER
  5
1B7
330
2
100
AcDbSymbolTableRecord
100
AcDbLayerTableRecord
  2
FRAMELAYER-103
 70
     0
 62
     7
  6
Continuous
370
    -3
390
F
  0
LAYER
  5
1B8
330
2
100
AcDbSymbolTableRecord
100
AcDbLayerTableRecord
  2
FRAMELAYER-104
 70
     0
 62
     7
  6
Continuous
370
    -3
390
F
  0
LAYER
  5
1B9
330
2
100
AcDbSymbolTableRecord
100
AcDbLayerTableRecord
  2
FRAMELAYER-105
 70
     0
 62
     7
  6
Continuous
370
    -3
390
F
  0
LAYER
  5
1BA
330
2
100
AcDbSymbolTableRecord
100
AcDbLayerTableRecord
  2
FRAMELAYER-106
 70
     0
 62
     7
  6
Continuous
370
    -3
390
F
  0
LAYER
  5
1BB
330
2
100
AcDbSymbolTableRecord
100
AcDbLayerTableRecord
  2
FRAMELAYER-107
 70
     0
 62
     7
  6
Continuous
370
    -3
390
F
  0
LAYER
  5
1BC
330
2
100
AcDbSymbolTableRecord
100
AcDbLayerTableRecord
  2
FRAMELAYER-108
 70
     0
 62
     7
  6
Continuous
370
    -3
390
F
  0
LAYER
  5
1BD
330
2
100
AcDbSymbolTableRecord
100
AcDbLayerTableRecord
  2
FRAMELAYER-109
 70
     0
 62
     7
  6
Continuous
370
    -3
390
F
  0
LAYER
  5
1BE
330
2
100
AcDbSymbolTableRecord
100
AcDbLayerTableRecord
  2
FRAMELAYER-110
 70
     0
 62
     7
  6
Continuous
370
    -3
390
F
  0
LAYER
  5
1BF
330
2
100
AcDbSymbolTableRecord
100
AcDbLayerTableRecord
  2
FRAMELAYER-111
 70
     0
 62
     7
  6
Continuous
370
    -3
390
F
  0
LAYER
  5
1C0
330
2
100
AcDbSymbolTableRecord
100
AcDbLayerTableRecord
  2
FRAMELAYER-112
 70
     0
 62
     7
  6
Continuous
370
    -3
390
F
  0
LAYER
  5
1C1
330
2
100
AcDbSymbolTableRecord
100
AcDbLayerTableRecord
  2
FRAMELAYER-113
 70
     0
 62
     7
  6
Continuous
370
    -3
390
F
  0
LAYER
  5
1C2
330
2
100
AcDbSymbolTableRecord
100
AcDbLayerTableRecord
  2
FRAMELAYER-114
 70
     0
 62
     7
  6
Continuous
370
    -3
390
F
  0
LAYER
  5
1C3
330
2
100
AcDbSymbolTableRecord
100
AcDbLayerTableRecord
  2
FRAMELAYER-115
 70
     0
 62
     7
  6
Continuous
370
    -3
390
F
  0
LAYER
  5
1C4
330
2
100
AcDbSymbolTableRecord
100
AcDbLayerTableRecord
  2
FRAMELAYER-116
 70
     0
 62
     7
  6
Continuous
370
    -3
390
F
  0
LAYER
  5
1C5
330
2
100
AcDbSymbolTableRecord
100
AcDbLayerTableRecord
  2
FRAMELAYER-117
 70
     0
 62
     7
  6
Continuous
370
    -3
390
F
  0
LAYER
  5
1C6
330
2
100
AcDbSymbolTableRecord
100
AcDbLayerTableRecord
  2
FRAMELAYER-118
 70
     0
 62
     7
  6
Continuous
370
    -3
390
F
  0
LAYER
  5
1C7
330
2
100
AcDbSymbolTableRecord
100
AcDbLayerTableRecord
  2
FRAMELAYER-119
 70
     0
 62
     7
  6
Continuous
370
    -3
390
F
  0
LAYER
  5
1C8
330
2
100
AcDbSymbolTableRecord
100
AcDbLayerTableRecord
  2
FRAMELAYER-120
 70
     0
 62
     7
  6
Continuous
370
    -3
390
F
  0
LAYER
  5
1C9
330
2
100
AcDbSymbolTableRecord
100
AcDbLayerTableRecord
  2
FRAMELAYER-121
 70
     0
 62
     7
  6
Continuous
370
    -3
390
F
  0
LAYER
  5
1CA
330
2
100
AcDbSymbolTableRecord
100
AcDbLayerTableRecord
  2
FRAMELAYER-122
 70
     0
 62
     7
  6
Continuous
370
    -3
390
F
  0
LAYER
  5
1CB
330
2
100
AcDbSymbolTableRecord
100
AcDbLayerTableRecord
  2
FRAMELAYER-123
 70
     0
 62
     7
  6
Continuous
370
    -3
390
F
  0
LAYER
  5
1CC
330
2
100
AcDbSymbolTableRecord
100
AcDbLayerTableRecord
  2
FRAMELAYER-124
 70
     0
 62
     7
  6
Continuous
370
    -3
390
F
  0
LAYER
  5
1CD
330
2
100
AcDbSymbolTableRecord
100
AcDbLayerTableRecord
  2
FRAMELAYER-125
 70
     0
 62
     7
  6
Continuous
370
    -3
390
F
  0
LAYER
  5
1CE
330
2
100
AcDbSymbolTableRecord
100
AcDbLayerTableRecord
  2
FRAMELAYER-126
 70
     0
 62
     7
  6
Continuous
370
    -3
390
F
  0
LAYER
  5
1CF
330
2
100
AcDbSymbolTableRecord
100
AcDbLayerTableRecord
  2
FRAMELAYER-127
 70
     0
 62
     7
  6
Continuous
370
    -3
390
F
  0
LAYER
  5
1D0
330
2
100
AcDbSymbolTableRecord
100
AcDbLayerTableRecord
  2
FRAMELAYER-128
 70
     0
 62
     7
  6
Continuous
370
    -3
390
F
  0
LAYER
  5
1D1
330
2
100
AcDbSymbolTableRecord
100
AcDbLayerTableRecord
  2
FRAMELAYER-129
 70
     0
 62
     7
  6
Continuous
370
    -3
390
F
  0
LAYER
  5
1D2
330
2
100
AcDbSymbolTableRecord
100
AcDbLayerTableRecord
  2
FRAMELAYER-130
 70
     0
 62
     7
  6
Continuous
370
    -3
390
F
  0
LAYER
  5
1D3
330
2
100
AcDbSymbolTableRecord
100
AcDbLayerTableRecord
  2
FRAMELAYER-131
 70
     0
 62
     7
  6
Continuous
370
    -3
390
F
  0
LAYER
  5
1D4
330
2
100
AcDbSymbolTableRecord
100
AcDbLayerTableRecord
  2
FRAMELAYER-132
 70
     0
 62
     7
  6
Continuous
370
    -3
390
F
  0
LAYER
  5
1D5
330
2
100
AcDbSymbolTableRecord
100
AcDbLayerTableRecord
  2
FRAMELAYER-133
 70
     0
 62
     7
  6
Continuous
370
    -3
390
F
  0
LAYER
  5
1D6
330
2
100
AcDbSymbolTableRecord
100
AcDbLayerTableRecord
  2
FRAMELAYER-134
 70
     0
 62
     7
  6
Continuous
370
    -3
390
F
  0
LAYER
  5
1D7
330
2
100
AcDbSymbolTableRecord
100
AcDbLayerTableRecord
  2
FRAMELAYER-135
 70
     0
 62
    -4
  6
Continuous
370
    -3
390
F
  0
LAYER
  5
1D8
330
2
100
AcDbSymbolTableRecord
100
AcDbLayerTableRecord
  2
FRAMELAYER-136
 70
     0
 62
    -3
  6
Continuous
370
    -3
390
F
  0
LAYER
  5
1D9
330
2
100
AcDbSymbolTableRecord
100
AcDbLayerTableRecord
  2
FRAMELAYER-137
 70
     0
 62
    -1
  6
Continuous
370
    -3
390
F
  0
LAYER
  5
1DA
330
2
100
AcDbSymbolTableRecord
100
AcDbLayerTableRecord
  2
FRAMELAYER-138
 70
     0
 62
     7
  6
Continuous
370
    -3
390
F
  0
LAYER
  5
1DB
330
2
100
AcDbSymbolTableRecord
100
AcDbLayerTableRecord
  2
FRAMELAYER-139
 70
     0
 62
     7
  6
Continuous
370
    -3
390
F
  0
LAYER
  5
1DC
330
2
100
AcDbSymbolTableRecord
100
AcDbLayerTableRecord
  2
FRAMELAYER-140
 70
     0
 62
     7
  6
Continuous
370
    -3
390
F
  0
LAYER
  5
1DD
330
2
100
AcDbSymbolTableRecord
100
AcDbLayerTableRecord
  2
FRAMELAYER-141
 70
     0
 62
     7
  6
Continuous
370
    -3
390
F
  0
LAYER
  5
1DE
330
2
100
AcDbSymbolTableRecord
100
AcDbLayerTableRecord
  2
FRAMELAYER-142
 70
     0
 62
     3
  6
Continuous
370
    -3
390
F
  0
LAYER
  5
1DF
330
2
100
AcDbSymbolTableRecord
100
AcDbLayerTableRecord
  2
FRAMELAYER-143
 70
     0
 62
     7
  6
Continuous
370
    -3
390
F
  0
LAYER
  5
1E0
330
2
100
AcDbSymbolTableRecord
100
AcDbLayerTableRecord
  2
FRAMELAYER-144
 70
     0
 62
     7
  6
Continuous
370
    -3
390
F
  0
LAYER
  5
1E1
330
2
100
AcDbSymbolTableRecord
100
AcDbLayerTableRecord
  2
FRAMELAYER-145
 70
     0
 62
     3
  6
Continuous
370
    -3
390
F
  0
LAYER
  5
1E2
330
2
100
AcDbSymbolTableRecord
100
AcDbLayerTableRecord
  2
FRAMELAYER-146
 70
     0
 62
     7
  6
Continuous
370
    -3
390
F
  0
LAYER
  5
1E3
330
2
100
AcDbSymbolTableRecord
100
AcDbLayerTableRecord
  2
FRAMELAYER-147
 70
     0
 62
     7
  6
Continuous
370
    -3
390
F
  0
LAYER
  5
1E4
330
2
100
AcDbSymbolTableRecord
100
AcDbLayerTableRecord
  2
FRAMELAYER-148
 70
     0
 62
     7
  6
Continuous
370
    -3
390
F
  0
LAYER
  5
1E5
330
2
100
AcDbSymbolTableRecord
100
AcDbLayerTableRecord
  2
FRAMELAYER-149
 70
     0
 62
     7
  6
Continuous
370
    -3
390
F
  0
LAYER
  5
1E6
330
2
100
AcDbSymbolTableRecord
100
AcDbLayerTableRecord
  2
FRAMELAYER-150
 70
     0
 62
     7
  6
Continuous
370
    -3
390
F
  0
LAYER
  5
1E7
330
2
100
AcDbSymbolTableRecord
100
AcDbLayerTableRecord
  2
FRAMELAYER-151
 70
     0
 62
     7
  6
Continuous
370
    -3
390
F
  0
LAYER
  5
1E8
330
2
100
AcDbSymbolTableRecord
100
AcDbLayerTableRecord
  2
FRAMELAYER-152
 70
     0
 62
     7
  6
Continuous
370
    -3
390
F
  0
LAYER
  5
1E9
330
2
100
AcDbSymbolTableRecord
100
AcDbLayerTableRecord
  2
FRAMELAYER-153
 70
     0
 62
     7
  6
Continuous
370
    -3
390
F
  0
LAYER
  5
1EA
330
2
100
AcDbSymbolTableRecord
100
AcDbLayerTableRecord
  2
FRAMELAYER-154
 70
     0
 62
     7
  6
Continuous
370
    -3
390
F
  0
LAYER
  5
1EB
330
2
100
AcDbSymbolTableRecord
100
AcDbLayerTableRecord
  2
FRAMELAYER-155
 70
     0
 62
     7
  6
Continuous
370
    -3
390
F
  0
LAYER
  5
1EC
330
2
100
AcDbSymbolTableRecord
100
AcDbLayerTableRecord
  2
FRAMELAYER-156
 70
     0
 62
     7
  6
Continuous
370
    -3
390
F
  0
LAYER
  5
1ED
330
2
100
AcDbSymbolTableRecord
100
AcDbLayerTableRecord
  2
FRAMELAYER-157
 70
     0
 62
     7
  6
Continuous
370
    -3
390
F
  0
LAYER
  5
1EE
330
2
100
AcDbSymbolTableRecord
100
AcDbLayerTableRecord
  2
FRAMELAYER-158
 70
     0
 62
     7
  6
Continuous
370
    -3
390
F
  0
LAYER
  5
1EF
330
2
100
AcDbSymbolTableRecord
100
AcDbLayerTableRecord
  2
FRAMELAYER-159
 70
     0
 62
     7
  6
Continuous
370
    -3
390
F
  0
LAYER
  5
1F0
330
2
100
AcDbSymbolTableRecord
100
AcDbLayerTableRecord
  2
FRAMELAYER-160
 70
     0
 62
     7
  6
Continuous
370
    -3
390
F
  0
LAYER
  5
1F1
330
2
100
AcDbSymbolTableRecord
100
AcDbLayerTableRecord
  2
FRAMELAYER-161
 70
     0
 62
     7
  6
Continuous
370
    -3
390
F
  0
LAYER
  5
1F2
330
2
100
AcDbSymbolTableRecord
100
AcDbLayerTableRecord
  2
FRAMELAYER-162
 70
     0
 62
     7
  6
Continuous
370
    -3
390
F
  0
LAYER
  5
1F3
330
2
100
AcDbSymbolTableRecord
100
AcDbLayerTableRecord
  2
FRAMELAYER-163
 70
     0
 62
     7
  6
Continuous
370
    -3
390
F
  0
LAYER
  5
1F4
330
2
100
AcDbSymbolTableRecord
100
AcDbLayerTableRecord
  2
FRAMELAYER-164
 70
     0
 62
     7
  6
Continuous
370
    -3
390
F
  0
LAYER
  5
1F5
330
2
100
AcDbSymbolTableRecord
100
AcDbLayerTableRecord
  2
FRAMELAYER-165
 70
     0
 62
     7
  6
Continuous
370
    -3
390
F
  0
LAYER
  5
1F6
330
2
100
AcDbSymbolTableRecord
100
AcDbLayerTableRecord
  2
FRAMELAYER-166
 70
     0
 62
     7
  6
Continuous
370
    -3
390
F
  0
LAYER
  5
1F7
330
2
100
AcDbSymbolTableRecord
100
AcDbLayerTableRecord
  2
FRAMELAYER-167
 70
     0
 62
     7
  6
Continuous
370
    -3
390
F
  0
LAYER
  5
1F8
330
2
100
AcDbSymbolTableRecord
100
AcDbLayerTableRecord
  2
FRAMELAYER-168
 70
     0
 62
     7
  6
Continuous
370
    -3
390
F
  0
LAYER
  5
1F9
330
2
100
AcDbSymbolTableRecord
100
AcDbLayerTableRecord
  2
FRAMELAYER-169
 70
     0
 62
     7
  6
Continuous
370
    -3
390
F
  0
LAYER
  5
1FA
330
2
100
AcDbSymbolTableRecord
100
AcDbLayerTableRecord
  2
FRAMELAYER-170
 70
     0
 62
     7
  6
Continuous
370
    -3
390
F
  0
LAYER
  5
1FB
330
2
100
AcDbSymbolTableRecord
100
AcDbLayerTableRecord
  2
FRAMELAYER-171
 70
     0
 62
     7
  6
Continuous
370
    -3
390
F
  0
LAYER
  5
1FC
330
2
100
AcDbSymbolTableRecord
100
AcDbLayerTableRecord
  2
FRAMELAYER-172
 70
     0
 62
     7
  6
Continuous
370
    -3
390
F
  0
LAYER
  5
1FD
330
2
100
AcDbSymbolTableRecord
100
AcDbLayerTableRecord
  2
FRAMELAYER-173
 70
     0
 62
     7
  6
Continuous
370
    -3
390
F
  0
LAYER
  5
1FE
330
2
100
AcDbSymbolTableRecord
100
AcDbLayerTableRecord
  2
FRAMELAYER-174
 70
     0
 62
     7
  6
Continuous
370
    -3
390
F
  0
LAYER
  5
1FF
330
2
100
AcDbSymbolTableRecord
100
AcDbLayerTableRecord
  2
FRAMELAYER-175
 70
     0
 62
     7
  6
Continuous
370
    -3
390
F
  0
LAYER
  5
200
330
2
100
AcDbSymbolTableRecord
100
AcDbLayerTableRecord
  2
FRAMELAYER-176
 70
     0
 62
     7
  6
Continuous
370
    -3
390
F
  0
LAYER
  5
201
330
2
100
AcDbSymbolTableRecord
100
AcDbLayerTableRecord
  2
FRAMELAYER-177
 70
     0
 62
     7
  6
Continuous
370
    -3
390
F
  0
LAYER
  5
202
330
2
100
AcDbSymbolTableRecord
100
AcDbLayerTableRecord
  2
FRAMELAYER-178
 70
     0
 62
     7
  6
Continuous
370
    -3
390
F
  0
LAYER
  5
203
330
2
100
AcDbSymbolTableRecord
100
AcDbLayerTableRecord
  2
FRAMELAYER-179
 70
     0
 62
     7
  6
Continuous
370
    -3
390
F
  0
LAYER
  5
204
330
2
100
AcDbSymbolTableRecord
100
AcDbLayerTableRecord
  2
FRAMELAYER-180
 70
     0
 62
     7
  6
Continuous
370
    -3
390
F
  0
LAYER
  5
205
330
2
100
AcDbSymbolTableRecord
100
AcDbLayerTableRecord
  2
FRAMELAYER-181
 70
     0
 62
     7
  6
Continuous
370
    -3
390
F
  0
LAYER
  5
206
330
2
100
AcDbSymbolTableRecord
100
AcDbLayerTableRecord
  2
FRAMELAYER-182
 70
     0
 62
     7
  6
Continuous
370
    -3
390
F
  0
LAYER
  5
207
330
2
100
AcDbSymbolTableRecord
100
AcDbLayerTableRecord
  2
FRAMELAYER-183
 70
     0
 62
     7
  6
Continuous
370
    -3
390
F
  0
LAYER
  5
208
330
2
100
AcDbSymbolTableRecord
100
AcDbLayerTableRecord
  2
FRAMELAYER-184
 70
     0
 62
     7
  6
Continuous
370
    -3
390
F
  0
LAYER
  5
209
330
2
100
AcDbSymbolTableRecord
100
AcDbLayerTableRecord
  2
FRAMELAYER-185
 70
     0
 62
     7
  6
Continuous
370
    -3
390
F
  0
LAYER
  5
20A
330
2
100
AcDbSymbolTableRecord
100
AcDbLayerTableRecord
  2
FRAMELAYER-186
 70
     0
 62
     7
  6
Continuous
370
    -3
390
F
  0
LAYER
  5
20B
330
2
100
AcDbSymbolTableRecord
100
AcDbLayerTableRecord
  2
FRAMELAYER-187
 70
     0
 62
     7
  6
Continuous
370
    -3
390
F
  0
LAYER
  5
20C
330
2
100
AcDbSymbolTableRecord
100
AcDbLayerTableRecord
  2
FRAMELAYER-188
 70
     0
 62
     7
  6
Continuous
370
    -3
390
F
  0
LAYER
  5
20D
330
2
100
AcDbSymbolTableRecord
100
AcDbLayerTableRecord
  2
FRAMELAYER-189
 70
     0
 62
     7
  6
Continuous
370
    -3
390
F
  0
LAYER
  5
20E
330
2
100
AcDbSymbolTableRecord
100
AcDbLayerTableRecord
  2
FRAMELAYER-190
 70
     0
 62
     7
  6
Continuous
370
    -3
390
F
  0
LAYER
  5
20F
330
2
100
AcDbSymbolTableRecord
100
AcDbLayerTableRecord
  2
FRAMELAYER-191
 70
     0
 62
     7
  6
Continuous
370
    -3
390
F
  0
LAYER
  5
210
330
2
100
AcDbSymbolTableRecord
100
AcDbLayerTableRecord
  2
FRAMELAYER-192
 70
     0
 62
     7
  6
Continuous
370
    -3
390
F
  0
LAYER
  5
211
330
2
100
AcDbSymbolTableRecord
100
AcDbLayerTableRecord
  2
FRAMELAYER-193
 70
     0
 62
     7
  6
Continuous
370
    -3
390
F
  0
LAYER
  5
212
330
2
100
AcDbSymbolTableRecord
100
AcDbLayerTableRecord
  2
FRAMELAYER-194
 70
     0
 62
     2
  6
Continuous
370
    -3
390
F
  0
LAYER
  5
213
330
2
100
AcDbSymbolTableRecord
100
AcDbLayerTableRecord
  2
FRAMELAYER-195
 70
     0
 62
     2
  6
Continuous
370
    -3
390
F
  0
LAYER
  5
214
330
2
100
AcDbSymbolTableRecord
100
AcDbLayerTableRecord
  2
FRAMELAYER-196
 70
     0
 62
     2
  6
Continuous
370
    -3
390
F
  0
LAYER
  5
215
330
2
100
AcDbSymbolTableRecord
100
AcDbLayerTableRecord
  2
FRAMELAYER-197
 70
     0
 62
     7
  6
Continuous
370
    -3
390
F
  0
LAYER
  5
216
330
2
100
AcDbSymbolTableRecord
100
AcDbLayerTableRecord
  2
FRAMELAYER-198
 70
     0
 62
     7
  6
Continuous
370
    -3
390
F
  0
LAYER
  5
217
330
2
100
AcDbSymbolTableRecord
100
AcDbLayerTableRecord
  2
FRAMELAYER-199
 70
     0
 62
     4
  6
Continuous
370
    -3
390
F
  0
LAYER
  5
218
330
2
100
AcDbSymbolTableRecord
100
AcDbLayerTableRecord
  2
FRAMELAYER-200
 70
     0
 62
     1
  6
Continuous
370
    -3
390
F
  0
LAYER
  5
219
330
2
100
AcDbSymbolTableRecord
100
AcDbLayerTableRecord
  2
FRAMELAYER-201
 70
     0
 62
     1
  6
Continuous
370
    -3
390
F
  0
LAYER
  5
21A
330
2
100
AcDbSymbolTableRecord
100
AcDbLayerTableRecord
  2
FRAMELAYER-202
 70
     0
 62
     2
  6
Continuous
370
    -3
390
F
  0
LAYER
  5
21B
330
2
100
AcDbSymbolTableRecord
100
AcDbLayerTableRecord
  2
FRAMELAYER-203
 70
     0
 62
     2
  6
Continuous
370
    -3
390
F
  0
LAYER
  5
21C
330
2
100
AcDbSymbolTableRecord
100
AcDbLayerTableRecord
  2
FRAMELAYER-204
 70
     0
 62
     7
  6
Continuous
370
    -3
390
F
  0
LAYER
  5
21D
330
2
100
AcDbSymbolTableRecord
100
AcDbLayerTableRecord
  2
FRAMELAYER-205
 70
     0
 62
     7
  6
Continuous
370
    -3
390
F
  0
LAYER
  5
21E
330
2
100
AcDbSymbolTableRecord
100
AcDbLayerTableRecord
  2
FRAMELAYER-206
 70
     0
 62
     7
  6
Continuous
370
    -3
390
F
  0
LAYER
  5
21F
330
2
100
AcDbSymbolTableRecord
100
AcDbLayerTableRecord
  2
FRAMELAYER-207
 70
     0
 62
    -7
  6
Continuous
370
    -3
390
F
  0
LAYER
  5
220
330
2
100
AcDbSymbolTableRecord
100
AcDbLayerTableRecord
  2
FRAMELAYER-208
 70
     0
 62
     2
  6
Continuous
370
    -3
390
F
  0
LAYER
  5
221
330
2
100
AcDbSymbolTableRecord
100
AcDbLayerTableRecord
  2
FRAMELAYER-209
 70
     0
 62
     7
  6
Continuous
370
    -3
390
F
  0
LAYER
  5
222
330
2
100
AcDbSymbolTableRecord
100
AcDbLayerTableRecord
  2
FRAMELAYER-210
 70
     0
 62
     2
  6
Continuous
290
     0
370
    -3
390
F
  0
LAYER
  5
223
330
2
100
AcDbSymbolTableRecord
100
AcDbLayerTableRecord
  2
FRAMELAYER-211
 70
     0
 62
     7
  6
Continuous
370
    -3
390
F
  0
LAYER
  5
224
330
2
100
AcDbSymbolTableRecord
100
AcDbLayerTableRecord
  2
FRAMELAYER-212
 70
     0
 62
     7
  6
Continuous
370
    -3
390
F
  0
LAYER
  5
225
330
2
100
AcDbSymbolTableRecord
100
AcDbLayerTableRecord
  2
FRAMELAYER-213
 70
     0
 62
     2
  6
Continuous
370
    -3
390
F
  0
LAYER
  5
226
330
2
100
AcDbSymbolTableRecord
100
AcDbLayerTableRecord
  2
FRAMELAYER-214
 70
     0
 62
     7
  6
Continuous
370
    -3
390
F
  0
LAYER
  5
227
330
2
100
AcDbSymbolTableRecord
100
AcDbLayerTableRecord
  2
FRAMELAYER-215
 70
     0
 62
     7
  6
Continuous
370
    -3
390
F
  0
LAYER
  5
228
330
2
100
AcDbSymbolTableRecord
100
AcDbLayerTableRecord
  2
FRAMELAYER-216
 70
     0
 62
     4
  6
Continuous
370
    -3
390
F
  0
LAYER
  5
229
330
2
100
AcDbSymbolTableRecord
100
AcDbLayerTableRecord
  2
FRAMELAYER-217
 70
     0
 62
     7
  6
Continuous
370
    -3
390
F
  0
LAYER
  5
22A
330
2
100
AcDbSymbolTableRecord
100
AcDbLayerTableRecord
  2
FRAMELAYER-218
 70
     0
 62
     7
  6
Continuous
370
    -3
390
F
  0
LAYER
  5
22B
330
2
100
AcDbSymbolTableRecord
100
AcDbLayerTableRecord
  2
FRAMELAYER-219
 70
     0
 62
     7
  6
Continuous
370
    -3
390
F
  0
LAYER
  5
22C
330
2
100
AcDbSymbolTableRecord
100
AcDbLayerTableRecord
  2
FRAMELAYER-220
 70
     0
 62
     4
  6
Continuous
370
    -3
390
F
  0
LAYER
  5
22D
330
2
100
AcDbSymbolTableRecord
100
AcDbLayerTableRecord
  2
FRAMELAYER-221
 70
     0
 62
    -7
  6
Continuous
290
     0
370
    -3
390
F
  0
LAYER
  5
22E
330
2
100
AcDbSymbolTableRecord
100
AcDbLayerTableRecord
  2
FRAMELAYER-222
 70
     0
 62
    -4
  6
Continuous
290
     0
370
    -3
390
F
  0
LAYER
  5
22F
330
2
100
AcDbSymbolTableRecord
100
AcDbLayerTableRecord
  2
FRAMELAYER-223
 70
     0
 62
    -1
  6
Continuous
290
     0
370
    -3
390
F
  0
LAYER
  5
230
330
2
100
AcDbSymbolTableRecord
100
AcDbLayerTableRecord
  2
FRAMELAYER-224
 70
     0
 62
    -1
  6
Continuous
290
     0
370
    -3
390
F
  0
LAYER
  5
231
330
2
100
AcDbSymbolTableRecord
100
AcDbLayerTableRecord
  2
FRAMELAYER-225
 70
     0
 62
     7
  6
Continuous
370
    -3
390
F
  0
LAYER
  5
232
330
2
100
AcDbSymbolTableRecord
100
AcDbLayerTableRecord
  2
FRAMELAYER-226
 70
     0
 62
     2
  6
Continuous
370
    -3
390
F
  0
LAYER
  5
233
330
2
100
AcDbSymbolTableRecord
100
AcDbLayerTableRecord
  2
FRAMELAYER-227
 70
     0
 62
     7
  6
Continuous
370
    -3
390
F
  0
LAYER
  5
234
330
2
100
AcDbSymbolTableRecord
100
AcDbLayerTableRecord
  2
FRAMELAYER-228
 70
     0
 62
     7
  6
Continuous
370
    -3
390
F
  0
LAYER
  5
235
330
2
100
AcDbSymbolTableRecord
100
AcDbLayerTableRecord
  2
FRAMELAYER-229
 70
     0
 62
     7
  6
Continuous
370
    -3
390
F
  0
LAYER
  5
236
330
2
100
AcDbSymbolTableRecord
100
AcDbLayerTableRecord
  2
FRAMELAYER-230
 70
     0
 62
     7
  6
Continuous
370
    -3
390
F
  0
LAYER
  5
237
330
2
100
AcDbSymbolTableRecord
100
AcDbLayerTableRecord
  2
FRAMELAYER-231
 70
     0
 62
     7
  6
Continuous
370
    -3
390
F
  0
LAYER
  5
238
330
2
100
AcDbSymbolTableRecord
100
AcDbLayerTableRecord
  2
FRAMELAYER-232
 70
     0
 62
     7
  6
Continuous
370
    -3
390
F
  0
LAYER
  5
239
330
2
100
AcDbSymbolTableRecord
100
AcDbLayerTableRecord
  2
FRAMELAYER-233
 70
     0
 62
     7
  6
Continuous
370
    -3
390
F
  0
LAYER
  5
23A
330
2
100
AcDbSymbolTableRecord
100
AcDbLayerTableRecord
  2
FRAMELAYER-234
 70
     0
 62
     7
  6
Continuous
370
    -3
390
F
  0
LAYER
  5
23B
330
2
100
AcDbSymbolTableRecord
100
AcDbLayerTableRecord
  2
FRAMELAYER-235
 70
     0
 62
     7
  6
Continuous
370
    -3
390
F
  0
LAYER
  5
23C
330
2
100
AcDbSymbolTableRecord
100
AcDbLayerTableRecord
  2
FRAMELAYER-236
 70
     0
 62
     7
  6
Continuous
370
    -3
390
F
  0
LAYER
  5
23D
330
2
100
AcDbSymbolTableRecord
100
AcDbLayerTableRecord
  2
FRAMELAYER-237
 70
     0
 62
     7
  6
Continuous
370
    -3
390
F
  0
LAYER
  5
23E
330
2
100
AcDbSymbolTableRecord
100
AcDbLayerTableRecord
  2
FRAMELAYER-238
 70
     0
 62
     7
  6
Continuous
370
    -3
390
F
  0
LAYER
  5
23F
330
2
100
AcDbSymbolTableRecord
100
AcDbLayerTableRecord
  2
FRAMELAYER-239
 70
     0
 62
     7
  6
Continuous
370
    -3
390
F
  0
LAYER
  5
240
330
2
100
AcDbSymbolTableRecord
100
AcDbLayerTableRecord
  2
FRAMELAYER-240
 70
     0
 62
     7
  6
Continuous
370
    -3
390
F
  0
LAYER
  5
241
330
2
100
AcDbSymbolTableRecord
100
AcDbLayerTableRecord
  2
FRAMELAYER-241
 70
     0
 62
     7
  6
Continuous
370
    -3
390
F
  0
LAYER
  5
242
330
2
100
AcDbSymbolTableRecord
100
AcDbLayerTableRecord
  2
FRAMELAYER-242
 70
     0
 62
     7
  6
Continuous
370
    -3
390
F
  0
LAYER
  5
243
330
2
100
AcDbSymbolTableRecord
100
AcDbLayerTableRecord
  2
FRAMELAYER-243
 70
     0
 62
     7
  6
Continuous
370
    -3
390
F
  0
LAYER
  5
244
330
2
100
AcDbSymbolTableRecord
100
AcDbLayerTableRecord
  2
FRAMELAYER-244
 70
     0
 62
     7
  6
Continuous
370
    -3
390
F
  0
LAYER
  5
245
330
2
100
AcDbSymbolTableRecord
100
AcDbLayerTableRecord
  2
FRAMELAYER-245
 70
     0
 62
     7
  6
Continuous
370
    -3
390
F
  0
LAYER
  5
246
330
2
100
AcDbSymbolTableRecord
100
AcDbLayerTableRecord
  2
FRAMELAYER-246
 70
     0
 62
     7
  6
Continuous
370
    -3
390
F
  0
LAYER
  5
247
330
2
100
AcDbSymbolTableRecord
100
AcDbLayerTableRecord
  2
FRAMELAYER-247
 70
     0
 62
     7
  6
Continuous
370
    -3
390
F
  0
LAYER
  5
248
330
2
100
AcDbSymbolTableRecord
100
AcDbLayerTableRecord
  2
FRAMELAYER-248
 70
     0
 62
     7
  6
Continuous
370
    -3
390
F
  0
LAYER
  5
249
330
2
100
AcDbSymbolTableRecord
100
AcDbLayerTableRecord
  2
FRAMELAYER-249
 70
     0
 62
     7
  6
Continuous
370
    -3
390
F
  0
LAYER
  5
24A
330
2
100
AcDbSymbolTableRecord
100
AcDbLayerTableRecord
  2
FRAMELAYER-250
 70
     0
 62
     7
  6
Continuous
370
    -3
390
F
  0
LAYER
  5
24B
330
2
100
AcDbSymbolTableRecord
100
AcDbLayerTableRecord
  2
FRAMELAYER-251
 70
     0
 62
     7
  6
Continuous
370
    -3
390
F
  0
LAYER
  5
24C
330
2
100
AcDbSymbolTableRecord
100
AcDbLayerTableRecord
  2
FRAMELAYER-252
 70
     0
 62
     7
  6
Continuous
370
    -3
390
F
  0
LAYER
  5
24D
330
2
100
AcDbSymbolTableRecord
100
AcDbLayerTableRecord
  2
FRAMELAYER-253
 70
     0
 62
     7
  6
Continuous
370
    -3
390
F
  0
LAYER
  5
24E
330
2
100
AcDbSymbolTableRecord
100
AcDbLayerTableRecord
  2
FRAMELAYER-254
 70
     0
 62
     7
  6
Continuous
370
    -3
390
F
  0
LAYER
  5
24F
330
2
100
AcDbSymbolTableRecord
100
AcDbLayerTableRecord
  2
FRAMELAYER-255
 70
     0
 62
     7
  6
Continuous
370
    -3
390
F
  0
LAYER
  5
250
330
2
100
AcDbSymbolTableRecord
100
AcDbLayerTableRecord
  2
FRAMELAYER-256
 70
     0
 62
     7
  6
Continuous
370
    -3
390
F
  0
ENDTAB
  0
TABLE
  2
STYLE
  5
3
330
0
100
AcDbSymbolTable
 70
     7
  0
STYLE
  5
11
330
3
100
AcDbSymbolTableRecord
100
AcDbTextStyleTableRecord
  2
Standard
 70
     0
 40
0.0
 41
1.0
 50
0.0
 71
     0
 42
2.5
  3
txt
  4

  0
STYLE
  5
31
330
3
100
AcDbSymbolTableRecord
100
AcDbTextStyleTableRecord
  2
STANDARD2
 70
     0
 40
0.0
 41
1.0
 50
0.0
 71
     0
 42
4.0
  3
MS Mincho.ttf
  4

1001
ACAD
1000
MS Mincho
1071
    32785
  0
STYLE
  5
32
330
3
100
AcDbSymbolTableRecord
100
AcDbTextStyleTableRecord
  2
STRING_H
 70
     0
 40
0.0
 41
1.0
 50
0.0
 71
     0
 42
4.0
  3
MS Mincho.ttf
  4

1001
ACAD
1000
MS Mincho
1071
    32785
  0
STYLE
  5
33
330
3
100
AcDbSymbolTableRecord
100
AcDbTextStyleTableRecord
  2
STRING_H_ITALIC
 70
     0
 40
0.0
 41
1.0
 50
15.0
 71
     0
 42
4.0
  3
MS Mincho.ttf
  4

1001
ACAD
1000
MS Mincho
1071
    32785
  0
STYLE
  5
34
330
3
100
AcDbSymbolTableRecord
100
AcDbTextStyleTableRecord
  2
STRING_V
 70
     0
 40
0.0
 41
1.0
 50
0.0
 71
     0
 42
4.0
  3
@MS Mincho.ttf
  4

1001
ACAD
1000
@MS Mincho
1071
    32785
  0
STYLE
  5
35
330
3
100
AcDbSymbolTableRecord
100
AcDbTextStyleTableRecord
  2
STRING_V_ITALIC
 70
     0
 40
0.0
 41
1.0
 50
15.0
 71
     0
 42
4.0
  3
@MS Mincho.ttf
  4

1001
ACAD
1000
@MS Mincho
1071
    32785
  0
STYLE
  5
36
330
3
100
AcDbSymbolTableRecord
100
AcDbTextStyleTableRecord
  2

 70
     1
 40
0.0
 41
1.0
 50
0.0
 71
     0
 42
0.2
  3
ltypeshp.shx
  4

  0
ENDTAB
  0
TABLE
  2
VIEW
  5
6
330
0
100
AcDbSymbolTable
 70
     0
  0
ENDTAB
  0
TABLE
  2
UCS
  5
7
330
0
100
AcDbSymbolTable
 70
     0
  0
ENDTAB
  0
TABLE
  2
APPID
  5
9
330
0
100
AcDbSymbolTable
 70
     1
  0
APPID
  5
12
330
9
100
AcDbSymbolTableRecord
100
AcDbRegAppTableRecord
  2
ACAD
 70
     0
  0
ENDTAB
  0
TABLE
  2
DIMSTYLE
  5
A
330
0
100
AcDbSymbolTable
 70
     2
100
AcDbDimStyleTable
  0
DIMSTYLE
105
27
330
A
100
AcDbSymbolTableRecord
100
AcDbDimStyleTableRecord
  2
ISO-25
 70
     0
 41
2.5
 42
0.625
 43
3.75
 44
1.25
 73
     0
 74
     0
 77
     1
 78
     8
140
2.5
141
2.5
143
0.03937007874016
147
0.625
171
     3
172
     1
271
     2
272
     2
274
     3
283
     0
284
     8
340
11
  0
DIMSTYLE
105
251
102
{ACAD_REACTORS
330
4B4
330
4BE
330
4C8
330
4D2
330
4DC
330
4E6
102
}
330
A
100
AcDbSymbolTableRecord
100
AcDbDimStyleTableRecord
  2
DIO_DIMSTYLE
 70
     0
 41
4.0
 42
1.0
 43
3.75
 44
1.0
 45
0.1
 73
     0
 74
     0
 77
     1
 78
     8
 79
     2
140
3.0
141
2.5
143
0.03937007874016
147
0.5
171
     3
172
     1
173
     1
179
     1
271
     1
272
     1
274
     3
283
     0
284
     8
288
     1
289
     0
340
31
  0
ENDTAB
  0
TABLE
  2
BLOCK_RECORD
  5
1
330
0
100
AcDbSymbolTable
 70
     8
  0
BLOCK_RECORD
  5
1F
330
1
100
AcDbSymbolTableRecord
100
AcDbBlockTableRecord
  2
*Model_Space
340
22
  0
BLOCK_RECORD
  5
1B
330
1
100
AcDbSymbolTableRecord
100
AcDbBlockTableRecord
  2
*Paper_Space
340
1E
  0
BLOCK_RECORD
  5
23
330
1
100
AcDbSymbolTableRecord
100
AcDbBlockTableRecord
  2
*Paper_Space0
340
26
  0
BLOCK_RECORD
  5
4A5
330
1
100
AcDbSymbolTableRecord
100
AcDbBlockTableRecord
  2
_OPEN
340
0
102
{BLKREFS
331
4AE
331
4AF
331
4B8
331
4B9
331
4C2
331
4C3
331
4CC
331
4CD
331
4D6
331
4D7
331
4E0
331
4E1
102
}
  0
BLOCK_RECORD
  5
4AB
330
1
100
AcDbSymbolTableRecord
100
AcDbBlockTableRecord
  2
*D02
340
0
  0
BLOCK_RECORD
  5
4B5
330
1
100
AcDbSymbolTableRecord
100
AcDbBlockTableRecord
  2
*D13
340
0
  0
BLOCK_RECORD
  5
4BF
330
1
100
AcDbSymbolTableRecord
100
AcDbBlockTableRecord
  2
*D24
340
0
  0
BLOCK_RECORD
  5
4C9
330
1
100
AcDbSymbolTableRecord
100
AcDbBlockTableRecord
  2
*D35
340
0
  0
BLOCK_RECORD
  5
4D3
330
1
100
AcDbSymbolTableRecord
100
AcDbBlockTableRecord
  2
*D46
340
0
  0
BLOCK_RECORD
  5
4DD
330
1
100
AcDbSymbolTableRecord
100
AcDbBlockTableRecord
  2
*D57
340
0
  0
ENDTAB
  0
ENDSEC
  0
SECTION
  2
BLOCKS
  0
BLOCK
  5
20
330
1F
100
AcDbEntity
  8
0
100
AcDbBlockBegin
  2
*Model_Space
 70
     0
 71
     0
 10
0.0
 20
0.0
 30
0.0
  3
*Model_Space
  1

  0
ENDBLK
  5
21
330
1F
100
AcDbEntity
  8
0
100
AcDbBlockEnd
  0
BLOCK
  5
1C
330
1B
100
AcDbEntity
 67
     1
  8
0
100
AcDbBlockBegin
  2
*Paper_Space
 70
     0
 71
     0
 10
0.0
 20
0.0
 30
0.0
  3
*Paper_Space
  1

  0
ENDBLK
  5
1D
330
1B
100
AcDbEntity
 67
     1
  8
0
100
AcDbBlockEnd
  0
BLOCK
  5
24
330
23
100
AcDbEntity
  8
0
100
AcDbBlockBegin
  2
*Paper_Space0
 70
     0
 71
     0
 10
0.0
 20
0.0
 30
0.0
  3
*Paper_Space0
  1

  0
ENDBLK
  5
25
330
23
100
AcDbEntity
  8
0
100
AcDbBlockEnd
  0
BLOCK
  5
4A6
330
4A5
100
AcDbEntity
  8
0
100
AcDbBlockBegin
  2
_OPEN
 70
     0
 71
     0
 10
0.0
 20
0.0
 30
0.0
  3
_OPEN
  1

  0
LINE
  5
4A8
330
4A5
100
AcDbEntity
  8
LAYER-035
  6
Continuous
 62
     0
100
AcDbLine
 10
0.0
 20
0.0
 30
0.0
 11
-1.0
 21
0.0
 31
0.0
  0
LINE
  5
4A9
330
4A5
100
AcDbEntity
  8
LAYER-035
  6
Continuous
 62
     0
100
AcDbLine
 10
0.0
 20
0.0
 30
0.0
 11
-1.0
 21
0.1666250109338451
 31
0.0
  0
LINE
  5
4AA
330
4A5
100
AcDbEntity
  8
LAYER-035
  6
Continuous
 62
     0
100
AcDbLine
 10
0.0
 20
0.0
 30
0.0
 11
-1.0
 21
-0.1666250109338451
 31
0.0
  0
ENDBLK
  5
4A7
330
4A5
100
AcDbEntity
  8
0
100
AcDbBlockEnd
  0
BLOCK
  5
4AC
330
4AB
100
AcDbEntity
  8
0
100
AcDbBlockBegin
  2
*D02
 70
     1
 71
     0
 10
0.0
 20
0.0
 30
0.0
  3
*D02
  1

  0
INSERT
  5
4AE
330
4AB
100
AcDbEntity
  8
LAYER-035
  6
Continuous
 62
     5
100
AcDbBlockReference
  2
_OPEN
 10
523.7072648181793
 20
41.73627476202728
 30
0.0
 41
4.0
 42
4.0
 43
4.0
  0
INSERT
  5
4AF
330
4AB
100
AcDbEntity
  8
LAYER-035
  6
Continuous
 62
     5
100
AcDbBlockReference
  2
_OPEN
 10
163.7072648181792
 20
41.73627476202728
 30
0.0
 41
4.0
 42
4.0
 43
4.0
 50
180.0
  0
LINE
  5
4B0
330
4AB
100
AcDbEntity
  8
LAYER-035
  6
Continuous
 62
     5
100
AcDbLine
 10
523.7072648181793
 20
132.8053902167827
 30
0.0
 11
523.7072648181793
 21
40.73627476202728
 31
0.0
  0
LINE
  5
4B1
330
4AB
100
AcDbEntity
  8
LAYER-035
  6
Continuous
 62
     5
100
AcDbLine
 10
163.7072648181792
 20
132.8053902167827
 30
0.0
 11
163.7072648181792
 21
40.73627476202728
 31
0.0
  0
LINE
  5
4B2
330
4AB
100
AcDbEntity
  8
LAYER-035
  6
Continuous
 62
     5
100
AcDbLine
 10
523.7072648181793
 20
41.73627476202728
 30
0.0
 11
163.7072648181792
 21
41.73627476202728
 31
0.0
  0
MTEXT
  5
4B3
330
4AB
100
AcDbEntity
  8
LAYER-036
  6
Continuous
 62
     5
100
AcDbMText
 10
336.0175276197454
 20
42.23627476202728
 30
0.0
 40
4.0
 41
0.0
 71
     8
 72
     1
  1
360
  7
STRING_H
 73
     1
 44
1.0
  0
ENDBLK
  5
4AD
330
4AB
100
AcDbEntity
  8
0
100
AcDbBlockEnd
  0
BLOCK
  5
4B6
330
4B5
100
AcDbEntity
  8
0
100
AcDbBlockBegin
  2
*D13
 70
     1
 71
     0
 10
0.0
 20
0.0
 30
0.0
  3
*D13
  1

  0
INSERT
  5
4B8
330
4B5
100
AcDbEntity
  8
LAYER-035
  6
Continuous
 62
     5
100
AcDbBlockReference
  2
_OPEN
 10
171.2072648181792
 20
-224.9234826173499
 30
0.0
 41
4.0
 42
4.0
 43
4.0
 50
180.0
  0
INSERT
  5
4B9
330
4B5
100
AcDbEntity
  8
LAYER-035
  6
Continuous
 62
     5
100
AcDbBlockReference
  2
_OPEN
 10
516.2072648181793
 20
-224.9234826173499
 30
0.0
 41
4.0
 42
4.0
 43
4.0
  0
LINE
  5
4BA
330
4B5
100
AcDbEntity
  8
LAYER-035
  6
Continuous
 62
     5
100
AcDbLine
 10
171.2072648181792
 20
-134.5334120865882
 30
0.0
 11
171.2072648181792
 21
-225.9234826173499
 31
0.0
  0
LINE
  5
4BB
330
4B5
100
AcDbEntity
  8
LAYER-035
  6
Continuous
 62
     5
100
AcDbLine
 10
516.2072648181793
 20
-134.5334120865882
 30
0.0
 11
516.2072648181793
 21
-225.9234826173499
 31
0.0
  0
LINE
  5
4BC
330
4B5
100
AcDbEntity
  8
LAYER-035
  6
Continuous
 62
     5
100
AcDbLine
 10
171.2072648181792
 20
-224.9234826173499
 30
0.0
 11
516.2072648181793
 21
-224.9234826173499
 31
0.0
  0
MTEXT
  5
4BD
330
4B5
100
AcDbEntity
  8
LAYER-036
  6
Continuous
 62
     5
100
AcDbMText
 10
343.7072648181793
 20
-224.4234826173499
 30
0.0
 40
4.0
 41
0.0
 71
     8
 72
     1
  1
345
  7
STRING_H
 73
     1
 44
1.0
  0
ENDBLK
  5
4B7
330
4B5
100
AcDbEntity
  8
0
100
AcDbBlockEnd
  0
BLOCK
  5
4C0
330
4BF
100
AcDbEntity
  8
0
100
AcDbBlockBegin
  2
*D24
 70
     1
 71
     0
 10
0.0
 20
0.0
 30
0.0
  3
*D24
  1

  0
INSERT
  5
4C2
330
4BF
100
AcDbEntity
  8
LAYER-035
  6
Continuous
 62
     5
100
AcDbBlockReference
  2
_OPEN
 10
493.7072648181792
 20
-190.8612510140521
 30
0.0
 41
4.0
 42
4.0
 43
4.0
  0
INSERT
  5
4C3
330
4BF
100
AcDbEntity
  8
LAYER-035
  6
Continuous
 62
     5
100
AcDbBlockReference
  2
_OPEN
 10
193.7072648181792
 20
-190.8612510140521
 30
0.0
 41
4.0
 42
4.0
 43
4.0
 50
180.0
  0
LINE
  5
4C4
330
4BF
100
AcDbEntity
  8
LAYER-035
  6
Continuous
 62
     5
100
AcDbLine
 10
493.7072648181792
 20
-147.6593960865912
 30
0.0
 11
493.7072648181792
 21
-191.8612510140521
 31
0.0
  0
LINE
  5
4C5
330
4BF
100
AcDbEntity
  8
LAYER-035
  6
Continuous
 62
     5
100
AcDbLine
 10
193.7072648181792
 20
-147.6593960865912
 30
0.0
 11
193.7072648181792
 21
-191.8612510140521
 31
0.0
  0
LINE
  5
4C6
330
4BF
100
AcDbEntity
  8
LAYER-035
  6
Continuous
 62
     5
100
AcDbLine
 10
493.7072648181792
 20
-190.8612510140521
 30
0.0
 11
193.7072648181792
 21
-190.8612510140521
 31
0.0
  0
MTEXT
  5
4C7
330
4BF
100
AcDbEntity
  8
LAYER-036
  6
Continuous
 62
     5
100
AcDbMText
 10
343.7072648181792
 20
-190.3612510140521
 30
0.0
 40
4.0
 41
0.0
 71
     8
 72
     1
  1
300
  7
STRING_H
 73
     1
 44
1.0
  0
ENDBLK
  5
4C1
330
4BF
100
AcDbEntity
  8
0
100
AcDbBlockEnd
  0
BLOCK
  5
4CA
330
4C9
100
AcDbEntity
  8
0
100
AcDbBlockBegin
  2
*D35
 70
     1
 71
     0
 10
0.0
 20
0.0
 30
0.0
  3
*D35
  1

  0
INSERT
  5
4CC
330
4C9
100
AcDbEntity
  8
LAYER-035
  6
Continuous
 62
     5
100
AcDbBlockReference
  2
_OPEN
 10
-515.8339537266002
 20
336.4665879134118
 30
0.0
 41
4.0
 42
4.0
 43
4.0
 50
90.0
  0
INSERT
  5
4CD
330
4C9
100
AcDbEntity
  8
LAYER-035
  6
Continuous
 62
     5
100
AcDbBlockReference
  2
_OPEN
 10
-515.8339537266002
 20
-133.5334120865882
 30
0.0
 41
4.0
 42
4.0
 43
4.0
 50
-90.0
  0
LINE
  5
4CE
330
4C9
100
AcDbEntity
  8
LAYER-035
  6
Continuous
 62
     5
100
AcDbLine
 10
-459.9200204290092
 20
336.4665879134118
 30
0.0
 11
-516.8339537266002
 21
336.4665879134118
 31
0.0
  0
LINE
  5
4CF
330
4C9
100
AcDbEntity
  8
LAYER-035
  6
Continuous
 62
     5
100
AcDbLine
 10
-470.4818181818182
 20
-133.5334120865882
 30
0.0
 11
-516.8339537266002
 21
-133.5334120865882
 31
0.0
  0
LINE
  5
4D0
330
4C9
100
AcDbEntity
  8
LAYER-035
  6
Continuous
 62
     5
100
AcDbLine
 10
-515.8339537266002
 20
336.4665879134118
 30
0.0
 11
-515.8339537266002
 21
-133.5334120865882
 31
0.0
  0
MTEXT
  5
4D1
330
4C9
100
AcDbEntity
  8
LAYER-036
  6
Continuous
 62
     5
100
AcDbMText
 10
-516.3339537266002
 20
101.4665879134118
 30
0.0
 40
4.0
 41
0.0
 71
     8
 72
     1
  1
470
  7
STRING_H
 11
6.123031769111886E-17
 21
1.0
 31
0.0
 73
     1
 44
1.0
  0
ENDBLK
  5
4CB
330
4C9
100
AcDbEntity
  8
0
100
AcDbBlockEnd
  0
BLOCK
  5
4D4
330
4D3
100
AcDbEntity
  8
0
100
AcDbBlockBegin
  2
*D46
 70
     1
 71
     0
 10
0.0
 20
0.0
 30
0.0
  3
*D46
  1

  0
INSERT
  5
4D6
330
4D3
100
AcDbEntity
  8
LAYER-035
  6
Continuous
 62
     5
100
AcDbBlockReference
  2
_OPEN
 10
3.018181818181802
 20
-179.2389421054408
 30
0.0
 41
4.0
 42
4.0
 43
4.0
  0
INSERT
  5
4D7
330
4D3
100
AcDbEntity
  8
LAYER-035
  6
Continuous
 62
     5
100
AcDbBlockReference
  2
_OPEN
 10
-426.9818181818182
 20
-179.2389421054408
 30
0.0
 41
4.0
 42
4.0
 43
4.0
 50
180.0
  0
LINE
  5
4D8
330
4D3
100
AcDbEntity
  8
LAYER-035
  6
Continuous
 62
     5
100
AcDbLine
 10
3.018181818181802
 20
-147.6685939742292
 30
0.0
 11
3.018181818181802
 21
-180.2389421054408
 31
0.0
  0
LINE
  5
4D9
330
4D3
100
AcDbEntity
  8
LAYER-035
  6
Continuous
 62
     5
100
AcDbLine
 10
-426.9818181818182
 20
-147.6685939742292
 30
0.0
 11
-426.9818181818182
 21
-180.2389421054408
 31
0.0
  0
LINE
  5
4DA
330
4D3
100
AcDbEntity
  8
LAYER-035
  6
Continuous
 62
     5
100
AcDbLine
 10
3.018181818181802
 20
-179.2389421054408
 30
0.0
 11
-426.9818181818182
 21
-179.2389421054408
 31
0.0
  0
MTEXT
  5
4DB
330
4D3
100
AcDbEntity
  8
LAYER-036
  6
Continuous
 62
     5
100
AcDbMText
 10
-211.9818181818182
 20
-178.7389421054408
 30
0.0
 40
4.0
 41
0.0
 71
     8
 72
     1
  1
430
  7
STRING_H
 73
     1
 44
1.0
  0
ENDBLK
  5
4D5
330
4D3
100
AcDbEntity
  8
0
100
AcDbBlockEnd
  0
BLOCK
  5
4DE
330
4DD
100
AcDbEntity
  8
0
100
AcDbBlockBegin
  2
*D57
 70
     1
 71
     0
 10
0.0
 20
0.0
 30
0.0
  3
*D57
  1

  0
INSERT
  5
4E0
330
4DD
100
AcDbEntity
  8
LAYER-035
  6
Continuous
 62
     5
100
AcDbBlockReference
  2
_OPEN
 10
-469.4818181818182
 20
-210.3006910588285
 30
0.0
 41
4.0
 42
4.0
 43
4.0
 50
180.0
  0
INSERT
  5
4E1
330
4DD
100
AcDbEntity
  8
LAYER-035
  6
Continuous
 62
     5
100
AcDbBlockReference
  2
_OPEN
 10
45.5181818181818
 20
-210.3006910588285
 30
0.0
 41
4.0
 42
4.0
 43
4.0
  0
LINE
  5
4E2
330
4DD
100
AcDbEntity
  8
LAYER-035
  6
Continuous
 62
     5
100
AcDbLine
 10
-469.4818181818182
 20
-134.5334120865882
 30
0.0
 11
-469.4818181818182
 21
-211.3006910588285
 31
0.0
  0
LINE
  5
4E3
330
4DD
100
AcDbEntity
  8
LAYER-035
  6
Continuous
 62
     5
100
AcDbLine
 10
45.5181818181818
 20
-134.5334120865882
 30
0.0
 11
45.5181818181818
 21
-211.3006910588285
 31
0.0
  0
LINE
  5
4E4
330
4DD
100
AcDbEntity
  8
LAYER-035
  6
Continuous
 62
     5
100
AcDbLine
 10
-469.4818181818182
 20
-210.3006910588285
 30
0.0
 11
45.5181818181818
 21
-210.3006910588285
 31
0.0
  0
MTEXT
  5
4E5
330
4DD
100
AcDbEntity
  8
LAYER-036
  6
Continuous
 62
     5
100
AcDbMText
 10
-211.9818181818182
 20
-209.8006910588285
 30
0.0
 40
4.0
 41
0.0
 71
     8
 72
     1
  1
515
  7
STRING_H
 73
     1
 44
1.0
  0
ENDBLK
  5
4DF
330
4DD
100
AcDbEntity
  8
0
100
AcDbBlockEnd
  0
ENDSEC
  0
SECTION
  2
ENTITIES
  0
LINE
  5
252
330
1F
100
AcDbEntity
  8
LAYER-033
  6
Continuous
 62
     1
100
AcDbLine
 10
-80.71560684896083
 20
-329.6874666140873
 30
0.0
 11
37.0295179814872
 21
-329.6874666140873
 31
0.0
  0
LINE
  5
253
330
1F
100
AcDbEntity
  8
LAYER-033
  6
Continuous
 62
     1
100
AcDbLine
 10
-80.71560684896083
 20
-337.7729167153917
 30
0.0
 11
-22.64859653968249
 21
-337.7729167153917
 31
0.0
  0
LINE
  5
254
330
1F
100
AcDbEntity
  8
LAYER-033
  6
Continuous
 62
     1
100
AcDbLine
 10
-80.71560684896083
 20
-321.6020165127829
 30
0.0
 11
-22.64859653968249
 21
-321.6020165127829
 31
0.0
  0
LINE
  5
255
330
1F
100
AcDbEntity
  8
LAYER-256
  6
Continuous
 62
     1
100
AcDbLine
 10
492.3328328181814
 20
339.0678625313875
 30
0.0
 11
506.7795088181792
 21
339.0678625313875
 31
0.0
  0
LINE
  5
256
330
1F
100
AcDbEntity
  8
LAYER-256
  6
Continuous
 62
     1
100
AcDbLine
 10
-458.9200204290092
 20
336.4665879134118
 30
0.0
 11
-458.9200204290092
 21
211.4665879134118
 31
0.0
  0
LINE
  5
257
330
1F
100
AcDbEntity
  8
LAYER-256
  6
Continuous
 62
     1
100
AcDbLine
 10
-458.9200204290092
 20
336.4665879134118
 30
0.0
 11
34.95638406537279
 21
336.4665879134118
 31
0.0
  0
LINE
  5
258
330
1F
100
AcDbEntity
  8
LAYER-256
  6
Continuous
 62
     1
100
AcDbLine
 10
-443.3169297997968
 20
336.4665879134118
 30
0.0
 11
-443.3169297997968
 21
211.6466887448725
 31
0.0
  0
LINE
  5
259
330
1F
100
AcDbEntity
  8
LAYER-256
  6
Continuous
 62
     1
100
AcDbLine
 10
19.35329237997738
 20
336.4665879134118
 30
0.0
 11
19.35329237997738
 21
211.6466887448725
 31
0.0
  0
LINE
  5
25A
330
1F
100
AcDbEntity
  8
LAYER-256
  6
Continuous
 62
     1
100
AcDbLine
 10
34.95638406537279
 20
336.4665879134118
 30
0.0
 11
34.95638406537279
 21
211.6466887448725
 31
0.0
  0
LINE
  5
25B
330
1F
100
AcDbEntity
  8
LAYER-256
  6
Continuous
 62
     1
100
AcDbLine
 10
458.7072648181792
 20
336.4665879134118
 30
0.0
 11
492.3328328181814
 21
336.4665879134118
 31
0.0
  0
ARC
  5
25C
330
1F
100
AcDbEntity
  8
LAYER-256
  6
Continuous
 62
     1
100
AcDbCircle
 10
508.6542218181812
 20
332.6873175347442
 30
0.0
 40
37.275857
100
AcDbArc
 50
248.070261001929
 51
264.3383439978807
  0
ARC
  5
25D
330
1F
100
AcDbEntity
  8
LAYER-256
  6
Continuous
 62
     1
100
AcDbCircle
 10
504.779508818181
 20
326.5211315292416
 30
0.0
 40
2.0
100
AcDbArc
 50
275.6616560060973
 51
0.0
  0
LINE
  5
25E
330
1F
100
AcDbEntity
  8
LAYER-256
  6
Continuous
 62
     1
100
AcDbLine
 10
506.7795088181792
 20
326.5211315292416
 30
0.0
 11
506.7795088181792
 21
339.0678625313875
 31
0.0
  0
LINE
  5
25F
330
1F
100
AcDbEntity
  8
LAYER-256
  6
Continuous
 62
     1
100
AcDbLine
 10
494.7328328181793
 20
322.0155395316952
 30
0.0
 11
494.7328328181793
 21
298.1086475313871
 31
0.0
  0
LINE
  5
260
330
1F
100
AcDbEntity
  8
LAYER-256
  6
Continuous
 62
     1
100
AcDbLine
 10
456.3072648181814
 20
320.0308995313865
 30
0.0
 11
456.3072648181814
 21
300.0932885313862
 31
0.0
  0
LINE
  5
261
330
1F
100
AcDbEntity
  8
LAYER-256
  6
Continuous
 62
     1
100
AcDbLine
 10
458.7072648181792
 20
320.0308995313865
 30
0.0
 11
456.3072648181814
 21
320.0308995313865
 31
0.0
  0
LINE
  5
262
330
1F
100
AcDbEntity
  8
LAYER-256
  6
Continuous
 62
     1
100
AcDbLine
 10
494.7328328181793
 20
320.0308995313865
 30
0.0
 11
492.3328328181814
 21
320.0308995313865
 31
0.0
  0
LINE
  5
263
330
1F
100
AcDbEntity
  8
LAYER-256
  6
Continuous
 62
     1
100
AcDbLine
 10
-375.6896833503575
 20
320.1235567448693
 30
0.0
 11
-366.976200204292
 21
315.092825666216
 31
0.0
  0
LINE
  5
264
330
1F
100
AcDbEntity
  8
LAYER-256
  6
Continuous
 62
     1
100
AcDbLine
 10
-310.2065372829418
 20
320.1235567448693
 30
0.0
 11
-301.4930541368734
 21
315.092825666216
 31
0.0
  0
LINE
  5
265
330
1F
100
AcDbEntity
  8
LAYER-256
  6
Continuous
 62
     1
100
AcDbLine
 10
-244.7233912155261
 20
320.1235567448693
 30
0.0
 11
-236.0099080694596
 21
315.092825666216
 31
0.0
  0
LINE
  5
266
330
1F
100
AcDbEntity
  8
LAYER-256
  6
Continuous
 62
     1
100
AcDbLine
 10
-179.2402451481113
 20
320.1235567448693
 30
0.0
 11
-170.5267620020458
 21
315.092825666216
 31
0.0
  0
LINE
  5
267
330
1F
100
AcDbEntity
  8
LAYER-256
  6
Continuous
 62
     1
100
AcDbLine
 10
-113.7570990806975
 20
320.1235567448693
 30
0.0
 11
-105.043615935
 21
315.092825666216
 31
0.0
  0
LINE
  5
268
330
1F
100
AcDbEntity
  8
LAYER-256
  6
Continuous
 62
     1
100
AcDbLine
 10
-48.27395301327888
 20
320.1235567448693
 30
0.0
 11
-39.56046986721339
 21
315.092825666216
 31
0.0
  0
LINE
  5
269
330
1F
100
AcDbEntity
  8
LAYER-256
  6
Continuous
 62
     1
100
AcDbLine
 10
447.9898628181817
 20
318.3325975313867
 30
0.0
 11
456.3072648181814
 21
318.3325975313867
 31
0.0
  0
LINE
  5
26A
330
1F
100
AcDbEntity
  8
LAYER-256
  6
Continuous
 62
     1
100
AcDbLine
 10
503.0502358181802
 20
318.3325975313867
 30
0.0
 11
494.7328328181793
 21
318.3325975313867
 31
0.0
  0
ARC
  5
26B
330
1F
100
AcDbEntity
  8
LAYER-256
  6
Continuous
 62
     1
100
AcDbCircle
 10
450.6350648184825
 20
316.0133225313869
 30
0.0
 40
3.517973000000001
100
AcDbArc
 50
138.7561731901044
 51
221.24382680984
  0
ARC
  5
26C
330
1F
100
AcDbEntity
  8
LAYER-256
  6
Continuous
 62
     1
100
AcDbCircle
 10
500.4050338181814
 20
316.0133225313869
 30
0.0
 40
3.517973000000001
100
AcDbArc
 50
318.7561740029419
 51
41.24382599711382
  0
LINE
  5
26D
330
1F
100
AcDbEntity
  8
LAYER-256
  6
Continuous
 62
     1
100
AcDbLine
 10
-384.4031664960409
 20
315.092825666216
 30
0.0
 11
-375.6896833503575
 21
320.1235567448693
 31
0.0
  0
LINE
  5
26E
330
1F
100
AcDbEntity
  8
LAYER-256
  6
Continuous
 62
     1
100
AcDbLine
 10
-366.976200204292
 20
315.092825666216
 30
0.0
 11
-366.976200204292
 21
305.0313613965531
 31
0.0
  0
LINE
  5
26F
330
1F
100
AcDbEntity
  8
LAYER-256
  6
Continuous
 62
     1
100
AcDbLine
 10
-318.9200204302103
 20
315.092825666216
 30
0.0
 11
-310.2065372829418
 21
320.1235567448693
 31
0.0
  0
LINE
  5
270
330
1F
100
AcDbEntity
  8
LAYER-256
  6
Continuous
 62
     1
100
AcDbLine
 10
-301.4930541368734
 20
315.092825666216
 30
0.0
 11
-301.4930541368734
 21
305.0313613965531
 31
0.0
  0
LINE
  5
271
330
1F
100
AcDbEntity
  8
LAYER-256
  6
Continuous
 62
     1
100
AcDbLine
 10
-253.4368743612094
 20
315.092825666216
 30
0.0
 11
-244.7233912155261
 21
320.1235567448693
 31
0.0
  0
LINE
  5
272
330
1F
100
AcDbEntity
  8
LAYER-256
  6
Continuous
 62
     1
100
AcDbLine
 10
-236.0099080694596
 20
315.092825666216
 30
0.0
 11
-236.0099080694596
 21
305.0313613965531
 31
0.0
  0
LINE
  5
273
330
1F
100
AcDbEntity
  8
LAYER-256
  6
Continuous
 62
     1
100
AcDbLine
 10
-187.9537282937937
 20
315.092825666216
 30
0.0
 11
-179.2402451481113
 21
320.1235567448693
 31
0.0
  0
LINE
  5
274
330
1F
100
AcDbEntity
  8
LAYER-256
  6
Continuous
 62
     1
100
AcDbLine
 10
-170.5267620020458
 20
315.092825666216
 30
0.0
 11
-170.5267620020458
 21
305.0313613965531
 31
0.0
  0
LINE
  5
275
330
1F
100
AcDbEntity
  8
LAYER-256
  6
Continuous
 62
     1
100
AcDbLine
 10
-122.470582226378
 20
315.092825666216
 30
0.0
 11
-113.7570990806975
 21
320.1235567448693
 31
0.0
  0
LINE
  5
276
330
1F
100
AcDbEntity
  8
LAYER-256
  6
Continuous
 62
     1
100
AcDbLine
 10
-105.043615935
 20
315.092825666216
 30
0.0
 11
-105.043615935
 21
305.0313613965531
 31
0.0
  0
LINE
  5
277
330
1F
100
AcDbEntity
  8
LAYER-256
  6
Continuous
 62
     1
100
AcDbLine
 10
-56.98743615934919
 20
315.092825666216
 30
0.0
 11
-48.27395301327888
 21
320.1235567448693
 31
0.0
  0
LINE
  5
278
330
1F
100
AcDbEntity
  8
LAYER-256
  6
Continuous
 62
     1
100
AcDbLine
 10
-39.56046986721339
 20
315.092825666216
 30
0.0
 11
-39.56046986721339
 21
305.0313613965531
 31
0.0
  0
LINE
  5
279
330
1F
100
AcDbEntity
  8
LAYER-256
  6
Continuous
 62
     1
100
AcDbLine
 10
510.4470018181818
 20
314.0620935313893
 30
0.0
 11
510.4470018181818
 21
306.0620935313893
 31
0.0
  0
LINE
  5
27A
330
1F
100
AcDbEntity
  8
LAYER-256
  6
Continuous
 62
     1
100
AcDbLine
 10
510.4470018181818
 20
314.0620935313893
 30
0.0
 11
503.923005820093
 21
314.0620935313893
 31
0.0
  0
LINE
  5
27B
330
1F
100
AcDbEntity
  8
LAYER-256
  6
Continuous
 62
     1
100
AcDbLine
 10
447.9898628181817
 20
313.6940465313885
 30
0.0
 11
456.3072648181814
 21
313.6940465313885
 31
0.0
  0
LINE
  5
27C
330
1F
100
AcDbEntity
  8
LAYER-256
  6
Continuous
 62
     1
100
AcDbLine
 10
503.0502358181802
 20
313.6940465313885
 30
0.0
 11
494.7328328181793
 21
313.6940465313885
 31
0.0
  0
LINE
  5
27D
330
1F
100
AcDbEntity
  8
LAYER-256
  6
CENTER
 62
     4
100
AcDbLine
 10
-473.6158331031663
 20
310.0620935313893
 30
0.0
 11
56.47367429056459
 21
310.0620935313893
 31
0.0
  0
CIRCLE
  5
27E
330
1F
100
AcDbEntity
  8
LAYER-256
  6
Continuous
 62
     1
100
AcDbCircle
 10
-375.6896833503575
 20
310.0620935313893
 30
0.0
 40
4.224719101123595
  0
CIRCLE
  5
27F
330
1F
100
AcDbEntity
  8
LAYER-256
  6
Continuous
 62
     1
100
AcDbCircle
 10
-375.6896833503575
 20
310.0620935313893
 30
0.0
 40
8.713483146067414
  0
CIRCLE
  5
280
330
1F
100
AcDbEntity
  8
LAYER-256
  6
Continuous
 62
     1
100
AcDbCircle
 10
-310.2065372829418
 20
310.0620935313893
 30
0.0
 40
4.224719101123595
  0
CIRCLE
  5
281
330
1F
100
AcDbEntity
  8
LAYER-256
  6
Continuous
 62
     1
100
AcDbCircle
 10
-310.2065372829418
 20
310.0620935313893
 30
0.0
 40
8.713483146067414
  0
CIRCLE
  5
282
330
1F
100
AcDbEntity
  8
LAYER-256
  6
Continuous
 62
     1
100
AcDbCircle
 10
-244.7233912155261
 20
310.0620935313893
 30
0.0
 40
4.224719101123595
  0
CIRCLE
  5
283
330
1F
100
AcDbEntity
  8
LAYER-256
  6
Continuous
 62
     1
100
AcDbCircle
 10
-244.7233912155261
 20
310.0620935313893
 30
0.0
 40
8.713483146067414
  0
CIRCLE
  5
284
330
1F
100
AcDbEntity
  8
LAYER-256
  6
Continuous
 62
     1
100
AcDbCircle
 10
-179.2402451481113
 20
310.0620935313893
 30
0.0
 40
4.224719101123595
  0
CIRCLE
  5
285
330
1F
100
AcDbEntity
  8
LAYER-256
  6
Continuous
 62
     1
100
AcDbCircle
 10
-179.2402451481113
 20
310.0620935313893
 30
0.0
 40
8.713483146067414
  0
CIRCLE
  5
286
330
1F
100
AcDbEntity
  8
LAYER-256
  6
Continuous
 62
     1
100
AcDbCircle
 10
-113.7570990806975
 20
310.0620935313893
 30
0.0
 40
4.224719101123595
  0
CIRCLE
  5
287
330
1F
100
AcDbEntity
  8
LAYER-256
  6
Continuous
 62
     1
100
AcDbCircle
 10
-113.7570990806975
 20
310.0620935313893
 30
0.0
 40
8.713483146067414
  0
CIRCLE
  5
288
330
1F
100
AcDbEntity
  8
LAYER-256
  6
Continuous
 62
     1
100
AcDbCircle
 10
-48.27395301327888
 20
310.0620935313893
 30
0.0
 40
4.224719101123595
  0
CIRCLE
  5
289
330
1F
100
AcDbEntity
  8
LAYER-256
  6
Continuous
 62
     1
100
AcDbCircle
 10
-48.27395301327888
 20
310.0620935313893
 30
0.0
 40
8.713483146067414
  0
ARC
  5
28A
330
1F
100
AcDbEntity
  8
LAYER-256
  6
Continuous
 62
     1
100
AcDbCircle
 10
455.1104888184404
 20
310.0620935313893
 30
0.0
 40
7.993397
100
AcDbArc
 50
152.9756508421177
 51
207.0243491579114
  0
ARC
  5
28B
330
1F
100
AcDbEntity
  8
LAYER-256
  6
Continuous
 62
     1
100
AcDbCircle
 10
495.9296098181794
 20
310.0620935313893
 30
0.0
 40
7.993397
100
AcDbArc
 50
332.9756509976524
 51
27.02434900231859
  0
LINE
  5
28C
330
1F
100
AcDbEntity
  8
LAYER-256
  6
CENTER
 62
     4
100
AcDbLine
 10
518.4963968181801
 20
310.0620935313893
 30
0.0
 11
442.2409888181828
 21
310.0620935313893
 31
0.0
  0
LINE
  5
28D
330
1F
100
AcDbEntity
  8
LAYER-256
  6
Continuous
 62
     1
100
AcDbLine
 10
447.9898628181817
 20
306.4301415313887
 30
0.0
 11
456.3072648181814
 21
306.4301415313887
 31
0.0
  0
LINE
  5
28E
330
1F
100
AcDbEntity
  8
LAYER-256
  6
Continuous
 62
     1
100
AcDbLine
 10
503.0502358181802
 20
306.4301415313887
 30
0.0
 11
494.7328328181793
 21
306.4301415313887
 31
0.0
  0
LINE
  5
28F
330
1F
100
AcDbEntity
  8
LAYER-256
  6
Continuous
 62
     1
100
AcDbLine
 10
510.4470018181818
 20
306.0620935313893
 30
0.0
 11
503.923005820093
 21
306.0620935313893
 31
0.0
  0
LINE
  5
290
330
1F
100
AcDbEntity
  8
LAYER-256
  6
Continuous
 62
     1
100
AcDbLine
 10
-384.4031664960409
 20
305.0313613965531
 30
0.0
 11
-384.4031664960409
 21
315.092825666216
 31
0.0
  0
LINE
  5
291
330
1F
100
AcDbEntity
  8
LAYER-256
  6
Continuous
 62
     1
100
AcDbLine
 10
-366.976200204292
 20
305.0313613965531
 30
0.0
 11
-375.6896833503575
 21
300.0006303179046
 31
0.0
  0
LINE
  5
292
330
1F
100
AcDbEntity
  8
LAYER-256
  6
Continuous
 62
     1
100
AcDbLine
 10
-318.9200204302103
 20
305.0313613965531
 30
0.0
 11
-318.9200204302103
 21
315.092825666216
 31
0.0
  0
LINE
  5
293
330
1F
100
AcDbEntity
  8
LAYER-256
  6
Continuous
 62
     1
100
AcDbLine
 10
-301.4930541368734
 20
305.0313613965531
 30
0.0
 11
-310.2065372829418
 21
300.0006303179046
 31
0.0
  0
LINE
  5
294
330
1F
100
AcDbEntity
  8
LAYER-256
  6
Continuous
 62
     1
100
AcDbLine
 10
-253.4368743612094
 20
305.0313613965531
 30
0.0
 11
-253.4368743612094
 21
315.092825666216
 31
0.0
  0
LINE
  5
295
330
1F
100
AcDbEntity
  8
LAYER-256
  6
Continuous
 62
     1
100
AcDbLine
 10
-236.0099080694596
 20
305.0313613965531
 30
0.0
 11
-244.7233912155261
 21
300.0006303179046
 31
0.0
  0
LINE
  5
296
330
1F
100
AcDbEntity
  8
LAYER-256
  6
Continuous
 62
     1
100
AcDbLine
 10
-187.9537282937937
 20
305.0313613965531
 30
0.0
 11
-187.9537282937937
 21
315.092825666216
 31
0.0
  0
LINE
  5
297
330
1F
100
AcDbEntity
  8
LAYER-256
  6
Continuous
 62
     1
100
AcDbLine
 10
-170.5267620020458
 20
305.0313613965531
 30
0.0
 11
-179.2402451481113
 21
300.0006303179046
 31
0.0
  0
LINE
  5
298
330
1F
100
AcDbEntity
  8
LAYER-256
  6
Continuous
 62
     1
100
AcDbLine
 10
-122.470582226378
 20
305.0313613965531
 30
0.0
 11
-122.470582226378
 21
315.092825666216
 31
0.0
  0
LINE
  5
299
330
1F
100
AcDbEntity
  8
LAYER-256
  6
Continuous
 62
     1
100
AcDbLine
 10
-105.043615935
 20
305.0313613965531
 30
0.0
 11
-113.7570990806975
 21
300.0006303179046
 31
0.0
  0
LINE
  5
29A
330
1F
100
AcDbEntity
  8
LAYER-256
  6
Continuous
 62
     1
100
AcDbLine
 10
-56.98743615934919
 20
305.0313613965531
 30
0.0
 11
-56.98743615934919
 21
315.092825666216
 31
0.0
  0
LINE
  5
29B
330
1F
100
AcDbEntity
  8
LAYER-256
  6
Continuous
 62
     1
100
AcDbLine
 10
-39.56046986721339
 20
305.0313613965531
 30
0.0
 11
-48.27395301327888
 21
300.0006303179046
 31
0.0
  0
ARC
  5
29C
330
1F
100
AcDbEntity
  8
LAYER-256
  6
Continuous
 62
     1
100
AcDbCircle
 10
450.6350648184825
 20
304.1108655313858
 30
0.0
 40
3.517973000000001
100
AcDbArc
 50
138.7561731901044
 51
221.24382680984
  0
ARC
  5
29D
330
1F
100
AcDbEntity
  8
LAYER-256
  6
Continuous
 62
     1
100
AcDbCircle
 10
500.4050338181814
 20
304.1108655313858
 30
0.0
 40
3.517973000000001
100
AcDbArc
 50
318.7561740029419
 51
41.24382599711382
  0
LINE
  5
29E
330
1F
100
AcDbEntity
  8
LAYER-256
  6
Continuous
 62
     1
100
AcDbLine
 10
503.923005820093
 20
304.1108655313858
 30
0.0
 11
503.923005820093
 21
316.0133225313869
 31
0.0
  0
LINE
  5
29F
330
1F
100
AcDbEntity
  8
LAYER-256
  6
Continuous
 62
     1
100
AcDbLine
 10
447.9898628181817
 20
301.7915895313874
 30
0.0
 11
456.3072648181814
 21
301.7915895313874
 31
0.0
  0
LINE
  5
2A0
330
1F
100
AcDbEntity
  8
LAYER-256
  6
Continuous
 62
     1
100
AcDbLine
 10
503.0502358181802
 20
301.7915895313874
 30
0.0
 11
494.7328328181793
 21
301.7915895313874
 31
0.0
  0
LINE
  5
2A1
330
1F
100
AcDbEntity
  8
LAYER-256
  6
Continuous
 62
     1
100
AcDbLine
 10
-375.6896833503575
 20
300.0006303179046
 30
0.0
 11
-384.4031664960409
 21
305.0313613965531
 31
0.0
  0
LINE
  5
2A2
330
1F
100
AcDbEntity
  8
LAYER-256
  6
Continuous
 62
     1
100
AcDbLine
 10
-310.2065372829418
 20
300.0006303179046
 30
0.0
 11
-318.9200204302103
 21
305.0313613965531
 31
0.0
  0
LINE
  5
2A3
330
1F
100
AcDbEntity
  8
LAYER-256
  6
Continuous
 62
     1
100
AcDbLine
 10
-244.7233912155261
 20
300.0006303179046
 30
0.0
 11
-253.4368743612094
 21
305.0313613965531
 31
0.0
  0
LINE
  5
2A4
330
1F
100
AcDbEntity
  8
LAYER-256
  6
Continuous
 62
     1
100
AcDbLine
 10
-179.2402451481113
 20
300.0006303179046
 30
0.0
 11
-187.9537282937937
 21
305.0313613965531
 31
0.0
  0
LINE
  5
2A5
330
1F
100
AcDbEntity
  8
LAYER-256
  6
Continuous
 62
     1
100
AcDbLine
 10
-113.7570990806975
 20
300.0006303179046
 30
0.0
 11
-122.470582226378
 21
305.0313613965531
 31
0.0
  0
LINE
  5
2A6
330
1F
100
AcDbEntity
  8
LAYER-256
  6
Continuous
 62
     1
100
AcDbLine
 10
-48.27395301327888
 20
300.0006303179046
 30
0.0
 11
-56.98743615934919
 21
305.0313613965531
 31
0.0
  0
LINE
  5
2A7
330
1F
100
AcDbEntity
  8
LAYER-256
  6
Continuous
 62
     1
100
AcDbLine
 10
458.7072648181792
 20
300.0932885313862
 30
0.0
 11
456.3072648181814
 21
300.0932885313862
 31
0.0
  0
ARC
  5
2A8
330
1F
100
AcDbEntity
  8
LAYER-256
  6
Continuous
 62
     1
100
AcDbCircle
 10
504.779508818181
 20
293.6030555278629
 30
0.0
 40
2.0
100
AcDbArc
 50
0.0
 51
84.33834400992616
  0
LINE
  5
2A9
330
1F
100
AcDbEntity
  8
LAYER-256
  6
Continuous
 62
     1
100
AcDbLine
 10
506.7795088181792
 20
293.6030555278629
 30
0.0
 11
506.7795088181792
 21
278.2473357673441
 31
0.0
  0
ARC
  5
2AA
330
1F
100
AcDbEntity
  8
LAYER-256
  6
Continuous
 62
     1
100
AcDbCircle
 10
508.6542218181812
 20
287.4368695313863
 30
0.0
 40
37.275857
100
AcDbArc
 50
95.66165600230842
 51
111.9297389999977
  0
LINE
  5
2AB
330
1F
100
AcDbEntity
  8
LAYER-256
  6
Continuous
 62
     1
100
AcDbLine
 10
-443.3169297997968
 20
283.6575991493669
 30
0.0
 11
19.3532923799774
 21
283.6575991493669
 31
0.0
  0
LINE
  5
2AC
330
1F
100
AcDbEntity
  8
LAYER-256
  6
Continuous
 62
     1
100
AcDbLine
 10
461.2642178181822
 20
283.6575991493669
 30
0.0
 11
492.3328328181814
 21
283.6575991493669
 31
0.0
  0
LINE
  5
2AD
330
1F
100
AcDbEntity
  8
LAYER-256
  6
Continuous
 62
     1
100
AcDbLine
 10
492.3328328181814
 20
278.2473357673441
 30
0.0
 11
506.7795088181792
 21
278.2473357673441
 31
0.0
  0
LINE
  5
2AE
330
1F
100
AcDbEntity
  8
LAYER-256
  6
Continuous
 62
     1
100
AcDbLine
 10
492.3328328181814
 20
278.2473357673441
 30
0.0
 11
492.3328328181814
 21
339.0678625313875
 31
0.0
  0
LINE
  5
2AF
330
1F
100
AcDbEntity
  8
LAYER-256
  6
Continuous
 62
     1
100
AcDbLine
 10
-384.0995148110303
 20
279.129228363
 30
0.0
 11
-384.0995148110303
 21
283.6575991493669
 31
0.0
  0
LINE
  5
2B0
330
1F
100
AcDbEntity
  8
LAYER-256
  6
Continuous
 62
     1
100
AcDbLine
 10
-380.9924356424924
 20
279.129228363
 30
0.0
 11
-380.9924356424924
 21
211.4665879134118
 31
0.0
  0
LINE
  5
2B1
330
1F
100
AcDbEntity
  8
LAYER-256
  6
Continuous
 62
     1
100
AcDbLine
 10
-370.3869321144012
 20
279.129228363
 30
0.0
 11
-370.3869321144012
 21
211.4665879134118
 31
0.0
  0
LINE
  5
2B2
330
1F
100
AcDbEntity
  8
LAYER-256
  6
Continuous
 62
     1
100
AcDbLine
 10
-367.2798518896847
 20
279.129228363
 30
0.0
 11
-384.0995148110303
 21
279.129228363
 31
0.0
  0
LINE
  5
2B3
330
1F
100
AcDbEntity
  8
LAYER-256
  6
Continuous
 62
     1
100
AcDbLine
 10
-367.2798518896847
 20
279.129228363
 30
0.0
 11
-367.2798518896847
 21
283.6575991493669
 31
0.0
  0
LINE
  5
2B4
330
1F
100
AcDbEntity
  8
LAYER-256
  6
Continuous
 62
     1
100
AcDbLine
 10
-318.6163687451965
 20
279.129228363
 30
0.0
 11
-318.6163687451965
 21
283.6575991493669
 31
0.0
  0
LINE
  5
2B5
330
1F
100
AcDbEntity
  8
LAYER-256
  6
Continuous
 62
     1
100
AcDbLine
 10
-315.5092895750767
 20
279.129228363
 30
0.0
 11
-315.5092895750767
 21
211.4665879134118
 31
0.0
  0
LINE
  5
2B6
330
1F
100
AcDbEntity
  8
LAYER-256
  6
Continuous
 62
     1
100
AcDbLine
 10
-304.9037860469874
 20
279.129228363
 30
0.0
 11
-304.9037860469874
 21
211.4665879134118
 31
0.0
  0
LINE
  5
2B7
330
1F
100
AcDbEntity
  8
LAYER-256
  6
Continuous
 62
     1
100
AcDbLine
 10
-301.7967058222709
 20
279.129228363
 30
0.0
 11
-318.6163687451965
 21
279.129228363
 31
0.0
  0
LINE
  5
2B8
330
1F
100
AcDbEntity
  8
LAYER-256
  6
Continuous
 62
     1
100
AcDbLine
 10
-301.7967058222709
 20
279.129228363
 30
0.0
 11
-301.7967058222709
 21
283.6575991493669
 31
0.0
  0
LINE
  5
2B9
330
1F
100
AcDbEntity
  8
LAYER-256
  6
Continuous
 62
     1
100
AcDbLine
 10
-253.1332226762027
 20
279.129228363
 30
0.0
 11
-253.1332226762027
 21
283.6575991493669
 31
0.0
  0
LINE
  5
2BA
330
1F
100
AcDbEntity
  8
LAYER-256
  6
Continuous
 62
     1
100
AcDbLine
 10
-250.0261435076609
 20
279.129228363
 30
0.0
 11
-250.0261435076609
 21
211.4665879134118
 31
0.0
  0
LINE
  5
2BB
330
1F
100
AcDbEntity
  8
LAYER-256
  6
Continuous
 62
     1
100
AcDbLine
 10
-239.4206399795736
 20
279.129228363
 30
0.0
 11
-239.4206399795736
 21
211.4665879134118
 31
0.0
  0
LINE
  5
2BC
330
1F
100
AcDbEntity
  8
LAYER-256
  6
Continuous
 62
     1
100
AcDbLine
 10
-236.3135597548523
 20
279.129228363
 30
0.0
 11
-253.1332226762027
 21
279.129228363
 31
0.0
  0
LINE
  5
2BD
330
1F
100
AcDbEntity
  8
LAYER-256
  6
Continuous
 62
     1
100
AcDbLine
 10
-236.3135597548523
 20
279.129228363
 30
0.0
 11
-236.3135597548523
 21
283.6575991493669
 31
0.0
  0
LINE
  5
2BE
330
1F
100
AcDbEntity
  8
LAYER-256
  6
Continuous
 62
     1
100
AcDbLine
 10
-187.6500766087841
 20
279.129228363
 30
0.0
 11
-187.6500766087841
 21
283.6575991493669
 31
0.0
  0
LINE
  5
2BF
330
1F
100
AcDbEntity
  8
LAYER-256
  6
Continuous
 62
     1
100
AcDbLine
 10
-184.5429974402458
 20
279.129228363
 30
0.0
 11
-184.5429974402458
 21
211.4665879134118
 31
0.0
  0
LINE
  5
2C0
330
1F
100
AcDbEntity
  8
LAYER-256
  6
Continuous
 62
     1
100
AcDbLine
 10
-173.9374939121553
 20
279.129228363
 30
0.0
 11
-173.9374939121553
 21
211.4665879134118
 31
0.0
  0
LINE
  5
2C1
330
1F
100
AcDbEntity
  8
LAYER-256
  6
Continuous
 62
     1
100
AcDbLine
 10
-170.8304136874385
 20
279.129228363
 30
0.0
 11
-187.6500766087841
 21
279.129228363
 31
0.0
  0
LINE
  5
2C2
330
1F
100
AcDbEntity
  8
LAYER-256
  6
Continuous
 62
     1
100
AcDbLine
 10
-170.8304136874385
 20
279.129228363
 30
0.0
 11
-170.8304136874385
 21
283.6575991493669
 31
0.0
  0
LINE
  5
2C3
330
1F
100
AcDbEntity
  8
LAYER-256
  6
Continuous
 62
     1
100
AcDbLine
 10
-122.1669305413703
 20
279.129228363
 30
0.0
 11
-122.1669305413703
 21
283.6575991493669
 31
0.0
  0
LINE
  5
2C4
330
1F
100
AcDbEntity
  8
LAYER-256
  6
Continuous
 62
     1
100
AcDbLine
 10
-119.059851372832
 20
279.129228363
 30
0.0
 11
-119.059851372832
 21
211.4665879134118
 31
0.0
  0
LINE
  5
2C5
330
1F
100
AcDbEntity
  8
LAYER-256
  6
Continuous
 62
     1
100
AcDbLine
 10
-108.4543478423691
 20
279.129228363
 30
0.0
 11
-108.4543478423691
 21
211.4665879134118
 31
0.0
  0
LINE
  5
2C6
330
1F
100
AcDbEntity
  8
LAYER-256
  6
Continuous
 62
     1
100
AcDbLine
 10
-105.3472676200199
 20
279.129228363
 30
0.0
 11
-122.1669305413703
 21
279.129228363
 31
0.0
  0
LINE
  5
2C7
330
1F
100
AcDbEntity
  8
LAYER-256
  6
Continuous
 62
     1
100
AcDbLine
 10
-105.3472676200199
 20
279.129228363
 30
0.0
 11
-105.3472676200199
 21
283.6575991493669
 31
0.0
  0
LINE
  5
2C8
330
1F
100
AcDbEntity
  8
LAYER-256
  6
Continuous
 62
     1
100
AcDbLine
 10
-56.6837844739517
 20
279.129228363
 30
0.0
 11
-56.6837844739517
 21
283.6575991493669
 31
0.0
  0
LINE
  5
2C9
330
1F
100
AcDbEntity
  8
LAYER-256
  6
Continuous
 62
     1
100
AcDbLine
 10
-53.57670530541341
 20
279.129228363
 30
0.0
 11
-53.57670530541341
 21
211.4665879134118
 31
0.0
  0
LINE
  5
2CA
330
1F
100
AcDbEntity
  8
LAYER-256
  6
Continuous
 62
     1
100
AcDbLine
 10
-42.97120177732256
 20
279.129228363
 30
0.0
 11
-42.97120177732256
 21
211.4665879134118
 31
0.0
  0
LINE
  5
2CB
330
1F
100
AcDbEntity
  8
LAYER-256
  6
Continuous
 62
     1
100
AcDbLine
 10
-39.86412155260607
 20
279.129228363
 30
0.0
 11
-56.6837844739517
 21
279.129228363
 31
0.0
  0
LINE
  5
2CC
330
1F
100
AcDbEntity
  8
LAYER-256
  6
Continuous
 62
     1
100
AcDbLine
 10
-39.86412155260607
 20
279.129228363
 30
0.0
 11
-39.86412155260607
 21
283.6575991493669
 31
0.0
  0
LINE
  5
2CD
330
1F
100
AcDbEntity
  8
LAYER-256
  6
CENTER
 62
     4
100
AcDbLine
 10
343.7072648181792
 20
196.5370192167826
 30
0.0
 11
343.7072648181792
 21
-146.6593960865912
 31
0.0
  0
LINE
  5
2CE
330
1F
100
AcDbEntity
  8
LAYER-256
  6
Continuous
 62
     1
100
AcDbLine
 10
-469.4818181818182
 20
211.4665879134118
 30
0.0
 11
45.5181818181818
 21
211.4665879134118
 31
0.0
  0
LINE
  5
2CF
330
1F
100
AcDbEntity
  8
LAYER-256
  6
Continuous
 62
     1
100
AcDbLine
 10
45.5181818181818
 20
211.4665879134118
 30
0.0
 11
45.5181818181818
 21
-133.5334120865882
 31
0.0
  0
LINE
  5
2D0
330
1F
100
AcDbEntity
  8
LAYER-256
  6
Continuous
 62
     1
100
AcDbLine
 10
228.7072648181792
 20
211.4665879134118
 30
0.0
 11
278.7072648181792
 21
211.4665879134118
 31
0.0
  0
LINE
  5
2D1
330
1F
100
AcDbEntity
  8
LAYER-256
  6
Continuous
 62
     1
100
AcDbLine
 10
458.7072648181792
 20
211.4665879134118
 30
0.0
 11
408.7072648181792
 21
211.4665879134118
 31
0.0
  0
LINE
  5
2D2
330
1F
100
AcDbEntity
  8
LAYER-256
  6
CENTER
 62
     4
100
AcDbLine
 10
-211.9818181818182
 20
210.2161196405021
 30
0.0
 11
-211.9818181818182
 21
-154.9686482214215
 31
0.0
  0
LINE
  5
2D3
330
1F
100
AcDbEntity
  8
LAYER-256
  6
HIDDEN
 62
     4
100
AcDbLine
 10
-468.1054136874362
 20
206.1856890370073
 30
0.0
 11
45.51818181818175
 21
206.1856890370073
 31
0.0
  0
LINE
  5
2D4
330
1F
100
AcDbEntity
  8
LAYER-256
  6
Continuous
 62
     1
100
AcDbLine
 10
233.7072648181792
 20
206.4665879134118
 30
0.0
 11
453.7072648181792
 21
206.4665879134118
 31
0.0
  0
LINE
  5
2D5
330
1F
100
AcDbEntity
  8
LAYER-256
  6
Continuous
 62
     1
100
AcDbLine
 10
236.5424688181819
 20
206.4665879134118
 30
0.0
 11
236.5424688181819
 21
-128.5334120865882
 31
0.0
  0
LINE
  5
2D6
330
1F
100
AcDbEntity
  8
LAYER-256
  6
Continuous
 62
     1
100
AcDbLine
 10
278.7072648181792
 20
206.4665879134118
 30
0.0
 11
278.7072648181792
 21
211.4665879134118
 31
0.0
  0
LINE
  5
2D7
330
1F
100
AcDbEntity
  8
LAYER-256
  6
Continuous
 62
     1
100
AcDbLine
 10
408.7072648181792
 20
206.4665879134118
 30
0.0
 11
408.7072648181792
 21
211.4665879134118
 31
0.0
  0
LINE
  5
2D8
330
1F
100
AcDbEntity
  8
LAYER-256
  6
Continuous
 62
     1
100
AcDbLine
 10
450.872061820426
 20
206.4665879134118
 30
0.0
 11
450.872061820426
 21
-128.5334120865882
 31
0.0
  0
ARC
  5
2D9
330
1F
100
AcDbEntity
  8
LAYER-256
  6
Continuous
 62
     1
100
AcDbCircle
 10
186.1563908181806
 20
191.4148473965593
 30
0.0
 40
29.897576
100
AcDbArc
 50
250.4313920000029
 51
267.5391279999987
  0
LINE
  5
2DA
330
1F
100
AcDbEntity
  8
LAYER-256
  6
Continuous
 62
     1
100
AcDbLine
 10
-426.9818181818182
 20
191.0724503628501
 30
0.0
 11
-435.6953013275016
 21
186.0417182280186
 31
0.0
  0
LINE
  5
2DB
330
1F
100
AcDbEntity
  8
LAYER-256
  6
Continuous
 62
     1
100
AcDbLine
 10
3.018181818181802
 20
191.0724503628501
 30
0.0
 11
11.7316649642473
 21
186.0417182280186
 31
0.0
  0
LINE
  5
2DC
330
1F
100
AcDbEntity
  8
LAYER-256
  6
Continuous
 62
     1
100
AcDbLine
 10
220.3898628181814
 20
189.281490093189
 30
0.0
 11
228.7072648181792
 21
189.281490093189
 31
0.0
  0
LINE
  5
2DD
330
1F
100
AcDbEntity
  8
LAYER-256
  6
Continuous
 62
     1
100
AcDbLine
 10
467.0246678181802
 20
189.281490093189
 30
0.0
 11
458.7072648181792
 21
189.281490093189
 31
0.0
  0
LINE
  5
2DE
330
1F
100
AcDbEntity
  8
LAYER-256
  6
Continuous
 62
     1
100
AcDbLine
 10
219.517091818182
 20
186.9622140931861
 30
0.0
 11
219.517091818182
 21
175.0597580931881
 31
0.0
  0
ARC
  5
2DF
330
1F
100
AcDbEntity
  8
LAYER-256
  6
Continuous
 62
     1
100
AcDbCircle
 10
223.0350648205455
 20
186.9622140931861
 30
0.0
 40
3.517973000000001
100
AcDbArc
 50
138.7561732122596
 51
221.2438267876847
  0
ARC
  5
2E0
330
1F
100
AcDbEntity
  8
LAYER-256
  6
Continuous
 62
     1
100
AcDbCircle
 10
464.3794658181814
 20
186.9622140931861
 30
0.0
 40
3.517973000000001
100
AcDbArc
 50
318.7561740000342
 51
41.24382600002147
  0
LINE
  5
2E1
330
1F
100
AcDbEntity
  8
LAYER-256
  6
Continuous
 62
     1
100
AcDbLine
 10
467.8974388181795
 20
186.9622140931861
 30
0.0
 11
467.8974388181795
 21
175.0597580931881
 31
0.0
  0
LINE
  5
2E2
330
1F
100
AcDbEntity
  8
LAYER-256
  6
Continuous
 62
     1
100
AcDbLine
 10
-435.6953013275016
 20
186.0417182280186
 30
0.0
 11
-435.6953013275016
 21
175.9802539583556
 31
0.0
  0
LINE
  5
2E3
330
1F
100
AcDbEntity
  8
LAYER-256
  6
Continuous
 62
     1
100
AcDbLine
 10
-418.2683350357527
 20
186.0417182280186
 30
0.0
 11
-426.9818181818182
 21
191.0724503628501
 31
0.0
  0
LINE
  5
2E4
330
1F
100
AcDbEntity
  8
LAYER-256
  6
Continuous
 62
     1
100
AcDbLine
 10
-5.695301327888501
 20
186.0417182280186
 30
0.0
 11
3.018181818181802
 21
191.0724503628501
 31
0.0
  0
LINE
  5
2E5
330
1F
100
AcDbEntity
  8
LAYER-256
  6
Continuous
 62
     1
100
AcDbLine
 10
11.7316649642473
 20
186.0417182280186
 30
0.0
 11
11.7316649642473
 21
175.9802539583556
 31
0.0
  0
LINE
  5
2E6
330
1F
100
AcDbEntity
  8
LAYER-256
  6
Continuous
 62
     1
100
AcDbLine
 10
212.9930958181812
 20
185.0109860931871
 30
0.0
 11
219.517091818182
 21
185.0109860931871
 31
0.0
  0
LINE
  5
2E7
330
1F
100
AcDbEntity
  8
LAYER-256
  6
Continuous
 62
     1
100
AcDbLine
 10
236.5424688181819
 20
185.0109860931871
 30
0.0
 11
450.872061820426
 21
185.0109860931871
 31
0.0
  0
LINE
  5
2E8
330
1F
100
AcDbEntity
  8
LAYER-256
  6
Continuous
 62
     1
100
AcDbLine
 10
474.4214348181803
 20
185.0109860931871
 30
0.0
 11
467.8974388181795
 21
185.0109860931871
 31
0.0
  0
LINE
  5
2E9
330
1F
100
AcDbEntity
  8
LAYER-256
  6
Continuous
 62
     1
100
AcDbLine
 10
220.3898628181814
 20
184.6429390931863
 30
0.0
 11
228.7072648181792
 21
184.6429390931863
 31
0.0
  0
LINE
  5
2EA
330
1F
100
AcDbEntity
  8
LAYER-256
  6
Continuous
 62
     1
100
AcDbLine
 10
467.0246678181802
 20
184.6429390931863
 30
0.0
 11
458.7072648181792
 21
184.6429390931863
 31
0.0
  0
CIRCLE
  5
2EB
330
1F
100
AcDbEntity
  8
LAYER-256
  6
Continuous
 62
     1
100
AcDbCircle
 10
-426.9818181818182
 20
181.0109860931871
 30
0.0
 40
4.224719101123595
  0
CIRCLE
  5
2EC
330
1F
100
AcDbEntity
  8
LAYER-256
  6
Continuous
 62
     1
100
AcDbCircle
 10
-426.9818181818182
 20
181.0109860931871
 30
0.0
 40
8.713483146067414
  0
LINE
  5
2ED
330
1F
100
AcDbEntity
  8
LAYER-256
  6
CENTER
 62
     4
100
AcDbLine
 10
-408.9800440020414
 20
181.0109860931871
 30
0.0
 11
-443.598612203906
 21
181.0109860931871
 31
0.0
  0
LINE
  5
2EE
330
1F
100
AcDbEntity
  8
LAYER-256
  6
CENTER
 62
     4
100
AcDbLine
 10
-14.98359236159502
 20
181.0109860931871
 30
0.0
 11
19.63497478447277
 21
181.0109860931871
 31
0.0
  0
CIRCLE
  5
2EF
330
1F
100
AcDbEntity
  8
LAYER-256
  6
Continuous
 62
     1
100
AcDbCircle
 10
3.018181818181802
 20
181.0109860931871
 30
0.0
 40
4.224719101123595
  0
CIRCLE
  5
2F0
330
1F
100
AcDbEntity
  8
LAYER-256
  6
Continuous
 62
     1
100
AcDbCircle
 10
3.018181818181802
 20
181.0109860931871
 30
0.0
 40
8.713483146067414
  0
LINE
  5
2F1
330
1F
100
AcDbEntity
  8
LAYER-256
  6
CENTER
 62
     4
100
AcDbLine
 10
203.2293318162028
 20
181.0109860931871
 30
0.0
 11
482.5841558181818
 21
181.0109860931871
 31
0.0
  0
ARC
  5
2F2
330
1F
100
AcDbEntity
  8
LAYER-256
  6
Continuous
 62
     1
100
AcDbCircle
 10
227.5104888181822
 20
181.0109860931871
 30
0.0
 40
7.993397
100
AcDbArc
 50
152.9756508382915
 51
207.0243491587221
  0
ARC
  5
2F3
330
1F
100
AcDbEntity
  8
LAYER-256
  6
Continuous
 62
     1
100
AcDbCircle
 10
459.9040418181793
 20
181.0109860931871
 30
0.0
 40
7.993397
100
AcDbArc
 50
332.975651000017
 51
27.02434899998297
  0
LINE
  5
2F4
330
1F
100
AcDbEntity
  8
LAYER-256
  6
Continuous
 62
     1
100
AcDbLine
 10
220.3898628181814
 20
177.3790340931865
 30
0.0
 11
228.7072648181792
 21
177.3790340931865
 31
0.0
  0
LINE
  5
2F5
330
1F
100
AcDbEntity
  8
LAYER-256
  6
Continuous
 62
     1
100
AcDbLine
 10
467.0246678181802
 20
177.3790340931865
 30
0.0
 11
458.7072648181792
 21
177.3790340931865
 31
0.0
  0
LINE
  5
2F6
330
1F
100
AcDbEntity
  8
LAYER-256
  6
Continuous
 62
     1
100
AcDbLine
 10
212.9930958181812
 20
177.0109860931871
 30
0.0
 11
212.9930958181812
 21
185.0109860931871
 31
0.0
  0
LINE
  5
2F7
330
1F
100
AcDbEntity
  8
LAYER-256
  6
Continuous
 62
     1
100
AcDbLine
 10
212.9930958181812
 20
177.0109860931871
 30
0.0
 11
219.517091818182
 21
177.0109860931871
 31
0.0
  0
LINE
  5
2F8
330
1F
100
AcDbEntity
  8
LAYER-256
  6
Continuous
 62
     1
100
AcDbLine
 10
236.5424688181819
 20
177.0109860931871
 30
0.0
 11
450.872061820426
 21
177.0109860931871
 31
0.0
  0
LINE
  5
2F9
330
1F
100
AcDbEntity
  8
LAYER-256
  6
Continuous
 62
     1
100
AcDbLine
 10
474.4214348181803
 20
177.0109860931871
 30
0.0
 11
474.4214348181803
 21
185.0109860931871
 31
0.0
  0
LINE
  5
2FA
330
1F
100
AcDbEntity
  8
LAYER-256
  6
Continuous
 62
     1
100
AcDbLine
 10
474.4214348181803
 20
177.0109860931871
 30
0.0
 11
467.8974388181795
 21
177.0109860931871
 31
0.0
  0
LINE
  5
2FB
330
1F
100
AcDbEntity
  8
LAYER-256
  6
Continuous
 62
     1
100
AcDbLine
 10
-435.6953013275016
 20
175.9802539583556
 30
0.0
 11
-426.9818181818182
 21
170.9495228797023
 31
0.0
  0
LINE
  5
2FC
330
1F
100
AcDbEntity
  8
LAYER-256
  6
Continuous
 62
     1
100
AcDbLine
 10
-418.2683350357527
 20
175.9802539583556
 30
0.0
 11
-418.2683350357527
 21
186.0417182280186
 31
0.0
  0
LINE
  5
2FD
330
1F
100
AcDbEntity
  8
LAYER-256
  6
Continuous
 62
     1
100
AcDbLine
 10
-5.695301327888501
 20
175.9802539583556
 30
0.0
 11
-5.695301327888501
 21
186.0417182280186
 31
0.0
  0
LINE
  5
2FE
330
1F
100
AcDbEntity
  8
LAYER-256
  6
Continuous
 62
     1
100
AcDbLine
 10
11.7316649642473
 20
175.9802539583556
 30
0.0
 11
3.018181818181802
 21
170.9495228797023
 31
0.0
  0
ARC
  5
2FF
330
1F
100
AcDbEntity
  8
LAYER-256
  6
Continuous
 62
     1
100
AcDbCircle
 10
223.0350648205455
 20
175.0597580931881
 30
0.0
 40
3.517973000000001
100
AcDbArc
 50
138.7561732123153
 51
221.2438267877404
  0
ARC
  5
300
330
1F
100
AcDbEntity
  8
LAYER-256
  6
Continuous
 62
     1
100
AcDbCircle
 10
464.3794658181814
 20
175.0597580931881
 30
0.0
 40
3.517973000000001
100
AcDbArc
 50
318.7561739999786
 51
41.24382599996577
  0
LINE
  5
301
330
1F
100
AcDbEntity
  8
LAYER-256
  6
Continuous
 62
     1
100
AcDbLine
 10
174.3953318181802
 20
172.3315933965573
 30
0.0
 11
176.1426348181821
 21
172.3315933965573
 31
0.0
  0
LINE
  5
302
330
1F
100
AcDbEntity
  8
LAYER-256
  6
Continuous
 62
     1
100
AcDbLine
 10
174.3953318181802
 20
172.3315933965573
 30
0.0
 11
174.3953318181802
 21
154.0423653965586
 31
0.0
  0
LINE
  5
303
330
1F
100
AcDbEntity
  8
LAYER-256
  6
Continuous
 62
     1
100
AcDbLine
 10
176.1426348181821
 20
172.3315933965573
 30
0.0
 11
176.1426348181821
 21
163.2441223965593
 31
0.0
  0
LINE
  5
304
330
1F
100
AcDbEntity
  8
LAYER-256
  6
Continuous
 62
     1
100
AcDbLine
 10
220.3898628181814
 20
172.7404820931852
 30
0.0
 11
228.7072648181792
 21
172.7404820931852
 31
0.0
  0
LINE
  5
305
330
1F
100
AcDbEntity
  8
LAYER-256
  6
Continuous
 62
     1
100
AcDbLine
 10
467.0246678181802
 20
172.7404820931852
 30
0.0
 11
458.7072648181792
 21
172.7404820931852
 31
0.0
  0
LINE
  5
306
330
1F
100
AcDbEntity
  8
LAYER-256
  6
Continuous
 62
     1
100
AcDbLine
 10
-400.4777146537285
 20
171.6826616248228
 30
0.0
 11
-400.4777146537285
 21
155.9466021830769
 31
0.0
  0
CIRCLE
  5
307
330
1F
100
AcDbEntity
  8
LAYER-256
  6
Continuous
 62
     1
100
AcDbCircle
 10
-392.0678831930557
 20
171.6826616248228
 30
0.0
 40
4.528370786516853
  0
ARC
  5
308
330
1F
100
AcDbEntity
  8
LAYER-256
  6
Continuous
 62
     1
100
AcDbCircle
 10
-392.0678831930557
 20
171.6826616248228
 30
0.0
 40
8.409831460674157
100
AcDbArc
 50
0.0
 51
180.0
  0
LINE
  5
309
330
1F
100
AcDbEntity
  8
LAYER-256
  6
Continuous
 62
     1
100
AcDbLine
 10
-383.6580517323829
 20
171.6826616248228
 30
0.0
 11
-383.6580517323829
 21
155.9466021830769
 31
0.0
  0
LINE
  5
30A
330
1F
100
AcDbEntity
  8
LAYER-256
  6
Continuous
 62
     1
100
AcDbLine
 10
-368.7908691481136
 20
171.6826616248228
 30
0.0
 11
-368.7908691481136
 21
155.9466021830769
 31
0.0
  0
CIRCLE
  5
30B
330
1F
100
AcDbEntity
  8
LAYER-256
  6
Continuous
 62
     1
100
AcDbCircle
 10
-360.3810376874362
 20
171.6826616248228
 30
0.0
 40
4.528370786516853
  0
ARC
  5
30C
330
1F
100
AcDbEntity
  8
LAYER-256
  6
Continuous
 62
     1
100
AcDbCircle
 10
-360.3810376874362
 20
171.6826616248228
 30
0.0
 40
8.409831460674157
100
AcDbArc
 50
0.0
 51
180.0
  0
LINE
  5
30D
330
1F
100
AcDbEntity
  8
LAYER-256
  6
Continuous
 62
     1
100
AcDbLine
 10
-351.9712062267632
 20
171.6826616248228
 30
0.0
 11
-351.9712062267632
 21
155.9466021830769
 31
0.0
  0
LINE
  5
30E
330
1F
100
AcDbEntity
  8
LAYER-256
  6
Continuous
 62
     1
100
AcDbLine
 10
-236.23507292339
 20
171.6826616248228
 30
0.0
 11
-236.23507292339
 21
155.9466021830769
 31
0.0
  0
CIRCLE
  5
30F
330
1F
100
AcDbEntity
  8
LAYER-256
  6
Continuous
 62
     1
100
AcDbCircle
 10
-227.8252414627172
 20
171.6826616248228
 30
0.0
 40
4.528370786516853
  0
ARC
  5
310
330
1F
100
AcDbEntity
  8
LAYER-256
  6
Continuous
 62
     1
100
AcDbCircle
 10
-227.8252414627172
 20
171.6826616248228
 30
0.0
 40
8.409831460674157
100
AcDbArc
 50
0.0
 51
180.0
  0
LINE
  5
311
330
1F
100
AcDbEntity
  8
LAYER-256
  6
Continuous
 62
     1
100
AcDbLine
 10
-219.4154100022423
 20
171.6826616248228
 30
0.0
 11
-219.4154100022423
 21
155.9466021830769
 31
0.0
  0
LINE
  5
312
330
1F
100
AcDbEntity
  8
LAYER-256
  6
Continuous
 62
     1
100
AcDbLine
 10
-204.5482274177751
 20
171.6826616248228
 30
0.0
 11
-204.5482274177751
 21
155.9466021830769
 31
0.0
  0
CIRCLE
  5
313
330
1F
100
AcDbEntity
  8
LAYER-256
  6
Continuous
 62
     1
100
AcDbCircle
 10
-196.1383959571023
 20
171.6826616248228
 30
0.0
 40
4.528370786516853
  0
ARC
  5
314
330
1F
100
AcDbEntity
  8
LAYER-256
  6
Continuous
 62
     1
100
AcDbCircle
 10
-196.1383959571023
 20
171.6826616248228
 30
0.0
 40
8.409831460674157
100
AcDbArc
 50
0.0
 51
180.0
  0
LINE
  5
315
330
1F
100
AcDbEntity
  8
LAYER-256
  6
Continuous
 62
     1
100
AcDbLine
 10
-187.7285644964246
 20
171.6826616248228
 30
0.0
 11
-187.7285644964246
 21
155.9466021830769
 31
0.0
  0
LINE
  5
316
330
1F
100
AcDbEntity
  8
LAYER-256
  6
Continuous
 62
     1
100
AcDbLine
 10
-80.32788541777362
 20
171.6826616248228
 30
0.0
 11
-80.32788541777362
 21
155.9466021830769
 31
0.0
  0
CIRCLE
  5
317
330
1F
100
AcDbEntity
  8
LAYER-256
  6
Continuous
 62
     1
100
AcDbCircle
 10
-71.9180539571008
 20
171.6826616248228
 30
0.0
 40
4.528370786516853
  0
ARC
  5
318
330
1F
100
AcDbEntity
  8
LAYER-256
  6
Continuous
 62
     1
100
AcDbCircle
 10
-71.9180539571008
 20
171.6826616248228
 30
0.0
 40
8.409831460674157
100
AcDbArc
 50
0.0
 51
180.0
  0
LINE
  5
319
330
1F
100
AcDbEntity
  8
LAYER-256
  6
Continuous
 62
     1
100
AcDbLine
 10
-63.50822249642317
 20
171.6826616248228
 30
0.0
 11
-63.50822249642317
 21
155.9466021830769
 31
0.0
  0
LINE
  5
31A
330
1F
100
AcDbEntity
  8
LAYER-256
  6
Continuous
 62
     1
100
AcDbLine
 10
-48.6410399121587
 20
171.6826616248228
 30
0.0
 11
-48.6410399121587
 21
155.9466021830769
 31
0.0
  0
CIRCLE
  5
31B
330
1F
100
AcDbEntity
  8
LAYER-256
  6
Continuous
 62
     1
100
AcDbCircle
 10
-40.23120845148114
 20
171.6826616248228
 30
0.0
 40
4.528370786516853
  0
ARC
  5
31C
330
1F
100
AcDbEntity
  8
LAYER-256
  6
Continuous
 62
     1
100
AcDbCircle
 10
-40.23120845148114
 20
171.6826616248228
 30
0.0
 40
8.409831460674157
100
AcDbArc
 50
0.0
 51
180.0
  0
LINE
  5
31D
330
1F
100
AcDbEntity
  8
LAYER-256
  6
Continuous
 62
     1
100
AcDbLine
 10
-31.82137699080826
 20
171.6826616248228
 30
0.0
 11
-31.82137699080826
 21
155.9466021830769
 31
0.0
  0
LINE
  5
31E
330
1F
100
AcDbEntity
  8
LAYER-256
  6
Continuous
 62
     1
100
AcDbLine
 10
-426.9818181818182
 20
170.9495228797023
 30
0.0
 11
-418.2683350357527
 21
175.9802539583556
 31
0.0
  0
LINE
  5
31F
330
1F
100
AcDbEntity
  8
LAYER-256
  6
Continuous
 62
     1
100
AcDbLine
 10
3.018181818181802
 20
170.9495228797023
 30
0.0
 11
-5.695301327888501
 21
175.9802539583556
 31
0.0
  0
LINE
  5
320
330
1F
100
AcDbEntity
  8
LAYER-256
  6
Continuous
 62
     1
100
AcDbLine
 10
-397.3706354851902
 20
166.2092845426268
 30
0.0
 11
-397.3706354851902
 21
159.5430390148904
 31
0.0
  0
LINE
  5
321
330
1F
100
AcDbEntity
  8
LAYER-256
  6
Continuous
 62
     1
100
AcDbLine
 10
-386.7651309009212
 20
166.2092845426268
 30
0.0
 11
-386.7651309009212
 21
159.5430390148904
 31
0.0
  0
LINE
  5
322
330
1F
100
AcDbEntity
  8
LAYER-256
  6
Continuous
 62
     1
100
AcDbLine
 10
-365.6837889233923
 20
166.2092845426268
 30
0.0
 11
-365.6837889233923
 21
159.5430390148904
 31
0.0
  0
LINE
  5
323
330
1F
100
AcDbEntity
  8
LAYER-256
  6
Continuous
 62
     1
100
AcDbLine
 10
-355.0782853953015
 20
166.2092845426268
 30
0.0
 11
-355.0782853953015
 21
159.5430390148904
 31
0.0
  0
LINE
  5
324
330
1F
100
AcDbEntity
  8
LAYER-256
  6
Continuous
 62
     1
100
AcDbLine
 10
-233.1279937548517
 20
166.2092845426268
 30
0.0
 11
-233.1279937548517
 21
159.5430390148904
 31
0.0
  0
LINE
  5
325
330
1F
100
AcDbEntity
  8
LAYER-256
  6
Continuous
 62
     1
100
AcDbLine
 10
-222.5224891705826
 20
166.2092845426268
 30
0.0
 11
-222.5224891705826
 21
159.5430390148904
 31
0.0
  0
LINE
  5
326
330
1F
100
AcDbEntity
  8
LAYER-256
  6
Continuous
 62
     1
100
AcDbLine
 10
-201.4411471930541
 20
166.2092845426268
 30
0.0
 11
-201.4411471930541
 21
159.5430390148904
 31
0.0
  0
LINE
  5
327
330
1F
100
AcDbEntity
  8
LAYER-256
  6
Continuous
 62
     1
100
AcDbLine
 10
-190.8356436649677
 20
166.2092845426268
 30
0.0
 11
-190.8356436649677
 21
159.5430390148904
 31
0.0
  0
LINE
  5
328
330
1F
100
AcDbEntity
  8
LAYER-256
  6
Continuous
 62
     1
100
AcDbLine
 10
-77.22080624923532
 20
166.2092845426268
 30
0.0
 11
-77.22080624923532
 21
159.5430390148904
 31
0.0
  0
LINE
  5
329
330
1F
100
AcDbEntity
  8
LAYER-256
  6
Continuous
 62
     1
100
AcDbLine
 10
-66.61530166496627
 20
166.2092845426268
 30
0.0
 11
-66.61530166496627
 21
159.5430390148904
 31
0.0
  0
LINE
  5
32A
330
1F
100
AcDbEntity
  8
LAYER-256
  6
Continuous
 62
     1
100
AcDbLine
 10
-45.53396074361598
 20
166.2092845426268
 30
0.0
 11
-45.53396074361598
 21
159.5430390148904
 31
0.0
  0
LINE
  5
32B
330
1F
100
AcDbEntity
  8
LAYER-256
  6
Continuous
 62
     1
100
AcDbLine
 10
-34.92845615934633
 20
166.2092845426268
 30
0.0
 11
-34.92845615934633
 21
159.5430390148904
 31
0.0
  0
ARC
  5
32C
330
1F
100
AcDbEntity
  8
LAYER-256
  6
Continuous
 62
     1
100
AcDbCircle
 10
184.8297378181796
 20
160.5457653965555
 30
0.0
 40
1.0
100
AcDbArc
 50
0.0
 51
87.53912799996577
  0
LINE
  5
32D
330
1F
100
AcDbEntity
  8
LAYER-256
  6
Continuous
 62
     1
100
AcDbLine
 10
-469.4818181818182
 20
158.6575991493668
 30
0.0
 11
-400.4777146537285
 21
158.6575991493668
 31
0.0
  0
LINE
  5
32E
330
1F
100
AcDbEntity
  8
LAYER-256
  6
Continuous
 62
     1
100
AcDbLine
 10
-449.3415619570993
 20
158.6575991493668
 30
0.0
 11
-449.3415619570993
 21
-80.72442332254326
 31
0.0
  0
LINE
  5
32F
330
1F
100
AcDbEntity
  8
LAYER-256
  6
CENTER
 62
     4
100
AcDbLine
 10
-426.9818181818182
 20
158.6575991493668
 30
0.0
 11
-426.9818181818182
 21
203.5556112841985
 31
0.0
  0
LINE
  5
330
330
1F
100
AcDbEntity
  8
LAYER-256
  6
Continuous
 62
     1
100
AcDbLine
 10
-383.6580517323829
 20
158.6575991493668
 30
0.0
 11
-368.7908691481136
 21
158.6575991493668
 31
0.0
  0
LINE
  5
331
330
1F
100
AcDbEntity
  8
LAYER-256
  6
Continuous
 62
     1
100
AcDbLine
 10
-351.9712062267632
 20
158.6575991493668
 30
0.0
 11
-236.23507292339
 21
158.6575991493668
 31
0.0
  0
LINE
  5
332
330
1F
100
AcDbEntity
  8
LAYER-256
  6
Continuous
 62
     1
100
AcDbLine
 10
-219.4154100022423
 20
158.6575991493668
 30
0.0
 11
-204.5482274177751
 21
158.6575991493668
 31
0.0
  0
LINE
  5
333
330
1F
100
AcDbEntity
  8
LAYER-256
  6
Continuous
 62
     1
100
AcDbLine
 10
-187.7285644964246
 20
158.6575991493668
 30
0.0
 11
-80.32788541777362
 21
158.6575991493668
 31
0.0
  0
LINE
  5
334
330
1F
100
AcDbEntity
  8
LAYER-256
  6
Continuous
 62
     1
100
AcDbLine
 10
-48.6410399121587
 20
158.6575991493668
 30
0.0
 11
-63.50822249642317
 21
158.6575991493668
 31
0.0
  0
LINE
  5
335
330
1F
100
AcDbEntity
  8
LAYER-256
  6
CENTER
 62
     4
100
AcDbLine
 10
3.018181818181802
 20
158.6575991493668
 30
0.0
 11
3.018181818181802
 21
203.5556112841985
 31
0.0
  0
LINE
  5
336
330
1F
100
AcDbEntity
  8
LAYER-256
  6
Continuous
 62
     1
100
AcDbLine
 10
25.37792453728466
 20
158.6575991493668
 30
0.0
 11
25.37792453728466
 21
-80.72442332254326
 31
0.0
  0
LINE
  5
337
330
1F
100
AcDbEntity
  8
LAYER-256
  6
Continuous
 62
     1
100
AcDbLine
 10
45.5181818181818
 20
158.6575991493668
 30
0.0
 11
-31.82137699080826
 21
158.6575991493668
 31
0.0
  0
LINE
  5
338
330
1F
100
AcDbEntity
  8
LAYER-256
  6
Continuous
 62
     1
100
AcDbLine
 10
228.7072648181792
 20
158.6575991493668
 30
0.0
 11
228.7072648181792
 21
211.4665879134118
 31
0.0
  0
LINE
  5
339
330
1F
100
AcDbEntity
  8
LAYER-256
  6
Continuous
 62
     1
100
AcDbLine
 10
228.7072648181792
 20
158.6575991493668
 30
0.0
 11
233.7072648181792
 21
158.6575991493668
 31
0.0
  0
LINE
  5
33A
330
1F
100
AcDbEntity
  8
LAYER-256
  6
Continuous
 62
     1
100
AcDbLine
 10
453.7072648181792
 20
158.6575991493668
 30
0.0
 11
461.2642178181822
 21
158.6575991493668
 31
0.0
  0
LINE
  5
33B
330
1F
100
AcDbEntity
  8
LAYER-256
  6
Continuous
 62
     1
100
AcDbLine
 10
-400.4777146537285
 20
155.9466021830769
 30
0.0
 11
-383.6580517323829
 21
155.9466021830769
 31
0.0
  0
LINE
  5
33C
330
1F
100
AcDbEntity
  8
LAYER-256
  6
Continuous
 62
     1
100
AcDbLine
 10
-397.3706354851902
 20
155.9466021830769
 30
0.0
 11
-397.3706354851902
 21
148.0958013965578
 31
0.0
  0
LINE
  5
33D
330
1F
100
AcDbEntity
  8
LAYER-256
  6
Continuous
 62
     1
100
AcDbLine
 10
-386.7651309009212
 20
155.9466021830769
 30
0.0
 11
-386.7651309009212
 21
148.0958013965578
 31
0.0
  0
LINE
  5
33E
330
1F
100
AcDbEntity
  8
LAYER-256
  6
Continuous
 62
     1
100
AcDbLine
 10
-365.6837889233923
 20
155.9466021830769
 30
0.0
 11
-365.6837889233923
 21
148.0958013965578
 31
0.0
  0
LINE
  5
33F
330
1F
100
AcDbEntity
  8
LAYER-256
  6
Continuous
 62
     1
100
AcDbLine
 10
-355.0782853953015
 20
155.9466021830769
 30
0.0
 11
-355.0782853953015
 21
148.0958013965578
 31
0.0
  0
LINE
  5
340
330
1F
100
AcDbEntity
  8
LAYER-256
  6
Continuous
 62
     1
100
AcDbLine
 10
-351.9712062267632
 20
155.9466021830769
 30
0.0
 11
-368.7908691481136
 21
155.9466021830769
 31
0.0
  0
LINE
  5
341
330
1F
100
AcDbEntity
  8
LAYER-256
  6
Continuous
 62
     1
100
AcDbLine
 10
-236.23507292339
 20
155.9466021830769
 30
0.0
 11
-219.4154100022423
 21
155.9466021830769
 31
0.0
  0
LINE
  5
342
330
1F
100
AcDbEntity
  8
LAYER-256
  6
Continuous
 62
     1
100
AcDbLine
 10
-233.1279937548517
 20
155.9466021830769
 30
0.0
 11
-233.1279937548517
 21
148.0958013965578
 31
0.0
  0
LINE
  5
343
330
1F
100
AcDbEntity
  8
LAYER-256
  6
Continuous
 62
     1
100
AcDbLine
 10
-222.5224891705826
 20
155.9466021830769
 30
0.0
 11
-222.5224891705826
 21
148.0958013965578
 31
0.0
  0
LINE
  5
344
330
1F
100
AcDbEntity
  8
LAYER-256
  6
Continuous
 62
     1
100
AcDbLine
 10
-201.4411471930541
 20
155.9466021830769
 30
0.0
 11
-201.4411471930541
 21
148.0958013965578
 31
0.0
  0
LINE
  5
345
330
1F
100
AcDbEntity
  8
LAYER-256
  6
Continuous
 62
     1
100
AcDbLine
 10
-190.8356436649677
 20
155.9466021830769
 30
0.0
 11
-190.8356436649677
 21
148.0958013965578
 31
0.0
  0
LINE
  5
346
330
1F
100
AcDbEntity
  8
LAYER-256
  6
Continuous
 62
     1
100
AcDbLine
 10
-187.7285644964246
 20
155.9466021830769
 30
0.0
 11
-204.5482274177751
 21
155.9466021830769
 31
0.0
  0
LINE
  5
347
330
1F
100
AcDbEntity
  8
LAYER-256
  6
Continuous
 62
     1
100
AcDbLine
 10
-80.32788541777362
 20
155.9466021830769
 30
0.0
 11
-63.50822249642317
 21
155.9466021830769
 31
0.0
  0
LINE
  5
348
330
1F
100
AcDbEntity
  8
LAYER-256
  6
Continuous
 62
     1
100
AcDbLine
 10
-77.22080624923532
 20
155.9466021830769
 30
0.0
 11
-77.22080624923532
 21
148.0958013965578
 31
0.0
  0
LINE
  5
349
330
1F
100
AcDbEntity
  8
LAYER-256
  6
Continuous
 62
     1
100
AcDbLine
 10
-66.61530166496627
 20
155.9466021830769
 30
0.0
 11
-66.61530166496627
 21
148.0958013965578
 31
0.0
  0
LINE
  5
34A
330
1F
100
AcDbEntity
  8
LAYER-256
  6
Continuous
 62
     1
100
AcDbLine
 10
-45.53396074361598
 20
155.9466021830769
 30
0.0
 11
-45.53396074361598
 21
148.0958013965578
 31
0.0
  0
LINE
  5
34B
330
1F
100
AcDbEntity
  8
LAYER-256
  6
Continuous
 62
     1
100
AcDbLine
 10
-34.92845615934633
 20
155.9466021830769
 30
0.0
 11
-34.92845615934633
 21
148.0958013965578
 31
0.0
  0
LINE
  5
34C
330
1F
100
AcDbEntity
  8
LAYER-256
  6
Continuous
 62
     1
100
AcDbLine
 10
-31.82137699080826
 20
155.9466021830769
 30
0.0
 11
-48.6410399121587
 21
155.9466021830769
 31
0.0
  0
LINE
  5
34D
330
1F
100
AcDbEntity
  8
LAYER-256
  6
Continuous
 62
     1
100
AcDbLine
 10
174.3953318181802
 20
154.0423653965586
 30
0.0
 11
185.8297378181832
 21
154.0423653965586
 31
0.0
  0
LINE
  5
34E
330
1F
100
AcDbEntity
  8
LAYER-256
  6
Continuous
 62
     1
100
AcDbLine
 10
176.1426348181821
 20
154.0423653965586
 30
0.0
 11
176.1426348181821
 21
148.0958013965578
 31
0.0
  0
LINE
  5
34F
330
1F
100
AcDbEntity
  8
LAYER-256
  6
Continuous
 62
     1
100
AcDbLine
 10
184.1726348184824
 20
154.0423653965586
 30
0.0
 11
184.1726348184824
 21
148.0958013965578
 31
0.0
  0
LINE
  5
350
330
1F
100
AcDbEntity
  8
LAYER-256
  6
Continuous
 62
     1
100
AcDbLine
 10
185.8297378181832
 20
154.0423653965586
 30
0.0
 11
185.8297378181832
 21
160.5457653965555
 31
0.0
  0
LINE
  5
351
330
1F
100
AcDbEntity
  8
LAYER-256
  6
Continuous
 62
     1
100
AcDbLine
 10
-429.9999028110317
 20
148.0958013965578
 30
0.0
 11
-429.9999028110317
 21
-70.1626255697343
 31
0.0
  0
LINE
  5
352
330
1F
100
AcDbEntity
  8
LAYER-256
  6
Continuous
 62
     1
100
AcDbLine
 10
-298.2708661593462
 20
148.0958013965578
 30
0.0
 11
-298.2708661593462
 21
-70.1626255697343
 31
0.0
  0
LINE
  5
353
330
1F
100
AcDbEntity
  8
LAYER-256
  6
Continuous
 62
     1
100
AcDbLine
 10
-298.2708661593462
 20
148.0958013965578
 30
0.0
 11
-429.9999028110317
 21
148.0958013965578
 31
0.0
  0
LINE
  5
354
330
1F
100
AcDbEntity
  8
LAYER-256
  6
Continuous
 62
     1
100
AcDbLine
 10
-281.5999577099114
 20
148.0958013965578
 30
0.0
 11
-281.5999577099114
 21
-70.1626255697343
 31
0.0
  0
LINE
  5
355
330
1F
100
AcDbEntity
  8
LAYER-256
  6
Continuous
 62
     1
100
AcDbLine
 10
-142.3636797100019
 20
148.0958013965578
 30
0.0
 11
-142.3636797100019
 21
-70.1626255697343
 31
0.0
  0
LINE
  5
356
330
1F
100
AcDbEntity
  8
LAYER-256
  6
Continuous
 62
     1
100
AcDbLine
 10
-142.3636797100019
 20
148.0958013965578
 30
0.0
 11
-281.5999577099114
 21
148.0958013965578
 31
0.0
  0
LINE
  5
357
330
1F
100
AcDbEntity
  8
LAYER-256
  6
Continuous
 62
     1
100
AcDbLine
 10
-125.6927702022715
 20
148.0958013965578
 30
0.0
 11
-125.6927702022715
 21
-70.1626255697343
 31
0.0
  0
LINE
  5
358
330
1F
100
AcDbEntity
  8
LAYER-256
  6
Continuous
 62
     1
100
AcDbLine
 10
6.036265391217057
 20
148.0958013965578
 30
0.0
 11
-125.6927702022715
 21
148.0958013965578
 31
0.0
  0
LINE
  5
359
330
1F
100
AcDbEntity
  8
LAYER-256
  6
Continuous
 62
     1
100
AcDbLine
 10
6.036265391217057
 20
148.0958013965578
 30
0.0
 11
6.036265391217057
 21
-70.1626255697343
 31
0.0
  0
LINE
  5
35A
330
1F
100
AcDbEntity
  8
LAYER-256
  6
Continuous
 62
     1
100
AcDbLine
 10
163.7072648181793
 20
148.0958013965578
 30
0.0
 11
233.7072648181793
 21
148.0958013965578
 31
0.0
  0
LINE
  5
35B
330
1F
100
AcDbEntity
  8
LAYER-256
  6
Continuous
 62
     1
100
AcDbLine
 10
236.5424688181819
 20
148.0958013965578
 30
0.0
 11
450.872061820426
 21
148.0958013965578
 31
0.0
  0
LINE
  5
35C
330
1F
100
AcDbEntity
  8
LAYER-256
  6
Continuous
 62
     1
100
AcDbLine
 10
453.7072648181793
 20
148.0958013965578
 30
0.0
 11
523.7072648181793
 21
148.0958013965578
 31
0.0
  0
LINE
  5
35D
330
1F
100
AcDbEntity
  8
LAYER-256
  6
CENTER
 62
     4
100
AcDbLine
 10
-487.7453638896858
 20
54.93379344150381
 30
0.0
 11
37.08530927885431
 21
54.93379344150381
 31
0.0
  0
LINE
  5
35E
330
1F
100
AcDbEntity
  8
LAYER-256
  6
Continuous
 62
     1
100
AcDbLine
 10
-429.9999028110317
 20
-70.16262556973429
 30
0.0
 11
-298.2708661593462
 21
-70.16262556973429
 31
0.0
  0
LINE
  5
35F
330
1F
100
AcDbEntity
  8
LAYER-256
  6
Continuous
 62
     1
100
AcDbLine
 10
-281.5999577099114
 20
-70.16262556973429
 30
0.0
 11
-142.363679709908
 21
-70.16262556973429
 31
0.0
  0
LINE
  5
360
330
1F
100
AcDbEntity
  8
LAYER-256
  6
Continuous
 62
     1
100
AcDbLine
 10
-125.6927702022715
 20
-70.16262556973429
 30
0.0
 11
6.036265391217057
 21
-70.16262556973429
 31
0.0
  0
LINE
  5
361
330
1F
100
AcDbEntity
  8
LAYER-256
  6
Continuous
 62
     1
100
AcDbLine
 10
163.7072648181792
 20
-70.16262556973429
 30
0.0
 11
233.7072648181792
 21
-70.16262556973429
 31
0.0
  0
LINE
  5
362
330
1F
100
AcDbEntity
  8
LAYER-256
  6
Continuous
 62
     1
100
AcDbLine
 10
236.5424688181819
 20
-70.16262556973429
 30
0.0
 11
450.872061820426
 21
-70.16262556973429
 31
0.0
  0
LINE
  5
363
330
1F
100
AcDbEntity
  8
LAYER-256
  6
Continuous
 62
     1
100
AcDbLine
 10
453.7072648181792
 20
-70.16262556973429
 30
0.0
 11
523.7072648181793
 21
-70.16262556973429
 31
0.0
  0
LINE
  5
364
330
1F
100
AcDbEntity
  8
LAYER-256
  6
Continuous
 62
     1
100
AcDbLine
 10
-469.4818181818182
 20
-80.72442332254327
 30
0.0
 11
45.5181818181818
 21
-80.72442332254327
 31
0.0
  0
LINE
  5
365
330
1F
100
AcDbEntity
  8
LAYER-256
  6
Continuous
 62
     1
100
AcDbLine
 10
-438.5015055076639
 20
-80.72442332254327
 30
0.0
 11
-438.5015055076639
 21
-128.2525132101837
 31
0.0
  0
LINE
  5
366
330
1F
100
AcDbEntity
  8
LAYER-256
  6
CENTER
 62
     4
100
AcDbLine
 10
-426.9818181818182
 20
-80.72442332254327
 30
0.0
 11
-426.9818181818182
 21
-146.6685939742292
 31
0.0
  0
LINE
  5
367
330
1F
100
AcDbEntity
  8
LAYER-256
  6
Continuous
 62
     1
100
AcDbLine
 10
-415.4621319121555
 20
-80.72442332254327
 30
0.0
 11
-415.4621319121555
 21
-128.2525132101837
 31
0.0
  0
LINE
  5
368
330
1F
100
AcDbEntity
  8
LAYER-256
  6
Continuous
 62
     1
100
AcDbLine
 10
-8.501505507663865
 20
-80.72442332254326
 30
0.0
 11
-8.501505507663865
 21
-128.2525132101837
 31
0.0
  0
LINE
  5
369
330
1F
100
AcDbEntity
  8
LAYER-256
  6
CENTER
 62
     4
100
AcDbLine
 10
3.018181818181802
 20
-80.72442332254326
 30
0.0
 11
3.018181818181802
 21
-146.6685939742292
 31
0.0
  0
LINE
  5
36A
330
1F
100
AcDbEntity
  8
LAYER-256
  6
Continuous
 62
     1
100
AcDbLine
 10
14.53786808784446
 20
-80.72442332254326
 30
0.0
 11
14.53786808784446
 21
-128.2525132101837
 31
0.0
  0
LINE
  5
36B
330
1F
100
AcDbEntity
  8
LAYER-256
  6
Continuous
 62
     1
100
AcDbLine
 10
223.7072648181792
 20
-80.72442332254327
 30
0.0
 11
233.7072648181792
 21
-80.72442332254327
 31
0.0
  0
LINE
  5
36C
330
1F
100
AcDbEntity
  8
LAYER-256
  6
Continuous
 62
     1
100
AcDbLine
 10
463.7072648181792
 20
-80.72442332254327
 30
0.0
 11
453.7072648181792
 21
-80.72442332254327
 31
0.0
  0
LINE
  5
36D
330
1F
100
AcDbEntity
  8
LAYER-256
  6
Continuous
 62
     1
100
AcDbLine
 10
-426.9818181818182
 20
-93.0163459967054
 30
0.0
 11
-418.2683350357527
 21
-98.04707813153208
 31
0.0
  0
LINE
  5
36E
330
1F
100
AcDbEntity
  8
LAYER-256
  6
Continuous
 62
     1
100
AcDbLine
 10
3.018181818181802
 20
-93.01634599670541
 30
0.0
 11
-5.695301327888501
 21
-98.04707813153209
 31
0.0
  0
LINE
  5
36F
330
1F
100
AcDbEntity
  8
LAYER-256
  6
Continuous
 62
     1
100
AcDbLine
 10
215.3898628181814
 20
-94.80730626636648
 30
0.0
 11
223.7072648181792
 21
-94.80730626636648
 31
0.0
  0
LINE
  5
370
330
1F
100
AcDbEntity
  8
LAYER-256
  6
Continuous
 62
     1
100
AcDbLine
 10
472.0246678181802
 20
-94.80730626636648
 30
0.0
 11
463.7072648181792
 21
-94.80730626636648
 31
0.0
  0
LINE
  5
371
330
1F
100
AcDbEntity
  8
LAYER-256
  6
Continuous
 62
     1
100
AcDbLine
 10
214.5170918181818
 20
-97.12658226636484
 30
0.0
 11
214.5170918181818
 21
-109.0290382663657
 31
0.0
  0
ARC
  5
372
330
1F
100
AcDbEntity
  8
LAYER-256
  6
Continuous
 62
     1
100
AcDbCircle
 10
218.0350648181802
 20
-97.12658226636484
 30
0.0
 40
3.517973000000001
100
AcDbArc
 50
138.7561732204564
 51
221.2438268131378
  0
ARC
  5
373
330
1F
100
AcDbEntity
  8
LAYER-256
  6
Continuous
 62
     1
100
AcDbCircle
 10
469.3794658181814
 20
-97.12658226636484
 30
0.0
 40
3.517973000000001
100
AcDbArc
 50
318.7561739999786
 51
41.2438259664273
  0
LINE
  5
374
330
1F
100
AcDbEntity
  8
LAYER-256
  6
Continuous
 62
     1
100
AcDbLine
 10
472.8974388181795
 20
-97.12658226636484
 30
0.0
 11
472.8974388181795
 21
-109.0290382663657
 31
0.0
  0
LINE
  5
375
330
1F
100
AcDbEntity
  8
LAYER-256
  6
Continuous
 62
     1
100
AcDbLine
 10
-435.6953013275016
 20
-98.04707813153208
 30
0.0
 11
-426.9818181818182
 21
-93.0163459967054
 31
0.0
  0
LINE
  5
376
330
1F
100
AcDbEntity
  8
LAYER-256
  6
Continuous
 62
     1
100
AcDbLine
 10
-418.2683350357527
 20
-98.04707813153208
 30
0.0
 11
-418.2683350357527
 21
-108.108542401195
 31
0.0
  0
LINE
  5
377
330
1F
100
AcDbEntity
  8
LAYER-256
  6
Continuous
 62
     1
100
AcDbLine
 10
-5.695301327888501
 20
-98.04707813153209
 30
0.0
 11
-5.695301327888501
 21
-108.1085424011951
 31
0.0
  0
LINE
  5
378
330
1F
100
AcDbEntity
  8
LAYER-256
  6
Continuous
 62
     1
100
AcDbLine
 10
11.7316649642473
 20
-98.04707813153209
 30
0.0
 11
3.018181818181802
 21
-93.01634599670541
 31
0.0
  0
LINE
  5
379
330
1F
100
AcDbEntity
  8
LAYER-256
  6
Continuous
 62
     1
100
AcDbLine
 10
207.9930958181812
 20
-99.07781026636837
 30
0.0
 11
214.5170918181818
 21
-99.07781026636837
 31
0.0
  0
LINE
  5
37A
330
1F
100
AcDbEntity
  8
LAYER-256
  6
Continuous
 62
     1
100
AcDbLine
 10
236.5424688181819
 20
-99.07781026636837
 30
0.0
 11
450.872061820426
 21
-99.07781026636837
 31
0.0
  0
LINE
  5
37B
330
1F
100
AcDbEntity
  8
LAYER-256
  6
Continuous
 62
     1
100
AcDbLine
 10
479.4214348181803
 20
-99.07781026636837
 30
0.0
 11
472.8974388181795
 21
-99.07781026636837
 31
0.0
  0
LINE
  5
37C
330
1F
100
AcDbEntity
  8
LAYER-256
  6
Continuous
 62
     1
100
AcDbLine
 10
215.3898628181814
 20
-99.44585726636467
 30
0.0
 11
223.7072648181792
 21
-99.44585726636467
 31
0.0
  0
LINE
  5
37D
330
1F
100
AcDbEntity
  8
LAYER-256
  6
Continuous
 62
     1
100
AcDbLine
 10
472.0246678181802
 20
-99.44585726636467
 30
0.0
 11
463.7072648181792
 21
-99.44585726636467
 31
0.0
  0
CIRCLE
  5
37E
330
1F
100
AcDbEntity
  8
LAYER-256
  6
Continuous
 62
     1
100
AcDbCircle
 10
-426.9818181818182
 20
-103.0778102663684
 30
0.0
 40
4.224719101123595
  0
CIRCLE
  5
37F
330
1F
100
AcDbEntity
  8
LAYER-256
  6
Continuous
 62
     1
100
AcDbCircle
 10
-426.9818181818182
 20
-103.0778102663684
 30
0.0
 40
8.713483146067414
  0
LINE
  5
380
330
1F
100
AcDbEntity
  8
LAYER-256
  6
CENTER
 62
     4
100
AcDbLine
 10
-408.9800440020414
 20
-103.0778102663684
 30
0.0
 11
-443.598612203906
 21
-103.0778102663684
 31
0.0
  0
LINE
  5
381
330
1F
100
AcDbEntity
  8
LAYER-256
  6
CENTER
 62
     4
100
AcDbLine
 10
-14.98359236159502
 20
-103.0778102663684
 30
0.0
 11
19.63497478447277
 21
-103.0778102663684
 31
0.0
  0
CIRCLE
  5
382
330
1F
100
AcDbEntity
  8
LAYER-256
  6
Continuous
 62
     1
100
AcDbCircle
 10
3.018181818181802
 20
-103.0778102663684
 30
0.0
 40
4.224719101123595
  0
CIRCLE
  5
383
330
1F
100
AcDbEntity
  8
LAYER-256
  6
Continuous
 62
     1
100
AcDbCircle
 10
3.018181818181802
 20
-103.0778102663684
 30
0.0
 40
8.713483146067414
  0
LINE
  5
384
330
1F
100
AcDbEntity
  8
LAYER-256
  6
CENTER
 62
     4
100
AcDbLine
 10
202.0674668181827
 20
-103.0778102663684
 30
0.0
 11
487.3787448181819
 21
-103.0778102663684
 31
0.0
  0
ARC
  5
385
330
1F
100
AcDbEntity
  8
LAYER-256
  6
Continuous
 62
     1
100
AcDbCircle
 10
222.5104888181822
 20
-103.0778102663684
 30
0.0
 40
7.993397
100
AcDbArc
 50
152.9756508412489
 51
207.0243491587221
  0
ARC
  5
386
330
1F
100
AcDbEntity
  8
LAYER-256
  6
Continuous
 62
     1
100
AcDbCircle
 10
464.9040418181793
 20
-103.0778102663684
 30
0.0
 40
7.993397
100
AcDbArc
 50
332.9756509970596
 51
27.02434900001201
  0
LINE
  5
387
330
1F
100
AcDbEntity
  8
LAYER-256
  6
Continuous
 62
     1
100
AcDbLine
 10
215.3898628181814
 20
-106.7097622663657
 30
0.0
 11
223.7072648181792
 21
-106.7097622663657
 31
0.0
  0
LINE
  5
388
330
1F
100
AcDbEntity
  8
LAYER-256
  6
Continuous
 62
     1
100
AcDbLine
 10
472.0246678181802
 20
-106.7097622663657
 30
0.0
 11
463.7072648181792
 21
-106.7097622663657
 31
0.0
  0
LINE
  5
389
330
1F
100
AcDbEntity
  8
LAYER-256
  6
Continuous
 62
     1
100
AcDbLine
 10
207.9930958181812
 20
-107.0778102663647
 30
0.0
 11
207.9930958181812
 21
-99.07781026636837
 31
0.0
  0
LINE
  5
38A
330
1F
100
AcDbEntity
  8
LAYER-256
  6
Continuous
 62
     1
100
AcDbLine
 10
207.9930958181812
 20
-107.0778102663647
 30
0.0
 11
214.5170918181818
 21
-107.0778102663647
 31
0.0
  0
LINE
  5
38B
330
1F
100
AcDbEntity
  8
LAYER-256
  6
Continuous
 62
     1
100
AcDbLine
 10
236.5424688181819
 20
-107.0778102663647
 30
0.0
 11
450.872061820426
 21
-107.0778102663647
 31
0.0
  0
LINE
  5
38C
330
1F
100
AcDbEntity
  8
LAYER-256
  6
Continuous
 62
     1
100
AcDbLine
 10
479.4214348181803
 20
-107.0778102663647
 30
0.0
 11
479.4214348181803
 21
-99.07781026636837
 31
0.0
  0
LINE
  5
38D
330
1F
100
AcDbEntity
  8
LAYER-256
  6
Continuous
 62
     1
100
AcDbLine
 10
479.4214348181803
 20
-107.0778102663647
 30
0.0
 11
472.8974388181795
 21
-107.0778102663647
 31
0.0
  0
LINE
  5
38E
330
1F
100
AcDbEntity
  8
LAYER-256
  6
Continuous
 62
     1
100
AcDbLine
 10
-435.6953013275016
 20
-108.108542401195
 30
0.0
 11
-435.6953013275016
 21
-98.04707813153208
 31
0.0
  0
LINE
  5
38F
330
1F
100
AcDbEntity
  8
LAYER-256
  6
Continuous
 62
     1
100
AcDbLine
 10
-418.2683350357527
 20
-108.108542401195
 30
0.0
 11
-426.9818181818182
 21
-113.1392734798483
 31
0.0
  0
LINE
  5
390
330
1F
100
AcDbEntity
  8
LAYER-256
  6
Continuous
 62
     1
100
AcDbLine
 10
-5.695301327888501
 20
-108.1085424011951
 30
0.0
 11
3.018181818181802
 21
-113.1392734798483
 31
0.0
  0
LINE
  5
391
330
1F
100
AcDbEntity
  8
LAYER-256
  6
Continuous
 62
     1
100
AcDbLine
 10
11.7316649642473
 20
-108.1085424011951
 30
0.0
 11
11.7316649642473
 21
-98.04707813153209
 31
0.0
  0
ARC
  5
392
330
1F
100
AcDbEntity
  8
LAYER-256
  6
Continuous
 62
     1
100
AcDbCircle
 10
218.0350648181802
 20
-109.0290382663657
 30
0.0
 40
3.517973000000001
100
AcDbArc
 50
138.7561731868831
 51
221.243826813103
  0
ARC
  5
393
330
1F
100
AcDbEntity
  8
LAYER-256
  6
Continuous
 62
     1
100
AcDbCircle
 10
469.3794658181814
 20
-109.0290382663657
 30
0.0
 40
3.517973000000001
100
AcDbArc
 50
318.7561740000134
 51
41.24382600000058
  0
LINE
  5
394
330
1F
100
AcDbEntity
  8
LAYER-256
  6
Continuous
 62
     1
100
AcDbLine
 10
215.3898628181814
 20
-111.3483142661167
 30
0.0
 11
223.7072648181792
 21
-111.3483142661167
 31
0.0
  0
LINE
  5
395
330
1F
100
AcDbEntity
  8
LAYER-256
  6
Continuous
 62
     1
100
AcDbLine
 10
472.0246678181802
 20
-111.3483142661167
 30
0.0
 11
463.7072648181792
 21
-111.3483142661167
 31
0.0
  0
LINE
  5
396
330
1F
100
AcDbEntity
  8
LAYER-256
  6
Continuous
 62
     1
100
AcDbLine
 10
-426.9818181818182
 20
-113.1392734798483
 30
0.0
 11
-435.6953013275016
 21
-108.108542401195
 31
0.0
  0
LINE
  5
397
330
1F
100
AcDbEntity
  8
LAYER-256
  6
Continuous
 62
     1
100
AcDbLine
 10
3.018181818181802
 20
-113.1392734798483
 30
0.0
 11
11.7316649642473
 21
-108.1085424011951
 31
0.0
  0
LINE
  5
398
330
1F
100
AcDbEntity
  8
LAYER-256
  6
CENTER
 62
     4
100
AcDbLine
 10
193.7072648181792
 20
-117.0964370865913
 30
0.0
 11
193.7072648181792
 21
-146.6593960865912
 31
0.0
  0
LINE
  5
399
330
1F
100
AcDbEntity
  8
LAYER-256
  6
CENTER
 62
     4
100
AcDbLine
 10
493.7072648181792
 20
-117.0964370865913
 30
0.0
 11
493.7072648181792
 21
-146.6593960865912
 31
0.0
  0
LINE
  5
39A
330
1F
100
AcDbEntity
  8
LAYER-256
  6
Continuous
 62
     1
100
AcDbLine
 10
-469.4818181818182
 20
-128.2525132101837
 30
0.0
 11
45.5181818181818
 21
-128.2525132101837
 31
0.0
  0
LINE
  5
39B
330
1F
100
AcDbEntity
  8
LAYER-256
  6
Continuous
 62
     1
100
AcDbLine
 10
171.2072648181792
 20
-128.5334120865882
 30
0.0
 11
223.7072648181792
 21
-128.5334120865882
 31
0.0
  0
LINE
  5
39C
330
1F
100
AcDbEntity
  8
LAYER-256
  6
Continuous
 62
     1
100
AcDbLine
 10
171.2072648181792
 20
-128.5334120865882
 30
0.0
 11
171.2072648181792
 21
-133.5334120865882
 31
0.0
  0
LINE
  5
39D
330
1F
100
AcDbEntity
  8
LAYER-256
  6
Continuous
 62
     1
100
AcDbLine
 10
223.7072648181792
 20
-128.5334120865882
 30
0.0
 11
223.7072648181792
 21
-80.72442332254327
 31
0.0
  0
LINE
  5
39E
330
1F
100
AcDbEntity
  8
LAYER-256
  6
Continuous
 62
     1
100
AcDbLine
 10
233.7072648181792
 20
-128.5334120865882
 30
0.0
 11
233.7072648181792
 21
206.4665879134118
 31
0.0
  0
LINE
  5
39F
330
1F
100
AcDbEntity
  8
LAYER-256
  6
Continuous
 62
     1
100
AcDbLine
 10
233.7072648181792
 20
-128.5334120865882
 30
0.0
 11
453.7072648181792
 21
-128.5334120865882
 31
0.0
  0
LINE
  5
3A0
330
1F
100
AcDbEntity
  8
LAYER-256
  6
Continuous
 62
     1
100
AcDbLine
 10
453.7072648181792
 20
-128.5334120865882
 30
0.0
 11
453.7072648181792
 21
206.4665879134118
 31
0.0
  0
LINE
  5
3A1
330
1F
100
AcDbEntity
  8
LAYER-256
  6
Continuous
 62
     1
100
AcDbLine
 10
463.7072648181792
 20
-128.5334120865882
 30
0.0
 11
463.7072648181792
 21
-80.72442332254327
 31
0.0
  0
LINE
  5
3A2
330
1F
100
AcDbEntity
  8
LAYER-256
  6
Continuous
 62
     1
100
AcDbLine
 10
463.7072648181792
 20
-128.5334120865882
 30
0.0
 11
516.2072648181793
 21
-128.5334120865882
 31
0.0
  0
LINE
  5
3A3
330
1F
100
AcDbEntity
  8
LAYER-256
  6
Continuous
 62
     1
100
AcDbLine
 10
516.2072648181793
 20
-128.5334120865882
 30
0.0
 11
516.2072648181793
 21
-133.5334120865882
 31
0.0
  0
LINE
  5
3A4
330
1F
100
AcDbEntity
  8
LAYER-256
  6
Continuous
 62
     1
100
AcDbLine
 10
-469.4818181818182
 20
-133.5334120865882
 30
0.0
 11
45.5181818181818
 21
-133.5334120865882
 31
0.0
  0
LINE
  5
3A5
330
1F
100
AcDbEntity
  8
LAYER-256
  6
Continuous
 62
     1
100
AcDbLine
 10
171.2072648181792
 20
-133.5334120865882
 30
0.0
 11
516.2072648181793
 21
-133.5334120865882
 31
0.0
  0
LINE
  5
3A6
330
1F
100
AcDbEntity
  8
LAYER-256
  6
Continuous
 62
     1
100
AcDbLine
 10
228.7072648181792
 20
-133.5334120865882
 30
0.0
 11
228.7072648181792
 21
-80.72442332254327
 31
0.0
  0
LINE
  5
3A7
330
1F
100
AcDbEntity
  8
LAYER-256
  6
Continuous
 62
     1
100
AcDbLine
 10
458.7072648181792
 20
-133.5334120865882
 30
0.0
 11
458.7072648181792
 21
-80.72442332254327
 31
0.0
  0
LINE
  5
3A8
330
1F
100
AcDbEntity
  8
LAYER-256
  6
CENTER
 62
     4
100
AcDbLine
 10
-48.27395301327888
 20
336.4665879134118
 30
0.0
 11
-48.27395301327888
 21
197.8354240032976
 31
0.0
  0
LINE
  5
3A9
330
1F
100
AcDbEntity
  8
LAYER-256
  6
CENTER
 62
     4
100
AcDbLine
 10
-113.7570990806975
 20
336.4665879134118
 30
0.0
 11
-113.7570990806975
 21
197.8354240032976
 31
0.0
  0
LINE
  5
3AA
330
1F
100
AcDbEntity
  8
LAYER-256
  6
CENTER
 62
     4
100
AcDbLine
 10
-179.2402451481113
 20
336.4665879134118
 30
0.0
 11
-179.2402451481113
 21
197.8354240032976
 31
0.0
  0
LINE
  5
3AB
330
1F
100
AcDbEntity
  8
LAYER-256
  6
CENTER
 62
     4
100
AcDbLine
 10
-244.7233912155261
 20
336.4665879134118
 30
0.0
 11
-244.7233912155261
 21
197.8354240032976
 31
0.0
  0
LINE
  5
3AC
330
1F
100
AcDbEntity
  8
LAYER-256
  6
CENTER
 62
     4
100
AcDbLine
 10
-310.2065372829418
 20
336.4665879134118
 30
0.0
 11
-310.2065372829418
 21
197.8354240032976
 31
0.0
  0
LINE
  5
3AD
330
1F
100
AcDbEntity
  8
LAYER-256
  6
CENTER
 62
     4
100
AcDbLine
 10
-375.6896833503575
 20
336.4665879134118
 30
0.0
 11
-375.6896833503575
 21
197.8354240032976
 31
0.0
  0
LINE
  5
3AE
330
1F
100
AcDbEntity
  8
LAYER-256
  6
Continuous
 62
     1
100
AcDbLine
 10
-469.4818181818182
 20
-133.5334120865882
 30
0.0
 11
-469.4818181818182
 21
211.4665879134118
 31
0.0
  0
LINE
  5
3AF
330
1F
100
AcDbEntity
  8
LAYER-256
  6
Continuous
 62
     1
100
AcDbLine
 10
504.7318658181829
 20
278.2473357673441
 30
0.0
 11
504.7318658181829
 21
148.0958013965578
 31
0.0
  0
LINE
  5
3B0
330
1F
100
AcDbEntity
  8
LAYER-256
  6
Continuous
 62
     1
100
AcDbLine
 10
494.3804768181807
 20
278.2473357673441
 30
0.0
 11
494.3804768181807
 21
148.0958013965578
 31
0.0
  0
LINE
  5
3B1
330
1F
100
AcDbEntity
  8
LAYER-256
  6
Continuous
 62
     1
100
AcDbLine
 10
461.2642178181822
 20
158.6575991493668
 30
0.0
 11
461.2642178181822
 21
172.7404820931852
 31
0.0
  0
LINE
  5
3B2
330
1F
100
AcDbEntity
  8
LAYER-256
  6
Continuous
 62
     1
100
AcDbLine
 10
523.7072648181793
 20
148.0958013965578
 30
0.0
 11
523.7072648181793
 21
-70.16262556973436
 31
0.0
  0
LINE
  5
3B3
330
1F
100
AcDbEntity
  8
LAYER-256
  6
Continuous
 62
     1
100
AcDbLine
 10
163.7072648181792
 20
148.0958013965578
 30
0.0
 11
163.7072648181792
 21
-70.1626255697343
 31
0.0
  0
LINE
  5
3B4
330
1F
100
AcDbEntity
  8
LAYER-256
  6
Continuous
 62
     1
100
AcDbLine
 10
461.2642178181822
 20
189.281490093189
 30
0.0
 11
461.2642178181822
 21
336.4665879134118
 31
0.0
  0
LINE
  5
3B5
330
1F
100
AcDbEntity
  8
LAYER-256
  6
Continuous
 62
     1
100
AcDbLine
 10
458.7072648181792
 20
158.6575991493668
 30
0.0
 11
458.7072648181792
 21
336.4665879134118
 31
0.0
  0
LINE
  5
3B6
330
1F
100
AcDbEntity
  8
LAYER-033
  6
Continuous
 62
     4
100
AcDbLine
 10
-380.9924356424924
 20
274.1794808946941
 30
0.0
 11
-376.0426881741865
 21
279.129228363
 31
0.0
  0
LINE
  5
3B7
330
1F
100
AcDbEntity
  8
LAYER-033
  6
Continuous
 62
     4
100
AcDbLine
 10
-380.9924356424924
 20
269.2297334263882
 30
0.0
 11
-371.0929407058806
 21
279.129228363
 31
0.0
  0
LINE
  5
3B8
330
1F
100
AcDbEntity
  8
LAYER-033
  6
Continuous
 62
     4
100
AcDbLine
 10
-380.9924356424924
 20
264.2799859580824
 30
0.0
 11
-370.3869321144012
 21
274.8854894861735
 31
0.0
  0
LINE
  5
3B9
330
1F
100
AcDbEntity
  8
LAYER-033
  6
Continuous
 62
     4
100
AcDbLine
 10
-380.9924356424924
 20
259.3302385010797
 30
0.0
 11
-370.3869321144012
 21
269.9357420178677
 31
0.0
  0
LINE
  5
3BA
330
1F
100
AcDbEntity
  8
LAYER-033
  6
Continuous
 62
     4
100
AcDbLine
 10
-380.9924356424924
 20
254.3804910214706
 30
0.0
 11
-370.3869321144012
 21
264.9859945495618
 31
0.0
  0
LINE
  5
3BB
330
1F
100
AcDbEntity
  8
LAYER-033
  6
Continuous
 62
     4
100
AcDbLine
 10
-380.9924356424924
 20
249.4307435531648
 30
0.0
 11
-370.3869321144012
 21
260.0362470812559
 31
0.0
  0
LINE
  5
3BC
330
1F
100
AcDbEntity
  8
LAYER-033
  6
Continuous
 62
     4
100
AcDbLine
 10
-380.9924356424924
 20
244.4809960848589
 30
0.0
 11
-370.3869321144012
 21
255.08649961295
 31
0.0
  0
LINE
  5
3BD
330
1F
100
AcDbEntity
  8
LAYER-033
  6
Continuous
 62
     4
100
AcDbLine
 10
-380.9924356424924
 20
239.531248616553
 30
0.0
 11
-370.3869321144012
 21
250.1367521446442
 31
0.0
  0
LINE
  5
3BE
330
1F
100
AcDbEntity
  8
LAYER-033
  6
Continuous
 62
     4
100
AcDbLine
 10
-380.9924356424924
 20
234.5815011482471
 30
0.0
 11
-370.3869321144012
 21
245.1870046763383
 31
0.0
  0
LINE
  5
3BF
330
1F
100
AcDbEntity
  8
LAYER-033
  6
Continuous
 62
     4
100
AcDbLine
 10
-380.9924356424924
 20
229.6317536799783
 30
0.0
 11
-370.3869321144012
 21
240.2372572080695
 31
0.0
  0
LINE
  5
3C0
330
1F
100
AcDbEntity
  8
LAYER-033
  6
Continuous
 62
     4
100
AcDbLine
 10
-380.9924356424924
 20
224.6820062116724
 30
0.0
 11
-370.3869321144012
 21
235.2875097397636
 31
0.0
  0
LINE
  5
3C1
330
1F
100
AcDbEntity
  8
LAYER-033
  6
Continuous
 62
     4
100
AcDbLine
 10
-380.9924356424924
 20
219.7322587433666
 30
0.0
 11
-370.3869321144012
 21
230.3377622714578
 31
0.0
  0
LINE
  5
3C2
330
1F
100
AcDbEntity
  8
LAYER-033
  6
Continuous
 62
     4
100
AcDbLine
 10
-380.9924356424924
 20
214.7825112750608
 30
0.0
 11
-370.3869321144012
 21
225.3880148031519
 31
0.0
  0
LINE
  5
3C3
330
1F
100
AcDbEntity
  8
LAYER-033
  6
Continuous
 62
     4
100
AcDbLine
 10
-379.3586115358355
 20
211.4665879134118
 30
0.0
 11
-370.3869321144012
 21
220.4382673348461
 31
0.0
  0
LINE
  5
3C4
330
1F
100
AcDbEntity
  8
LAYER-033
  6
Continuous
 62
     4
100
AcDbLine
 10
-374.4088640675296
 20
211.4665879134118
 30
0.0
 11
-370.3869321144012
 21
215.4885198665402
 31
0.0
  0
LINE
  5
3C5
330
1F
100
AcDbEntity
  8
LAYER-033
  6
Continuous
 62
     4
100
AcDbLine
 10
-380.9924356424924
 20
216.4163353817176
 30
0.0
 11
-376.0426881741865
 21
211.4665879134118
 31
0.0
  0
LINE
  5
3C6
330
1F
100
AcDbEntity
  8
LAYER-033
  6
Continuous
 62
     4
100
AcDbLine
 10
-380.9924356424924
 20
221.3660828500235
 30
0.0
 11
-371.0929407058807
 21
211.4665879134118
 31
0.0
  0
LINE
  5
3C7
330
1F
100
AcDbEntity
  8
LAYER-033
  6
Continuous
 62
     4
100
AcDbLine
 10
-380.9924356424924
 20
226.3158303183293
 30
0.0
 11
-370.3869321144012
 21
215.7103267902382
 31
0.0
  0
LINE
  5
3C8
330
1F
100
AcDbEntity
  8
LAYER-033
  6
Continuous
 62
     4
100
AcDbLine
 10
-380.9924356424924
 20
231.2655777866352
 30
0.0
 11
-370.3869321144012
 21
220.660074258544
 31
0.0
  0
LINE
  5
3C9
330
1F
100
AcDbEntity
  8
LAYER-033
  6
Continuous
 62
     4
100
AcDbLine
 10
-380.9924356424924
 20
236.215325254941
 30
0.0
 11
-370.3869321144012
 21
225.6098217268498
 31
0.0
  0
LINE
  5
3CA
330
1F
100
AcDbEntity
  8
LAYER-033
  6
Continuous
 62
     4
100
AcDbLine
 10
-380.9924356424924
 20
241.1650727232469
 30
0.0
 11
-370.3869321144012
 21
230.5595691951557
 31
0.0
  0
LINE
  5
3CB
330
1F
100
AcDbEntity
  8
LAYER-033
  6
Continuous
 62
     4
100
AcDbLine
 10
-380.9924356424924
 20
246.1148201915527
 30
0.0
 11
-370.3869321144012
 21
235.5093166634615
 31
0.0
  0
LINE
  5
3CC
330
1F
100
AcDbEntity
  8
LAYER-033
  6
Continuous
 62
     4
100
AcDbLine
 10
-380.9924356424924
 20
251.0645676598585
 30
0.0
 11
-370.3869321144012
 21
240.4590641317674
 31
0.0
  0
LINE
  5
3CD
330
1F
100
AcDbEntity
  8
LAYER-033
  6
Continuous
 62
     4
100
AcDbLine
 10
-380.9924356424924
 20
256.0143151281644
 30
0.0
 11
-370.3869321144012
 21
245.4088116
 31
0.0
  0
LINE
  5
3CE
330
1F
100
AcDbEntity
  8
LAYER-033
  6
Continuous
 62
     4
100
AcDbLine
 10
-380.9924356424924
 20
260.9640625964332
 30
0.0
 11
-370.3869321144012
 21
250.3585590683421
 31
0.0
  0
LINE
  5
3CF
330
1F
100
AcDbEntity
  8
LAYER-033
  6
Continuous
 62
     4
100
AcDbLine
 10
-380.9924356424924
 20
265.913810064739
 30
0.0
 11
-370.3869321144012
 21
255.3083065366479
 31
0.0
  0
LINE
  5
3D0
330
1F
100
AcDbEntity
  8
LAYER-033
  6
Continuous
 62
     4
100
AcDbLine
 10
-380.9924356424924
 20
270.8635575330449
 30
0.0
 11
-370.3869321144012
 21
260.2580540049538
 31
0.0
  0
LINE
  5
3D1
330
1F
100
AcDbEntity
  8
LAYER-033
  6
Continuous
 62
     4
100
AcDbLine
 10
-380.9924356424924
 20
275.8133050013507
 30
0.0
 11
-370.3869321144012
 21
265.2078014732596
 31
0.0
  0
LINE
  5
3D2
330
1F
100
AcDbEntity
  8
LAYER-033
  6
Continuous
 62
     4
100
AcDbLine
 10
-379.3586115358357
 20
279.129228363
 30
0.0
 11
-370.3869321144012
 21
270.1575489415654
 31
0.0
  0
LINE
  5
3D3
330
1F
100
AcDbEntity
  8
LAYER-033
  6
Continuous
 62
     4
100
AcDbLine
 10
-374.4088640675299
 20
279.129228363
 30
0.0
 11
-370.3869321144012
 21
275.1072964098713
 31
0.0
  0
LINE
  5
3D4
330
1F
100
AcDbEntity
  8
LAYER-033
  6
Continuous
 62
     4
100
AcDbLine
 10
-315.5092895750767
 20
274.1794808946941
 30
0.0
 11
-310.5595421067708
 21
279.129228363
 31
0.0
  0
LINE
  5
3D5
330
1F
100
AcDbEntity
  8
LAYER-033
  6
Continuous
 62
     4
100
AcDbLine
 10
-315.5092895750767
 20
269.2297334263882
 30
0.0
 11
-305.6097946384649
 21
279.129228363
 31
0.0
  0
LINE
  5
3D6
330
1F
100
AcDbEntity
  8
LAYER-033
  6
Continuous
 62
     4
100
AcDbLine
 10
-315.5092895750767
 20
264.2799859580824
 30
0.0
 11
-304.9037860469874
 21
274.8854894861716
 31
0.0
  0
LINE
  5
3D7
330
1F
100
AcDbEntity
  8
LAYER-033
  6
Continuous
 62
     4
100
AcDbLine
 10
-315.5092895750767
 20
259.3302384897765
 30
0.0
 11
-304.9037860469874
 21
269.9357420178657
 31
0.0
  0
LINE
  5
3D8
330
1F
100
AcDbEntity
  8
LAYER-033
  6
Continuous
 62
     4
100
AcDbLine
 10
-315.5092895750767
 20
254.3804910214706
 30
0.0
 11
-304.9037860469874
 21
264.9859945495599
 31
0.0
  0
LINE
  5
3D9
330
1F
100
AcDbEntity
  8
LAYER-033
  6
Continuous
 62
     4
100
AcDbLine
 10
-315.5092895750767
 20
249.4307435531648
 30
0.0
 11
-304.9037860469874
 21
260.036247081254
 31
0.0
  0
LINE
  5
3DA
330
1F
100
AcDbEntity
  8
LAYER-033
  6
Continuous
 62
     4
100
AcDbLine
 10
-315.5092895750767
 20
244.4809960848589
 30
0.0
 11
-304.9037860469874
 21
255.0864996129481
 31
0.0
  0
LINE
  5
3DB
330
1F
100
AcDbEntity
  8
LAYER-033
  6
Continuous
 62
     4
100
AcDbLine
 10
-315.5092895750767
 20
239.531248616553
 30
0.0
 11
-304.9037860469874
 21
250.1367521446422
 31
0.0
  0
LINE
  5
3DC
330
1F
100
AcDbEntity
  8
LAYER-033
  6
Continuous
 62
     4
100
AcDbLine
 10
-315.5092895750767
 20
234.5815011482471
 30
0.0
 11
-304.9037860469874
 21
245.1870046764118
 31
0.0
  0
LINE
  5
3DD
330
1F
100
AcDbEntity
  8
LAYER-033
  6
Continuous
 62
     4
100
AcDbLine
 10
-315.5092895750767
 20
229.6317536799413
 30
0.0
 11
-304.9037860469874
 21
240.2372572080305
 31
0.0
  0
LINE
  5
3DE
330
1F
100
AcDbEntity
  8
LAYER-033
  6
Continuous
 62
     4
100
AcDbLine
 10
-315.5092895750767
 20
224.6820062116354
 30
0.0
 11
-304.9037860469874
 21
235.2875097397247
 31
0.0
  0
LINE
  5
3DF
330
1F
100
AcDbEntity
  8
LAYER-033
  6
Continuous
 62
     4
100
AcDbLine
 10
-315.5092895750767
 20
219.7322587433296
 30
0.0
 11
-304.9037860469874
 21
230.3377622714188
 31
0.0
  0
LINE
  5
3E0
330
1F
100
AcDbEntity
  8
LAYER-033
  6
Continuous
 62
     4
100
AcDbLine
 10
-315.5092895750767
 20
214.7825112750238
 30
0.0
 11
-304.9037860469874
 21
225.388014803113
 31
0.0
  0
LINE
  5
3E1
330
1F
100
AcDbEntity
  8
LAYER-033
  6
Continuous
 62
     4
100
AcDbLine
 10
-313.8754654683828
 20
211.4665879134118
 30
0.0
 11
-304.9037860469874
 21
220.4382673348071
 31
0.0
  0
LINE
  5
3E2
330
1F
100
AcDbEntity
  8
LAYER-033
  6
Continuous
 62
     4
100
AcDbLine
 10
-308.9257180000769
 20
211.4665879134118
 30
0.0
 11
-304.9037860469874
 21
215.4885198665013
 31
0.0
  0
LINE
  5
3E3
330
1F
100
AcDbEntity
  8
LAYER-033
  6
Continuous
 62
     4
100
AcDbLine
 10
-315.5092895750767
 20
216.4163353817176
 30
0.0
 11
-310.5595421067708
 21
211.4665879134118
 31
0.0
  0
LINE
  5
3E4
330
1F
100
AcDbEntity
  8
LAYER-033
  6
Continuous
 62
     4
100
AcDbLine
 10
-315.5092895750767
 20
221.3660828500235
 30
0.0
 11
-305.609794638465
 21
211.4665879134118
 31
0.0
  0
LINE
  5
3E5
330
1F
100
AcDbEntity
  8
LAYER-033
  6
Continuous
 62
     4
100
AcDbLine
 10
-315.5092895750767
 20
226.3158303183293
 30
0.0
 11
-304.9037860469874
 21
215.7103267902401
 31
0.0
  0
LINE
  5
3E6
330
1F
100
AcDbEntity
  8
LAYER-033
  6
Continuous
 62
     4
100
AcDbLine
 10
-315.5092895750767
 20
231.2655777753321
 30
0.0
 11
-304.9037860469874
 21
220.6600742585459
 31
0.0
  0
LINE
  5
3E7
330
1F
100
AcDbEntity
  8
LAYER-033
  6
Continuous
 62
     4
100
AcDbLine
 10
-315.5092895750767
 20
236.215325254941
 30
0.0
 11
-304.9037860469874
 21
225.6098217268518
 31
0.0
  0
LINE
  5
3E8
330
1F
100
AcDbEntity
  8
LAYER-033
  6
Continuous
 62
     4
100
AcDbLine
 10
-315.5092895750767
 20
241.1650727232469
 30
0.0
 11
-304.9037860469874
 21
230.5595691951576
 31
0.0
  0
LINE
  5
3E9
330
1F
100
AcDbEntity
  8
LAYER-033
  6
Continuous
 62
     4
100
AcDbLine
 10
-315.5092895750767
 20
246.1148201915527
 30
0.0
 11
-304.9037860469874
 21
235.5093166634635
 31
0.0
  0
LINE
  5
3EA
330
1F
100
AcDbEntity
  8
LAYER-033
  6
Continuous
 62
     4
100
AcDbLine
 10
-315.5092895750767
 20
251.0645676598585
 30
0.0
 11
-304.9037860469874
 21
240.4590641317693
 31
0.0
  0
LINE
  5
3EB
330
1F
100
AcDbEntity
  8
LAYER-033
  6
Continuous
 62
     4
100
AcDbLine
 10
-315.5092895750767
 20
256.0143151281644
 30
0.0
 11
-304.9037860469874
 21
245.4088116000752
 31
0.0
  0
LINE
  5
3EC
330
1F
100
AcDbEntity
  8
LAYER-033
  6
Continuous
 62
     4
100
AcDbLine
 10
-315.5092895750767
 20
260.9640625964702
 30
0.0
 11
-304.9037860469874
 21
250.358559068381
 31
0.0
  0
LINE
  5
3ED
330
1F
100
AcDbEntity
  8
LAYER-033
  6
Continuous
 62
     4
100
AcDbLine
 10
-315.5092895750767
 20
265.913810064776
 30
0.0
 11
-304.9037860469874
 21
255.3083065366868
 31
0.0
  0
LINE
  5
3EE
330
1F
100
AcDbEntity
  8
LAYER-033
  6
Continuous
 62
     4
100
AcDbLine
 10
-315.5092895750767
 20
270.8635575330819
 30
0.0
 11
-304.9037860469874
 21
260.2580540049927
 31
0.0
  0
LINE
  5
3EF
330
1F
100
AcDbEntity
  8
LAYER-033
  6
Continuous
 62
     4
100
AcDbLine
 10
-315.5092895750767
 20
275.8133050013877
 30
0.0
 11
-304.9037860469874
 21
265.2078014732985
 31
0.0
  0
LINE
  5
3F0
330
1F
100
AcDbEntity
  8
LAYER-033
  6
Continuous
 62
     4
100
AcDbLine
 10
-313.875465468383
 20
279.129228363
 30
0.0
 11
-304.9037860469874
 21
270.1575489416044
 31
0.0
  0
LINE
  5
3F1
330
1F
100
AcDbEntity
  8
LAYER-033
  6
Continuous
 62
     4
100
AcDbLine
 10
-308.9257180000772
 20
279.129228363
 30
0.0
 11
-304.9037860469874
 21
275.1072964099102
 31
0.0
  0
LINE
  5
3F2
330
1F
100
AcDbEntity
  8
LAYER-033
  6
Continuous
 62
     4
100
AcDbLine
 10
-250.0261435076609
 20
274.1794808946942
 30
0.0
 11
-245.0763960393551
 21
279.129228363
 31
0.0
  0
LINE
  5
3F3
330
1F
100
AcDbEntity
  8
LAYER-033
  6
Continuous
 62
     4
100
AcDbLine
 10
-250.0261435076609
 20
269.2297334263883
 30
0.0
 11
-240.1266485710492
 21
279.129228363
 31
0.0
  0
LINE
  5
3F4
330
1F
100
AcDbEntity
  8
LAYER-033
  6
Continuous
 62
     4
100
AcDbLine
 10
-250.0261435076609
 20
264.2799859580824
 30
0.0
 11
-239.4206399795736
 21
274.8854894861697
 31
0.0
  0
LINE
  5
3F5
330
1F
100
AcDbEntity
  8
LAYER-033
  6
Continuous
 62
     4
100
AcDbLine
 10
-250.0261435076609
 20
259.3302384897766
 30
0.0
 11
-239.4206399795736
 21
269.9357420178639
 31
0.0
  0
LINE
  5
3F6
330
1F
100
AcDbEntity
  8
LAYER-033
  6
Continuous
 62
     4
100
AcDbLine
 10
-250.0261435076609
 20
254.3804910214708
 30
0.0
 11
-239.4206399795736
 21
264.9859945495581
 31
0.0
  0
LINE
  5
3F7
330
1F
100
AcDbEntity
  8
LAYER-033
  6
Continuous
 62
     4
100
AcDbLine
 10
-250.0261435076609
 20
249.4307435531649
 30
0.0
 11
-239.4206399795736
 21
260.0362470812522
 31
0.0
  0
LINE
  5
3F8
330
1F
100
AcDbEntity
  8
LAYER-033
  6
Continuous
 62
     4
100
AcDbLine
 10
-250.0261435076609
 20
244.4809960848591
 30
0.0
 11
-239.4206399795736
 21
255.0864996129464
 31
0.0
  0
LINE
  5
3F9
330
1F
100
AcDbEntity
  8
LAYER-033
  6
Continuous
 62
     4
100
AcDbLine
 10
-250.0261435076609
 20
239.5312486165532
 30
0.0
 11
-239.4206399795736
 21
250.1367521446405
 31
0.0
  0
LINE
  5
3FA
330
1F
100
AcDbEntity
  8
LAYER-033
  6
Continuous
 62
     4
100
AcDbLine
 10
-250.0261435076609
 20
234.5815011482474
 30
0.0
 11
-239.4206399795736
 21
245.1870046764118
 31
0.0
  0
LINE
  5
3FB
330
1F
100
AcDbEntity
  8
LAYER-033
  6
Continuous
 62
     4
100
AcDbLine
 10
-250.0261435076609
 20
229.6317536799416
 30
0.0
 11
-239.4206399795736
 21
240.2372572080289
 31
0.0
  0
LINE
  5
3FC
330
1F
100
AcDbEntity
  8
LAYER-033
  6
Continuous
 62
     4
100
AcDbLine
 10
-250.0261435076609
 20
224.6820062116358
 30
0.0
 11
-239.4206399795736
 21
235.2875097397231
 31
0.0
  0
LINE
  5
3FD
330
1F
100
AcDbEntity
  8
LAYER-033
  6
Continuous
 62
     4
100
AcDbLine
 10
-250.0261435076609
 20
219.7322587433299
 30
0.0
 11
-239.4206399795736
 21
230.3377622714172
 31
0.0
  0
LINE
  5
3FE
330
1F
100
AcDbEntity
  8
LAYER-033
  6
Continuous
 62
     4
100
AcDbLine
 10
-250.0261435076609
 20
214.7825112750241
 30
0.0
 11
-239.4206399795736
 21
225.3880148031114
 31
0.0
  0
LINE
  5
3FF
330
1F
100
AcDbEntity
  8
LAYER-033
  6
Continuous
 62
     4
100
AcDbLine
 10
-248.3923194009674
 20
211.4665879134118
 30
0.0
 11
-239.4206399795736
 21
220.4382673348056
 31
0.0
  0
LINE
  5
400
330
1F
100
AcDbEntity
  8
LAYER-033
  6
Continuous
 62
     4
100
AcDbLine
 10
-243.4425719326616
 20
211.4665879134118
 30
0.0
 11
-239.4206399795736
 21
215.4885198664998
 31
0.0
  0
LINE
  5
401
330
1F
100
AcDbEntity
  8
LAYER-033
  6
Continuous
 62
     4
100
AcDbLine
 10
-250.0261435076609
 20
216.4163353817176
 30
0.0
 11
-245.0763960393551
 21
211.4665879134118
 31
0.0
  0
LINE
  5
402
330
1F
100
AcDbEntity
  8
LAYER-033
  6
Continuous
 62
     4
100
AcDbLine
 10
-250.0261435076609
 20
221.3660828500234
 30
0.0
 11
-240.1266485710493
 21
211.4665879134118
 31
0.0
  0
LINE
  5
403
330
1F
100
AcDbEntity
  8
LAYER-033
  6
Continuous
 62
     4
100
AcDbLine
 10
-250.0261435076609
 20
226.3158303183292
 30
0.0
 11
-239.4206399795736
 21
215.7103267902419
 31
0.0
  0
LINE
  5
404
330
1F
100
AcDbEntity
  8
LAYER-033
  6
Continuous
 62
     4
100
AcDbLine
 10
-250.0261435076609
 20
231.2655777753321
 30
0.0
 11
-239.4206399795736
 21
220.6600742585478
 31
0.0
  0
LINE
  5
405
330
1F
100
AcDbEntity
  8
LAYER-033
  6
Continuous
 62
     4
100
AcDbLine
 10
-250.0261435076609
 20
236.2153252549409
 30
0.0
 11
-239.4206399795736
 21
225.6098217268536
 31
0.0
  0
LINE
  5
406
330
1F
100
AcDbEntity
  8
LAYER-033
  6
Continuous
 62
     4
100
AcDbLine
 10
-250.0261435076609
 20
241.1650727232467
 30
0.0
 11
-239.4206399795736
 21
230.5595691951594
 31
0.0
  0
LINE
  5
407
330
1F
100
AcDbEntity
  8
LAYER-033
  6
Continuous
 62
     4
100
AcDbLine
 10
-250.0261435076609
 20
246.1148201915525
 30
0.0
 11
-239.4206399795736
 21
235.5093166634652
 31
0.0
  0
LINE
  5
408
330
1F
100
AcDbEntity
  8
LAYER-033
  6
Continuous
 62
     4
100
AcDbLine
 10
-250.0261435076609
 20
251.0645676598583
 30
0.0
 11
-239.4206399795736
 21
240.459064131771
 31
0.0
  0
LINE
  5
409
330
1F
100
AcDbEntity
  8
LAYER-033
  6
Continuous
 62
     4
100
AcDbLine
 10
-250.0261435076609
 20
256.0143151281641
 30
0.0
 11
-239.4206399795736
 21
245.4088116000768
 31
0.0
  0
LINE
  5
40A
330
1F
100
AcDbEntity
  8
LAYER-033
  6
Continuous
 62
     4
100
AcDbLine
 10
-250.0261435076609
 20
260.9640625964699
 30
0.0
 11
-239.4206399795736
 21
250.3585590683827
 31
0.0
  0
LINE
  5
40B
330
1F
100
AcDbEntity
  8
LAYER-033
  6
Continuous
 62
     4
100
AcDbLine
 10
-250.0261435076609
 20
265.9138100647758
 30
0.0
 11
-239.4206399795736
 21
255.3083065366885
 31
0.0
  0
LINE
  5
40C
330
1F
100
AcDbEntity
  8
LAYER-033
  6
Continuous
 62
     4
100
AcDbLine
 10
-250.0261435076609
 20
270.8635575330816
 30
0.0
 11
-239.4206399795736
 21
260.2580540049943
 31
0.0
  0
LINE
  5
40D
330
1F
100
AcDbEntity
  8
LAYER-033
  6
Continuous
 62
     4
100
AcDbLine
 10
-250.0261435076609
 20
275.8133050013874
 30
0.0
 11
-239.4206399795736
 21
265.2078014733001
 31
0.0
  0
LINE
  5
40E
330
1F
100
AcDbEntity
  8
LAYER-033
  6
Continuous
 62
     4
100
AcDbLine
 10
-248.3923194009677
 20
279.129228363
 30
0.0
 11
-239.4206399795736
 21
270.1575489416059
 31
0.0
  0
LINE
  5
40F
330
1F
100
AcDbEntity
  8
LAYER-033
  6
Continuous
 62
     4
100
AcDbLine
 10
-243.4425719326619
 20
279.129228363
 30
0.0
 11
-239.4206399795736
 21
275.1072964099117
 31
0.0
  0
LINE
  5
410
330
1F
100
AcDbEntity
  8
LAYER-033
  6
Continuous
 62
     4
100
AcDbLine
 10
-184.5429974402458
 20
274.1794808946942
 30
0.0
 11
-179.59324997194
 21
279.129228363
 31
0.0
  0
LINE
  5
411
330
1F
100
AcDbEntity
  8
LAYER-033
  6
Continuous
 62
     4
100
AcDbLine
 10
-184.5429974402458
 20
269.2297334263883
 30
0.0
 11
-174.6435025036341
 21
279.129228363
 31
0.0
  0
LINE
  5
412
330
1F
100
AcDbEntity
  8
LAYER-033
  6
Continuous
 62
     4
100
AcDbLine
 10
-184.5429974402458
 20
264.2799859580824
 30
0.0
 11
-173.9374939121553
 21
274.885489486173
 31
0.0
  0
LINE
  5
413
330
1F
100
AcDbEntity
  8
LAYER-033
  6
Continuous
 62
     4
100
AcDbLine
 10
-184.5429974402458
 20
259.3302384897766
 30
0.0
 11
-173.9374939121553
 21
269.9357420178671
 31
0.0
  0
LINE
  5
414
330
1F
100
AcDbEntity
  8
LAYER-033
  6
Continuous
 62
     4
100
AcDbLine
 10
-184.5429974402458
 20
254.3804910214708
 30
0.0
 11
-173.9374939121553
 21
264.9859945495613
 31
0.0
  0
LINE
  5
415
330
1F
100
AcDbEntity
  8
LAYER-033
  6
Continuous
 62
     4
100
AcDbLine
 10
-184.5429974402458
 20
249.4307435531649
 30
0.0
 11
-173.9374939121553
 21
260.0362470812555
 31
0.0
  0
LINE
  5
416
330
1F
100
AcDbEntity
  8
LAYER-033
  6
Continuous
 62
     4
100
AcDbLine
 10
-184.5429974402458
 20
244.4809960848591
 30
0.0
 11
-173.9374939121553
 21
255.0864996129496
 31
0.0
  0
LINE
  5
417
330
1F
100
AcDbEntity
  8
LAYER-033
  6
Continuous
 62
     4
100
AcDbLine
 10
-184.5429974402458
 20
239.5312486165532
 30
0.0
 11
-173.9374939121553
 21
250.1367521446438
 31
0.0
  0
LINE
  5
418
330
1F
100
AcDbEntity
  8
LAYER-033
  6
Continuous
 62
     4
100
AcDbLine
 10
-184.5429974402458
 20
234.5815011482474
 30
0.0
 11
-173.9374939121553
 21
245.1870046764118
 31
0.0
  0
LINE
  5
419
330
1F
100
AcDbEntity
  8
LAYER-033
  6
Continuous
 62
     4
100
AcDbLine
 10
-184.5429974402458
 20
229.6317536799416
 30
0.0
 11
-173.9374939121553
 21
240.2372572080321
 31
0.0
  0
LINE
  5
41A
330
1F
100
AcDbEntity
  8
LAYER-033
  6
Continuous
 62
     4
100
AcDbLine
 10
-184.5429974402458
 20
224.6820062116358
 30
0.0
 11
-173.9374939121553
 21
235.2875097397263
 31
0.0
  0
LINE
  5
41B
330
1F
100
AcDbEntity
  8
LAYER-033
  6
Continuous
 62
     4
100
AcDbLine
 10
-184.5429974402458
 20
219.7322587433299
 30
0.0
 11
-173.9374939121553
 21
230.3377622714205
 31
0.0
  0
LINE
  5
41C
330
1F
100
AcDbEntity
  8
LAYER-033
  6
Continuous
 62
     4
100
AcDbLine
 10
-184.5429974402458
 20
214.7825112750241
 30
0.0
 11
-173.9374939121553
 21
225.3880148031147
 31
0.0
  0
LINE
  5
41D
330
1F
100
AcDbEntity
  8
LAYER-033
  6
Continuous
 62
     4
100
AcDbLine
 10
-182.9091733335523
 20
211.4665879134118
 30
0.0
 11
-173.9374939121553
 21
220.4382673348088
 31
0.0
  0
LINE
  5
41E
330
1F
100
AcDbEntity
  8
LAYER-033
  6
Continuous
 62
     4
100
AcDbLine
 10
-177.9594258652465
 20
211.4665879134118
 30
0.0
 11
-173.9374939121553
 21
215.488519866503
 31
0.0
  0
LINE
  5
41F
330
1F
100
AcDbEntity
  8
LAYER-033
  6
Continuous
 62
     4
100
AcDbLine
 10
-184.5429974402458
 20
216.4163353817176
 30
0.0
 11
-179.59324997194
 21
211.4665879134118
 31
0.0
  0
LINE
  5
420
330
1F
100
AcDbEntity
  8
LAYER-033
  6
Continuous
 62
     4
100
AcDbLine
 10
-184.5429974402458
 20
221.3660828500234
 30
0.0
 11
-174.6435025036342
 21
211.4665879134118
 31
0.0
  0
LINE
  5
421
330
1F
100
AcDbEntity
  8
LAYER-033
  6
Continuous
 62
     4
100
AcDbLine
 10
-184.5429974402458
 20
226.3158303183292
 30
0.0
 11
-173.9374939121553
 21
215.7103267902387
 31
0.0
  0
LINE
  5
422
330
1F
100
AcDbEntity
  8
LAYER-033
  6
Continuous
 62
     4
100
AcDbLine
 10
-184.5429974402458
 20
231.2655777753321
 30
0.0
 11
-173.9374939121553
 21
220.6600742585445
 31
0.0
  0
LINE
  5
423
330
1F
100
AcDbEntity
  8
LAYER-033
  6
Continuous
 62
     4
100
AcDbLine
 10
-184.5429974402458
 20
236.2153252549409
 30
0.0
 11
-173.9374939121553
 21
225.6098217268503
 31
0.0
  0
LINE
  5
424
330
1F
100
AcDbEntity
  8
LAYER-033
  6
Continuous
 62
     4
100
AcDbLine
 10
-184.5429974402458
 20
241.1650727232467
 30
0.0
 11
-173.9374939121553
 21
230.5595691951561
 31
0.0
  0
LINE
  5
425
330
1F
100
AcDbEntity
  8
LAYER-033
  6
Continuous
 62
     4
100
AcDbLine
 10
-184.5429974402458
 20
246.1148201915525
 30
0.0
 11
-173.9374939121553
 21
235.509316663462
 31
0.0
  0
LINE
  5
426
330
1F
100
AcDbEntity
  8
LAYER-033
  6
Continuous
 62
     4
100
AcDbLine
 10
-184.5429974402458
 20
251.0645676598583
 30
0.0
 11
-173.9374939121553
 21
240.4590641317678
 31
0.0
  0
LINE
  5
427
330
1F
100
AcDbEntity
  8
LAYER-033
  6
Continuous
 62
     4
100
AcDbLine
 10
-184.5429974402458
 20
256.0143151281641
 30
0.0
 11
-173.9374939121553
 21
245.4088116000736
 31
0.0
  0
LINE
  5
428
330
1F
100
AcDbEntity
  8
LAYER-033
  6
Continuous
 62
     4
100
AcDbLine
 10
-184.5429974402458
 20
260.9640625964699
 30
0.0
 11
-173.9374939121553
 21
250.3585590683794
 31
0.0
  0
LINE
  5
429
330
1F
100
AcDbEntity
  8
LAYER-033
  6
Continuous
 62
     4
100
AcDbLine
 10
-184.5429974402458
 20
265.9138100647758
 30
0.0
 11
-173.9374939121553
 21
255.3083065366852
 31
0.0
  0
LINE
  5
42A
330
1F
100
AcDbEntity
  8
LAYER-033
  6
Continuous
 62
     4
100
AcDbLine
 10
-184.5429974402458
 20
270.8635575330816
 30
0.0
 11
-173.9374939121553
 21
260.258054004991
 31
0.0
  0
LINE
  5
42B
330
1F
100
AcDbEntity
  8
LAYER-033
  6
Continuous
 62
     4
100
AcDbLine
 10
-184.5429974402458
 20
275.8133050013874
 30
0.0
 11
-173.9374939121553
 21
265.2078014732969
 31
0.0
  0
LINE
  5
42C
330
1F
100
AcDbEntity
  8
LAYER-033
  6
Continuous
 62
     4
100
AcDbLine
 10
-182.9091733335526
 20
279.129228363
 30
0.0
 11
-173.9374939121553
 21
270.1575489416027
 31
0.0
  0
LINE
  5
42D
330
1F
100
AcDbEntity
  8
LAYER-033
  6
Continuous
 62
     4
100
AcDbLine
 10
-177.9594258652468
 20
279.129228363
 30
0.0
 11
-173.9374939121553
 21
275.1072964099085
 31
0.0
  0
LINE
  5
42E
330
1F
100
AcDbEntity
  8
LAYER-033
  6
Continuous
 62
     4
100
AcDbLine
 10
-119.059851372832
 20
274.1794808946941
 30
0.0
 11
-114.1101039045262
 21
279.129228363
 31
0.0
  0
LINE
  5
42F
330
1F
100
AcDbEntity
  8
LAYER-033
  6
Continuous
 62
     4
100
AcDbLine
 10
-119.059851372832
 20
269.2297334263882
 30
0.0
 11
-109.1603564362203
 21
279.129228363
 31
0.0
  0
LINE
  5
430
330
1F
100
AcDbEntity
  8
LAYER-033
  6
Continuous
 62
     4
100
AcDbLine
 10
-119.059851372832
 20
264.2799859580824
 30
0.0
 11
-108.4543478423691
 21
274.8854894885453
 31
0.0
  0
LINE
  5
431
330
1F
100
AcDbEntity
  8
LAYER-033
  6
Continuous
 62
     4
100
AcDbLine
 10
-119.059851372832
 20
259.3302385010797
 30
0.0
 11
-108.4543478423691
 21
269.9357420202395
 31
0.0
  0
LINE
  5
432
330
1F
100
AcDbEntity
  8
LAYER-033
  6
Continuous
 62
     4
100
AcDbLine
 10
-119.059851372832
 20
254.3804910214707
 30
0.0
 11
-108.4543478423691
 21
264.9859945519336
 31
0.0
  0
LINE
  5
433
330
1F
100
AcDbEntity
  8
LAYER-033
  6
Continuous
 62
     4
100
AcDbLine
 10
-119.059851372832
 20
249.4307435531648
 30
0.0
 11
-108.4543478423691
 21
260.0362470836278
 31
0.0
  0
LINE
  5
434
330
1F
100
AcDbEntity
  8
LAYER-033
  6
Continuous
 62
     4
100
AcDbLine
 10
-119.059851372832
 20
244.480996084859
 30
0.0
 11
-108.4543478423691
 21
255.0864996153219
 31
0.0
  0
LINE
  5
435
330
1F
100
AcDbEntity
  8
LAYER-033
  6
Continuous
 62
     4
100
AcDbLine
 10
-119.059851372832
 20
239.5312486165531
 30
0.0
 11
-108.4543478423691
 21
250.136752147016
 31
0.0
  0
LINE
  5
436
330
1F
100
AcDbEntity
  8
LAYER-033
  6
Continuous
 62
     4
100
AcDbLine
 10
-119.059851372832
 20
234.5815011482472
 30
0.0
 11
-108.4543478423691
 21
245.1870046787102
 31
0.0
  0
LINE
  5
437
330
1F
100
AcDbEntity
  8
LAYER-033
  6
Continuous
 62
     4
100
AcDbLine
 10
-119.059851372832
 20
229.6317536799414
 30
0.0
 11
-108.4543478423691
 21
240.2372572104044
 31
0.0
  0
LINE
  5
438
330
1F
100
AcDbEntity
  8
LAYER-033
  6
Continuous
 62
     4
100
AcDbLine
 10
-119.059851372832
 20
224.6820062116356
 30
0.0
 11
-108.4543478423691
 21
235.2875097420985
 31
0.0
  0
LINE
  5
439
330
1F
100
AcDbEntity
  8
LAYER-033
  6
Continuous
 62
     4
100
AcDbLine
 10
-119.059851372832
 20
219.7322587433298
 30
0.0
 11
-108.4543478423691
 21
230.3377622737927
 31
0.0
  0
LINE
  5
43A
330
1F
100
AcDbEntity
  8
LAYER-033
  6
Continuous
 62
     4
100
AcDbLine
 10
-119.059851372832
 20
214.782511275024
 30
0.0
 11
-108.4543478423691
 21
225.3880148054869
 31
0.0
  0
LINE
  5
43B
330
1F
100
AcDbEntity
  8
LAYER-033
  6
Continuous
 62
     4
100
AcDbLine
 10
-117.4260272661384
 20
211.4665879134118
 30
0.0
 11
-108.4543478423691
 21
220.438267337181
 31
0.0
  0
LINE
  5
43C
330
1F
100
AcDbEntity
  8
LAYER-033
  6
Continuous
 62
     4
100
AcDbLine
 10
-112.4762797978325
 20
211.4665879134118
 30
0.0
 11
-108.4543478423691
 21
215.4885198688752
 31
0.0
  0
LINE
  5
43D
330
1F
100
AcDbEntity
  8
LAYER-033
  6
Continuous
 62
     4
100
AcDbLine
 10
-119.059851372832
 20
216.4163353817176
 30
0.0
 11
-114.1101039045262
 21
211.4665879134118
 31
0.0
  0
LINE
  5
43E
330
1F
100
AcDbEntity
  8
LAYER-033
  6
Continuous
 62
     4
100
AcDbLine
 10
-119.059851372832
 20
221.3660828500235
 30
0.0
 11
-109.1603564362204
 21
211.4665879134118
 31
0.0
  0
LINE
  5
43F
330
1F
100
AcDbEntity
  8
LAYER-033
  6
Continuous
 62
     4
100
AcDbLine
 10
-119.059851372832
 20
226.3158303183293
 30
0.0
 11
-108.4543478423691
 21
215.7103267878663
 31
0.0
  0
LINE
  5
440
330
1F
100
AcDbEntity
  8
LAYER-033
  6
Continuous
 62
     4
100
AcDbLine
 10
-119.059851372832
 20
231.2655777866351
 30
0.0
 11
-108.4543478423691
 21
220.6600742561722
 31
0.0
  0
LINE
  5
441
330
1F
100
AcDbEntity
  8
LAYER-033
  6
Continuous
 62
     4
100
AcDbLine
 10
-119.059851372832
 20
236.215325254941
 30
0.0
 11
-108.4543478423691
 21
225.609821724478
 31
0.0
  0
LINE
  5
442
330
1F
100
AcDbEntity
  8
LAYER-033
  6
Continuous
 62
     4
100
AcDbLine
 10
-119.059851372832
 20
241.1650727232468
 30
0.0
 11
-108.4543478423691
 21
230.5595691927838
 31
0.0
  0
LINE
  5
443
330
1F
100
AcDbEntity
  8
LAYER-033
  6
Continuous
 62
     4
100
AcDbLine
 10
-119.059851372832
 20
246.1148201915526
 30
0.0
 11
-108.4543478423691
 21
235.5093166610897
 31
0.0
  0
LINE
  5
444
330
1F
100
AcDbEntity
  8
LAYER-033
  6
Continuous
 62
     4
100
AcDbLine
 10
-119.059851372832
 20
251.0645676598584
 30
0.0
 11
-108.4543478423691
 21
240.4590641293955
 31
0.0
  0
LINE
  5
445
330
1F
100
AcDbEntity
  8
LAYER-033
  6
Continuous
 62
     4
100
AcDbLine
 10
-119.059851372832
 20
256.0143151281642
 30
0.0
 11
-108.4543478423691
 21
245.4088115977013
 31
0.0
  0
LINE
  5
446
330
1F
100
AcDbEntity
  8
LAYER-033
  6
Continuous
 62
     4
100
AcDbLine
 10
-119.059851372832
 20
260.9640625964701
 30
0.0
 11
-108.4543478423691
 21
250.3585590660072
 31
0.0
  0
LINE
  5
447
330
1F
100
AcDbEntity
  8
LAYER-033
  6
Continuous
 62
     4
100
AcDbLine
 10
-119.059851372832
 20
265.9138100647759
 30
0.0
 11
-108.4543478423691
 21
255.308306534313
 31
0.0
  0
LINE
  5
448
330
1F
100
AcDbEntity
  8
LAYER-033
  6
Continuous
 62
     4
100
AcDbLine
 10
-119.059851372832
 20
270.8635575330818
 30
0.0
 11
-108.4543478423691
 21
260.2580540026188
 31
0.0
  0
LINE
  5
449
330
1F
100
AcDbEntity
  8
LAYER-033
  6
Continuous
 62
     4
100
AcDbLine
 10
-119.059851372832
 20
275.8133050013876
 30
0.0
 11
-108.4543478423691
 21
265.2078014709247
 31
0.0
  0
LINE
  5
44A
330
1F
100
AcDbEntity
  8
LAYER-033
  6
Continuous
 62
     4
100
AcDbLine
 10
-117.4260272661386
 20
279.129228363
 30
0.0
 11
-108.4543478423691
 21
270.1575489392305
 31
0.0
  0
LINE
  5
44B
330
1F
100
AcDbEntity
  8
LAYER-033
  6
Continuous
 62
     4
100
AcDbLine
 10
-112.4762797978328
 20
279.129228363
 30
0.0
 11
-108.4543478423691
 21
275.1072964075363
 31
0.0
  0
LINE
  5
44C
330
1F
100
AcDbEntity
  8
LAYER-033
  6
Continuous
 62
     4
100
AcDbLine
 10
-53.57670530541341
 20
274.1794808946941
 30
0.0
 11
-48.62695783710756
 21
279.129228363
 31
0.0
  0
LINE
  5
44D
330
1F
100
AcDbEntity
  8
LAYER-033
  6
Continuous
 62
     4
100
AcDbLine
 10
-53.57670530541341
 20
269.2297334263883
 30
0.0
 11
-43.67721036880171
 21
279.129228363
 31
0.0
  0
LINE
  5
44E
330
1F
100
AcDbEntity
  8
LAYER-033
  6
Continuous
 62
     4
100
AcDbLine
 10
-53.57670530541341
 20
264.2799859580824
 30
0.0
 11
-42.97120177732256
 21
274.8854894861733
 31
0.0
  0
LINE
  5
44F
330
1F
100
AcDbEntity
  8
LAYER-033
  6
Continuous
 62
     4
100
AcDbLine
 10
-53.57670530541341
 20
259.3302384897766
 30
0.0
 11
-42.97120177732256
 21
269.9357420178674
 31
0.0
  0
LINE
  5
450
330
1F
100
AcDbEntity
  8
LAYER-033
  6
Continuous
 62
     4
100
AcDbLine
 10
-53.57670530541341
 20
254.3804910214707
 30
0.0
 11
-42.97120177732256
 21
264.9859945495616
 31
0.0
  0
LINE
  5
451
330
1F
100
AcDbEntity
  8
LAYER-033
  6
Continuous
 62
     4
100
AcDbLine
 10
-53.57670530541341
 20
249.4307435531649
 30
0.0
 11
-42.97120177732256
 21
260.0362470812557
 31
0.0
  0
LINE
  5
452
330
1F
100
AcDbEntity
  8
LAYER-033
  6
Continuous
 62
     4
100
AcDbLine
 10
-53.57670530541341
 20
244.480996084859
 30
0.0
 11
-42.97120177732256
 21
255.0864996129499
 31
0.0
  0
LINE
  5
453
330
1F
100
AcDbEntity
  8
LAYER-033
  6
Continuous
 62
     4
100
AcDbLine
 10
-53.57670530541341
 20
239.5312486165532
 30
0.0
 11
-42.97120177732256
 21
250.136752144644
 31
0.0
  0
LINE
  5
454
330
1F
100
AcDbEntity
  8
LAYER-033
  6
Continuous
 62
     4
100
AcDbLine
 10
-53.57670530541341
 20
234.5815011482473
 30
0.0
 11
-42.97120177732256
 21
245.1870046764118
 31
0.0
  0
LINE
  5
455
330
1F
100
AcDbEntity
  8
LAYER-033
  6
Continuous
 62
     4
100
AcDbLine
 10
-53.57670530541341
 20
229.6317536799415
 30
0.0
 11
-42.97120177732256
 21
240.2372572080324
 31
0.0
  0
LINE
  5
456
330
1F
100
AcDbEntity
  8
LAYER-033
  6
Continuous
 62
     4
100
AcDbLine
 10
-53.57670530541341
 20
224.6820062116357
 30
0.0
 11
-42.97120177732256
 21
235.2875097397265
 31
0.0
  0
LINE
  5
457
330
1F
100
AcDbEntity
  8
LAYER-033
  6
Continuous
 62
     4
100
AcDbLine
 10
-53.57670530541341
 20
219.7322587433299
 30
0.0
 11
-42.97120177732256
 21
230.3377622714207
 31
0.0
  0
LINE
  5
458
330
1F
100
AcDbEntity
  8
LAYER-033
  6
Continuous
 62
     4
100
AcDbLine
 10
-53.57670530541341
 20
214.782511275024
 30
0.0
 11
-42.97120177732256
 21
225.3880148031149
 31
0.0
  0
LINE
  5
459
330
1F
100
AcDbEntity
  8
LAYER-033
  6
Continuous
 62
     4
100
AcDbLine
 10
-51.94288119871984
 20
211.4665879134118
 30
0.0
 11
-42.97120177732256
 21
220.4382673348091
 31
0.0
  0
LINE
  5
45A
330
1F
100
AcDbEntity
  8
LAYER-033
  6
Continuous
 62
     4
100
AcDbLine
 10
-46.99313373041402
 20
211.4665879134118
 30
0.0
 11
-42.97120177732256
 21
215.4885198665032
 31
0.0
  0
LINE
  5
45B
330
1F
100
AcDbEntity
  8
LAYER-033
  6
Continuous
 62
     4
100
AcDbLine
 10
-53.57670530541341
 20
216.4163353817176
 30
0.0
 11
-48.62695783710759
 21
211.4665879134118
 31
0.0
  0
LINE
  5
45C
330
1F
100
AcDbEntity
  8
LAYER-033
  6
Continuous
 62
     4
100
AcDbLine
 10
-53.57670530541341
 20
221.3660828500234
 30
0.0
 11
-43.67721036880177
 21
211.4665879134118
 31
0.0
  0
LINE
  5
45D
330
1F
100
AcDbEntity
  8
LAYER-033
  6
Continuous
 62
     4
100
AcDbLine
 10
-53.57670530541341
 20
226.3158303183292
 30
0.0
 11
-42.97120177732256
 21
215.7103267902384
 31
0.0
  0
LINE
  5
45E
330
1F
100
AcDbEntity
  8
LAYER-033
  6
Continuous
 62
     4
100
AcDbLine
 10
-53.57670530541341
 20
231.2655777753321
 30
0.0
 11
-42.97120177732256
 21
220.6600742585442
 31
0.0
  0
LINE
  5
45F
330
1F
100
AcDbEntity
  8
LAYER-033
  6
Continuous
 62
     4
100
AcDbLine
 10
-53.57670530541341
 20
236.2153252549409
 30
0.0
 11
-42.97120177732256
 21
225.60982172685
 31
0.0
  0
LINE
  5
460
330
1F
100
AcDbEntity
  8
LAYER-033
  6
Continuous
 62
     4
100
AcDbLine
 10
-53.57670530541341
 20
241.1650727232467
 30
0.0
 11
-42.97120177732256
 21
230.5595691951559
 31
0.0
  0
LINE
  5
461
330
1F
100
AcDbEntity
  8
LAYER-033
  6
Continuous
 62
     4
100
AcDbLine
 10
-53.57670530541341
 20
246.1148201915526
 30
0.0
 11
-42.97120177732256
 21
235.5093166634617
 31
0.0
  0
LINE
  5
462
330
1F
100
AcDbEntity
  8
LAYER-033
  6
Continuous
 62
     4
100
AcDbLine
 10
-53.57670530541341
 20
251.0645676598584
 30
0.0
 11
-42.97120177732256
 21
240.4590641317675
 31
0.0
  0
LINE
  5
463
330
1F
100
AcDbEntity
  8
LAYER-033
  6
Continuous
 62
     4
100
AcDbLine
 10
-53.57670530541341
 20
256.0143151281642
 30
0.0
 11
-42.97120177732256
 21
245.4088116000733
 31
0.0
  0
LINE
  5
464
330
1F
100
AcDbEntity
  8
LAYER-033
  6
Continuous
 62
     4
100
AcDbLine
 10
-53.57670530541341
 20
260.96406259647
 30
0.0
 11
-42.97120177732256
 21
250.3585590683792
 31
0.0
  0
LINE
  5
465
330
1F
100
AcDbEntity
  8
LAYER-033
  6
Continuous
 62
     4
100
AcDbLine
 10
-53.57670530541341
 20
265.9138100647758
 30
0.0
 11
-42.97120177732256
 21
255.308306536685
 31
0.0
  0
LINE
  5
466
330
1F
100
AcDbEntity
  8
LAYER-033
  6
Continuous
 62
     4
100
AcDbLine
 10
-53.57670530541341
 20
270.8635575330816
 30
0.0
 11
-42.97120177732256
 21
260.2580540049908
 31
0.0
  0
LINE
  5
467
330
1F
100
AcDbEntity
  8
LAYER-033
  6
Continuous
 62
     4
100
AcDbLine
 10
-53.57670530541341
 20
275.8133050013875
 30
0.0
 11
-42.97120177732256
 21
265.2078014732966
 31
0.0
  0
LINE
  5
468
330
1F
100
AcDbEntity
  8
LAYER-033
  6
Continuous
 62
     4
100
AcDbLine
 10
-51.94288119872009
 20
279.129228363
 30
0.0
 11
-42.97120177732256
 21
270.1575489416024
 31
0.0
  0
LINE
  5
469
330
1F
100
AcDbEntity
  8
LAYER-033
  6
Continuous
 62
     4
100
AcDbLine
 10
-46.99313373041427
 20
279.129228363
 30
0.0
 11
-42.97120177732256
 21
275.1072964099083
 31
0.0
  0
LINE
  5
46A
330
1F
100
AcDbEntity
  8
LAYER-033
  6
Continuous
 62
     4
100
AcDbLine
 10
494.3804768181807
 20
273.2975882990382
 30
0.0
 11
499.3302242864866
 21
278.2473357673441
 31
0.0
  0
LINE
  5
46B
330
1F
100
AcDbEntity
  8
LAYER-033
  6
Continuous
 62
     4
100
AcDbLine
 10
494.3804768181807
 20
268.3478408307324
 30
0.0
 11
504.2799717547925
 21
278.2473357673441
 31
0.0
  0
LINE
  5
46C
330
1F
100
AcDbEntity
  8
LAYER-033
  6
Continuous
 62
     4
100
AcDbLine
 10
494.3804768181807
 20
263.3980933624265
 30
0.0
 11
504.7318658181829
 21
273.7494823624287
 31
0.0
  0
LINE
  5
46D
330
1F
100
AcDbEntity
  8
LAYER-033
  6
Continuous
 62
     4
100
AcDbLine
 10
494.3804768181807
 20
258.4483458941206
 30
0.0
 11
504.7318658181829
 21
268.7997348941228
 31
0.0
  0
LINE
  5
46E
330
1F
100
AcDbEntity
  8
LAYER-033
  6
Continuous
 62
     4
100
AcDbLine
 10
494.3804768181807
 20
253.4985984258148
 30
0.0
 11
504.7318658181829
 21
263.849987425817
 31
0.0
  0
LINE
  5
46F
330
1F
100
AcDbEntity
  8
LAYER-033
  6
Continuous
 62
     4
100
AcDbLine
 10
494.3804768181807
 20
248.5488509575089
 30
0.0
 11
504.7318658181829
 21
258.9002399575111
 31
0.0
  0
LINE
  5
470
330
1F
100
AcDbEntity
  8
LAYER-033
  6
Continuous
 62
     4
100
AcDbLine
 10
494.3804768181807
 20
243.599103489203
 30
0.0
 11
504.7318658181829
 21
253.9504924892052
 31
0.0
  0
LINE
  5
471
330
1F
100
AcDbEntity
  8
LAYER-033
  6
Continuous
 62
     4
100
AcDbLine
 10
494.3804768181807
 20
238.6493560208972
 30
0.0
 11
504.7318658181829
 21
249.0007450208994
 31
0.0
  0
LINE
  5
472
330
1F
100
AcDbEntity
  8
LAYER-033
  6
Continuous
 62
     4
100
AcDbLine
 10
494.3804768181807
 20
233.6996085525914
 30
0.0
 11
504.7318658181829
 21
244.0509975525936
 31
0.0
  0
LINE
  5
473
330
1F
100
AcDbEntity
  8
LAYER-033
  6
Continuous
 62
     4
100
AcDbLine
 10
494.3804768181807
 20
228.7498610842856
 30
0.0
 11
504.7318658181829
 21
239.1012500842878
 31
0.0
  0
LINE
  5
474
330
1F
100
AcDbEntity
  8
LAYER-033
  6
Continuous
 62
     4
100
AcDbLine
 10
494.3804768181807
 20
223.8001136159798
 30
0.0
 11
504.7318658181829
 21
234.1515026156619
 31
0.0
  0
LINE
  5
475
330
1F
100
AcDbEntity
  8
LAYER-033
  6
Continuous
 62
     4
100
AcDbLine
 10
494.3804768181807
 20
218.850366147674
 30
0.0
 11
504.7318658181829
 21
229.2017551476762
 31
0.0
  0
LINE
  5
476
330
1F
100
AcDbEntity
  8
LAYER-033
  6
Continuous
 62
     4
100
AcDbLine
 10
494.3804768181807
 20
213.9006186793683
 30
0.0
 11
504.7318658181829
 21
224.2520076793705
 31
0.0
  0
LINE
  5
477
330
1F
100
AcDbEntity
  8
LAYER-033
  6
Continuous
 62
     4
100
AcDbLine
 10
494.3804768181807
 20
208.9508712110625
 30
0.0
 11
504.7318658181829
 21
219.3022602110647
 31
0.0
  0
LINE
  5
478
330
1F
100
AcDbEntity
  8
LAYER-033
  6
Continuous
 62
     4
100
AcDbLine
 10
494.3804768181807
 20
204.0011237427567
 30
0.0
 11
504.7318658181829
 21
214.3525127427589
 31
0.0
  0
LINE
  5
479
330
1F
100
AcDbEntity
  8
LAYER-033
  6
Continuous
 62
     4
100
AcDbLine
 10
494.3804768181807
 20
199.0513762744509
 30
0.0
 11
504.7318658181829
 21
209.4027652744531
 31
0.0
  0
LINE
  5
47A
330
1F
100
AcDbEntity
  8
LAYER-033
  6
Continuous
 62
     4
100
AcDbLine
 10
494.3804768181807
 20
194.1016288061451
 30
0.0
 11
504.7318658181829
 21
204.4530178061473
 31
0.0
  0
LINE
  5
47B
330
1F
100
AcDbEntity
  8
LAYER-033
  6
Continuous
 62
     4
100
AcDbLine
 10
494.3804768181807
 20
189.1518813378393
 30
0.0
 11
504.7318658181829
 21
199.5032703378415
 31
0.0
  0
LINE
  5
47C
330
1F
100
AcDbEntity
  8
LAYER-033
  6
Continuous
 62
     4
100
AcDbLine
 10
494.3804768181807
 20
184.2021338695335
 30
0.0
 11
504.7318658181829
 21
194.5535228695358
 31
0.0
  0
LINE
  5
47D
330
1F
100
AcDbEntity
  8
LAYER-033
  6
Continuous
 62
     4
100
AcDbLine
 10
494.3804768181807
 20
179.2523864012277
 30
0.0
 11
504.7318658181829
 21
189.6037754012299
 31
0.0
  0
LINE
  5
47E
330
1F
100
AcDbEntity
  8
LAYER-033
  6
Continuous
 62
     4
100
AcDbLine
 10
494.3804768181807
 20
174.3026389327892
 30
0.0
 11
504.7318658181829
 21
184.6540279327913
 31
0.0
  0
LINE
  5
47F
330
1F
100
AcDbEntity
  8
LAYER-033
  6
Continuous
 62
     4
100
AcDbLine
 10
494.3804768181807
 20
169.3528914644834
 30
0.0
 11
504.7318658181829
 21
179.7042804644856
 31
0.0
  0
LINE
  5
480
330
1F
100
AcDbEntity
  8
LAYER-033
  6
Continuous
 62
     4
100
AcDbLine
 10
494.3804768181807
 20
164.4031439961776
 30
0.0
 11
504.7318658181829
 21
174.7545329961798
 31
0.0
  0
LINE
  5
481
330
1F
100
AcDbEntity
  8
LAYER-033
  6
Continuous
 62
     4
100
AcDbLine
 10
494.3804768181807
 20
159.4533965278718
 30
0.0
 11
504.7318658181829
 21
169.804785527874
 31
0.0
  0
LINE
  5
482
330
1F
100
AcDbEntity
  8
LAYER-033
  6
Continuous
 62
     4
100
AcDbLine
 10
494.3804768181807
 20
154.503649059566
 30
0.0
 11
504.7318658181829
 21
164.8550380595682
 31
0.0
  0
LINE
  5
483
330
1F
100
AcDbEntity
  8
LAYER-033
  6
Continuous
 62
     4
100
AcDbLine
 10
494.3804768181807
 20
149.5539015912602
 30
0.0
 11
504.7318658181829
 21
159.9052905912624
 31
0.0
  0
LINE
  5
484
330
1F
100
AcDbEntity
  8
LAYER-033
  6
Continuous
 62
     4
100
AcDbLine
 10
497.8721240917841
 20
148.0958013965578
 30
0.0
 11
504.7318658181829
 21
154.9555431229566
 31
0.0
  0
LINE
  5
485
330
1F
100
AcDbEntity
  8
LAYER-033
  6
Continuous
 62
     4
100
AcDbLine
 10
502.8218715600899
 20
148.0958013965578
 30
0.0
 11
504.7318658181829
 21
150.0057956546508
 31
0.0
  0
LINE
  5
486
330
1F
100
AcDbEntity
  8
LAYER-033
  6
Continuous
 62
     4
100
AcDbLine
 10
494.3804768181807
 20
153.0455488648636
 30
0.0
 11
499.3302242864866
 21
148.0958013965578
 31
0.0
  0
LINE
  5
487
330
1F
100
AcDbEntity
  8
LAYER-033
  6
Continuous
 62
     4
100
AcDbLine
 10
494.3804768181807
 20
157.9952963331695
 30
0.0
 11
504.2799717547924
 21
148.0958013965578
 31
0.0
  0
LINE
  5
488
330
1F
100
AcDbEntity
  8
LAYER-033
  6
Continuous
 62
     4
100
AcDbLine
 10
494.3804768181807
 20
162.9450438014753
 30
0.0
 11
504.7318658181829
 21
152.5936548014731
 31
0.0
  0
LINE
  5
489
330
1F
100
AcDbEntity
  8
LAYER-033
  6
Continuous
 62
     4
100
AcDbLine
 10
494.3804768181807
 20
167.8947912697811
 30
0.0
 11
504.7318658181829
 21
157.5434022697789
 31
0.0
  0
LINE
  5
48A
330
1F
100
AcDbEntity
  8
LAYER-033
  6
Continuous
 62
     4
100
AcDbLine
 10
494.3804768181807
 20
172.844538738087
 30
0.0
 11
504.7318658181829
 21
162.4931497380848
 31
0.0
  0
LINE
  5
48B
330
1F
100
AcDbEntity
  8
LAYER-033
  6
Continuous
 62
     4
100
AcDbLine
 10
494.3804768181807
 20
177.7942862063928
 30
0.0
 11
504.7318658181829
 21
167.4428972063906
 31
0.0
  0
LINE
  5
48C
330
1F
100
AcDbEntity
  8
LAYER-033
  6
Continuous
 62
     4
100
AcDbLine
 10
494.3804768181807
 20
182.7440336746987
 30
0.0
 11
504.7318658181829
 21
172.3926446746965
 31
0.0
  0
LINE
  5
48D
330
1F
100
AcDbEntity
  8
LAYER-033
  6
Continuous
 62
     4
100
AcDbLine
 10
494.3804768181807
 20
187.6937811430045
 30
0.0
 11
504.7318658181829
 21
177.3423921430023
 31
0.0
  0
LINE
  5
48E
330
1F
100
AcDbEntity
  8
LAYER-033
  6
Continuous
 62
     4
100
AcDbLine
 10
494.3804768181807
 20
192.643528611
 30
0.0
 11
504.7318658181829
 21
182.2921396113081
 31
0.0
  0
LINE
  5
48F
330
1F
100
AcDbEntity
  8
LAYER-033
  6
Continuous
 62
     4
100
AcDbLine
 10
494.3804768181807
 20
197.593276079616
 30
0.0
 11
504.7318658181829
 21
187.2418870796138
 31
0.0
  0
LINE
  5
490
330
1F
100
AcDbEntity
  8
LAYER-033
  6
Continuous
 62
     4
100
AcDbLine
 10
494.3804768181807
 20
202.5430235479218
 30
0.0
 11
504.7318658181829
 21
192.1916345482397
 31
0.0
  0
LINE
  5
491
330
1F
100
AcDbEntity
  8
LAYER-033
  6
Continuous
 62
     4
100
AcDbLine
 10
494.3804768181807
 20
207.4927710162276
 30
0.0
 11
504.7318658181829
 21
197.1413820162254
 31
0.0
  0
LINE
  5
492
330
1F
100
AcDbEntity
  8
LAYER-033
  6
Continuous
 62
     4
100
AcDbLine
 10
494.3804768181807
 20
212.4425184845334
 30
0.0
 11
504.7318658181829
 21
202.0911294845312
 31
0.0
  0
LINE
  5
493
330
1F
100
AcDbEntity
  8
LAYER-033
  6
Continuous
 62
     4
100
AcDbLine
 10
494.3804768181807
 20
217.3922659528392
 30
0.0
 11
504.7318658181829
 21
207.040876952837
 31
0.0
  0
LINE
  5
494
330
1F
100
AcDbEntity
  8
LAYER-033
  6
Continuous
 62
     4
100
AcDbLine
 10
494.3804768181807
 20
222.342013421145
 30
0.0
 11
504.7318658181829
 21
211.9906244211428
 31
0.0
  0
LINE
  5
495
330
1F
100
AcDbEntity
  8
LAYER-033
  6
Continuous
 62
     4
100
AcDbLine
 10
494.3804768181807
 20
227.2917608894508
 30
0.0
 11
504.7318658181829
 21
216.9403718894486
 31
0.0
  0
LINE
  5
496
330
1F
100
AcDbEntity
  8
LAYER-033
  6
Continuous
 62
     4
100
AcDbLine
 10
494.3804768181807
 20
232.2415083577565
 30
0.0
 11
504.7318658181829
 21
221.8901193577543
 31
0.0
  0
LINE
  5
497
330
1F
100
AcDbEntity
  8
LAYER-033
  6
Continuous
 62
     4
100
AcDbLine
 10
494.3804768181807
 20
237.1912558257522
 30
0.0
 11
504.7318658181829
 21
226.83986682575
 31
0.0
  0
LINE
  5
498
330
1F
100
AcDbEntity
  8
LAYER-033
  6
Continuous
 62
     4
100
AcDbLine
 10
494.3804768181807
 20
242.141003294058
 30
0.0
 11
504.7318658181829
 21
231.7896142940558
 31
0.0
  0
LINE
  5
499
330
1F
100
AcDbEntity
  8
LAYER-033
  6
Continuous
 62
     4
100
AcDbLine
 10
494.3804768181807
 20
247.0907507623638
 30
0.0
 11
504.7318658181829
 21
236.7393617623616
 31
0.0
  0
LINE
  5
49A
330
1F
100
AcDbEntity
  8
LAYER-033
  6
Continuous
 62
     4
100
AcDbLine
 10
494.3804768181807
 20
252.0404982306696
 30
0.0
 11
504.7318658181829
 21
241.6891092306674
 31
0.0
  0
LINE
  5
49B
330
1F
100
AcDbEntity
  8
LAYER-033
  6
Continuous
 62
     4
100
AcDbLine
 10
494.3804768181807
 20
256.9902456989754
 30
0.0
 11
504.7318658181829
 21
246.6388566989732
 31
0.0
  0
LINE
  5
49C
330
1F
100
AcDbEntity
  8
LAYER-033
  6
Continuous
 62
     4
100
AcDbLine
 10
494.3804768181807
 20
261.9399931672812
 30
0.0
 11
504.7318658181829
 21
251.588604167279
 31
0.0
  0
LINE
  5
49D
330
1F
100
AcDbEntity
  8
LAYER-033
  6
Continuous
 62
     4
100
AcDbLine
 10
494.3804768181807
 20
266.8897406355869
 30
0.0
 11
504.7318658181829
 21
256.5383516355847
 31
0.0
  0
LINE
  5
49E
330
1F
100
AcDbEntity
  8
LAYER-033
  6
Continuous
 62
     4
100
AcDbLine
 10
494.3804768181807
 20
271.8394881038927
 30
0.0
 11
504.7318658181829
 21
261.4880991038905
 31
0.0
  0
LINE
  5
49F
330
1F
100
AcDbEntity
  8
LAYER-033
  6
Continuous
 62
     4
100
AcDbLine
 10
494.3804768181807
 20
276.7892355721986
 30
0.0
 11
504.7318658181829
 21
266.4378465721963
 31
0.0
  0
LINE
  5
4A0
330
1F
100
AcDbEntity
  8
LAYER-033
  6
Continuous
 62
     4
100
AcDbLine
 10
497.8721240913409
 20
278.2473357673441
 30
0.0
 11
504.7318658181829
 21
271.3875940405021
 31
0.0
  0
LINE
  5
4A1
330
1F
100
AcDbEntity
  8
LAYER-033
  6
Continuous
 62
     4
100
AcDbLine
 10
502.8218715596467
 20
278.2473357673441
 30
0.0
 11
504.7318658181829
 21
276.3373415088079
 31
0.0
  0
TEXT
  5
4A2
330
1F
100
AcDbEntity
  8
LAYER-033
  6
Continuous
 62
     7
100
AcDbText
 10
-78.59006319201528
 20
-328.1874666140873
 30
0.0
 40
4.0
  1
４００／４４０Ｖ　５０／６０Ｈｚ　　２５０ｋＷ
  7
STRING_H
 11
-78.59006319201528
 21
-326.1874666140873
 31
0.0
100
AcDbText
 73
     2
  0
TEXT
  5
4A3
330
1F
100
AcDbEntity
  8
LAYER-033
  6
Continuous
 62
     7
100
AcDbText
 10
-78.59006319201528
 20
-336.2729167150545
 30
0.0
 40
4.0
  1
質　　量　２４５㎏
  7
STRING_H
 11
-78.59006319201528
 21
-334.2729167150545
 31
0.0
100
AcDbText
 73
     2
  0
TEXT
  5
4A4
330
1F
100
AcDbEntity
  8
LAYER-033
  6
Continuous
 62
     7
100
AcDbText
 10
-78.59006319201528
 20
-320.1020165127829
 30
0.0
 40
4.0
  1
ＫＲ－１Ｐ(低　圧)
  7
STRING_H
 11
-78.59006319201528
 21
-318.1020165127829
 31
0.0
100
AcDbText
 73
     2
  0
DIMENSION
  5
4B4
330
1F
100
AcDbEntity
  8
LAYER-035
  6
Continuous
 62
     5
100
AcDbDimension
  2
*D02
 10
163.7072648181792
 20
41.73627476202728
 30
0.0
 11
336.0175276197454
 21
41.73627476202728
 31
0.0
 70
   129
  1
<>
 71
     0
 42
0.0
  3
DIO_DIMSTYLE
100
AcDbAlignedDimension
 13
523.7072648181793
 23
133.8053902167827
 33
0.0
 14
163.7072648181792
 24
133.8053902167827
 34
0.0
1001
ACAD
1000
DSTYLE
1002
{
1070
    41
1040
4.0
1070
    44
1040
1.0
1070
    42
1040
1.0
1070
     6
1000
_OPEN
1070
     7
1000
_OPEN
1070
   173
1070
     1
1070
   140
1040
4.0
1070
   178
1070
     5
1070
   147
1040
0.5
1002
}
  0
DIMENSION
  5
4BE
330
1F
100
AcDbEntity
  8
LAYER-035
  6
Continuous
 62
     5
100
AcDbDimension
  2
*D13
 10
516.2072648181793
 20
-224.9234826173499
 30
0.0
 11
343.7072648181793
 21
-224.9234826173499
 31
0.0
 70
   129
  1
<>
 71
     0
 42
0.0
  3
DIO_DIMSTYLE
100
AcDbAlignedDimension
 13
171.2072648181792
 23
-133.5334120865882
 33
0.0
 14
516.2072648181793
 24
-133.5334120865882
 34
0.0
1001
ACAD
1000
DSTYLE
1002
{
1070
    41
1040
4.0
1070
    44
1040
1.0
1070
    42
1040
1.0
1070
     6
1000
_OPEN
1070
     7
1000
_OPEN
1070
   173
1070
     1
1070
   140
1040
4.0
1070
   178
1070
     5
1070
   147
1040
0.5
1002
}
  0
DIMENSION
  5
4C8
330
1F
100
AcDbEntity
  8
LAYER-035
  6
Continuous
 62
     5
100
AcDbDimension
  2
*D24
 10
193.7072648181792
 20
-190.8612510140521
 30
0.0
 11
343.7072648181792
 21
-190.8612510140521
 31
0.0
 70
   129
  1
<>
 71
     0
 42
0.0
  3
DIO_DIMSTYLE
100
AcDbAlignedDimension
 13
493.7072648181792
 23
-146.6593960865912
 33
0.0
 14
193.7072648181792
 24
-146.6593960865912
 34
0.0
1001
ACAD
1000
DSTYLE
1002
{
1070
    41
1040
4.0
1070
    44
1040
1.0
1070
    42
1040
1.0
1070
     6
1000
_OPEN
1070
     7
1000
_OPEN
1070
   173
1070
     1
1070
   140
1040
4.0
1070
   178
1070
     5
1070
   147
1040
0.5
1002
}
  0
DIMENSION
  5
4D2
330
1F
100
AcDbEntity
  8
LAYER-035
  6
Continuous
 62
     5
100
AcDbDimension
  2
*D35
 10
-515.8339537266002
 20
-133.5334120865882
 30
0.0
 11
-515.8339537266002
 21
101.4665879134118
 31
0.0
 70
   128
  1
<>
 71
     0
 42
0.0
  3
DIO_DIMSTYLE
100
AcDbAlignedDimension
 13
-458.9200204290092
 23
336.4665879134118
 33
0.0
 14
-469.4818181818182
 24
-133.5334120865882
 34
0.0
 50
90.0
100
AcDbRotatedDimension
1001
ACAD
1000
DSTYLE
1002
{
1070
    41
1040
4.0
1070
    44
1040
1.0
1070
    42
1040
1.0
1070
     6
1000
_OPEN
1070
     7
1000
_OPEN
1070
   173
1070
     1
1070
   140
1040
4.0
1070
   178
1070
     5
1070
   147
1040
0.5
1002
}
  0
DIMENSION
  5
4DC
330
1F
100
AcDbEntity
  8
LAYER-035
  6
Continuous
 62
     5
100
AcDbDimension
  2
*D46
 10
-426.9818181818182
 20
-179.2389421054408
 30
0.0
 11
-211.9818181818182
 21
-179.2389421054408
 31
0.0
 70
   129
  1
<>
 71
     0
 42
0.0
  3
DIO_DIMSTYLE
100
AcDbAlignedDimension
 13
3.018181818181802
 23
-146.6685939742292
 33
0.0
 14
-426.9818181818182
 24
-146.6685939742292
 34
0.0
1001
ACAD
1000
DSTYLE
1002
{
1070
    41
1040
4.0
1070
    44
1040
1.0
1070
    42
1040
1.0
1070
     6
1000
_OPEN
1070
     7
1000
_OPEN
1070
   173
1070
     1
1070
   140
1040
4.0
1070
   178
1070
     5
1070
   147
1040
0.5
1002
}
  0
DIMENSION
  5
4E6
330
1F
100
AcDbEntity
  8
LAYER-035
  6
Continuous
 62
     5
100
AcDbDimension
  2
*D57
 10
45.5181818181818
 20
-210.3006910588285
 30
0.0
 11
-211.9818181818182
 21
-210.3006910588285
 31
0.0
 70
   129
  1
<>
 71
     0
 42
0.0
  3
DIO_DIMSTYLE
100
AcDbAlignedDimension
 13
-469.4818181818182
 23
-133.5334120865882
 33
0.0
 14
45.5181818181818
 24
-133.5334120865882
 34
0.0
1001
ACAD
1000
DSTYLE
1002
{
1070
    41
1040
4.0
1070
    44
1040
1.0
1070
    42
1040
1.0
1070
     6
1000
_OPEN
1070
     7
1000
_OPEN
1070
   173
1070
     1
1070
   140
1040
4.0
1070
   178
1070
     5
1070
   147
1040
0.5
1002
}
  0
ENDSEC
  0
SECTION
  2
OBJECTS
  0
DICTIONARY
  5
C
330
0
100
AcDbDictionary
281
     1
  3
ACAD_GROUP
350
D
  3
ACAD_LAYOUT
350
1A
  3
ACAD_MLINESTYLE
350
17
  3
ACAD_PLOTSETTINGS
350
19
  3
ACAD_PLOTSTYLENAME
350
E
  0
DICTIONARY
  5
D
102
{ACAD_REACTORS
330
C
102
}
330
C
100
AcDbDictionary
281
     1
  0
DICTIONARY
  5
1A
102
{ACAD_REACTORS
330
C
102
}
330
C
100
AcDbDictionary
281
     1
  3
Model
350
22
  3
ﾚｲｱｳﾄ1
350
1E
  3
ﾚｲｱｳﾄ2
350
26
  0
DICTIONARY
  5
17
102
{ACAD_REACTORS
330
C
102
}
330
C
100
AcDbDictionary
281
     1
  3
Standard
350
18
  0
DICTIONARY
  5
19
102
{ACAD_REACTORS
330
C
102
}
330
C
100
AcDbDictionary
281
     1
  0
ACDBDICTIONARYWDFLT
  5
E
102
{ACAD_REACTORS
330
C
102
}
330
C
100
AcDbDictionary
281
     1
  3
Normal
350
F
100
AcDbDictionaryWithDefault
340
F
  0
LAYOUT
  5
22
102
{ACAD_REACTORS
330
1A
102
}
330
1A
100
AcDbPlotSettings
  1

  2
DWF ePlot.pc3
  4
ANSI_A_(8.50_x_11.00_Inches)
  6

 40
5.793749809265137
 41
17.79375076293945
 42
5.793746948242188
 43
17.79376220703125
 44
215.8999938964844
 45
279.3999938964844
 46
0.0
 47
0.0
 48
0.0
 49
0.0
140
0.0
141
0.0
142
1.0
143
39.26051453979704
 70
 11952
 72
     0
 73
     1
 74
     0
  7
acad.ctb
 75
     0
147
0.0254708837039396
148
-1793.922354682663
149
1.490346453088415
100
AcDbLayout
  1
Model
 70
     1
 71
     0
 10
-594.5
 20
-420.5
 11
594.5
 21
420.5
 12
0.0
 22
0.0
 32
0.0
 14
-594.5
 24
-420.5
 34
0.0
 15
594.5
 25
420.5
 35
0.0
146
0.0
 13
0.0
 23
0.0
 33
0.0
 16
1.0
 26
0.0
 36
0.0
 17
0.0
 27
1.0
 37
0.0
 76
     0
330
1F
  0
LAYOUT
  5
1E
102
{ACAD_REACTORS
330
1A
102
}
330
1A
100
AcDbPlotSettings
  1

  2
RICOH IPSiO NX700
  4

  6

 40
0.0
 41
0.0
 42
0.0
 43
0.0
 44
0.0
 45
0.0
 46
0.0
 47
0.0
 48
0.0
 49
0.0
140
0.0
141
0.0
142
1.0
143
1.0
 70
   688
 72
     0
 73
     0
 74
     5
  7
acad.ctb
 75
    16
147
1.0
148
0.0
149
0.0
100
AcDbLayout
  1
ﾚｲｱｳﾄ1
 70
     1
 71
     1
 10
-594.5
 20
-420.5
 11
594.5
 21
420.5
 12
0.0
 22
0.0
 32
0.0
 14
-594.5
 24
-420.5
 34
0.0
 15
594.5
 25
420.5
 35
0.0
146
0.0
 13
0.0
 23
0.0
 33
0.0
 16
1.0
 26
0.0
 36
0.0
 17
0.0
 27
1.0
 37
0.0
 76
     0
330
1B
  0
LAYOUT
  5
26
102
{ACAD_REACTORS
330
1A
102
}
330
1A
100
AcDbPlotSettings
  1

  2
RICOH IPSiO NX700
  4

  6

 40
0.0
 41
0.0
 42
0.0
 43
0.0
 44
0.0
 45
0.0
 46
0.0
 47
0.0
 48
0.0
 49
0.0
140
0.0
141
0.0
142
1.0
143
1.0
 70
   688
 72
     0
 73
     0
 74
     5
  7
acad.ctb
 75
    16
147
1.0
148
0.0
149
0.0
100
AcDbLayout
  1
ﾚｲｱｳﾄ2
 70
     1
 71
     2
 10
0.0
 20
0.0
 11
12.0
 21
9.0
 12
0.0
 22
0.0
 32
0.0
 14
0.0
 24
0.0
 34
0.0
 15
0.0
 25
0.0
 35
0.0
146
0.0
 13
0.0
 23
0.0
 33
0.0
 16
1.0
 26
0.0
 36
0.0
 17
0.0
 27
1.0
 37
0.0
 76
     0
330
23
  0
MLINESTYLE
  5
18
102
{ACAD_REACTORS
330
17
102
}
330
17
100
AcDbMlineStyle
  2
STANDARD
 70
     0
  3

 62
   256
 51
90.0
 52
90.0
 71
     2
 49
0.5
 62
   256
  6
BYLAYER
 49
-0.5
 62
   256
  6
BYLAYER
  0
ACDBPLACEHOLDER
  5
F
102
{ACAD_REACTORS
330
E
102
}
330
E
  0
ENDSEC
  0
EOF
