  0
SECTION
  2
HEADER
  9
$ACADVER
  1
AC1015
  9
$ACADMAINTVER
 70
     6
  9
$DWGCODEPAGE
  3
ANSI_932
  9
$INSBASE
 10
0.0
 20
0.0
 30
0.0
  9
$EXTMIN
 10
-594.5
 20
-420.5
 30
0.0
  9
$EXTMAX
 10
594.5
 20
420.5
 30
0.0
  9
$LIMMIN
 10
-594.5
 20
-420.5
  9
$LIMMAX
 10
594.5
 20
420.5
  9
$ORTHOMODE
 70
     0
  9
$REGENMODE
 70
     1
  9
$FILLMODE
 70
     1
  9
$QTEXTMODE
 70
     0
  9
$MIRRTEXT
 70
     1
  9
$LTSCALE
 40
4.0
  9
$ATTMODE
 70
     1
  9
$TEXTSIZE
 40
2.5
  9
$TRACEWID
 40
1.0
  9
$TEXTSTYLE
  7
Standard
  9
$CLAYER
  8
0
  9
$CELTYPE
  6
ByLayer
  9
$CECOLOR
 62
   256
  9
$CELTSCALE
 40
1.0
  9
$DISPSILH
 70
     0
  9
$DIMSCALE
 40
1.0
  9
$DIMASZ
 40
4.0
  9
$DIMEXO
 40
1.0
  9
$DIMDLI
 40
3.75
  9
$DIMRND
 40
0.1
  9
$DIMDLE
 40
0.0
  9
$DIMEXE
 40
1.0
  9
$DIMTP
 40
0.0
  9
$DIMTM
 40
0.0
  9
$DIMTXT
 40
2.5
  9
$DIMCEN
 40
2.5
  9
$DIMTSZ
 40
0.0
  9
$DIMTOL
 70
     0
  9
$DIMLIM
 70
     0
  9
$DIMTIH
 70
     0
  9
$DIMTOH
 70
     0
  9
$DIMSE1
 70
     0
  9
$DIMSE2
 70
     0
  9
$DIMTAD
 70
     1
  9
$DIMZIN
 70
     8
  9
$DIMBLK
  1

  9
$DIMASO
 70
     1
  9
$DIMSHO
 70
     1
  9
$DIMPOST
  1

  9
$DIMAPOST
  1

  9
$DIMALT
 70
     0
  9
$DIMALTD
 70
     3
  9
$DIMALTF
 40
0.03937007874016
  9
$DIMLFAC
 40
1.0
  9
$DIMTOFL
 70
     1
  9
$DIMTVP
 40
0.0
  9
$DIMTIX
 70
     0
  9
$DIMSOXD
 70
     0
  9
$DIMSAH
 70
     1
  9
$DIMBLK1
  1

  9
$DIMBLK2
  1

  9
$DIMSTYLE
  2
ISO-25
  9
$DIMCLRD
 70
     0
  9
$DIMCLRE
 70
     0
  9
$DIMCLRT
 70
     0
  9
$DIMTFAC
 40
1.0
  9
$DIMGAP
 40
0.5
  9
$DIMJUST
 70
     0
  9
$DIMSD1
 70
     0
  9
$DIMSD2
 70
     0
  9
$DIMTOLJ
 70
     0
  9
$DIMTZIN
 70
     8
  9
$DIMALTZ
 70
     0
  9
$DIMALTTZ
 70
     0
  9
$DIMUPT
 70
     1
  9
$DIMDEC
 70
     1
  9
$DIMTDEC
 70
     2
  9
$DIMALTU
 70
     2
  9
$DIMALTTD
 70
     3
  9
$DIMTXSTY
  7
Standard
  9
$DIMAUNIT
 70
     0
  9
$DIMADEC
 70
     1
  9
$DIMALTRND
 40
0.0
  9
$DIMAZIN
 70
     2
  9
$DIMDSEP
 70
    46
  9
$DIMATFIT
 70
     0
  9
$DIMFRAC
 70
     0
  9
$DIMLDRBLK
  1

  9
$DIMLUNIT
 70
     2
  9
$DIMLWD
 70
    -2
  9
$DIMLWE
 70
    -2
  9
$DIMTMOVE
 70
     0
  9
$LUNITS
 70
     2
  9
$LUPREC
 70
     4
  9
$SKETCHINC
 40
1.0
  9
$FILLETRAD
 40
10.0
  9
$AUNITS
 70
     0
  9
$AUPREC
 70
     0
  9
$MENU
  1
.
  9
$ELEVATION
 40
0.0
  9
$PELEVATION
 40
0.0
  9
$THICKNESS
 40
0.0
  9
$LIMCHECK
 70
     0
  9
$CHAMFERA
 40
10.0
  9
$CHAMFERB
 40
10.0
  9
$CHAMFERC
 40
20.0
  9
$CHAMFERD
 40
0.0
  9
$SKPOLY
 70
     0
  9
$TDCREATE
 40
2455091.0
  9
$TDUCREATE
 40
2451562.87528772
  9
$TDUPDATE
 40
2455120.0
  9
$TDUUPDATE
 40
2452026.917654526
  9
$TDINDWG
 40
0.0010008681
  9
$TDUSRTIMER
 40
0.0009680671
  9
$USRTIMER
 70
     1
  9
$ANGBASE
 50
0.0
  9
$ANGDIR
 70
     0
  9
$PDMODE
 70
     0
  9
$PDSIZE
 40
0.0
  9
$PLINEWID
 40
0.0
  9
$SPLFRAME
 70
     0
  9
$SPLINETYPE
 70
     6
  9
$SPLINESEGS
 70
     8
  9
$HANDSEED
  5
53C
  9
$SURFTAB1
 70
     6
  9
$SURFTAB2
 70
     6
  9
$SURFTYPE
 70
     6
  9
$SURFU
 70
     6
  9
$SURFV
 70
     6
  9
$UCSBASE
  2

  9
$UCSNAME
  2

  9
$UCSORG
 10
0.0
 20
0.0
 30
0.0
  9
$UCSXDIR
 10
1.0
 20
0.0
 30
0.0
  9
$UCSYDIR
 10
0.0
 20
1.0
 30
0.0
  9
$UCSORTHOREF
  2

  9
$UCSORTHOVIEW
 70
     0
  9
$UCSORGTOP
 10
0.0
 20
0.0
 30
0.0
  9
$UCSORGBOTTOM
 10
0.0
 20
0.0
 30
0.0
  9
$UCSORGLEFT
 10
0.0
 20
0.0
 30
0.0
  9
$UCSORGRIGHT
 10
0.0
 20
0.0
 30
0.0
  9
$UCSORGFRONT
 10
0.0
 20
0.0
 30
0.0
  9
$UCSORGBACK
 10
0.0
 20
0.0
 30
0.0
  9
$PUCSBASE
  2

  9
$PUCSNAME
  2

  9
$PUCSORG
 10
0.0
 20
0.0
 30
0.0
  9
$PUCSXDIR
 10
1.0
 20
0.0
 30
0.0
  9
$PUCSYDIR
 10
0.0
 20
1.0
 30
0.0
  9
$PUCSORTHOREF
  2

  9
$PUCSORTHOVIEW
 70
     0
  9
$PUCSORGTOP
 10
0.0
 20
0.0
 30
0.0
  9
$PUCSORGBOTTOM
 10
0.0
 20
0.0
 30
0.0
  9
$PUCSORGLEFT
 10
0.0
 20
0.0
 30
0.0
  9
$PUCSORGRIGHT
 10
0.0
 20
0.0
 30
0.0
  9
$PUCSORGFRONT
 10
0.0
 20
0.0
 30
0.0
  9
$PUCSORGBACK
 10
0.0
 20
0.0
 30
0.0
  9
$USERI1
 70
     0
  9
$USERI2
 70
     0
  9
$USERI3
 70
     0
  9
$USERI4
 70
     0
  9
$USERI5
 70
     0
  9
$USERR1
 40
0.0
  9
$USERR2
 40
0.0
  9
$USERR3
 40
0.0
  9
$USERR4
 40
0.0
  9
$USERR5
 40
0.0
  9
$WORLDVIEW
 70
     1
  9
$SHADEDGE
 70
     3
  9
$SHADEDIF
 70
    70
  9
$TILEMODE
 70
     1
  9
$MAXACTVP
 70
    64
  9
$PINSBASE
 10
0.0
 20
0.0
 30
0.0
  9
$PLIMCHECK
 70
     0
  9
$PEXTMIN
 10
-594.5
 20
-420.5
 30
0.0
  9
$PEXTMAX
 10
594.5
 20
420.5
 30
0.0
  9
$PLIMMIN
 10
-594.5
 20
-420.5
  9
$PLIMMAX
 10
594.5
 20
420.5
  9
$UNITMODE
 70
     0
  9
$VISRETAIN
 70
     1
  9
$PLINEGEN
 70
     0
  9
$PSLTSCALE
 70
     1
  9
$TREEDEPTH
 70
  3020
  9
$CMLSTYLE
  2
Standard
  9
$CMLJUST
 70
     0
  9
$CMLSCALE
 40
20.0
  9
$PROXYGRAPHICS
 70
     1
  9
$MEASUREMENT
 70
     1
  9
$CELWEIGHT
370
    -1
  9
$ENDCAPS
280
     0
  9
$JOINSTYLE
280
     0
  9
$LWDISPLAY
290
     0
  9
$INSUNITS
 70
     4
  9
$HYPERLINKBASE
  1

  9
$STYLESHEET
  1

  9
$XEDIT
290
     1
  9
$CEPSNTYPE
380
     0
  9
$PSTYLEMODE
290
     1
  9
$FINGERPRINTGUID
  2
{B6423330-CE35-11D3-AA43-00E0292263AD}
  9
$VERSIONGUID
  2
{EAA0F794-BAE8-4B09-85E0-65C527BE2B8E}
  9
$EXTNAMES
290
     1
  9
$PSVPSCALE
 40
0.0
  9
$OLESTARTUP
290
     0
  0
ENDSEC
  0
SECTION
  2
CLASSES
  0
CLASS
  1
ACDBDICTIONARYWDFLT
  2
AcDbDictionaryWithDefault
  3
ObjectDBX Classes
 90
        0
280
     0
281
     0
  0
CLASS
  1
ACDBPLACEHOLDER
  2
AcDbPlaceHolder
  3
ObjectDBX Classes
 90
        0
280
     0
281
     0
  0
CLASS
  1
LAYOUT
  2
AcDbLayout
  3
ObjectDBX Classes
 90
        0
280
     0
281
     0
  0
ENDSEC
  0
SECTION
  2
TABLES
  0
TABLE
  2
VPORT
  5
8
330
0
100
AcDbSymbolTable
 70
     3
  0
VPORT
  5
30
330
8
100
AcDbSymbolTableRecord
100
AcDbViewportTableRecord
  2
*Active
 70
     0
 10
0.0
 20
0.0
 11
1.0
 21
1.0
 12
259.0560661764706
 22
148.5
 13
0.0
 23
0.0
 14
10.0
 24
10.0
 15
10.0
 25
10.0
 16
0.0
 26
0.0
 36
1.0
 17
0.0
 27
0.0
 37
0.0
 40
297.1173501144164
 41
1.268382352941176
 42
50.0
 43
0.0
 44
0.0
 50
0.0
 51
0.0
 71
     0
 72
   100
 73
     1
 74
     3
 75
     0
 76
     0
 77
     0
 78
     0
281
     0
 65
     1
110
0.0
120
0.0
130
0.0
111
1.0
121
0.0
131
0.0
112
0.0
122
1.0
132
0.0
 79
     0
146
0.0
  0
ENDTAB
  0
TABLE
  2
LTYPE
  5
5
330
0
100
AcDbSymbolTable
 70
    26
  0
LTYPE
  5
14
330
5
100
AcDbSymbolTableRecord
100
AcDbLinetypeTableRecord
  2
ByBlock
 70
     0
  3

 72
    65
 73
     0
 40
0.0
  0
LTYPE
  5
15
330
5
100
AcDbSymbolTableRecord
100
AcDbLinetypeTableRecord
  2
ByLayer
 70
     0
  3

 72
    65
 73
     0
 40
0.0
  0
LTYPE
  5
16
330
5
100
AcDbSymbolTableRecord
100
AcDbLinetypeTableRecord
  2
Continuous
 70
     0
  3
Solid line
 72
    65
 73
     0
 40
0.0
  0
LTYPE
  5
37
330
5
100
AcDbSymbolTableRecord
100
AcDbLinetypeTableRecord
  2
BORDER
 70
     0
  3
 __ __ . __ __ . __ __ . __ __ . __ __ . __ __
 72
    65
 73
     6
 40
1.75
 49
0.5
 74
     0
 49
-0.25
 74
     0
 49
0.5
 74
     0
 49
-0.25
 74
     0
 49
0.0
 74
     0
 49
-0.25
 74
     0
  0
LTYPE
  5
38
330
5
100
AcDbSymbolTableRecord
100
AcDbLinetypeTableRecord
  2
BORDER2
 70
     0
  3
__.__.__.__.__.__.__.__.__.__.__.__.__.__.__
 72
    65
 73
     6
 40
0.875
 49
0.25
 74
     0
 49
-0.125
 74
     0
 49
0.25
 74
     0
 49
-0.125
 74
     0
 49
0.0
 74
     0
 49
-0.125
 74
     0
  0
LTYPE
  5
39
330
5
100
AcDbSymbolTableRecord
100
AcDbLinetypeTableRecord
  2
BORDERX2
 70
     0
  3
____  ____  .  ____  ____  .  ____  ____  .
 72
    65
 73
     6
 40
3.5
 49
1.0
 74
     0
 49
-0.5
 74
     0
 49
1.0
 74
     0
 49
-0.5
 74
     0
 49
0.0
 74
     0
 49
-0.5
 74
     0
  0
LTYPE
  5
3A
330
5
100
AcDbSymbolTableRecord
100
AcDbLinetypeTableRecord
  2
CENTER
 70
     0
  3
____ _ ____ _ ____ _ ____ _ ____ _ ____ _ ____
 72
    65
 73
     4
 40
2.0
 49
1.25
 74
     0
 49
-0.25
 74
     0
 49
0.25
 74
     0
 49
-0.25
 74
     0
  0
LTYPE
  5
3B
330
5
100
AcDbSymbolTableRecord
100
AcDbLinetypeTableRecord
  2
CENTER2
 70
     0
  3
___ _ ___ _ ___ _ ___ _ ___ _ ___ _ ___ _ ___ 
 72
    65
 73
     4
 40
1.125
 49
0.75
 74
     0
 49
-0.125
 74
     0
 49
0.125
 74
     0
 49
-0.125
 74
     0
  0
LTYPE
  5
3C
330
5
100
AcDbSymbolTableRecord
100
AcDbLinetypeTableRecord
  2
CENTERX2
 70
     0
  3
________  __  ________  __  ________  __
 72
    65
 73
     4
 40
4.0
 49
2.5
 74
     0
 49
-0.5
 74
     0
 49
0.5
 74
     0
 49
-0.5
 74
     0
  0
LTYPE
  5
3D
330
5
100
AcDbSymbolTableRecord
100
AcDbLinetypeTableRecord
  2
DASHDOT
 70
     0
  3
__ . __ . __ . __ . __ . __ . __ . __ . __ .
 72
    65
 73
     4
 40
1.0
 49
0.5
 74
     0
 49
-0.25
 74
     0
 49
0.0
 74
     0
 49
-0.25
 74
     0
  0
LTYPE
  5
3E
330
5
100
AcDbSymbolTableRecord
100
AcDbLinetypeTableRecord
  2
DASHDOT2
 70
     0
  3
_._._._._._._._._._._._._._._._._._._._._._._.
 72
    65
 73
     4
 40
0.5
 49
0.25
 74
     0
 49
-0.125
 74
     0
 49
0.0
 74
     0
 49
-0.125
 74
     0
  0
LTYPE
  5
3F
330
5
100
AcDbSymbolTableRecord
100
AcDbLinetypeTableRecord
  2
DASHDOTX2
 70
     0
  3
____  .  ____  .  ____  .  ____  .  ____  .
 72
    65
 73
     4
 40
2.0
 49
1.0
 74
     0
 49
-0.5
 74
     0
 49
0.0
 74
     0
 49
-0.5
 74
     0
  0
LTYPE
  5
40
330
5
100
AcDbSymbolTableRecord
100
AcDbLinetypeTableRecord
  2
DASHED
 70
     0
  3
__ __ __ __ __ __ __ __ __ __ __ __ __ __ __
 72
    65
 73
     2
 40
0.75
 49
0.5
 74
     0
 49
-0.25
 74
     0
  0
LTYPE
  5
41
330
5
100
AcDbSymbolTableRecord
100
AcDbLinetypeTableRecord
  2
DASHED2
 70
     0
  3
_ _ _ _ _ _ _ _ _ _ _ _ _ _ _ _ _ _ _ _ _ _ _
 72
    65
 73
     2
 40
0.375
 49
0.25
 74
     0
 49
-0.125
 74
     0
  0
LTYPE
  5
42
330
5
100
AcDbSymbolTableRecord
100
AcDbLinetypeTableRecord
  2
DASHEDX2
 70
     0
  3
____  ____  ____  ____  ____  ____  ____  ____
 72
    65
 73
     2
 40
1.5
 49
1.0
 74
     0
 49
-0.5
 74
     0
  0
LTYPE
  5
43
330
5
100
AcDbSymbolTableRecord
100
AcDbLinetypeTableRecord
  2
DIVIDE
 70
     0
  3
____ . . ____ . . ____ . . ____ . . ____ . .
 72
    65
 73
     6
 40
1.25
 49
0.5
 74
     0
 49
-0.25
 74
     0
 49
0.0
 74
     0
 49
-0.25
 74
     0
 49
0.0
 74
     0
 49
-0.25
 74
     0
  0
LTYPE
  5
44
330
5
100
AcDbSymbolTableRecord
100
AcDbLinetypeTableRecord
  2
DIVIDE2
 70
     0
  3
__..__..__..__..__..__..__..__..__..__..__..__
 72
    65
 73
     6
 40
0.625
 49
0.25
 74
     0
 49
-0.125
 74
     0
 49
0.0
 74
     0
 49
-0.125
 74
     0
 49
0.0
 74
     0
 49
-0.125
 74
     0
  0
LTYPE
  5
45
330
5
100
AcDbSymbolTableRecord
100
AcDbLinetypeTableRecord
  2
DIVIDEX2
 70
     0
  3
________  .  .  ________  .  .  ________  .  .
 72
    65
 73
     6
 40
2.5
 49
1.0
 74
     0
 49
-0.5
 74
     0
 49
0.0
 74
     0
 49
-0.5
 74
     0
 49
0.0
 74
     0
 49
-0.5
 74
     0
  0
LTYPE
  5
46
330
5
100
AcDbSymbolTableRecord
100
AcDbLinetypeTableRecord
  2
DOT
 70
     0
  3
. . . . . . . . . . . . . . . . . . . . . . .
 72
    65
 73
     2
 40
0.25
 49
0.0
 74
     0
 49
-0.25
 74
     0
  0
LTYPE
  5
47
330
5
100
AcDbSymbolTableRecord
100
AcDbLinetypeTableRecord
  2
DOT2
 70
     0
  3
..............................................
 72
    65
 73
     2
 40
0.125
 49
0.0
 74
     0
 49
-0.125
 74
     0
  0
LTYPE
  5
48
330
5
100
AcDbSymbolTableRecord
100
AcDbLinetypeTableRecord
  2
DOTX2
 70
     0
  3
.  .  .  .  .  .  .  .  .  .  .  .  .  .  .  .
 72
    65
 73
     2
 40
0.5
 49
0.0
 74
     0
 49
-0.5
 74
     0
  0
LTYPE
  5
49
330
5
100
AcDbSymbolTableRecord
100
AcDbLinetypeTableRecord
  2
HIDDEN
 70
     0
  3
__ __ __ __ __ __ __ __ __ __ __ __ __ __ __
 72
    65
 73
     2
 40
0.375
 49
0.25
 74
     0
 49
-0.125
 74
     0
  0
LTYPE
  5
4A
330
5
100
AcDbSymbolTableRecord
100
AcDbLinetypeTableRecord
  2
HIDDEN2
 70
     0
  3
_ _ _ _ _ _ _ _ _ _ _ _ _ _ _ _ _ _ _ _ _ _ _
 72
    65
 73
     2
 40
0.1875
 49
0.125
 74
     0
 49
-0.0625
 74
     0
  0
LTYPE
  5
4B
330
5
100
AcDbSymbolTableRecord
100
AcDbLinetypeTableRecord
  2
HIDDENX2
 70
     0
  3
____ ____ ____ ____ ____ ____ ____ ____ ____
 72
    65
 73
     2
 40
0.75
 49
0.5
 74
     0
 49
-0.25
 74
     0
  0
LTYPE
  5
4C
330
5
100
AcDbSymbolTableRecord
100
AcDbLinetypeTableRecord
  2
PHANTOM
 70
     0
  3
______  __  __  ______  __  __  ______  __
 72
    65
 73
     6
 40
2.5
 49
1.25
 74
     0
 49
-0.25
 74
     0
 49
0.25
 74
     0
 49
-0.25
 74
     0
 49
0.25
 74
     0
 49
-0.25
 74
     0
  0
LTYPE
  5
4D
330
5
100
AcDbSymbolTableRecord
100
AcDbLinetypeTableRecord
  2
PHANTOM2
 70
     0
  3
___ _ _ ___ _ _ ___ _ _ ___ _ _ ___ _ _ ___ _
 72
    65
 73
     6
 40
1.25
 49
0.625
 74
     0
 49
-0.125
 74
     0
 49
0.125
 74
     0
 49
-0.125
 74
     0
 49
0.125
 74
     0
 49
-0.125
 74
     0
  0
LTYPE
  5
4E
330
5
100
AcDbSymbolTableRecord
100
AcDbLinetypeTableRecord
  2
PHANTOMX2
 70
     0
  3
____________    ____    ____    ____________
 72
    65
 73
     6
 40
5.0
 49
2.5
 74
     0
 49
-0.5
 74
     0
 49
0.5
 74
     0
 49
-0.5
 74
     0
 49
0.5
 74
     0
 49
-0.5
 74
     0
  0
LTYPE
  5
4F
330
5
100
AcDbSymbolTableRecord
100
AcDbLinetypeTableRecord
  2
CONTINUOUS2
 70
     0
  3
Solid line
 72
    65
 73
     0
 40
0.0
  0
ENDTAB
  0
TABLE
  2
LAYER
  5
2
330
0
100
AcDbSymbolTable
 70
   514
  0
LAYER
  5
10
330
2
100
AcDbSymbolTableRecord
100
AcDbLayerTableRecord
  2
0
 70
     0
 62
     7
  6
Continuous
370
    -3
390
F
  0
LAYER
  5
50
330
2
100
AcDbSymbolTableRecord
100
AcDbLayerTableRecord
  2
LAYER-001
 70
     0
 62
     7
  6
Continuous
370
    -3
390
F
  0
LAYER
  5
51
330
2
100
AcDbSymbolTableRecord
100
AcDbLayerTableRecord
  2
LAYER-002
 70
     0
 62
     7
  6
Continuous
370
    -3
390
F
  0
LAYER
  5
52
330
2
100
AcDbSymbolTableRecord
100
AcDbLayerTableRecord
  2
LAYER-003
 70
     0
 62
     7
  6
Continuous
370
    -3
390
F
  0
LAYER
  5
53
330
2
100
AcDbSymbolTableRecord
100
AcDbLayerTableRecord
  2
LAYER-004
 70
     0
 62
     7
  6
Continuous
370
    -3
390
F
  0
LAYER
  5
54
330
2
100
AcDbSymbolTableRecord
100
AcDbLayerTableRecord
  2
LAYER-005
 70
     0
 62
     7
  6
Continuous
370
    -3
390
F
  0
LAYER
  5
55
330
2
100
AcDbSymbolTableRecord
100
AcDbLayerTableRecord
  2
LAYER-006
 70
     0
 62
     7
  6
Continuous
370
    -3
390
F
  0
LAYER
  5
56
330
2
100
AcDbSymbolTableRecord
100
AcDbLayerTableRecord
  2
LAYER-007
 70
     0
 62
     7
  6
Continuous
370
    -3
390
F
  0
LAYER
  5
57
330
2
100
AcDbSymbolTableRecord
100
AcDbLayerTableRecord
  2
LAYER-008
 70
     0
 62
     7
  6
Continuous
370
    -3
390
F
  0
LAYER
  5
58
330
2
100
AcDbSymbolTableRecord
100
AcDbLayerTableRecord
  2
LAYER-009
 70
     0
 62
     7
  6
Continuous
370
    -3
390
F
  0
LAYER
  5
59
330
2
100
AcDbSymbolTableRecord
100
AcDbLayerTableRecord
  2
LAYER-010
 70
     0
 62
     7
  6
Continuous
370
    -3
390
F
  0
LAYER
  5
5A
330
2
100
AcDbSymbolTableRecord
100
AcDbLayerTableRecord
  2
LAYER-011
 70
     0
 62
     7
  6
Continuous
370
    -3
390
F
  0
LAYER
  5
5B
330
2
100
AcDbSymbolTableRecord
100
AcDbLayerTableRecord
  2
LAYER-012
 70
     0
 62
     7
  6
Continuous
370
    -3
390
F
  0
LAYER
  5
5C
330
2
100
AcDbSymbolTableRecord
100
AcDbLayerTableRecord
  2
LAYER-013
 70
     0
 62
     7
  6
Continuous
370
    -3
390
F
  0
LAYER
  5
5D
330
2
100
AcDbSymbolTableRecord
100
AcDbLayerTableRecord
  2
LAYER-014
 70
     0
 62
     7
  6
Continuous
370
    -3
390
F
  0
LAYER
  5
5E
330
2
100
AcDbSymbolTableRecord
100
AcDbLayerTableRecord
  2
LAYER-015
 70
     0
 62
    -7
  6
Continuous
370
    -3
390
F
  0
LAYER
  5
5F
330
2
100
AcDbSymbolTableRecord
100
AcDbLayerTableRecord
  2
LAYER-016
 70
     0
 62
     4
  6
Continuous
370
    -3
390
F
  0
LAYER
  5
60
330
2
100
AcDbSymbolTableRecord
100
AcDbLayerTableRecord
  2
LAYER-017
 70
     0
 62
     7
  6
Continuous
370
    -3
390
F
  0
LAYER
  5
61
330
2
100
AcDbSymbolTableRecord
100
AcDbLayerTableRecord
  2
LAYER-018
 70
     0
 62
     2
  6
Continuous
370
    -3
390
F
  0
LAYER
  5
62
330
2
100
AcDbSymbolTableRecord
100
AcDbLayerTableRecord
  2
LAYER-019
 70
     0
 62
     3
  6
Continuous
370
    -3
390
F
  0
LAYER
  5
63
330
2
100
AcDbSymbolTableRecord
100
AcDbLayerTableRecord
  2
LAYER-020
 70
     0
 62
     2
  6
Continuous
370
    -3
390
F
  0
LAYER
  5
64
330
2
100
AcDbSymbolTableRecord
100
AcDbLayerTableRecord
  2
LAYER-021
 70
     0
 62
     7
  6
Continuous
370
    -3
390
F
  0
LAYER
  5
65
330
2
100
AcDbSymbolTableRecord
100
AcDbLayerTableRecord
  2
LAYER-022
 70
     0
 62
     4
  6
Continuous
370
    -3
390
F
  0
LAYER
  5
66
330
2
100
AcDbSymbolTableRecord
100
AcDbLayerTableRecord
  2
LAYER-023
 70
     0
 62
     4
  6
Continuous
370
    -3
390
F
  0
LAYER
  5
67
330
2
100
AcDbSymbolTableRecord
100
AcDbLayerTableRecord
  2
LAYER-024
 70
     0
 62
     7
  6
Continuous
370
    -3
390
F
  0
LAYER
  5
68
330
2
100
AcDbSymbolTableRecord
100
AcDbLayerTableRecord
  2
LAYER-025
 70
     0
 62
     7
  6
Continuous
370
    -3
390
F
  0
LAYER
  5
69
330
2
100
AcDbSymbolTableRecord
100
AcDbLayerTableRecord
  2
LAYER-026
 70
     0
 62
    -7
  6
Continuous
370
    -3
390
F
  0
LAYER
  5
6A
330
2
100
AcDbSymbolTableRecord
100
AcDbLayerTableRecord
  2
LAYER-027
 70
     0
 62
     7
  6
Continuous
370
    -3
390
F
  0
LAYER
  5
6B
330
2
100
AcDbSymbolTableRecord
100
AcDbLayerTableRecord
  2
LAYER-028
 70
     0
 62
     7
  6
Continuous
370
    -3
390
F
  0
LAYER
  5
6C
330
2
100
AcDbSymbolTableRecord
100
AcDbLayerTableRecord
  2
LAYER-029
 70
     0
 62
     7
  6
Continuous
370
    -3
390
F
  0
LAYER
  5
6D
330
2
100
AcDbSymbolTableRecord
100
AcDbLayerTableRecord
  2
LAYER-030
 70
     0
 62
     2
  6
Continuous
370
    -3
390
F
  0
LAYER
  5
6E
330
2
100
AcDbSymbolTableRecord
100
AcDbLayerTableRecord
  2
LAYER-031
 70
     0
 62
     7
  6
Continuous
370
    -3
390
F
  0
LAYER
  5
6F
330
2
100
AcDbSymbolTableRecord
100
AcDbLayerTableRecord
  2
LAYER-032
 70
     0
 62
     2
  6
Continuous
370
    -3
390
F
  0
LAYER
  5
70
330
2
100
AcDbSymbolTableRecord
100
AcDbLayerTableRecord
  2
LAYER-033
 70
     0
 62
     7
  6
Continuous
370
    -3
390
F
  0
LAYER
  5
71
330
2
100
AcDbSymbolTableRecord
100
AcDbLayerTableRecord
  2
LAYER-034
 70
     0
 62
     7
  6
Continuous
370
    -3
390
F
  0
LAYER
  5
72
330
2
100
AcDbSymbolTableRecord
100
AcDbLayerTableRecord
  2
LAYER-035
 70
     0
 62
     3
  6
Continuous
370
    -3
390
F
  0
LAYER
  5
73
330
2
100
AcDbSymbolTableRecord
100
AcDbLayerTableRecord
  2
LAYER-036
 70
     0
 62
     2
  6
Continuous
370
    -3
390
F
  0
LAYER
  5
74
330
2
100
AcDbSymbolTableRecord
100
AcDbLayerTableRecord
  2
LAYER-037
 70
     0
 62
     7
  6
Continuous
370
    -3
390
F
  0
LAYER
  5
75
330
2
100
AcDbSymbolTableRecord
100
AcDbLayerTableRecord
  2
LAYER-038
 70
     0
 62
     7
  6
Continuous
370
    -3
390
F
  0
LAYER
  5
76
330
2
100
AcDbSymbolTableRecord
100
AcDbLayerTableRecord
  2
LAYER-039
 70
     0
 62
     7
  6
Continuous
370
    -3
390
F
  0
LAYER
  5
77
330
2
100
AcDbSymbolTableRecord
100
AcDbLayerTableRecord
  2
LAYER-040
 70
     0
 62
     7
  6
Continuous
370
    -3
390
F
  0
LAYER
  5
78
330
2
100
AcDbSymbolTableRecord
100
AcDbLayerTableRecord
  2
LAYER-041
 70
     0
 62
     7
  6
Continuous
370
    -3
390
F
  0
LAYER
  5
79
330
2
100
AcDbSymbolTableRecord
100
AcDbLayerTableRecord
  2
LAYER-042
 70
     0
 62
     7
  6
Continuous
370
    -3
390
F
  0
LAYER
  5
7A
330
2
100
AcDbSymbolTableRecord
100
AcDbLayerTableRecord
  2
LAYER-043
 70
     0
 62
     7
  6
Continuous
370
    -3
390
F
  0
LAYER
  5
7B
330
2
100
AcDbSymbolTableRecord
100
AcDbLayerTableRecord
  2
LAYER-044
 70
     0
 62
     7
  6
Continuous
370
    -3
390
F
  0
LAYER
  5
7C
330
2
100
AcDbSymbolTableRecord
100
AcDbLayerTableRecord
  2
LAYER-045
 70
     0
 62
     7
  6
Continuous
370
    -3
390
F
  0
LAYER
  5
7D
330
2
100
AcDbSymbolTableRecord
100
AcDbLayerTableRecord
  2
LAYER-046
 70
     0
 62
     7
  6
Continuous
370
    -3
390
F
  0
LAYER
  5
7E
330
2
100
AcDbSymbolTableRecord
100
AcDbLayerTableRecord
  2
LAYER-047
 70
     0
 62
     7
  6
Continuous
370
    -3
390
F
  0
LAYER
  5
7F
330
2
100
AcDbSymbolTableRecord
100
AcDbLayerTableRecord
  2
LAYER-048
 70
     0
 62
     2
  6
Continuous
370
    -3
390
F
  0
LAYER
  5
80
330
2
100
AcDbSymbolTableRecord
100
AcDbLayerTableRecord
  2
LAYER-049
 70
     0
 62
     3
  6
Continuous
370
    -3
390
F
  0
LAYER
  5
81
330
2
100
AcDbSymbolTableRecord
100
AcDbLayerTableRecord
  2
LAYER-050
 70
     0
 62
     7
  6
Continuous
370
    -3
390
F
  0
LAYER
  5
82
330
2
100
AcDbSymbolTableRecord
100
AcDbLayerTableRecord
  2
LAYER-051
 70
     0
 62
     2
  6
Continuous
370
    -3
390
F
  0
LAYER
  5
83
330
2
100
AcDbSymbolTableRecord
100
AcDbLayerTableRecord
  2
LAYER-052
 70
     0
 62
     7
  6
Continuous
370
    -3
390
F
  0
LAYER
  5
84
330
2
100
AcDbSymbolTableRecord
100
AcDbLayerTableRecord
  2
LAYER-053
 70
     0
 62
     7
  6
Continuous
370
    -3
390
F
  0
LAYER
  5
85
330
2
100
AcDbSymbolTableRecord
100
AcDbLayerTableRecord
  2
LAYER-054
 70
     0
 62
     7
  6
Continuous
370
    -3
390
F
  0
LAYER
  5
86
330
2
100
AcDbSymbolTableRecord
100
AcDbLayerTableRecord
  2
LAYER-055
 70
     0
 62
     7
  6
Continuous
370
    -3
390
F
  0
LAYER
  5
87
330
2
100
AcDbSymbolTableRecord
100
AcDbLayerTableRecord
  2
LAYER-056
 70
     0
 62
     7
  6
Continuous
370
    -3
390
F
  0
LAYER
  5
88
330
2
100
AcDbSymbolTableRecord
100
AcDbLayerTableRecord
  2
LAYER-057
 70
     0
 62
     7
  6
Continuous
370
    -3
390
F
  0
LAYER
  5
89
330
2
100
AcDbSymbolTableRecord
100
AcDbLayerTableRecord
  2
LAYER-058
 70
     0
 62
     7
  6
Continuous
370
    -3
390
F
  0
LAYER
  5
8A
330
2
100
AcDbSymbolTableRecord
100
AcDbLayerTableRecord
  2
LAYER-059
 70
     0
 62
     7
  6
Continuous
370
    -3
390
F
  0
LAYER
  5
8B
330
2
100
AcDbSymbolTableRecord
100
AcDbLayerTableRecord
  2
LAYER-060
 70
     0
 62
     7
  6
Continuous
370
    -3
390
F
  0
LAYER
  5
8C
330
2
100
AcDbSymbolTableRecord
100
AcDbLayerTableRecord
  2
LAYER-061
 70
     0
 62
     7
  6
Continuous
370
    -3
390
F
  0
LAYER
  5
8D
330
2
100
AcDbSymbolTableRecord
100
AcDbLayerTableRecord
  2
LAYER-062
 70
     0
 62
     7
  6
Continuous
370
    -3
390
F
  0
LAYER
  5
8E
330
2
100
AcDbSymbolTableRecord
100
AcDbLayerTableRecord
  2
LAYER-063
 70
     0
 62
     7
  6
Continuous
370
    -3
390
F
  0
LAYER
  5
8F
330
2
100
AcDbSymbolTableRecord
100
AcDbLayerTableRecord
  2
LAYER-064
 70
     0
 62
     2
  6
Continuous
370
    -3
390
F
  0
LAYER
  5
90
330
2
100
AcDbSymbolTableRecord
100
AcDbLayerTableRecord
  2
LAYER-065
 70
     0
 62
     7
  6
Continuous
370
    -3
390
F
  0
LAYER
  5
91
330
2
100
AcDbSymbolTableRecord
100
AcDbLayerTableRecord
  2
LAYER-066
 70
     0
 62
     2
  6
Continuous
370
    -3
390
F
  0
LAYER
  5
92
330
2
100
AcDbSymbolTableRecord
100
AcDbLayerTableRecord
  2
LAYER-067
 70
     0
 62
     2
  6
Continuous
370
    -3
390
F
  0
LAYER
  5
93
330
2
100
AcDbSymbolTableRecord
100
AcDbLayerTableRecord
  2
LAYER-068
 70
     0
 62
     7
  6
Continuous
370
    -3
390
F
  0
LAYER
  5
94
330
2
100
AcDbSymbolTableRecord
100
AcDbLayerTableRecord
  2
LAYER-069
 70
     0
 62
     7
  6
Continuous
370
    -3
390
F
  0
LAYER
  5
95
330
2
100
AcDbSymbolTableRecord
100
AcDbLayerTableRecord
  2
LAYER-070
 70
     0
 62
     7
  6
Continuous
370
    -3
390
F
  0
LAYER
  5
96
330
2
100
AcDbSymbolTableRecord
100
AcDbLayerTableRecord
  2
LAYER-071
 70
     0
 62
     7
  6
Continuous
370
    -3
390
F
  0
LAYER
  5
97
330
2
100
AcDbSymbolTableRecord
100
AcDbLayerTableRecord
  2
LAYER-072
 70
     0
 62
     7
  6
Continuous
370
    -3
390
F
  0
LAYER
  5
98
330
2
100
AcDbSymbolTableRecord
100
AcDbLayerTableRecord
  2
LAYER-073
 70
     0
 62
     7
  6
Continuous
370
    -3
390
F
  0
LAYER
  5
99
330
2
100
AcDbSymbolTableRecord
100
AcDbLayerTableRecord
  2
LAYER-074
 70
     0
 62
     7
  6
Continuous
370
    -3
390
F
  0
LAYER
  5
9A
330
2
100
AcDbSymbolTableRecord
100
AcDbLayerTableRecord
  2
LAYER-075
 70
     0
 62
     7
  6
Continuous
370
    -3
390
F
  0
LAYER
  5
9B
330
2
100
AcDbSymbolTableRecord
100
AcDbLayerTableRecord
  2
LAYER-076
 70
     0
 62
     7
  6
Continuous
370
    -3
390
F
  0
LAYER
  5
9C
330
2
100
AcDbSymbolTableRecord
100
AcDbLayerTableRecord
  2
LAYER-077
 70
     0
 62
     7
  6
Continuous
370
    -3
390
F
  0
LAYER
  5
9D
330
2
100
AcDbSymbolTableRecord
100
AcDbLayerTableRecord
  2
LAYER-078
 70
     0
 62
     7
  6
Continuous
370
    -3
390
F
  0
LAYER
  5
9E
330
2
100
AcDbSymbolTableRecord
100
AcDbLayerTableRecord
  2
LAYER-079
 70
     0
 62
     7
  6
Continuous
370
    -3
390
F
  0
LAYER
  5
9F
330
2
100
AcDbSymbolTableRecord
100
AcDbLayerTableRecord
  2
LAYER-080
 70
     0
 62
     2
  6
Continuous
370
    -3
390
F
  0
LAYER
  5
A0
330
2
100
AcDbSymbolTableRecord
100
AcDbLayerTableRecord
  2
LAYER-081
 70
     0
 62
     7
  6
Continuous
370
    -3
390
F
  0
LAYER
  5
A1
330
2
100
AcDbSymbolTableRecord
100
AcDbLayerTableRecord
  2
LAYER-082
 70
     0
 62
     7
  6
Continuous
370
    -3
390
F
  0
LAYER
  5
A2
330
2
100
AcDbSymbolTableRecord
100
AcDbLayerTableRecord
  2
LAYER-083
 70
     0
 62
     7
  6
Continuous
370
    -3
390
F
  0
LAYER
  5
A3
330
2
100
AcDbSymbolTableRecord
100
AcDbLayerTableRecord
  2
LAYER-084
 70
     0
 62
     7
  6
Continuous
370
    -3
390
F
  0
LAYER
  5
A4
330
2
100
AcDbSymbolTableRecord
100
AcDbLayerTableRecord
  2
LAYER-085
 70
     0
 62
     7
  6
Continuous
370
    -3
390
F
  0
LAYER
  5
A5
330
2
100
AcDbSymbolTableRecord
100
AcDbLayerTableRecord
  2
LAYER-086
 70
     0
 62
     7
  6
Continuous
370
    -3
390
F
  0
LAYER
  5
A6
330
2
100
AcDbSymbolTableRecord
100
AcDbLayerTableRecord
  2
LAYER-087
 70
     0
 62
     7
  6
Continuous
370
    -3
390
F
  0
LAYER
  5
A7
330
2
100
AcDbSymbolTableRecord
100
AcDbLayerTableRecord
  2
LAYER-088
 70
     0
 62
     7
  6
Continuous
370
    -3
390
F
  0
LAYER
  5
A8
330
2
100
AcDbSymbolTableRecord
100
AcDbLayerTableRecord
  2
LAYER-089
 70
     0
 62
     7
  6
Continuous
370
    -3
390
F
  0
LAYER
  5
A9
330
2
100
AcDbSymbolTableRecord
100
AcDbLayerTableRecord
  2
LAYER-090
 70
     0
 62
     7
  6
Continuous
370
    -3
390
F
  0
LAYER
  5
AA
330
2
100
AcDbSymbolTableRecord
100
AcDbLayerTableRecord
  2
LAYER-091
 70
     0
 62
     7
  6
Continuous
370
    -3
390
F
  0
LAYER
  5
AB
330
2
100
AcDbSymbolTableRecord
100
AcDbLayerTableRecord
  2
LAYER-092
 70
     0
 62
     7
  6
Continuous
370
    -3
390
F
  0
LAYER
  5
AC
330
2
100
AcDbSymbolTableRecord
100
AcDbLayerTableRecord
  2
LAYER-093
 70
     0
 62
     7
  6
Continuous
370
    -3
390
F
  0
LAYER
  5
AD
330
2
100
AcDbSymbolTableRecord
100
AcDbLayerTableRecord
  2
LAYER-094
 70
     0
 62
     7
  6
Continuous
370
    -3
390
F
  0
LAYER
  5
AE
330
2
100
AcDbSymbolTableRecord
100
AcDbLayerTableRecord
  2
LAYER-095
 70
     0
 62
     7
  6
Continuous
370
    -3
390
F
  0
LAYER
  5
AF
330
2
100
AcDbSymbolTableRecord
100
AcDbLayerTableRecord
  2
LAYER-096
 70
     0
 62
     7
  6
Continuous
370
    -3
390
F
  0
LAYER
  5
B0
330
2
100
AcDbSymbolTableRecord
100
AcDbLayerTableRecord
  2
LAYER-097
 70
     0
 62
     7
  6
Continuous
370
    -3
390
F
  0
LAYER
  5
B1
330
2
100
AcDbSymbolTableRecord
100
AcDbLayerTableRecord
  2
LAYER-098
 70
     0
 62
     7
  6
Continuous
370
    -3
390
F
  0
LAYER
  5
B2
330
2
100
AcDbSymbolTableRecord
100
AcDbLayerTableRecord
  2
LAYER-099
 70
     0
 62
     7
  6
Continuous
370
    -3
390
F
  0
LAYER
  5
B3
330
2
100
AcDbSymbolTableRecord
100
AcDbLayerTableRecord
  2
LAYER-100
 70
     0
 62
     7
  6
Continuous
370
    -3
390
F
  0
LAYER
  5
B4
330
2
100
AcDbSymbolTableRecord
100
AcDbLayerTableRecord
  2
LAYER-101
 70
     0
 62
     7
  6
Continuous
370
    -3
390
F
  0
LAYER
  5
B5
330
2
100
AcDbSymbolTableRecord
100
AcDbLayerTableRecord
  2
LAYER-102
 70
     0
 62
     7
  6
Continuous
370
    -3
390
F
  0
LAYER
  5
B6
330
2
100
AcDbSymbolTableRecord
100
AcDbLayerTableRecord
  2
LAYER-103
 70
     0
 62
     7
  6
Continuous
370
    -3
390
F
  0
LAYER
  5
B7
330
2
100
AcDbSymbolTableRecord
100
AcDbLayerTableRecord
  2
LAYER-104
 70
     0
 62
     7
  6
Continuous
370
    -3
390
F
  0
LAYER
  5
B8
330
2
100
AcDbSymbolTableRecord
100
AcDbLayerTableRecord
  2
LAYER-105
 70
     0
 62
     7
  6
Continuous
370
    -3
390
F
  0
LAYER
  5
B9
330
2
100
AcDbSymbolTableRecord
100
AcDbLayerTableRecord
  2
LAYER-106
 70
     0
 62
     7
  6
Continuous
370
    -3
390
F
  0
LAYER
  5
BA
330
2
100
AcDbSymbolTableRecord
100
AcDbLayerTableRecord
  2
LAYER-107
 70
     0
 62
     7
  6
Continuous
370
    -3
390
F
  0
LAYER
  5
BB
330
2
100
AcDbSymbolTableRecord
100
AcDbLayerTableRecord
  2
LAYER-108
 70
     0
 62
     7
  6
Continuous
370
    -3
390
F
  0
LAYER
  5
BC
330
2
100
AcDbSymbolTableRecord
100
AcDbLayerTableRecord
  2
LAYER-109
 70
     0
 62
     7
  6
Continuous
370
    -3
390
F
  0
LAYER
  5
BD
330
2
100
AcDbSymbolTableRecord
100
AcDbLayerTableRecord
  2
LAYER-110
 70
     0
 62
     7
  6
Continuous
370
    -3
390
F
  0
LAYER
  5
BE
330
2
100
AcDbSymbolTableRecord
100
AcDbLayerTableRecord
  2
LAYER-111
 70
     0
 62
     7
  6
Continuous
370
    -3
390
F
  0
LAYER
  5
BF
330
2
100
AcDbSymbolTableRecord
100
AcDbLayerTableRecord
  2
LAYER-112
 70
     0
 62
     7
  6
Continuous
370
    -3
390
F
  0
LAYER
  5
C0
330
2
100
AcDbSymbolTableRecord
100
AcDbLayerTableRecord
  2
LAYER-113
 70
     0
 62
     7
  6
Continuous
370
    -3
390
F
  0
LAYER
  5
C1
330
2
100
AcDbSymbolTableRecord
100
AcDbLayerTableRecord
  2
LAYER-114
 70
     0
 62
     7
  6
Continuous
370
    -3
390
F
  0
LAYER
  5
C2
330
2
100
AcDbSymbolTableRecord
100
AcDbLayerTableRecord
  2
LAYER-115
 70
     0
 62
     7
  6
Continuous
370
    -3
390
F
  0
LAYER
  5
C3
330
2
100
AcDbSymbolTableRecord
100
AcDbLayerTableRecord
  2
LAYER-116
 70
     0
 62
     7
  6
Continuous
370
    -3
390
F
  0
LAYER
  5
C4
330
2
100
AcDbSymbolTableRecord
100
AcDbLayerTableRecord
  2
LAYER-117
 70
     0
 62
     7
  6
Continuous
370
    -3
390
F
  0
LAYER
  5
C5
330
2
100
AcDbSymbolTableRecord
100
AcDbLayerTableRecord
  2
LAYER-118
 70
     0
 62
     7
  6
Continuous
370
    -3
390
F
  0
LAYER
  5
C6
330
2
100
AcDbSymbolTableRecord
100
AcDbLayerTableRecord
  2
LAYER-119
 70
     0
 62
     7
  6
Continuous
370
    -3
390
F
  0
LAYER
  5
C7
330
2
100
AcDbSymbolTableRecord
100
AcDbLayerTableRecord
  2
LAYER-120
 70
     0
 62
     7
  6
Continuous
370
    -3
390
F
  0
LAYER
  5
C8
330
2
100
AcDbSymbolTableRecord
100
AcDbLayerTableRecord
  2
LAYER-121
 70
     0
 62
     7
  6
Continuous
370
    -3
390
F
  0
LAYER
  5
C9
330
2
100
AcDbSymbolTableRecord
100
AcDbLayerTableRecord
  2
LAYER-122
 70
     0
 62
     7
  6
Continuous
370
    -3
390
F
  0
LAYER
  5
CA
330
2
100
AcDbSymbolTableRecord
100
AcDbLayerTableRecord
  2
LAYER-123
 70
     0
 62
     7
  6
Continuous
370
    -3
390
F
  0
LAYER
  5
CB
330
2
100
AcDbSymbolTableRecord
100
AcDbLayerTableRecord
  2
LAYER-124
 70
     0
 62
     7
  6
Continuous
370
    -3
390
F
  0
LAYER
  5
CC
330
2
100
AcDbSymbolTableRecord
100
AcDbLayerTableRecord
  2
LAYER-125
 70
     0
 62
     7
  6
Continuous
370
    -3
390
F
  0
LAYER
  5
CD
330
2
100
AcDbSymbolTableRecord
100
AcDbLayerTableRecord
  2
LAYER-126
 70
     0
 62
     7
  6
Continuous
370
    -3
390
F
  0
LAYER
  5
CE
330
2
100
AcDbSymbolTableRecord
100
AcDbLayerTableRecord
  2
LAYER-127
 70
     0
 62
     7
  6
Continuous
370
    -3
390
F
  0
LAYER
  5
CF
330
2
100
AcDbSymbolTableRecord
100
AcDbLayerTableRecord
  2
LAYER-128
 70
     0
 62
     7
  6
Continuous
370
    -3
390
F
  0
LAYER
  5
D0
330
2
100
AcDbSymbolTableRecord
100
AcDbLayerTableRecord
  2
LAYER-129
 70
     0
 62
     7
  6
Continuous
370
    -3
390
F
  0
LAYER
  5
D1
330
2
100
AcDbSymbolTableRecord
100
AcDbLayerTableRecord
  2
LAYER-130
 70
     0
 62
     7
  6
Continuous
370
    -3
390
F
  0
LAYER
  5
D2
330
2
100
AcDbSymbolTableRecord
100
AcDbLayerTableRecord
  2
LAYER-131
 70
     0
 62
     7
  6
Continuous
370
    -3
390
F
  0
LAYER
  5
D3
330
2
100
AcDbSymbolTableRecord
100
AcDbLayerTableRecord
  2
LAYER-132
 70
     0
 62
     7
  6
Continuous
370
    -3
390
F
  0
LAYER
  5
D4
330
2
100
AcDbSymbolTableRecord
100
AcDbLayerTableRecord
  2
LAYER-133
 70
     0
 62
     7
  6
Continuous
370
    -3
390
F
  0
LAYER
  5
D5
330
2
100
AcDbSymbolTableRecord
100
AcDbLayerTableRecord
  2
LAYER-134
 70
     0
 62
     7
  6
Continuous
370
    -3
390
F
  0
LAYER
  5
D6
330
2
100
AcDbSymbolTableRecord
100
AcDbLayerTableRecord
  2
LAYER-135
 70
     0
 62
    -4
  6
Continuous
370
    -3
390
F
  0
LAYER
  5
D7
330
2
100
AcDbSymbolTableRecord
100
AcDbLayerTableRecord
  2
LAYER-136
 70
     0
 62
    -3
  6
Continuous
370
    -3
390
F
  0
LAYER
  5
D8
330
2
100
AcDbSymbolTableRecord
100
AcDbLayerTableRecord
  2
LAYER-137
 70
     0
 62
    -1
  6
Continuous
370
    -3
390
F
  0
LAYER
  5
D9
330
2
100
AcDbSymbolTableRecord
100
AcDbLayerTableRecord
  2
LAYER-138
 70
     0
 62
     7
  6
Continuous
370
    -3
390
F
  0
LAYER
  5
DA
330
2
100
AcDbSymbolTableRecord
100
AcDbLayerTableRecord
  2
LAYER-139
 70
     0
 62
     7
  6
Continuous
370
    -3
390
F
  0
LAYER
  5
DB
330
2
100
AcDbSymbolTableRecord
100
AcDbLayerTableRecord
  2
LAYER-140
 70
     0
 62
     7
  6
Continuous
370
    -3
390
F
  0
LAYER
  5
DC
330
2
100
AcDbSymbolTableRecord
100
AcDbLayerTableRecord
  2
LAYER-141
 70
     0
 62
     7
  6
Continuous
370
    -3
390
F
  0
LAYER
  5
DD
330
2
100
AcDbSymbolTableRecord
100
AcDbLayerTableRecord
  2
LAYER-142
 70
     0
 62
     3
  6
Continuous
370
    -3
390
F
  0
LAYER
  5
DE
330
2
100
AcDbSymbolTableRecord
100
AcDbLayerTableRecord
  2
LAYER-143
 70
     0
 62
     7
  6
Continuous
370
    -3
390
F
  0
LAYER
  5
DF
330
2
100
AcDbSymbolTableRecord
100
AcDbLayerTableRecord
  2
LAYER-144
 70
     0
 62
     7
  6
Continuous
370
    -3
390
F
  0
LAYER
  5
E0
330
2
100
AcDbSymbolTableRecord
100
AcDbLayerTableRecord
  2
LAYER-145
 70
     0
 62
     3
  6
Continuous
370
    -3
390
F
  0
LAYER
  5
E1
330
2
100
AcDbSymbolTableRecord
100
AcDbLayerTableRecord
  2
LAYER-146
 70
     0
 62
     7
  6
Continuous
370
    -3
390
F
  0
LAYER
  5
E2
330
2
100
AcDbSymbolTableRecord
100
AcDbLayerTableRecord
  2
LAYER-147
 70
     0
 62
     7
  6
Continuous
370
    -3
390
F
  0
LAYER
  5
E3
330
2
100
AcDbSymbolTableRecord
100
AcDbLayerTableRecord
  2
LAYER-148
 70
     0
 62
     7
  6
Continuous
370
    -3
390
F
  0
LAYER
  5
E4
330
2
100
AcDbSymbolTableRecord
100
AcDbLayerTableRecord
  2
LAYER-149
 70
     0
 62
     7
  6
Continuous
370
    -3
390
F
  0
LAYER
  5
E5
330
2
100
AcDbSymbolTableRecord
100
AcDbLayerTableRecord
  2
LAYER-150
 70
     0
 62
     7
  6
Continuous
370
    -3
390
F
  0
LAYER
  5
E6
330
2
100
AcDbSymbolTableRecord
100
AcDbLayerTableRecord
  2
LAYER-151
 70
     0
 62
     7
  6
Continuous
370
    -3
390
F
  0
LAYER
  5
E7
330
2
100
AcDbSymbolTableRecord
100
AcDbLayerTableRecord
  2
LAYER-152
 70
     0
 62
     7
  6
Continuous
370
    -3
390
F
  0
LAYER
  5
E8
330
2
100
AcDbSymbolTableRecord
100
AcDbLayerTableRecord
  2
LAYER-153
 70
     0
 62
     7
  6
Continuous
370
    -3
390
F
  0
LAYER
  5
E9
330
2
100
AcDbSymbolTableRecord
100
AcDbLayerTableRecord
  2
LAYER-154
 70
     0
 62
     7
  6
Continuous
370
    -3
390
F
  0
LAYER
  5
EA
330
2
100
AcDbSymbolTableRecord
100
AcDbLayerTableRecord
  2
LAYER-155
 70
     0
 62
     7
  6
Continuous
370
    -3
390
F
  0
LAYER
  5
EB
330
2
100
AcDbSymbolTableRecord
100
AcDbLayerTableRecord
  2
LAYER-156
 70
     0
 62
     7
  6
Continuous
370
    -3
390
F
  0
LAYER
  5
EC
330
2
100
AcDbSymbolTableRecord
100
AcDbLayerTableRecord
  2
LAYER-157
 70
     0
 62
     7
  6
Continuous
370
    -3
390
F
  0
LAYER
  5
ED
330
2
100
AcDbSymbolTableRecord
100
AcDbLayerTableRecord
  2
LAYER-158
 70
     0
 62
     7
  6
Continuous
370
    -3
390
F
  0
LAYER
  5
EE
330
2
100
AcDbSymbolTableRecord
100
AcDbLayerTableRecord
  2
LAYER-159
 70
     0
 62
     7
  6
Continuous
370
    -3
390
F
  0
LAYER
  5
EF
330
2
100
AcDbSymbolTableRecord
100
AcDbLayerTableRecord
  2
LAYER-160
 70
     0
 62
     7
  6
Continuous
370
    -3
390
F
  0
LAYER
  5
F0
330
2
100
AcDbSymbolTableRecord
100
AcDbLayerTableRecord
  2
LAYER-161
 70
     0
 62
     7
  6
Continuous
370
    -3
390
F
  0
LAYER
  5
F1
330
2
100
AcDbSymbolTableRecord
100
AcDbLayerTableRecord
  2
LAYER-162
 70
     0
 62
     7
  6
Continuous
370
    -3
390
F
  0
LAYER
  5
F2
330
2
100
AcDbSymbolTableRecord
100
AcDbLayerTableRecord
  2
LAYER-163
 70
     0
 62
     7
  6
Continuous
370
    -3
390
F
  0
LAYER
  5
F3
330
2
100
AcDbSymbolTableRecord
100
AcDbLayerTableRecord
  2
LAYER-164
 70
     0
 62
     7
  6
Continuous
370
    -3
390
F
  0
LAYER
  5
F4
330
2
100
AcDbSymbolTableRecord
100
AcDbLayerTableRecord
  2
LAYER-165
 70
     0
 62
     7
  6
Continuous
370
    -3
390
F
  0
LAYER
  5
F5
330
2
100
AcDbSymbolTableRecord
100
AcDbLayerTableRecord
  2
LAYER-166
 70
     0
 62
     7
  6
Continuous
370
    -3
390
F
  0
LAYER
  5
F6
330
2
100
AcDbSymbolTableRecord
100
AcDbLayerTableRecord
  2
LAYER-167
 70
     0
 62
     7
  6
Continuous
370
    -3
390
F
  0
LAYER
  5
F7
330
2
100
AcDbSymbolTableRecord
100
AcDbLayerTableRecord
  2
LAYER-168
 70
     0
 62
     7
  6
Continuous
370
    -3
390
F
  0
LAYER
  5
F8
330
2
100
AcDbSymbolTableRecord
100
AcDbLayerTableRecord
  2
LAYER-169
 70
     0
 62
     7
  6
Continuous
370
    -3
390
F
  0
LAYER
  5
F9
330
2
100
AcDbSymbolTableRecord
100
AcDbLayerTableRecord
  2
LAYER-170
 70
     0
 62
     7
  6
Continuous
370
    -3
390
F
  0
LAYER
  5
FA
330
2
100
AcDbSymbolTableRecord
100
AcDbLayerTableRecord
  2
LAYER-171
 70
     0
 62
     7
  6
Continuous
370
    -3
390
F
  0
LAYER
  5
FB
330
2
100
AcDbSymbolTableRecord
100
AcDbLayerTableRecord
  2
LAYER-172
 70
     0
 62
     7
  6
Continuous
370
    -3
390
F
  0
LAYER
  5
FC
330
2
100
AcDbSymbolTableRecord
100
AcDbLayerTableRecord
  2
LAYER-173
 70
     0
 62
     7
  6
Continuous
370
    -3
390
F
  0
LAYER
  5
FD
330
2
100
AcDbSymbolTableRecord
100
AcDbLayerTableRecord
  2
LAYER-174
 70
     0
 62
     7
  6
Continuous
370
    -3
390
F
  0
LAYER
  5
FE
330
2
100
AcDbSymbolTableRecord
100
AcDbLayerTableRecord
  2
LAYER-175
 70
     0
 62
     7
  6
Continuous
370
    -3
390
F
  0
LAYER
  5
FF
330
2
100
AcDbSymbolTableRecord
100
AcDbLayerTableRecord
  2
LAYER-176
 70
     0
 62
     7
  6
Continuous
370
    -3
390
F
  0
LAYER
  5
100
330
2
100
AcDbSymbolTableRecord
100
AcDbLayerTableRecord
  2
LAYER-177
 70
     0
 62
     7
  6
Continuous
370
    -3
390
F
  0
LAYER
  5
101
330
2
100
AcDbSymbolTableRecord
100
AcDbLayerTableRecord
  2
LAYER-178
 70
     0
 62
     7
  6
Continuous
370
    -3
390
F
  0
LAYER
  5
102
330
2
100
AcDbSymbolTableRecord
100
AcDbLayerTableRecord
  2
LAYER-179
 70
     0
 62
     7
  6
Continuous
370
    -3
390
F
  0
LAYER
  5
103
330
2
100
AcDbSymbolTableRecord
100
AcDbLayerTableRecord
  2
LAYER-180
 70
     0
 62
     7
  6
Continuous
370
    -3
390
F
  0
LAYER
  5
104
330
2
100
AcDbSymbolTableRecord
100
AcDbLayerTableRecord
  2
LAYER-181
 70
     0
 62
     7
  6
Continuous
370
    -3
390
F
  0
LAYER
  5
105
330
2
100
AcDbSymbolTableRecord
100
AcDbLayerTableRecord
  2
LAYER-182
 70
     0
 62
     7
  6
Continuous
370
    -3
390
F
  0
LAYER
  5
106
330
2
100
AcDbSymbolTableRecord
100
AcDbLayerTableRecord
  2
LAYER-183
 70
     0
 62
     7
  6
Continuous
370
    -3
390
F
  0
LAYER
  5
107
330
2
100
AcDbSymbolTableRecord
100
AcDbLayerTableRecord
  2
LAYER-184
 70
     0
 62
     7
  6
Continuous
370
    -3
390
F
  0
LAYER
  5
108
330
2
100
AcDbSymbolTableRecord
100
AcDbLayerTableRecord
  2
LAYER-185
 70
     0
 62
     7
  6
Continuous
370
    -3
390
F
  0
LAYER
  5
109
330
2
100
AcDbSymbolTableRecord
100
AcDbLayerTableRecord
  2
LAYER-186
 70
     0
 62
     7
  6
Continuous
370
    -3
390
F
  0
LAYER
  5
10A
330
2
100
AcDbSymbolTableRecord
100
AcDbLayerTableRecord
  2
LAYER-187
 70
     0
 62
     7
  6
Continuous
370
    -3
390
F
  0
LAYER
  5
10B
330
2
100
AcDbSymbolTableRecord
100
AcDbLayerTableRecord
  2
LAYER-188
 70
     0
 62
     7
  6
Continuous
370
    -3
390
F
  0
LAYER
  5
10C
330
2
100
AcDbSymbolTableRecord
100
AcDbLayerTableRecord
  2
LAYER-189
 70
     0
 62
     7
  6
Continuous
370
    -3
390
F
  0
LAYER
  5
10D
330
2
100
AcDbSymbolTableRecord
100
AcDbLayerTableRecord
  2
LAYER-190
 70
     0
 62
     7
  6
Continuous
370
    -3
390
F
  0
LAYER
  5
10E
330
2
100
AcDbSymbolTableRecord
100
AcDbLayerTableRecord
  2
LAYER-191
 70
     0
 62
     7
  6
Continuous
370
    -3
390
F
  0
LAYER
  5
10F
330
2
100
AcDbSymbolTableRecord
100
AcDbLayerTableRecord
  2
LAYER-192
 70
     0
 62
     7
  6
Continuous
370
    -3
390
F
  0
LAYER
  5
110
330
2
100
AcDbSymbolTableRecord
100
AcDbLayerTableRecord
  2
LAYER-193
 70
     0
 62
     7
  6
Continuous
370
    -3
390
F
  0
LAYER
  5
111
330
2
100
AcDbSymbolTableRecord
100
AcDbLayerTableRecord
  2
LAYER-194
 70
     0
 62
     2
  6
Continuous
370
    -3
390
F
  0
LAYER
  5
112
330
2
100
AcDbSymbolTableRecord
100
AcDbLayerTableRecord
  2
LAYER-195
 70
     0
 62
     2
  6
Continuous
370
    -3
390
F
  0
LAYER
  5
113
330
2
100
AcDbSymbolTableRecord
100
AcDbLayerTableRecord
  2
LAYER-196
 70
     0
 62
     2
  6
Continuous
370
    -3
390
F
  0
LAYER
  5
114
330
2
100
AcDbSymbolTableRecord
100
AcDbLayerTableRecord
  2
LAYER-197
 70
     0
 62
     7
  6
Continuous
370
    -3
390
F
  0
LAYER
  5
115
330
2
100
AcDbSymbolTableRecord
100
AcDbLayerTableRecord
  2
LAYER-198
 70
     0
 62
     7
  6
Continuous
370
    -3
390
F
  0
LAYER
  5
116
330
2
100
AcDbSymbolTableRecord
100
AcDbLayerTableRecord
  2
LAYER-199
 70
     0
 62
     4
  6
Continuous
370
    -3
390
F
  0
LAYER
  5
117
330
2
100
AcDbSymbolTableRecord
100
AcDbLayerTableRecord
  2
LAYER-200
 70
     0
 62
     1
  6
Continuous
370
    -3
390
F
  0
LAYER
  5
118
330
2
100
AcDbSymbolTableRecord
100
AcDbLayerTableRecord
  2
LAYER-201
 70
     0
 62
     1
  6
Continuous
370
    -3
390
F
  0
LAYER
  5
119
330
2
100
AcDbSymbolTableRecord
100
AcDbLayerTableRecord
  2
LAYER-202
 70
     0
 62
     2
  6
Continuous
370
    -3
390
F
  0
LAYER
  5
11A
330
2
100
AcDbSymbolTableRecord
100
AcDbLayerTableRecord
  2
LAYER-203
 70
     0
 62
     2
  6
Continuous
370
    -3
390
F
  0
LAYER
  5
11B
330
2
100
AcDbSymbolTableRecord
100
AcDbLayerTableRecord
  2
LAYER-204
 70
     0
 62
     7
  6
Continuous
370
    -3
390
F
  0
LAYER
  5
11C
330
2
100
AcDbSymbolTableRecord
100
AcDbLayerTableRecord
  2
LAYER-205
 70
     0
 62
     7
  6
Continuous
370
    -3
390
F
  0
LAYER
  5
11D
330
2
100
AcDbSymbolTableRecord
100
AcDbLayerTableRecord
  2
LAYER-206
 70
     0
 62
     7
  6
Continuous
370
    -3
390
F
  0
LAYER
  5
11E
330
2
100
AcDbSymbolTableRecord
100
AcDbLayerTableRecord
  2
LAYER-207
 70
     0
 62
    -7
  6
Continuous
370
    -3
390
F
  0
LAYER
  5
11F
330
2
100
AcDbSymbolTableRecord
100
AcDbLayerTableRecord
  2
LAYER-208
 70
     0
 62
     2
  6
Continuous
370
    -3
390
F
  0
LAYER
  5
120
330
2
100
AcDbSymbolTableRecord
100
AcDbLayerTableRecord
  2
LAYER-209
 70
     0
 62
     7
  6
Continuous
370
    -3
390
F
  0
LAYER
  5
121
330
2
100
AcDbSymbolTableRecord
100
AcDbLayerTableRecord
  2
LAYER-210
 70
     0
 62
     2
  6
Continuous
290
     0
370
    -3
390
F
  0
LAYER
  5
122
330
2
100
AcDbSymbolTableRecord
100
AcDbLayerTableRecord
  2
LAYER-211
 70
     0
 62
     7
  6
Continuous
370
    -3
390
F
  0
LAYER
  5
123
330
2
100
AcDbSymbolTableRecord
100
AcDbLayerTableRecord
  2
LAYER-212
 70
     0
 62
     7
  6
Continuous
370
    -3
390
F
  0
LAYER
  5
124
330
2
100
AcDbSymbolTableRecord
100
AcDbLayerTableRecord
  2
LAYER-213
 70
     0
 62
     2
  6
Continuous
370
    -3
390
F
  0
LAYER
  5
125
330
2
100
AcDbSymbolTableRecord
100
AcDbLayerTableRecord
  2
LAYER-214
 70
     0
 62
     7
  6
Continuous
370
    -3
390
F
  0
LAYER
  5
126
330
2
100
AcDbSymbolTableRecord
100
AcDbLayerTableRecord
  2
LAYER-215
 70
     0
 62
     7
  6
Continuous
370
    -3
390
F
  0
LAYER
  5
127
330
2
100
AcDbSymbolTableRecord
100
AcDbLayerTableRecord
  2
LAYER-216
 70
     0
 62
     4
  6
Continuous
370
    -3
390
F
  0
LAYER
  5
128
330
2
100
AcDbSymbolTableRecord
100
AcDbLayerTableRecord
  2
LAYER-217
 70
     0
 62
     7
  6
Continuous
370
    -3
390
F
  0
LAYER
  5
129
330
2
100
AcDbSymbolTableRecord
100
AcDbLayerTableRecord
  2
LAYER-218
 70
     0
 62
     7
  6
Continuous
370
    -3
390
F
  0
LAYER
  5
12A
330
2
100
AcDbSymbolTableRecord
100
AcDbLayerTableRecord
  2
LAYER-219
 70
     0
 62
     7
  6
Continuous
370
    -3
390
F
  0
LAYER
  5
12B
330
2
100
AcDbSymbolTableRecord
100
AcDbLayerTableRecord
  2
LAYER-220
 70
     0
 62
     4
  6
Continuous
370
    -3
390
F
  0
LAYER
  5
12C
330
2
100
AcDbSymbolTableRecord
100
AcDbLayerTableRecord
  2
LAYER-221
 70
     0
 62
    -7
  6
Continuous
290
     0
370
    -3
390
F
  0
LAYER
  5
12D
330
2
100
AcDbSymbolTableRecord
100
AcDbLayerTableRecord
  2
LAYER-222
 70
     0
 62
    -4
  6
Continuous
290
     0
370
    -3
390
F
  0
LAYER
  5
12E
330
2
100
AcDbSymbolTableRecord
100
AcDbLayerTableRecord
  2
LAYER-223
 70
     0
 62
    -1
  6
Continuous
290
     0
370
    -3
390
F
  0
LAYER
  5
12F
330
2
100
AcDbSymbolTableRecord
100
AcDbLayerTableRecord
  2
LAYER-224
 70
     0
 62
    -1
  6
Continuous
290
     0
370
    -3
390
F
  0
LAYER
  5
130
330
2
100
AcDbSymbolTableRecord
100
AcDbLayerTableRecord
  2
LAYER-225
 70
     0
 62
     7
  6
Continuous
370
    -3
390
F
  0
LAYER
  5
131
330
2
100
AcDbSymbolTableRecord
100
AcDbLayerTableRecord
  2
LAYER-226
 70
     0
 62
     2
  6
Continuous
370
    -3
390
F
  0
LAYER
  5
132
330
2
100
AcDbSymbolTableRecord
100
AcDbLayerTableRecord
  2
LAYER-227
 70
     0
 62
     7
  6
Continuous
370
    -3
390
F
  0
LAYER
  5
133
330
2
100
AcDbSymbolTableRecord
100
AcDbLayerTableRecord
  2
LAYER-228
 70
     0
 62
     7
  6
Continuous
370
    -3
390
F
  0
LAYER
  5
134
330
2
100
AcDbSymbolTableRecord
100
AcDbLayerTableRecord
  2
LAYER-229
 70
     0
 62
     7
  6
Continuous
370
    -3
390
F
  0
LAYER
  5
135
330
2
100
AcDbSymbolTableRecord
100
AcDbLayerTableRecord
  2
LAYER-230
 70
     0
 62
     7
  6
Continuous
370
    -3
390
F
  0
LAYER
  5
136
330
2
100
AcDbSymbolTableRecord
100
AcDbLayerTableRecord
  2
LAYER-231
 70
     0
 62
     7
  6
Continuous
370
    -3
390
F
  0
LAYER
  5
137
330
2
100
AcDbSymbolTableRecord
100
AcDbLayerTableRecord
  2
LAYER-232
 70
     0
 62
     7
  6
Continuous
370
    -3
390
F
  0
LAYER
  5
138
330
2
100
AcDbSymbolTableRecord
100
AcDbLayerTableRecord
  2
LAYER-233
 70
     0
 62
     7
  6
Continuous
370
    -3
390
F
  0
LAYER
  5
139
330
2
100
AcDbSymbolTableRecord
100
AcDbLayerTableRecord
  2
LAYER-234
 70
     0
 62
     7
  6
Continuous
370
    -3
390
F
  0
LAYER
  5
13A
330
2
100
AcDbSymbolTableRecord
100
AcDbLayerTableRecord
  2
LAYER-235
 70
     0
 62
     7
  6
Continuous
370
    -3
390
F
  0
LAYER
  5
13B
330
2
100
AcDbSymbolTableRecord
100
AcDbLayerTableRecord
  2
LAYER-236
 70
     0
 62
     7
  6
Continuous
370
    -3
390
F
  0
LAYER
  5
13C
330
2
100
AcDbSymbolTableRecord
100
AcDbLayerTableRecord
  2
LAYER-237
 70
     0
 62
     7
  6
Continuous
370
    -3
390
F
  0
LAYER
  5
13D
330
2
100
AcDbSymbolTableRecord
100
AcDbLayerTableRecord
  2
LAYER-238
 70
     0
 62
     7
  6
Continuous
370
    -3
390
F
  0
LAYER
  5
13E
330
2
100
AcDbSymbolTableRecord
100
AcDbLayerTableRecord
  2
LAYER-239
 70
     0
 62
     7
  6
Continuous
370
    -3
390
F
  0
LAYER
  5
13F
330
2
100
AcDbSymbolTableRecord
100
AcDbLayerTableRecord
  2
LAYER-240
 70
     0
 62
     7
  6
Continuous
370
    -3
390
F
  0
LAYER
  5
140
330
2
100
AcDbSymbolTableRecord
100
AcDbLayerTableRecord
  2
LAYER-241
 70
     0
 62
     7
  6
Continuous
370
    -3
390
F
  0
LAYER
  5
141
330
2
100
AcDbSymbolTableRecord
100
AcDbLayerTableRecord
  2
LAYER-242
 70
     0
 62
     7
  6
Continuous
370
    -3
390
F
  0
LAYER
  5
142
330
2
100
AcDbSymbolTableRecord
100
AcDbLayerTableRecord
  2
LAYER-243
 70
     0
 62
     7
  6
Continuous
370
    -3
390
F
  0
LAYER
  5
143
330
2
100
AcDbSymbolTableRecord
100
AcDbLayerTableRecord
  2
LAYER-244
 70
     0
 62
     7
  6
Continuous
370
    -3
390
F
  0
LAYER
  5
144
330
2
100
AcDbSymbolTableRecord
100
AcDbLayerTableRecord
  2
LAYER-245
 70
     0
 62
     7
  6
Continuous
370
    -3
390
F
  0
LAYER
  5
145
330
2
100
AcDbSymbolTableRecord
100
AcDbLayerTableRecord
  2
LAYER-246
 70
     0
 62
     7
  6
Continuous
370
    -3
390
F
  0
LAYER
  5
146
330
2
100
AcDbSymbolTableRecord
100
AcDbLayerTableRecord
  2
LAYER-247
 70
     0
 62
     7
  6
Continuous
370
    -3
390
F
  0
LAYER
  5
147
330
2
100
AcDbSymbolTableRecord
100
AcDbLayerTableRecord
  2
LAYER-248
 70
     0
 62
     7
  6
Continuous
370
    -3
390
F
  0
LAYER
  5
148
330
2
100
AcDbSymbolTableRecord
100
AcDbLayerTableRecord
  2
LAYER-249
 70
     0
 62
     7
  6
Continuous
370
    -3
390
F
  0
LAYER
  5
149
330
2
100
AcDbSymbolTableRecord
100
AcDbLayerTableRecord
  2
LAYER-250
 70
     0
 62
     7
  6
Continuous
370
    -3
390
F
  0
LAYER
  5
14A
330
2
100
AcDbSymbolTableRecord
100
AcDbLayerTableRecord
  2
LAYER-251
 70
     0
 62
     7
  6
Continuous
370
    -3
390
F
  0
LAYER
  5
14B
330
2
100
AcDbSymbolTableRecord
100
AcDbLayerTableRecord
  2
LAYER-252
 70
     0
 62
     7
  6
Continuous
370
    -3
390
F
  0
LAYER
  5
14C
330
2
100
AcDbSymbolTableRecord
100
AcDbLayerTableRecord
  2
LAYER-253
 70
     0
 62
     7
  6
Continuous
370
    -3
390
F
  0
LAYER
  5
14D
330
2
100
AcDbSymbolTableRecord
100
AcDbLayerTableRecord
  2
LAYER-254
 70
     0
 62
     7
  6
Continuous
370
    -3
390
F
  0
LAYER
  5
14E
330
2
100
AcDbSymbolTableRecord
100
AcDbLayerTableRecord
  2
LAYER-255
 70
     0
 62
     7
  6
Continuous
370
    -3
390
F
  0
LAYER
  5
14F
330
2
100
AcDbSymbolTableRecord
100
AcDbLayerTableRecord
  2
LAYER-256
 70
     0
 62
     7
  6
Continuous
370
    -3
390
F
  0
LAYER
  5
150
330
2
100
AcDbSymbolTableRecord
100
AcDbLayerTableRecord
  2
SUPLINE
 70
     0
 62
    -7
  6
Continuous
290
     0
370
    -3
390
F
  0
LAYER
  5
151
330
2
100
AcDbSymbolTableRecord
100
AcDbLayerTableRecord
  2
FRAMELAYER-001
 70
     0
 62
     7
  6
Continuous
370
    -3
390
F
  0
LAYER
  5
152
330
2
100
AcDbSymbolTableRecord
100
AcDbLayerTableRecord
  2
FRAMELAYER-002
 70
     0
 62
     7
  6
Continuous
370
    -3
390
F
  0
LAYER
  5
153
330
2
100
AcDbSymbolTableRecord
100
AcDbLayerTableRecord
  2
FRAMELAYER-003
 70
     0
 62
     7
  6
Continuous
370
    -3
390
F
  0
LAYER
  5
154
330
2
100
AcDbSymbolTableRecord
100
AcDbLayerTableRecord
  2
FRAMELAYER-004
 70
     0
 62
     7
  6
Continuous
370
    -3
390
F
  0
LAYER
  5
155
330
2
100
AcDbSymbolTableRecord
100
AcDbLayerTableRecord
  2
FRAMELAYER-005
 70
     0
 62
     7
  6
Continuous
370
    -3
390
F
  0
LAYER
  5
156
330
2
100
AcDbSymbolTableRecord
100
AcDbLayerTableRecord
  2
FRAMELAYER-006
 70
     0
 62
     7
  6
Continuous
370
    -3
390
F
  0
LAYER
  5
157
330
2
100
AcDbSymbolTableRecord
100
AcDbLayerTableRecord
  2
FRAMELAYER-007
 70
     0
 62
     7
  6
Continuous
370
    -3
390
F
  0
LAYER
  5
158
330
2
100
AcDbSymbolTableRecord
100
AcDbLayerTableRecord
  2
FRAMELAYER-008
 70
     0
 62
     7
  6
Continuous
370
    -3
390
F
  0
LAYER
  5
159
330
2
100
AcDbSymbolTableRecord
100
AcDbLayerTableRecord
  2
FRAMELAYER-009
 70
     0
 62
     7
  6
Continuous
370
    -3
390
F
  0
LAYER
  5
15A
330
2
100
AcDbSymbolTableRecord
100
AcDbLayerTableRecord
  2
FRAMELAYER-010
 70
     0
 62
     7
  6
Continuous
370
    -3
390
F
  0
LAYER
  5
15B
330
2
100
AcDbSymbolTableRecord
100
AcDbLayerTableRecord
  2
FRAMELAYER-011
 70
     0
 62
     7
  6
Continuous
370
    -3
390
F
  0
LAYER
  5
15C
330
2
100
AcDbSymbolTableRecord
100
AcDbLayerTableRecord
  2
FRAMELAYER-012
 70
     0
 62
     7
  6
Continuous
370
    -3
390
F
  0
LAYER
  5
15D
330
2
100
AcDbSymbolTableRecord
100
AcDbLayerTableRecord
  2
FRAMELAYER-013
 70
     0
 62
     7
  6
Continuous
370
    -3
390
F
  0
LAYER
  5
15E
330
2
100
AcDbSymbolTableRecord
100
AcDbLayerTableRecord
  2
FRAMELAYER-014
 70
     0
 62
     7
  6
Continuous
370
    -3
390
F
  0
LAYER
  5
15F
330
2
100
AcDbSymbolTableRecord
100
AcDbLayerTableRecord
  2
FRAMELAYER-015
 70
     0
 62
    -7
  6
Continuous
370
    -3
390
F
  0
LAYER
  5
160
330
2
100
AcDbSymbolTableRecord
100
AcDbLayerTableRecord
  2
FRAMELAYER-016
 70
     0
 62
     4
  6
Continuous
370
    -3
390
F
  0
LAYER
  5
161
330
2
100
AcDbSymbolTableRecord
100
AcDbLayerTableRecord
  2
FRAMELAYER-017
 70
     0
 62
     7
  6
Continuous
370
    -3
390
F
  0
LAYER
  5
162
330
2
100
AcDbSymbolTableRecord
100
AcDbLayerTableRecord
  2
FRAMELAYER-018
 70
     0
 62
     2
  6
Continuous
370
    -3
390
F
  0
LAYER
  5
163
330
2
100
AcDbSymbolTableRecord
100
AcDbLayerTableRecord
  2
FRAMELAYER-019
 70
     0
 62
     3
  6
Continuous
370
    -3
390
F
  0
LAYER
  5
164
330
2
100
AcDbSymbolTableRecord
100
AcDbLayerTableRecord
  2
FRAMELAYER-020
 70
     0
 62
     2
  6
Continuous
370
    -3
390
F
  0
LAYER
  5
165
330
2
100
AcDbSymbolTableRecord
100
AcDbLayerTableRecord
  2
FRAMELAYER-021
 70
     0
 62
     7
  6
Continuous
370
    -3
390
F
  0
LAYER
  5
166
330
2
100
AcDbSymbolTableRecord
100
AcDbLayerTableRecord
  2
FRAMELAYER-022
 70
     0
 62
     4
  6
Continuous
370
    -3
390
F
  0
LAYER
  5
167
330
2
100
AcDbSymbolTableRecord
100
AcDbLayerTableRecord
  2
FRAMELAYER-023
 70
     0
 62
     4
  6
Continuous
370
    -3
390
F
  0
LAYER
  5
168
330
2
100
AcDbSymbolTableRecord
100
AcDbLayerTableRecord
  2
FRAMELAYER-024
 70
     0
 62
     7
  6
Continuous
370
    -3
390
F
  0
LAYER
  5
169
330
2
100
AcDbSymbolTableRecord
100
AcDbLayerTableRecord
  2
FRAMELAYER-025
 70
     0
 62
     7
  6
Continuous
370
    -3
390
F
  0
LAYER
  5
16A
330
2
100
AcDbSymbolTableRecord
100
AcDbLayerTableRecord
  2
FRAMELAYER-026
 70
     0
 62
    -7
  6
Continuous
370
    -3
390
F
  0
LAYER
  5
16B
330
2
100
AcDbSymbolTableRecord
100
AcDbLayerTableRecord
  2
FRAMELAYER-027
 70
     0
 62
     7
  6
Continuous
370
    -3
390
F
  0
LAYER
  5
16C
330
2
100
AcDbSymbolTableRecord
100
AcDbLayerTableRecord
  2
FRAMELAYER-028
 70
     0
 62
     7
  6
Continuous
370
    -3
390
F
  0
LAYER
  5
16D
330
2
100
AcDbSymbolTableRecord
100
AcDbLayerTableRecord
  2
FRAMELAYER-029
 70
     0
 62
     7
  6
Continuous
370
    -3
390
F
  0
LAYER
  5
16E
330
2
100
AcDbSymbolTableRecord
100
AcDbLayerTableRecord
  2
FRAMELAYER-030
 70
     0
 62
     2
  6
Continuous
370
    -3
390
F
  0
LAYER
  5
16F
330
2
100
AcDbSymbolTableRecord
100
AcDbLayerTableRecord
  2
FRAMELAYER-031
 70
     0
 62
     7
  6
Continuous
370
    -3
390
F
  0
LAYER
  5
170
330
2
100
AcDbSymbolTableRecord
100
AcDbLayerTableRecord
  2
FRAMELAYER-032
 70
     0
 62
     2
  6
Continuous
370
    -3
390
F
  0
LAYER
  5
171
330
2
100
AcDbSymbolTableRecord
100
AcDbLayerTableRecord
  2
FRAMELAYER-033
 70
     0
 62
     7
  6
Continuous
370
    -3
390
F
  0
LAYER
  5
172
330
2
100
AcDbSymbolTableRecord
100
AcDbLayerTableRecord
  2
FRAMELAYER-034
 70
     0
 62
     7
  6
Continuous
370
    -3
390
F
  0
LAYER
  5
173
330
2
100
AcDbSymbolTableRecord
100
AcDbLayerTableRecord
  2
FRAMELAYER-035
 70
     0
 62
     3
  6
Continuous
370
    -3
390
F
  0
LAYER
  5
174
330
2
100
AcDbSymbolTableRecord
100
AcDbLayerTableRecord
  2
FRAMELAYER-036
 70
     0
 62
     2
  6
Continuous
370
    -3
390
F
  0
LAYER
  5
175
330
2
100
AcDbSymbolTableRecord
100
AcDbLayerTableRecord
  2
FRAMELAYER-037
 70
     0
 62
     7
  6
Continuous
370
    -3
390
F
  0
LAYER
  5
176
330
2
100
AcDbSymbolTableRecord
100
AcDbLayerTableRecord
  2
FRAMELAYER-038
 70
     0
 62
     7
  6
Continuous
370
    -3
390
F
  0
LAYER
  5
177
330
2
100
AcDbSymbolTableRecord
100
AcDbLayerTableRecord
  2
FRAMELAYER-039
 70
     0
 62
     7
  6
Continuous
370
    -3
390
F
  0
LAYER
  5
178
330
2
100
AcDbSymbolTableRecord
100
AcDbLayerTableRecord
  2
FRAMELAYER-040
 70
     0
 62
     7
  6
Continuous
370
    -3
390
F
  0
LAYER
  5
179
330
2
100
AcDbSymbolTableRecord
100
AcDbLayerTableRecord
  2
FRAMELAYER-041
 70
     0
 62
     7
  6
Continuous
370
    -3
390
F
  0
LAYER
  5
17A
330
2
100
AcDbSymbolTableRecord
100
AcDbLayerTableRecord
  2
FRAMELAYER-042
 70
     0
 62
     7
  6
Continuous
370
    -3
390
F
  0
LAYER
  5
17B
330
2
100
AcDbSymbolTableRecord
100
AcDbLayerTableRecord
  2
FRAMELAYER-043
 70
     0
 62
     7
  6
Continuous
370
    -3
390
F
  0
LAYER
  5
17C
330
2
100
AcDbSymbolTableRecord
100
AcDbLayerTableRecord
  2
FRAMELAYER-044
 70
     0
 62
     7
  6
Continuous
370
    -3
390
F
  0
LAYER
  5
17D
330
2
100
AcDbSymbolTableRecord
100
AcDbLayerTableRecord
  2
FRAMELAYER-045
 70
     0
 62
     7
  6
Continuous
370
    -3
390
F
  0
LAYER
  5
17E
330
2
100
AcDbSymbolTableRecord
100
AcDbLayerTableRecord
  2
FRAMELAYER-046
 70
     0
 62
     7
  6
Continuous
370
    -3
390
F
  0
LAYER
  5
17F
330
2
100
AcDbSymbolTableRecord
100
AcDbLayerTableRecord
  2
FRAMELAYER-047
 70
     0
 62
     7
  6
Continuous
370
    -3
390
F
  0
LAYER
  5
180
330
2
100
AcDbSymbolTableRecord
100
AcDbLayerTableRecord
  2
FRAMELAYER-048
 70
     0
 62
     2
  6
Continuous
370
    -3
390
F
  0
LAYER
  5
181
330
2
100
AcDbSymbolTableRecord
100
AcDbLayerTableRecord
  2
FRAMELAYER-049
 70
     0
 62
     3
  6
Continuous
370
    -3
390
F
  0
LAYER
  5
182
330
2
100
AcDbSymbolTableRecord
100
AcDbLayerTableRecord
  2
FRAMELAYER-050
 70
     0
 62
     7
  6
Continuous
370
    -3
390
F
  0
LAYER
  5
183
330
2
100
AcDbSymbolTableRecord
100
AcDbLayerTableRecord
  2
FRAMELAYER-051
 70
     0
 62
     2
  6
Continuous
370
    -3
390
F
  0
LAYER
  5
184
330
2
100
AcDbSymbolTableRecord
100
AcDbLayerTableRecord
  2
FRAMELAYER-052
 70
     0
 62
     7
  6
Continuous
370
    -3
390
F
  0
LAYER
  5
185
330
2
100
AcDbSymbolTableRecord
100
AcDbLayerTableRecord
  2
FRAMELAYER-053
 70
     0
 62
     7
  6
Continuous
370
    -3
390
F
  0
LAYER
  5
186
330
2
100
AcDbSymbolTableRecord
100
AcDbLayerTableRecord
  2
FRAMELAYER-054
 70
     0
 62
     7
  6
Continuous
370
    -3
390
F
  0
LAYER
  5
187
330
2
100
AcDbSymbolTableRecord
100
AcDbLayerTableRecord
  2
FRAMELAYER-055
 70
     0
 62
     7
  6
Continuous
370
    -3
390
F
  0
LAYER
  5
188
330
2
100
AcDbSymbolTableRecord
100
AcDbLayerTableRecord
  2
FRAMELAYER-056
 70
     0
 62
     7
  6
Continuous
370
    -3
390
F
  0
LAYER
  5
189
330
2
100
AcDbSymbolTableRecord
100
AcDbLayerTableRecord
  2
FRAMELAYER-057
 70
     0
 62
     7
  6
Continuous
370
    -3
390
F
  0
LAYER
  5
18A
330
2
100
AcDbSymbolTableRecord
100
AcDbLayerTableRecord
  2
FRAMELAYER-058
 70
     0
 62
     7
  6
Continuous
370
    -3
390
F
  0
LAYER
  5
18B
330
2
100
AcDbSymbolTableRecord
100
AcDbLayerTableRecord
  2
FRAMELAYER-059
 70
     0
 62
     7
  6
Continuous
370
    -3
390
F
  0
LAYER
  5
18C
330
2
100
AcDbSymbolTableRecord
100
AcDbLayerTableRecord
  2
FRAMELAYER-060
 70
     0
 62
     7
  6
Continuous
370
    -3
390
F
  0
LAYER
  5
18D
330
2
100
AcDbSymbolTableRecord
100
AcDbLayerTableRecord
  2
FRAMELAYER-061
 70
     0
 62
     7
  6
Continuous
370
    -3
390
F
  0
LAYER
  5
18E
330
2
100
AcDbSymbolTableRecord
100
AcDbLayerTableRecord
  2
FRAMELAYER-062
 70
     0
 62
     7
  6
Continuous
370
    -3
390
F
  0
LAYER
  5
18F
330
2
100
AcDbSymbolTableRecord
100
AcDbLayerTableRecord
  2
FRAMELAYER-063
 70
     0
 62
     7
  6
Continuous
370
    -3
390
F
  0
LAYER
  5
190
330
2
100
AcDbSymbolTableRecord
100
AcDbLayerTableRecord
  2
FRAMELAYER-064
 70
     0
 62
     2
  6
Continuous
370
    -3
390
F
  0
LAYER
  5
191
330
2
100
AcDbSymbolTableRecord
100
AcDbLayerTableRecord
  2
FRAMELAYER-065
 70
     0
 62
     7
  6
Continuous
370
    -3
390
F
  0
LAYER
  5
192
330
2
100
AcDbSymbolTableRecord
100
AcDbLayerTableRecord
  2
FRAMELAYER-066
 70
     0
 62
     2
  6
Continuous
370
    -3
390
F
  0
LAYER
  5
193
330
2
100
AcDbSymbolTableRecord
100
AcDbLayerTableRecord
  2
FRAMELAYER-067
 70
     0
 62
     2
  6
Continuous
370
    -3
390
F
  0
LAYER
  5
194
330
2
100
AcDbSymbolTableRecord
100
AcDbLayerTableRecord
  2
FRAMELAYER-068
 70
     0
 62
     7
  6
Continuous
370
    -3
390
F
  0
LAYER
  5
195
330
2
100
AcDbSymbolTableRecord
100
AcDbLayerTableRecord
  2
FRAMELAYER-069
 70
     0
 62
     7
  6
Continuous
370
    -3
390
F
  0
LAYER
  5
196
330
2
100
AcDbSymbolTableRecord
100
AcDbLayerTableRecord
  2
FRAMELAYER-070
 70
     0
 62
     7
  6
Continuous
370
    -3
390
F
  0
LAYER
  5
197
330
2
100
AcDbSymbolTableRecord
100
AcDbLayerTableRecord
  2
FRAMELAYER-071
 70
     0
 62
     7
  6
Continuous
370
    -3
390
F
  0
LAYER
  5
198
330
2
100
AcDbSymbolTableRecord
100
AcDbLayerTableRecord
  2
FRAMELAYER-072
 70
     0
 62
     7
  6
Continuous
370
    -3
390
F
  0
LAYER
  5
199
330
2
100
AcDbSymbolTableRecord
100
AcDbLayerTableRecord
  2
FRAMELAYER-073
 70
     0
 62
     7
  6
Continuous
370
    -3
390
F
  0
LAYER
  5
19A
330
2
100
AcDbSymbolTableRecord
100
AcDbLayerTableRecord
  2
FRAMELAYER-074
 70
     0
 62
     7
  6
Continuous
370
    -3
390
F
  0
LAYER
  5
19B
330
2
100
AcDbSymbolTableRecord
100
AcDbLayerTableRecord
  2
FRAMELAYER-075
 70
     0
 62
     7
  6
Continuous
370
    -3
390
F
  0
LAYER
  5
19C
330
2
100
AcDbSymbolTableRecord
100
AcDbLayerTableRecord
  2
FRAMELAYER-076
 70
     0
 62
     7
  6
Continuous
370
    -3
390
F
  0
LAYER
  5
19D
330
2
100
AcDbSymbolTableRecord
100
AcDbLayerTableRecord
  2
FRAMELAYER-077
 70
     0
 62
     7
  6
Continuous
370
    -3
390
F
  0
LAYER
  5
19E
330
2
100
AcDbSymbolTableRecord
100
AcDbLayerTableRecord
  2
FRAMELAYER-078
 70
     0
 62
     7
  6
Continuous
370
    -3
390
F
  0
LAYER
  5
19F
330
2
100
AcDbSymbolTableRecord
100
AcDbLayerTableRecord
  2
FRAMELAYER-079
 70
     0
 62
     7
  6
Continuous
370
    -3
390
F
  0
LAYER
  5
1A0
330
2
100
AcDbSymbolTableRecord
100
AcDbLayerTableRecord
  2
FRAMELAYER-080
 70
     0
 62
     2
  6
Continuous
370
    -3
390
F
  0
LAYER
  5
1A1
330
2
100
AcDbSymbolTableRecord
100
AcDbLayerTableRecord
  2
FRAMELAYER-081
 70
     0
 62
     7
  6
Continuous
370
    -3
390
F
  0
LAYER
  5
1A2
330
2
100
AcDbSymbolTableRecord
100
AcDbLayerTableRecord
  2
FRAMELAYER-082
 70
     0
 62
     7
  6
Continuous
370
    -3
390
F
  0
LAYER
  5
1A3
330
2
100
AcDbSymbolTableRecord
100
AcDbLayerTableRecord
  2
FRAMELAYER-083
 70
     0
 62
     7
  6
Continuous
370
    -3
390
F
  0
LAYER
  5
1A4
330
2
100
AcDbSymbolTableRecord
100
AcDbLayerTableRecord
  2
FRAMELAYER-084
 70
     0
 62
     7
  6
Continuous
370
    -3
390
F
  0
LAYER
  5
1A5
330
2
100
AcDbSymbolTableRecord
100
AcDbLayerTableRecord
  2
FRAMELAYER-085
 70
     0
 62
     7
  6
Continuous
370
    -3
390
F
  0
LAYER
  5
1A6
330
2
100
AcDbSymbolTableRecord
100
AcDbLayerTableRecord
  2
FRAMELAYER-086
 70
     0
 62
     7
  6
Continuous
370
    -3
390
F
  0
LAYER
  5
1A7
330
2
100
AcDbSymbolTableRecord
100
AcDbLayerTableRecord
  2
FRAMELAYER-087
 70
     0
 62
     7
  6
Continuous
370
    -3
390
F
  0
LAYER
  5
1A8
330
2
100
AcDbSymbolTableRecord
100
AcDbLayerTableRecord
  2
FRAMELAYER-088
 70
     0
 62
     7
  6
Continuous
370
    -3
390
F
  0
LAYER
  5
1A9
330
2
100
AcDbSymbolTableRecord
100
AcDbLayerTableRecord
  2
FRAMELAYER-089
 70
     0
 62
     7
  6
Continuous
370
    -3
390
F
  0
LAYER
  5
1AA
330
2
100
AcDbSymbolTableRecord
100
AcDbLayerTableRecord
  2
FRAMELAYER-090
 70
     0
 62
     7
  6
Continuous
370
    -3
390
F
  0
LAYER
  5
1AB
330
2
100
AcDbSymbolTableRecord
100
AcDbLayerTableRecord
  2
FRAMELAYER-091
 70
     0
 62
     7
  6
Continuous
370
    -3
390
F
  0
LAYER
  5
1AC
330
2
100
AcDbSymbolTableRecord
100
AcDbLayerTableRecord
  2
FRAMELAYER-092
 70
     0
 62
     7
  6
Continuous
370
    -3
390
F
  0
LAYER
  5
1AD
330
2
100
AcDbSymbolTableRecord
100
AcDbLayerTableRecord
  2
FRAMELAYER-093
 70
     0
 62
     7
  6
Continuous
370
    -3
390
F
  0
LAYER
  5
1AE
330
2
100
AcDbSymbolTableRecord
100
AcDbLayerTableRecord
  2
FRAMELAYER-094
 70
     0
 62
     7
  6
Continuous
370
    -3
390
F
  0
LAYER
  5
1AF
330
2
100
AcDbSymbolTableRecord
100
AcDbLayerTableRecord
  2
FRAMELAYER-095
 70
     0
 62
     7
  6
Continuous
370
    -3
390
F
  0
LAYER
  5
1B0
330
2
100
AcDbSymbolTableRecord
100
AcDbLayerTableRecord
  2
FRAMELAYER-096
 70
     0
 62
     7
  6
Continuous
370
    -3
390
F
  0
LAYER
  5
1B1
330
2
100
AcDbSymbolTableRecord
100
AcDbLayerTableRecord
  2
FRAMELAYER-097
 70
     0
 62
     7
  6
Continuous
370
    -3
390
F
  0
LAYER
  5
1B2
330
2
100
AcDbSymbolTableRecord
100
AcDbLayerTableRecord
  2
FRAMELAYER-098
 70
     0
 62
     7
  6
Continuous
370
    -3
390
F
  0
LAYER
  5
1B3
330
2
100
AcDbSymbolTableRecord
100
AcDbLayerTableRecord
  2
FRAMELAYER-099
 70
     0
 62
     7
  6
Continuous
370
    -3
390
F
  0
LAYER
  5
1B4
330
2
100
AcDbSymbolTableRecord
100
AcDbLayerTableRecord
  2
FRAMELAYER-100
 70
     0
 62
     7
  6
Continuous
370
    -3
390
F
  0
LAYER
  5
1B5
330
2
100
AcDbSymbolTableRecord
100
AcDbLayerTableRecord
  2
FRAMELAYER-101
 70
     0
 62
     7
  6
Continuous
370
    -3
390
F
  0
LAYER
  5
1B6
330
2
100
AcDbSymbolTableRecord
100
AcDbLayerTableRecord
  2
FRAMELAYER-102
 70
     0
 62
     7
  6
Continuous
370
    -3
390
F
  0
LAYER
  5
1B7
330
2
100
AcDbSymbolTableRecord
100
AcDbLayerTableRecord
  2
FRAMELAYER-103
 70
     0
 62
     7
  6
Continuous
370
    -3
390
F
  0
LAYER
  5
1B8
330
2
100
AcDbSymbolTableRecord
100
AcDbLayerTableRecord
  2
FRAMELAYER-104
 70
     0
 62
     7
  6
Continuous
370
    -3
390
F
  0
LAYER
  5
1B9
330
2
100
AcDbSymbolTableRecord
100
AcDbLayerTableRecord
  2
FRAMELAYER-105
 70
     0
 62
     7
  6
Continuous
370
    -3
390
F
  0
LAYER
  5
1BA
330
2
100
AcDbSymbolTableRecord
100
AcDbLayerTableRecord
  2
FRAMELAYER-106
 70
     0
 62
     7
  6
Continuous
370
    -3
390
F
  0
LAYER
  5
1BB
330
2
100
AcDbSymbolTableRecord
100
AcDbLayerTableRecord
  2
FRAMELAYER-107
 70
     0
 62
     7
  6
Continuous
370
    -3
390
F
  0
LAYER
  5
1BC
330
2
100
AcDbSymbolTableRecord
100
AcDbLayerTableRecord
  2
FRAMELAYER-108
 70
     0
 62
     7
  6
Continuous
370
    -3
390
F
  0
LAYER
  5
1BD
330
2
100
AcDbSymbolTableRecord
100
AcDbLayerTableRecord
  2
FRAMELAYER-109
 70
     0
 62
     7
  6
Continuous
370
    -3
390
F
  0
LAYER
  5
1BE
330
2
100
AcDbSymbolTableRecord
100
AcDbLayerTableRecord
  2
FRAMELAYER-110
 70
     0
 62
     7
  6
Continuous
370
    -3
390
F
  0
LAYER
  5
1BF
330
2
100
AcDbSymbolTableRecord
100
AcDbLayerTableRecord
  2
FRAMELAYER-111
 70
     0
 62
     7
  6
Continuous
370
    -3
390
F
  0
LAYER
  5
1C0
330
2
100
AcDbSymbolTableRecord
100
AcDbLayerTableRecord
  2
FRAMELAYER-112
 70
     0
 62
     7
  6
Continuous
370
    -3
390
F
  0
LAYER
  5
1C1
330
2
100
AcDbSymbolTableRecord
100
AcDbLayerTableRecord
  2
FRAMELAYER-113
 70
     0
 62
     7
  6
Continuous
370
    -3
390
F
  0
LAYER
  5
1C2
330
2
100
AcDbSymbolTableRecord
100
AcDbLayerTableRecord
  2
FRAMELAYER-114
 70
     0
 62
     7
  6
Continuous
370
    -3
390
F
  0
LAYER
  5
1C3
330
2
100
AcDbSymbolTableRecord
100
AcDbLayerTableRecord
  2
FRAMELAYER-115
 70
     0
 62
     7
  6
Continuous
370
    -3
390
F
  0
LAYER
  5
1C4
330
2
100
AcDbSymbolTableRecord
100
AcDbLayerTableRecord
  2
FRAMELAYER-116
 70
     0
 62
     7
  6
Continuous
370
    -3
390
F
  0
LAYER
  5
1C5
330
2
100
AcDbSymbolTableRecord
100
AcDbLayerTableRecord
  2
FRAMELAYER-117
 70
     0
 62
     7
  6
Continuous
370
    -3
390
F
  0
LAYER
  5
1C6
330
2
100
AcDbSymbolTableRecord
100
AcDbLayerTableRecord
  2
FRAMELAYER-118
 70
     0
 62
     7
  6
Continuous
370
    -3
390
F
  0
LAYER
  5
1C7
330
2
100
AcDbSymbolTableRecord
100
AcDbLayerTableRecord
  2
FRAMELAYER-119
 70
     0
 62
     7
  6
Continuous
370
    -3
390
F
  0
LAYER
  5
1C8
330
2
100
AcDbSymbolTableRecord
100
AcDbLayerTableRecord
  2
FRAMELAYER-120
 70
     0
 62
     7
  6
Continuous
370
    -3
390
F
  0
LAYER
  5
1C9
330
2
100
AcDbSymbolTableRecord
100
AcDbLayerTableRecord
  2
FRAMELAYER-121
 70
     0
 62
     7
  6
Continuous
370
    -3
390
F
  0
LAYER
  5
1CA
330
2
100
AcDbSymbolTableRecord
100
AcDbLayerTableRecord
  2
FRAMELAYER-122
 70
     0
 62
     7
  6
Continuous
370
    -3
390
F
  0
LAYER
  5
1CB
330
2
100
AcDbSymbolTableRecord
100
AcDbLayerTableRecord
  2
FRAMELAYER-123
 70
     0
 62
     7
  6
Continuous
370
    -3
390
F
  0
LAYER
  5
1CC
330
2
100
AcDbSymbolTableRecord
100
AcDbLayerTableRecord
  2
FRAMELAYER-124
 70
     0
 62
     7
  6
Continuous
370
    -3
390
F
  0
LAYER
  5
1CD
330
2
100
AcDbSymbolTableRecord
100
AcDbLayerTableRecord
  2
FRAMELAYER-125
 70
     0
 62
     7
  6
Continuous
370
    -3
390
F
  0
LAYER
  5
1CE
330
2
100
AcDbSymbolTableRecord
100
AcDbLayerTableRecord
  2
FRAMELAYER-126
 70
     0
 62
     7
  6
Continuous
370
    -3
390
F
  0
LAYER
  5
1CF
330
2
100
AcDbSymbolTableRecord
100
AcDbLayerTableRecord
  2
FRAMELAYER-127
 70
     0
 62
     7
  6
Continuous
370
    -3
390
F
  0
LAYER
  5
1D0
330
2
100
AcDbSymbolTableRecord
100
AcDbLayerTableRecord
  2
FRAMELAYER-128
 70
     0
 62
     7
  6
Continuous
370
    -3
390
F
  0
LAYER
  5
1D1
330
2
100
AcDbSymbolTableRecord
100
AcDbLayerTableRecord
  2
FRAMELAYER-129
 70
     0
 62
     7
  6
Continuous
370
    -3
390
F
  0
LAYER
  5
1D2
330
2
100
AcDbSymbolTableRecord
100
AcDbLayerTableRecord
  2
FRAMELAYER-130
 70
     0
 62
     7
  6
Continuous
370
    -3
390
F
  0
LAYER
  5
1D3
330
2
100
AcDbSymbolTableRecord
100
AcDbLayerTableRecord
  2
FRAMELAYER-131
 70
     0
 62
     7
  6
Continuous
370
    -3
390
F
  0
LAYER
  5
1D4
330
2
100
AcDbSymbolTableRecord
100
AcDbLayerTableRecord
  2
FRAMELAYER-132
 70
     0
 62
     7
  6
Continuous
370
    -3
390
F
  0
LAYER
  5
1D5
330
2
100
AcDbSymbolTableRecord
100
AcDbLayerTableRecord
  2
FRAMELAYER-133
 70
     0
 62
     7
  6
Continuous
370
    -3
390
F
  0
LAYER
  5
1D6
330
2
100
AcDbSymbolTableRecord
100
AcDbLayerTableRecord
  2
FRAMELAYER-134
 70
     0
 62
     7
  6
Continuous
370
    -3
390
F
  0
LAYER
  5
1D7
330
2
100
AcDbSymbolTableRecord
100
AcDbLayerTableRecord
  2
FRAMELAYER-135
 70
     0
 62
    -4
  6
Continuous
370
    -3
390
F
  0
LAYER
  5
1D8
330
2
100
AcDbSymbolTableRecord
100
AcDbLayerTableRecord
  2
FRAMELAYER-136
 70
     0
 62
    -3
  6
Continuous
370
    -3
390
F
  0
LAYER
  5
1D9
330
2
100
AcDbSymbolTableRecord
100
AcDbLayerTableRecord
  2
FRAMELAYER-137
 70
     0
 62
    -1
  6
Continuous
370
    -3
390
F
  0
LAYER
  5
1DA
330
2
100
AcDbSymbolTableRecord
100
AcDbLayerTableRecord
  2
FRAMELAYER-138
 70
     0
 62
     7
  6
Continuous
370
    -3
390
F
  0
LAYER
  5
1DB
330
2
100
AcDbSymbolTableRecord
100
AcDbLayerTableRecord
  2
FRAMELAYER-139
 70
     0
 62
     7
  6
Continuous
370
    -3
390
F
  0
LAYER
  5
1DC
330
2
100
AcDbSymbolTableRecord
100
AcDbLayerTableRecord
  2
FRAMELAYER-140
 70
     0
 62
     7
  6
Continuous
370
    -3
390
F
  0
LAYER
  5
1DD
330
2
100
AcDbSymbolTableRecord
100
AcDbLayerTableRecord
  2
FRAMELAYER-141
 70
     0
 62
     7
  6
Continuous
370
    -3
390
F
  0
LAYER
  5
1DE
330
2
100
AcDbSymbolTableRecord
100
AcDbLayerTableRecord
  2
FRAMELAYER-142
 70
     0
 62
     3
  6
Continuous
370
    -3
390
F
  0
LAYER
  5
1DF
330
2
100
AcDbSymbolTableRecord
100
AcDbLayerTableRecord
  2
FRAMELAYER-143
 70
     0
 62
     7
  6
Continuous
370
    -3
390
F
  0
LAYER
  5
1E0
330
2
100
AcDbSymbolTableRecord
100
AcDbLayerTableRecord
  2
FRAMELAYER-144
 70
     0
 62
     7
  6
Continuous
370
    -3
390
F
  0
LAYER
  5
1E1
330
2
100
AcDbSymbolTableRecord
100
AcDbLayerTableRecord
  2
FRAMELAYER-145
 70
     0
 62
     3
  6
Continuous
370
    -3
390
F
  0
LAYER
  5
1E2
330
2
100
AcDbSymbolTableRecord
100
AcDbLayerTableRecord
  2
FRAMELAYER-146
 70
     0
 62
     7
  6
Continuous
370
    -3
390
F
  0
LAYER
  5
1E3
330
2
100
AcDbSymbolTableRecord
100
AcDbLayerTableRecord
  2
FRAMELAYER-147
 70
     0
 62
     7
  6
Continuous
370
    -3
390
F
  0
LAYER
  5
1E4
330
2
100
AcDbSymbolTableRecord
100
AcDbLayerTableRecord
  2
FRAMELAYER-148
 70
     0
 62
     7
  6
Continuous
370
    -3
390
F
  0
LAYER
  5
1E5
330
2
100
AcDbSymbolTableRecord
100
AcDbLayerTableRecord
  2
FRAMELAYER-149
 70
     0
 62
     7
  6
Continuous
370
    -3
390
F
  0
LAYER
  5
1E6
330
2
100
AcDbSymbolTableRecord
100
AcDbLayerTableRecord
  2
FRAMELAYER-150
 70
     0
 62
     7
  6
Continuous
370
    -3
390
F
  0
LAYER
  5
1E7
330
2
100
AcDbSymbolTableRecord
100
AcDbLayerTableRecord
  2
FRAMELAYER-151
 70
     0
 62
     7
  6
Continuous
370
    -3
390
F
  0
LAYER
  5
1E8
330
2
100
AcDbSymbolTableRecord
100
AcDbLayerTableRecord
  2
FRAMELAYER-152
 70
     0
 62
     7
  6
Continuous
370
    -3
390
F
  0
LAYER
  5
1E9
330
2
100
AcDbSymbolTableRecord
100
AcDbLayerTableRecord
  2
FRAMELAYER-153
 70
     0
 62
     7
  6
Continuous
370
    -3
390
F
  0
LAYER
  5
1EA
330
2
100
AcDbSymbolTableRecord
100
AcDbLayerTableRecord
  2
FRAMELAYER-154
 70
     0
 62
     7
  6
Continuous
370
    -3
390
F
  0
LAYER
  5
1EB
330
2
100
AcDbSymbolTableRecord
100
AcDbLayerTableRecord
  2
FRAMELAYER-155
 70
     0
 62
     7
  6
Continuous
370
    -3
390
F
  0
LAYER
  5
1EC
330
2
100
AcDbSymbolTableRecord
100
AcDbLayerTableRecord
  2
FRAMELAYER-156
 70
     0
 62
     7
  6
Continuous
370
    -3
390
F
  0
LAYER
  5
1ED
330
2
100
AcDbSymbolTableRecord
100
AcDbLayerTableRecord
  2
FRAMELAYER-157
 70
     0
 62
     7
  6
Continuous
370
    -3
390
F
  0
LAYER
  5
1EE
330
2
100
AcDbSymbolTableRecord
100
AcDbLayerTableRecord
  2
FRAMELAYER-158
 70
     0
 62
     7
  6
Continuous
370
    -3
390
F
  0
LAYER
  5
1EF
330
2
100
AcDbSymbolTableRecord
100
AcDbLayerTableRecord
  2
FRAMELAYER-159
 70
     0
 62
     7
  6
Continuous
370
    -3
390
F
  0
LAYER
  5
1F0
330
2
100
AcDbSymbolTableRecord
100
AcDbLayerTableRecord
  2
FRAMELAYER-160
 70
     0
 62
     7
  6
Continuous
370
    -3
390
F
  0
LAYER
  5
1F1
330
2
100
AcDbSymbolTableRecord
100
AcDbLayerTableRecord
  2
FRAMELAYER-161
 70
     0
 62
     7
  6
Continuous
370
    -3
390
F
  0
LAYER
  5
1F2
330
2
100
AcDbSymbolTableRecord
100
AcDbLayerTableRecord
  2
FRAMELAYER-162
 70
     0
 62
     7
  6
Continuous
370
    -3
390
F
  0
LAYER
  5
1F3
330
2
100
AcDbSymbolTableRecord
100
AcDbLayerTableRecord
  2
FRAMELAYER-163
 70
     0
 62
     7
  6
Continuous
370
    -3
390
F
  0
LAYER
  5
1F4
330
2
100
AcDbSymbolTableRecord
100
AcDbLayerTableRecord
  2
FRAMELAYER-164
 70
     0
 62
     7
  6
Continuous
370
    -3
390
F
  0
LAYER
  5
1F5
330
2
100
AcDbSymbolTableRecord
100
AcDbLayerTableRecord
  2
FRAMELAYER-165
 70
     0
 62
     7
  6
Continuous
370
    -3
390
F
  0
LAYER
  5
1F6
330
2
100
AcDbSymbolTableRecord
100
AcDbLayerTableRecord
  2
FRAMELAYER-166
 70
     0
 62
     7
  6
Continuous
370
    -3
390
F
  0
LAYER
  5
1F7
330
2
100
AcDbSymbolTableRecord
100
AcDbLayerTableRecord
  2
FRAMELAYER-167
 70
     0
 62
     7
  6
Continuous
370
    -3
390
F
  0
LAYER
  5
1F8
330
2
100
AcDbSymbolTableRecord
100
AcDbLayerTableRecord
  2
FRAMELAYER-168
 70
     0
 62
     7
  6
Continuous
370
    -3
390
F
  0
LAYER
  5
1F9
330
2
100
AcDbSymbolTableRecord
100
AcDbLayerTableRecord
  2
FRAMELAYER-169
 70
     0
 62
     7
  6
Continuous
370
    -3
390
F
  0
LAYER
  5
1FA
330
2
100
AcDbSymbolTableRecord
100
AcDbLayerTableRecord
  2
FRAMELAYER-170
 70
     0
 62
     7
  6
Continuous
370
    -3
390
F
  0
LAYER
  5
1FB
330
2
100
AcDbSymbolTableRecord
100
AcDbLayerTableRecord
  2
FRAMELAYER-171
 70
     0
 62
     7
  6
Continuous
370
    -3
390
F
  0
LAYER
  5
1FC
330
2
100
AcDbSymbolTableRecord
100
AcDbLayerTableRecord
  2
FRAMELAYER-172
 70
     0
 62
     7
  6
Continuous
370
    -3
390
F
  0
LAYER
  5
1FD
330
2
100
AcDbSymbolTableRecord
100
AcDbLayerTableRecord
  2
FRAMELAYER-173
 70
     0
 62
     7
  6
Continuous
370
    -3
390
F
  0
LAYER
  5
1FE
330
2
100
AcDbSymbolTableRecord
100
AcDbLayerTableRecord
  2
FRAMELAYER-174
 70
     0
 62
     7
  6
Continuous
370
    -3
390
F
  0
LAYER
  5
1FF
330
2
100
AcDbSymbolTableRecord
100
AcDbLayerTableRecord
  2
FRAMELAYER-175
 70
     0
 62
     7
  6
Continuous
370
    -3
390
F
  0
LAYER
  5
200
330
2
100
AcDbSymbolTableRecord
100
AcDbLayerTableRecord
  2
FRAMELAYER-176
 70
     0
 62
     7
  6
Continuous
370
    -3
390
F
  0
LAYER
  5
201
330
2
100
AcDbSymbolTableRecord
100
AcDbLayerTableRecord
  2
FRAMELAYER-177
 70
     0
 62
     7
  6
Continuous
370
    -3
390
F
  0
LAYER
  5
202
330
2
100
AcDbSymbolTableRecord
100
AcDbLayerTableRecord
  2
FRAMELAYER-178
 70
     0
 62
     7
  6
Continuous
370
    -3
390
F
  0
LAYER
  5
203
330
2
100
AcDbSymbolTableRecord
100
AcDbLayerTableRecord
  2
FRAMELAYER-179
 70
     0
 62
     7
  6
Continuous
370
    -3
390
F
  0
LAYER
  5
204
330
2
100
AcDbSymbolTableRecord
100
AcDbLayerTableRecord
  2
FRAMELAYER-180
 70
     0
 62
     7
  6
Continuous
370
    -3
390
F
  0
LAYER
  5
205
330
2
100
AcDbSymbolTableRecord
100
AcDbLayerTableRecord
  2
FRAMELAYER-181
 70
     0
 62
     7
  6
Continuous
370
    -3
390
F
  0
LAYER
  5
206
330
2
100
AcDbSymbolTableRecord
100
AcDbLayerTableRecord
  2
FRAMELAYER-182
 70
     0
 62
     7
  6
Continuous
370
    -3
390
F
  0
LAYER
  5
207
330
2
100
AcDbSymbolTableRecord
100
AcDbLayerTableRecord
  2
FRAMELAYER-183
 70
     0
 62
     7
  6
Continuous
370
    -3
390
F
  0
LAYER
  5
208
330
2
100
AcDbSymbolTableRecord
100
AcDbLayerTableRecord
  2
FRAMELAYER-184
 70
     0
 62
     7
  6
Continuous
370
    -3
390
F
  0
LAYER
  5
209
330
2
100
AcDbSymbolTableRecord
100
AcDbLayerTableRecord
  2
FRAMELAYER-185
 70
     0
 62
     7
  6
Continuous
370
    -3
390
F
  0
LAYER
  5
20A
330
2
100
AcDbSymbolTableRecord
100
AcDbLayerTableRecord
  2
FRAMELAYER-186
 70
     0
 62
     7
  6
Continuous
370
    -3
390
F
  0
LAYER
  5
20B
330
2
100
AcDbSymbolTableRecord
100
AcDbLayerTableRecord
  2
FRAMELAYER-187
 70
     0
 62
     7
  6
Continuous
370
    -3
390
F
  0
LAYER
  5
20C
330
2
100
AcDbSymbolTableRecord
100
AcDbLayerTableRecord
  2
FRAMELAYER-188
 70
     0
 62
     7
  6
Continuous
370
    -3
390
F
  0
LAYER
  5
20D
330
2
100
AcDbSymbolTableRecord
100
AcDbLayerTableRecord
  2
FRAMELAYER-189
 70
     0
 62
     7
  6
Continuous
370
    -3
390
F
  0
LAYER
  5
20E
330
2
100
AcDbSymbolTableRecord
100
AcDbLayerTableRecord
  2
FRAMELAYER-190
 70
     0
 62
     7
  6
Continuous
370
    -3
390
F
  0
LAYER
  5
20F
330
2
100
AcDbSymbolTableRecord
100
AcDbLayerTableRecord
  2
FRAMELAYER-191
 70
     0
 62
     7
  6
Continuous
370
    -3
390
F
  0
LAYER
  5
210
330
2
100
AcDbSymbolTableRecord
100
AcDbLayerTableRecord
  2
FRAMELAYER-192
 70
     0
 62
     7
  6
Continuous
370
    -3
390
F
  0
LAYER
  5
211
330
2
100
AcDbSymbolTableRecord
100
AcDbLayerTableRecord
  2
FRAMELAYER-193
 70
     0
 62
     7
  6
Continuous
370
    -3
390
F
  0
LAYER
  5
212
330
2
100
AcDbSymbolTableRecord
100
AcDbLayerTableRecord
  2
FRAMELAYER-194
 70
     0
 62
     2
  6
Continuous
370
    -3
390
F
  0
LAYER
  5
213
330
2
100
AcDbSymbolTableRecord
100
AcDbLayerTableRecord
  2
FRAMELAYER-195
 70
     0
 62
     2
  6
Continuous
370
    -3
390
F
  0
LAYER
  5
214
330
2
100
AcDbSymbolTableRecord
100
AcDbLayerTableRecord
  2
FRAMELAYER-196
 70
     0
 62
     2
  6
Continuous
370
    -3
390
F
  0
LAYER
  5
215
330
2
100
AcDbSymbolTableRecord
100
AcDbLayerTableRecord
  2
FRAMELAYER-197
 70
     0
 62
     7
  6
Continuous
370
    -3
390
F
  0
LAYER
  5
216
330
2
100
AcDbSymbolTableRecord
100
AcDbLayerTableRecord
  2
FRAMELAYER-198
 70
     0
 62
     7
  6
Continuous
370
    -3
390
F
  0
LAYER
  5
217
330
2
100
AcDbSymbolTableRecord
100
AcDbLayerTableRecord
  2
FRAMELAYER-199
 70
     0
 62
     4
  6
Continuous
370
    -3
390
F
  0
LAYER
  5
218
330
2
100
AcDbSymbolTableRecord
100
AcDbLayerTableRecord
  2
FRAMELAYER-200
 70
     0
 62
     1
  6
Continuous
370
    -3
390
F
  0
LAYER
  5
219
330
2
100
AcDbSymbolTableRecord
100
AcDbLayerTableRecord
  2
FRAMELAYER-201
 70
     0
 62
     1
  6
Continuous
370
    -3
390
F
  0
LAYER
  5
21A
330
2
100
AcDbSymbolTableRecord
100
AcDbLayerTableRecord
  2
FRAMELAYER-202
 70
     0
 62
     2
  6
Continuous
370
    -3
390
F
  0
LAYER
  5
21B
330
2
100
AcDbSymbolTableRecord
100
AcDbLayerTableRecord
  2
FRAMELAYER-203
 70
     0
 62
     2
  6
Continuous
370
    -3
390
F
  0
LAYER
  5
21C
330
2
100
AcDbSymbolTableRecord
100
AcDbLayerTableRecord
  2
FRAMELAYER-204
 70
     0
 62
     7
  6
Continuous
370
    -3
390
F
  0
LAYER
  5
21D
330
2
100
AcDbSymbolTableRecord
100
AcDbLayerTableRecord
  2
FRAMELAYER-205
 70
     0
 62
     7
  6
Continuous
370
    -3
390
F
  0
LAYER
  5
21E
330
2
100
AcDbSymbolTableRecord
100
AcDbLayerTableRecord
  2
FRAMELAYER-206
 70
     0
 62
     7
  6
Continuous
370
    -3
390
F
  0
LAYER
  5
21F
330
2
100
AcDbSymbolTableRecord
100
AcDbLayerTableRecord
  2
FRAMELAYER-207
 70
     0
 62
    -7
  6
Continuous
370
    -3
390
F
  0
LAYER
  5
220
330
2
100
AcDbSymbolTableRecord
100
AcDbLayerTableRecord
  2
FRAMELAYER-208
 70
     0
 62
     2
  6
Continuous
370
    -3
390
F
  0
LAYER
  5
221
330
2
100
AcDbSymbolTableRecord
100
AcDbLayerTableRecord
  2
FRAMELAYER-209
 70
     0
 62
     7
  6
Continuous
370
    -3
390
F
  0
LAYER
  5
222
330
2
100
AcDbSymbolTableRecord
100
AcDbLayerTableRecord
  2
FRAMELAYER-210
 70
     0
 62
     2
  6
Continuous
290
     0
370
    -3
390
F
  0
LAYER
  5
223
330
2
100
AcDbSymbolTableRecord
100
AcDbLayerTableRecord
  2
FRAMELAYER-211
 70
     0
 62
     7
  6
Continuous
370
    -3
390
F
  0
LAYER
  5
224
330
2
100
AcDbSymbolTableRecord
100
AcDbLayerTableRecord
  2
FRAMELAYER-212
 70
     0
 62
     7
  6
Continuous
370
    -3
390
F
  0
LAYER
  5
225
330
2
100
AcDbSymbolTableRecord
100
AcDbLayerTableRecord
  2
FRAMELAYER-213
 70
     0
 62
     2
  6
Continuous
370
    -3
390
F
  0
LAYER
  5
226
330
2
100
AcDbSymbolTableRecord
100
AcDbLayerTableRecord
  2
FRAMELAYER-214
 70
     0
 62
     7
  6
Continuous
370
    -3
390
F
  0
LAYER
  5
227
330
2
100
AcDbSymbolTableRecord
100
AcDbLayerTableRecord
  2
FRAMELAYER-215
 70
     0
 62
     7
  6
Continuous
370
    -3
390
F
  0
LAYER
  5
228
330
2
100
AcDbSymbolTableRecord
100
AcDbLayerTableRecord
  2
FRAMELAYER-216
 70
     0
 62
     4
  6
Continuous
370
    -3
390
F
  0
LAYER
  5
229
330
2
100
AcDbSymbolTableRecord
100
AcDbLayerTableRecord
  2
FRAMELAYER-217
 70
     0
 62
     7
  6
Continuous
370
    -3
390
F
  0
LAYER
  5
22A
330
2
100
AcDbSymbolTableRecord
100
AcDbLayerTableRecord
  2
FRAMELAYER-218
 70
     0
 62
     7
  6
Continuous
370
    -3
390
F
  0
LAYER
  5
22B
330
2
100
AcDbSymbolTableRecord
100
AcDbLayerTableRecord
  2
FRAMELAYER-219
 70
     0
 62
     7
  6
Continuous
370
    -3
390
F
  0
LAYER
  5
22C
330
2
100
AcDbSymbolTableRecord
100
AcDbLayerTableRecord
  2
FRAMELAYER-220
 70
     0
 62
     4
  6
Continuous
370
    -3
390
F
  0
LAYER
  5
22D
330
2
100
AcDbSymbolTableRecord
100
AcDbLayerTableRecord
  2
FRAMELAYER-221
 70
     0
 62
    -7
  6
Continuous
290
     0
370
    -3
390
F
  0
LAYER
  5
22E
330
2
100
AcDbSymbolTableRecord
100
AcDbLayerTableRecord
  2
FRAMELAYER-222
 70
     0
 62
    -4
  6
Continuous
290
     0
370
    -3
390
F
  0
LAYER
  5
22F
330
2
100
AcDbSymbolTableRecord
100
AcDbLayerTableRecord
  2
FRAMELAYER-223
 70
     0
 62
    -1
  6
Continuous
290
     0
370
    -3
390
F
  0
LAYER
  5
230
330
2
100
AcDbSymbolTableRecord
100
AcDbLayerTableRecord
  2
FRAMELAYER-224
 70
     0
 62
    -1
  6
Continuous
290
     0
370
    -3
390
F
  0
LAYER
  5
231
330
2
100
AcDbSymbolTableRecord
100
AcDbLayerTableRecord
  2
FRAMELAYER-225
 70
     0
 62
     7
  6
Continuous
370
    -3
390
F
  0
LAYER
  5
232
330
2
100
AcDbSymbolTableRecord
100
AcDbLayerTableRecord
  2
FRAMELAYER-226
 70
     0
 62
     2
  6
Continuous
370
    -3
390
F
  0
LAYER
  5
233
330
2
100
AcDbSymbolTableRecord
100
AcDbLayerTableRecord
  2
FRAMELAYER-227
 70
     0
 62
     7
  6
Continuous
370
    -3
390
F
  0
LAYER
  5
234
330
2
100
AcDbSymbolTableRecord
100
AcDbLayerTableRecord
  2
FRAMELAYER-228
 70
     0
 62
     7
  6
Continuous
370
    -3
390
F
  0
LAYER
  5
235
330
2
100
AcDbSymbolTableRecord
100
AcDbLayerTableRecord
  2
FRAMELAYER-229
 70
     0
 62
     7
  6
Continuous
370
    -3
390
F
  0
LAYER
  5
236
330
2
100
AcDbSymbolTableRecord
100
AcDbLayerTableRecord
  2
FRAMELAYER-230
 70
     0
 62
     7
  6
Continuous
370
    -3
390
F
  0
LAYER
  5
237
330
2
100
AcDbSymbolTableRecord
100
AcDbLayerTableRecord
  2
FRAMELAYER-231
 70
     0
 62
     7
  6
Continuous
370
    -3
390
F
  0
LAYER
  5
238
330
2
100
AcDbSymbolTableRecord
100
AcDbLayerTableRecord
  2
FRAMELAYER-232
 70
     0
 62
     7
  6
Continuous
370
    -3
390
F
  0
LAYER
  5
239
330
2
100
AcDbSymbolTableRecord
100
AcDbLayerTableRecord
  2
FRAMELAYER-233
 70
     0
 62
     7
  6
Continuous
370
    -3
390
F
  0
LAYER
  5
23A
330
2
100
AcDbSymbolTableRecord
100
AcDbLayerTableRecord
  2
FRAMELAYER-234
 70
     0
 62
     7
  6
Continuous
370
    -3
390
F
  0
LAYER
  5
23B
330
2
100
AcDbSymbolTableRecord
100
AcDbLayerTableRecord
  2
FRAMELAYER-235
 70
     0
 62
     7
  6
Continuous
370
    -3
390
F
  0
LAYER
  5
23C
330
2
100
AcDbSymbolTableRecord
100
AcDbLayerTableRecord
  2
FRAMELAYER-236
 70
     0
 62
     7
  6
Continuous
370
    -3
390
F
  0
LAYER
  5
23D
330
2
100
AcDbSymbolTableRecord
100
AcDbLayerTableRecord
  2
FRAMELAYER-237
 70
     0
 62
     7
  6
Continuous
370
    -3
390
F
  0
LAYER
  5
23E
330
2
100
AcDbSymbolTableRecord
100
AcDbLayerTableRecord
  2
FRAMELAYER-238
 70
     0
 62
     7
  6
Continuous
370
    -3
390
F
  0
LAYER
  5
23F
330
2
100
AcDbSymbolTableRecord
100
AcDbLayerTableRecord
  2
FRAMELAYER-239
 70
     0
 62
     7
  6
Continuous
370
    -3
390
F
  0
LAYER
  5
240
330
2
100
AcDbSymbolTableRecord
100
AcDbLayerTableRecord
  2
FRAMELAYER-240
 70
     0
 62
     7
  6
Continuous
370
    -3
390
F
  0
LAYER
  5
241
330
2
100
AcDbSymbolTableRecord
100
AcDbLayerTableRecord
  2
FRAMELAYER-241
 70
     0
 62
     7
  6
Continuous
370
    -3
390
F
  0
LAYER
  5
242
330
2
100
AcDbSymbolTableRecord
100
AcDbLayerTableRecord
  2
FRAMELAYER-242
 70
     0
 62
     7
  6
Continuous
370
    -3
390
F
  0
LAYER
  5
243
330
2
100
AcDbSymbolTableRecord
100
AcDbLayerTableRecord
  2
FRAMELAYER-243
 70
     0
 62
     7
  6
Continuous
370
    -3
390
F
  0
LAYER
  5
244
330
2
100
AcDbSymbolTableRecord
100
AcDbLayerTableRecord
  2
FRAMELAYER-244
 70
     0
 62
     7
  6
Continuous
370
    -3
390
F
  0
LAYER
  5
245
330
2
100
AcDbSymbolTableRecord
100
AcDbLayerTableRecord
  2
FRAMELAYER-245
 70
     0
 62
     7
  6
Continuous
370
    -3
390
F
  0
LAYER
  5
246
330
2
100
AcDbSymbolTableRecord
100
AcDbLayerTableRecord
  2
FRAMELAYER-246
 70
     0
 62
     7
  6
Continuous
370
    -3
390
F
  0
LAYER
  5
247
330
2
100
AcDbSymbolTableRecord
100
AcDbLayerTableRecord
  2
FRAMELAYER-247
 70
     0
 62
     7
  6
Continuous
370
    -3
390
F
  0
LAYER
  5
248
330
2
100
AcDbSymbolTableRecord
100
AcDbLayerTableRecord
  2
FRAMELAYER-248
 70
     0
 62
     7
  6
Continuous
370
    -3
390
F
  0
LAYER
  5
249
330
2
100
AcDbSymbolTableRecord
100
AcDbLayerTableRecord
  2
FRAMELAYER-249
 70
     0
 62
     7
  6
Continuous
370
    -3
390
F
  0
LAYER
  5
24A
330
2
100
AcDbSymbolTableRecord
100
AcDbLayerTableRecord
  2
FRAMELAYER-250
 70
     0
 62
     7
  6
Continuous
370
    -3
390
F
  0
LAYER
  5
24B
330
2
100
AcDbSymbolTableRecord
100
AcDbLayerTableRecord
  2
FRAMELAYER-251
 70
     0
 62
     7
  6
Continuous
370
    -3
390
F
  0
LAYER
  5
24C
330
2
100
AcDbSymbolTableRecord
100
AcDbLayerTableRecord
  2
FRAMELAYER-252
 70
     0
 62
     7
  6
Continuous
370
    -3
390
F
  0
LAYER
  5
24D
330
2
100
AcDbSymbolTableRecord
100
AcDbLayerTableRecord
  2
FRAMELAYER-253
 70
     0
 62
     7
  6
Continuous
370
    -3
390
F
  0
LAYER
  5
24E
330
2
100
AcDbSymbolTableRecord
100
AcDbLayerTableRecord
  2
FRAMELAYER-254
 70
     0
 62
     7
  6
Continuous
370
    -3
390
F
  0
LAYER
  5
24F
330
2
100
AcDbSymbolTableRecord
100
AcDbLayerTableRecord
  2
FRAMELAYER-255
 70
     0
 62
     7
  6
Continuous
370
    -3
390
F
  0
LAYER
  5
250
330
2
100
AcDbSymbolTableRecord
100
AcDbLayerTableRecord
  2
FRAMELAYER-256
 70
     0
 62
     7
  6
Continuous
370
    -3
390
F
  0
ENDTAB
  0
TABLE
  2
STYLE
  5
3
330
0
100
AcDbSymbolTable
 70
     7
  0
STYLE
  5
11
330
3
100
AcDbSymbolTableRecord
100
AcDbTextStyleTableRecord
  2
Standard
 70
     0
 40
0.0
 41
1.0
 50
0.0
 71
     0
 42
2.5
  3
txt
  4

  0
STYLE
  5
31
330
3
100
AcDbSymbolTableRecord
100
AcDbTextStyleTableRecord
  2
STANDARD2
 70
     0
 40
0.0
 41
1.0
 50
0.0
 71
     0
 42
4.0
  3
MS Mincho.ttf
  4

1001
ACAD
1000
MS Mincho
1071
    32785
  0
STYLE
  5
32
330
3
100
AcDbSymbolTableRecord
100
AcDbTextStyleTableRecord
  2
STRING_H
 70
     0
 40
0.0
 41
1.0
 50
0.0
 71
     0
 42
4.0
  3
MS Mincho.ttf
  4

1001
ACAD
1000
MS Mincho
1071
    32785
  0
STYLE
  5
33
330
3
100
AcDbSymbolTableRecord
100
AcDbTextStyleTableRecord
  2
STRING_H_ITALIC
 70
     0
 40
0.0
 41
1.0
 50
15.0
 71
     0
 42
4.0
  3
MS Mincho.ttf
  4

1001
ACAD
1000
MS Mincho
1071
    32785
  0
STYLE
  5
34
330
3
100
AcDbSymbolTableRecord
100
AcDbTextStyleTableRecord
  2
STRING_V
 70
     0
 40
0.0
 41
1.0
 50
0.0
 71
     0
 42
4.0
  3
@MS Mincho.ttf
  4

1001
ACAD
1000
@MS Mincho
1071
    32785
  0
STYLE
  5
35
330
3
100
AcDbSymbolTableRecord
100
AcDbTextStyleTableRecord
  2
STRING_V_ITALIC
 70
     0
 40
0.0
 41
1.0
 50
15.0
 71
     0
 42
4.0
  3
@MS Mincho.ttf
  4

1001
ACAD
1000
@MS Mincho
1071
    32785
  0
STYLE
  5
36
330
3
100
AcDbSymbolTableRecord
100
AcDbTextStyleTableRecord
  2

 70
     1
 40
0.0
 41
1.0
 50
0.0
 71
     0
 42
0.2
  3
ltypeshp.shx
  4

  0
ENDTAB
  0
TABLE
  2
VIEW
  5
6
330
0
100
AcDbSymbolTable
 70
     0
  0
ENDTAB
  0
TABLE
  2
UCS
  5
7
330
0
100
AcDbSymbolTable
 70
     0
  0
ENDTAB
  0
TABLE
  2
APPID
  5
9
330
0
100
AcDbSymbolTable
 70
     1
  0
APPID
  5
12
330
9
100
AcDbSymbolTableRecord
100
AcDbRegAppTableRecord
  2
ACAD
 70
     0
  0
ENDTAB
  0
TABLE
  2
DIMSTYLE
  5
A
330
0
100
AcDbSymbolTable
 70
     2
100
AcDbDimStyleTable
  0
DIMSTYLE
105
27
330
A
100
AcDbSymbolTableRecord
100
AcDbDimStyleTableRecord
  2
ISO-25
 70
     0
 41
2.5
 42
0.625
 43
3.75
 44
1.25
 73
     0
 74
     0
 77
     1
 78
     8
140
2.5
141
2.5
143
0.03937007874016
147
0.625
171
     3
172
     1
271
     2
272
     2
274
     3
283
     0
284
     8
340
11
  0
DIMSTYLE
105
251
102
{ACAD_REACTORS
330
509
330
513
330
51D
330
527
330
531
330
53B
102
}
330
A
100
AcDbSymbolTableRecord
100
AcDbDimStyleTableRecord
  2
DIO_DIMSTYLE
 70
     0
 41
4.0
 42
1.0
 43
3.75
 44
1.0
 45
0.1
 73
     0
 74
     0
 77
     1
 78
     8
 79
     2
140
3.0
141
2.5
143
0.03937007874016
147
0.5
171
     3
172
     1
173
     1
179
     1
271
     1
272
     1
274
     3
283
     0
284
     8
288
     1
289
     0
340
31
  0
ENDTAB
  0
TABLE
  2
BLOCK_RECORD
  5
1
330
0
100
AcDbSymbolTable
 70
     8
  0
BLOCK_RECORD
  5
1F
330
1
100
AcDbSymbolTableRecord
100
AcDbBlockTableRecord
  2
*Model_Space
340
22
  0
BLOCK_RECORD
  5
1B
330
1
100
AcDbSymbolTableRecord
100
AcDbBlockTableRecord
  2
*Paper_Space
340
1E
  0
BLOCK_RECORD
  5
23
330
1
100
AcDbSymbolTableRecord
100
AcDbBlockTableRecord
  2
*Paper_Space0
340
26
  0
BLOCK_RECORD
  5
4FA
330
1
100
AcDbSymbolTableRecord
100
AcDbBlockTableRecord
  2
_OPEN
340
0
102
{BLKREFS
331
503
331
504
331
50D
331
50E
331
517
331
518
331
521
331
522
331
52B
331
52C
331
535
331
536
102
}
  0
BLOCK_RECORD
  5
500
330
1
100
AcDbSymbolTableRecord
100
AcDbBlockTableRecord
  2
*D02
340
0
  0
BLOCK_RECORD
  5
50A
330
1
100
AcDbSymbolTableRecord
100
AcDbBlockTableRecord
  2
*D13
340
0
  0
BLOCK_RECORD
  5
514
330
1
100
AcDbSymbolTableRecord
100
AcDbBlockTableRecord
  2
*D24
340
0
  0
BLOCK_RECORD
  5
51E
330
1
100
AcDbSymbolTableRecord
100
AcDbBlockTableRecord
  2
*D35
340
0
  0
BLOCK_RECORD
  5
528
330
1
100
AcDbSymbolTableRecord
100
AcDbBlockTableRecord
  2
*D46
340
0
  0
BLOCK_RECORD
  5
532
330
1
100
AcDbSymbolTableRecord
100
AcDbBlockTableRecord
  2
*D57
340
0
  0
ENDTAB
  0
ENDSEC
  0
SECTION
  2
BLOCKS
  0
BLOCK
  5
20
330
1F
100
AcDbEntity
  8
0
100
AcDbBlockBegin
  2
*Model_Space
 70
     0
 71
     0
 10
0.0
 20
0.0
 30
0.0
  3
*Model_Space
  1

  0
ENDBLK
  5
21
330
1F
100
AcDbEntity
  8
0
100
AcDbBlockEnd
  0
BLOCK
  5
1C
330
1B
100
AcDbEntity
 67
     1
  8
0
100
AcDbBlockBegin
  2
*Paper_Space
 70
     0
 71
     0
 10
0.0
 20
0.0
 30
0.0
  3
*Paper_Space
  1

  0
ENDBLK
  5
1D
330
1B
100
AcDbEntity
 67
     1
  8
0
100
AcDbBlockEnd
  0
BLOCK
  5
24
330
23
100
AcDbEntity
  8
0
100
AcDbBlockBegin
  2
*Paper_Space0
 70
     0
 71
     0
 10
0.0
 20
0.0
 30
0.0
  3
*Paper_Space0
  1

  0
ENDBLK
  5
25
330
23
100
AcDbEntity
  8
0
100
AcDbBlockEnd
  0
BLOCK
  5
4FB
330
4FA
100
AcDbEntity
  8
0
100
AcDbBlockBegin
  2
_OPEN
 70
     0
 71
     0
 10
0.0
 20
0.0
 30
0.0
  3
_OPEN
  1

  0
LINE
  5
4FD
330
4FA
100
AcDbEntity
  8
LAYER-035
  6
Continuous
 62
     0
100
AcDbLine
 10
0.0
 20
0.0
 30
0.0
 11
-1.0
 21
0.0
 31
0.0
  0
LINE
  5
4FE
330
4FA
100
AcDbEntity
  8
LAYER-035
  6
Continuous
 62
     0
100
AcDbLine
 10
0.0
 20
0.0
 30
0.0
 11
-1.0
 21
0.1666250109338451
 31
0.0
  0
LINE
  5
4FF
330
4FA
100
AcDbEntity
  8
LAYER-035
  6
Continuous
 62
     0
100
AcDbLine
 10
0.0
 20
0.0
 30
0.0
 11
-1.0
 21
-0.1666250109338451
 31
0.0
  0
ENDBLK
  5
4FC
330
4FA
100
AcDbEntity
  8
0
100
AcDbBlockEnd
  0
BLOCK
  5
501
330
500
100
AcDbEntity
  8
0
100
AcDbBlockBegin
  2
*D02
 70
     1
 71
     0
 10
0.0
 20
0.0
 30
0.0
  3
*D02
  1

  0
INSERT
  5
503
330
500
100
AcDbEntity
  8
LAYER-035
  6
Continuous
 62
     5
100
AcDbBlockReference
  2
_OPEN
 10
-549.3129541784615
 20
-242.8598782642426
 30
0.0
 41
4.0
 42
4.0
 43
4.0
 50
-90.0
  0
INSERT
  5
504
330
500
100
AcDbEntity
  8
LAYER-035
  6
Continuous
 62
     5
100
AcDbBlockReference
  2
_OPEN
 10
-549.3129541784615
 20
332.1401217357574
 30
0.0
 41
4.0
 42
4.0
 43
4.0
 50
90.0
  0
LINE
  5
505
330
500
100
AcDbEntity
  8
LAYER-035
  6
Continuous
 62
     5
100
AcDbLine
 10
-495.3384615384615
 20
-242.8598782642426
 30
0.0
 11
-550.3129541784615
 21
-242.8598782642426
 31
0.0
  0
LINE
  5
506
330
500
100
AcDbEntity
  8
LAYER-035
  6
Continuous
 62
     5
100
AcDbLine
 10
-482.4171132237865
 20
332.1401217357575
 30
0.0
 11
-550.3129541784615
 21
332.1401217357574
 31
0.0
  0
LINE
  5
507
330
500
100
AcDbEntity
  8
LAYER-035
  6
Continuous
 62
     5
100
AcDbLine
 10
-549.3129541784615
 20
-242.8598782642426
 30
0.0
 11
-549.3129541784615
 21
332.1401217357574
 31
0.0
  0
MTEXT
  5
508
330
500
100
AcDbEntity
  8
LAYER-036
  6
Continuous
 62
     5
100
AcDbMText
 10
-549.8129541784615
 20
44.64012173575742
 30
0.0
 40
4.0
 41
0.0
 71
     8
 72
     1
  1
575
  7
STRING_H
 11
6.123031769111886E-17
 21
1.0
 31
0.0
 73
     1
 44
1.0
  0
ENDBLK
  5
502
330
500
100
AcDbEntity
  8
0
100
AcDbBlockEnd
  0
BLOCK
  5
50B
330
50A
100
AcDbEntity
  8
0
100
AcDbBlockBegin
  2
*D13
 70
     1
 71
     0
 10
0.0
 20
0.0
 30
0.0
  3
*D13
  1

  0
INSERT
  5
50D
330
50A
100
AcDbEntity
  8
LAYER-035
  6
Continuous
 62
     5
100
AcDbBlockReference
  2
_OPEN
 10
-429.3384615384616
 20
-291.7616685445728
 30
0.0
 41
4.0
 42
4.0
 43
4.0
 50
180.0
  0
INSERT
  5
50E
330
50A
100
AcDbEntity
  8
LAYER-035
  6
Continuous
 62
     5
100
AcDbBlockReference
  2
_OPEN
 10
40.66153846153844
 20
-291.7616685445728
 30
0.0
 41
4.0
 42
4.0
 43
4.0
  0
LINE
  5
50F
330
50A
100
AcDbEntity
  8
LAYER-035
  6
Continuous
 62
     5
100
AcDbLine
 10
-429.3384615384616
 20
-259.9295156802088
 30
0.0
 11
-429.3384615384616
 21
-292.7616685445728
 31
0.0
  0
LINE
  5
510
330
50A
100
AcDbEntity
  8
LAYER-035
  6
Continuous
 62
     5
100
AcDbLine
 10
40.66153846153844
 20
-259.9295156799735
 30
0.0
 11
40.66153846153844
 21
-292.7616685445728
 31
0.0
  0
LINE
  5
511
330
50A
100
AcDbEntity
  8
LAYER-035
  6
Continuous
 62
     5
100
AcDbLine
 10
-429.3384615384616
 20
-291.7616685445728
 30
0.0
 11
40.66153846153844
 21
-291.7616685445728
 31
0.0
  0
MTEXT
  5
512
330
50A
100
AcDbEntity
  8
LAYER-036
  6
Continuous
 62
     5
100
AcDbMText
 10
-194.3384615384616
 20
-291.2616685445728
 30
0.0
 40
4.0
 41
0.0
 71
     8
 72
     1
  1
470
  7
STRING_H
 73
     1
 44
1.0
  0
ENDBLK
  5
50C
330
50A
100
AcDbEntity
  8
0
100
AcDbBlockEnd
  0
BLOCK
  5
515
330
514
100
AcDbEntity
  8
0
100
AcDbBlockBegin
  2
*D24
 70
     1
 71
     0
 10
0.0
 20
0.0
 30
0.0
  3
*D24
  1

  0
INSERT
  5
517
330
514
100
AcDbEntity
  8
LAYER-035
  6
Continuous
 62
     5
100
AcDbBlockReference
  2
_OPEN
 10
-494.3384615384616
 20
-323.5354459377481
 30
0.0
 41
4.0
 42
4.0
 43
4.0
 50
180.0
  0
INSERT
  5
518
330
514
100
AcDbEntity
  8
LAYER-035
  6
Continuous
 62
     5
100
AcDbBlockReference
  2
_OPEN
 10
105.6615384615384
 20
-323.5354459377481
 30
0.0
 41
4.0
 42
4.0
 43
4.0
  0
LINE
  5
519
330
514
100
AcDbEntity
  8
LAYER-035
  6
Continuous
 62
     5
100
AcDbLine
 10
-494.3384615384616
 20
-243.8598782642425
 30
0.0
 11
-494.3384615384616
 21
-324.5354459377481
 31
0.0
  0
LINE
  5
51A
330
514
100
AcDbEntity
  8
LAYER-035
  6
Continuous
 62
     5
100
AcDbLine
 10
105.6615384615384
 20
-243.8598782642425
 30
0.0
 11
105.6615384615384
 21
-324.5354459377481
 31
0.0
  0
LINE
  5
51B
330
514
100
AcDbEntity
  8
LAYER-035
  6
Continuous
 62
     5
100
AcDbLine
 10
-494.3384615384616
 20
-323.5354459377481
 30
0.0
 11
105.6615384615384
 21
-323.5354459377481
 31
0.0
  0
MTEXT
  5
51C
330
514
100
AcDbEntity
  8
LAYER-036
  6
Continuous
 62
     5
100
AcDbMText
 10
-194.3384615384616
 20
-323.0354459377481
 30
0.0
 40
4.0
 41
0.0
 71
     8
 72
     1
  1
600
  7
STRING_H
 73
     1
 44
1.0
  0
ENDBLK
  5
516
330
514
100
AcDbEntity
  8
0
100
AcDbBlockEnd
  0
BLOCK
  5
51F
330
51E
100
AcDbEntity
  8
0
100
AcDbBlockBegin
  2
*D35
 70
     1
 71
     0
 10
0.0
 20
0.0
 30
0.0
  3
*D35
  1

  0
INSERT
  5
521
330
51E
100
AcDbEntity
  8
LAYER-035
  6
Continuous
 62
     5
100
AcDbBlockReference
  2
_OPEN
 10
171.3506214615359
 20
-21.70309890778118
 30
0.0
 41
4.0
 42
4.0
 43
4.0
 50
180.0
  0
INSERT
  5
522
330
51E
100
AcDbEntity
  8
LAYER-035
  6
Continuous
 62
     5
100
AcDbBlockReference
  2
_OPEN
 10
551.3506214615359
 20
-21.70309890778118
 30
0.0
 41
4.0
 42
4.0
 43
4.0
  0
LINE
  5
523
330
51E
100
AcDbEntity
  8
LAYER-035
  6
Continuous
 62
     5
100
AcDbLine
 10
171.3506214615359
 20
83.612031848117
 30
0.0
 11
171.3506214615359
 21
-22.70309890778117
 31
0.0
  0
LINE
  5
524
330
51E
100
AcDbEntity
  8
LAYER-035
  6
Continuous
 62
     5
100
AcDbLine
 10
551.3506214615359
 20
83.612031848117
 30
0.0
 11
551.3506214615359
 21
-22.70309890778117
 31
0.0
  0
LINE
  5
525
330
51E
100
AcDbEntity
  8
LAYER-035
  6
Continuous
 62
     5
100
AcDbLine
 10
171.3506214615359
 20
-21.70309890778118
 30
0.0
 11
551.3506214615359
 21
-21.70309890778118
 31
0.0
  0
MTEXT
  5
526
330
51E
100
AcDbEntity
  8
LAYER-036
  6
Continuous
 62
     5
100
AcDbMText
 10
349.0125893602823
 20
-21.20309890778118
 30
0.0
 40
4.0
 41
0.0
 71
     8
 72
     1
  1
380
  7
STRING_H
 73
     1
 44
1.0
  0
ENDBLK
  5
520
330
51E
100
AcDbEntity
  8
0
100
AcDbBlockEnd
  0
BLOCK
  5
529
330
528
100
AcDbEntity
  8
0
100
AcDbBlockBegin
  2
*D46
 70
     1
 71
     0
 10
0.0
 20
0.0
 30
0.0
  3
*D46
  1

  0
INSERT
  5
52B
330
528
100
AcDbEntity
  8
LAYER-035
  6
Continuous
 62
     5
100
AcDbBlockReference
  2
_OPEN
 10
211.3506214615359
 20
-291.7616685445728
 30
0.0
 41
4.0
 42
4.0
 43
4.0
 50
180.0
  0
INSERT
  5
52C
330
528
100
AcDbEntity
  8
LAYER-035
  6
Continuous
 62
     5
100
AcDbBlockReference
  2
_OPEN
 10
511.3506214615359
 20
-291.7616685445728
 30
0.0
 41
4.0
 42
4.0
 43
4.0
  0
LINE
  5
52D
330
528
100
AcDbEntity
  8
LAYER-035
  6
Continuous
 62
     5
100
AcDbLine
 10
211.3506214615359
 20
-260.6691072788519
 30
0.0
 11
211.3506214615359
 21
-292.7616685445728
 31
0.0
  0
LINE
  5
52E
330
528
100
AcDbEntity
  8
LAYER-035
  6
Continuous
 62
     5
100
AcDbLine
 10
511.3506214615359
 20
-260.6691072788518
 30
0.0
 11
511.3506214615359
 21
-292.7616685445728
 31
0.0
  0
LINE
  5
52F
330
528
100
AcDbEntity
  8
LAYER-035
  6
Continuous
 62
     5
100
AcDbLine
 10
211.3506214615359
 20
-291.7616685445728
 30
0.0
 11
511.3506214615359
 21
-291.7616685445728
 31
0.0
  0
MTEXT
  5
530
330
528
100
AcDbEntity
  8
LAYER-036
  6
Continuous
 62
     5
100
AcDbMText
 10
361.3506214615359
 20
-291.2616685445728
 30
0.0
 40
4.0
 41
0.0
 71
     8
 72
     1
  1
300
  7
STRING_H
 73
     1
 44
1.0
  0
ENDBLK
  5
52A
330
528
100
AcDbEntity
  8
0
100
AcDbBlockEnd
  0
BLOCK
  5
533
330
532
100
AcDbEntity
  8
0
100
AcDbBlockBegin
  2
*D57
 70
     1
 71
     0
 10
0.0
 20
0.0
 30
0.0
  3
*D57
  1

  0
INSERT
  5
535
330
532
100
AcDbEntity
  8
LAYER-035
  6
Continuous
 62
     5
100
AcDbBlockReference
  2
_OPEN
 10
188.8506214615359
 20
-323.5354459377481
 30
0.0
 41
4.0
 42
4.0
 43
4.0
 50
180.0
  0
INSERT
  5
536
330
532
100
AcDbEntity
  8
LAYER-035
  6
Continuous
 62
     5
100
AcDbBlockReference
  2
_OPEN
 10
533.8506214615359
 20
-323.5354459377481
 30
0.0
 41
4.0
 42
4.0
 43
4.0
  0
LINE
  5
537
330
532
100
AcDbEntity
  8
LAYER-035
  6
Continuous
 62
     5
100
AcDbLine
 10
188.8506214615359
 20
-243.8598782642425
 30
0.0
 11
188.8506214615359
 21
-324.5354459377481
 31
0.0
  0
LINE
  5
538
330
532
100
AcDbEntity
  8
LAYER-035
  6
Continuous
 62
     5
100
AcDbLine
 10
533.8506214615359
 20
-243.8598782642425
 30
0.0
 11
533.8506214615359
 21
-324.5354459377481
 31
0.0
  0
LINE
  5
539
330
532
100
AcDbEntity
  8
LAYER-035
  6
Continuous
 62
     5
100
AcDbLine
 10
188.8506214615359
 20
-323.5354459377481
 30
0.0
 11
533.8506214615359
 21
-323.5354459377481
 31
0.0
  0
MTEXT
  5
53A
330
532
100
AcDbEntity
  8
LAYER-036
  6
Continuous
 62
     5
100
AcDbMText
 10
361.3506214615359
 20
-323.0354459377481
 30
0.0
 40
4.0
 41
0.0
 71
     8
 72
     1
  1
345
  7
STRING_H
 73
     1
 44
1.0
  0
ENDBLK
  5
534
330
532
100
AcDbEntity
  8
0
100
AcDbBlockEnd
  0
ENDSEC
  0
SECTION
  2
ENTITIES
  0
LINE
  5
252
330
1F
100
AcDbEntity
  8
LAYER-033
  6
Continuous
 62
     1
100
AcDbLine
 10
-80.71560684896083
 20
-369.6521608153309
 30
0.0
 11
37.0295179814872
 21
-369.6521608153309
 31
0.0
  0
LINE
  5
253
330
1F
100
AcDbEntity
  8
LAYER-033
  6
Continuous
 62
     1
100
AcDbLine
 10
-80.71560684896083
 20
-377.7376109166353
 30
0.0
 11
-22.64859653968249
 21
-377.7376109166353
 31
0.0
  0
LINE
  5
254
330
1F
100
AcDbEntity
  8
LAYER-033
  6
Continuous
 62
     1
100
AcDbLine
 10
-80.71560684896083
 20
-361.5667107140266
 30
0.0
 11
-22.64859653968249
 21
-361.5667107140266
 31
0.0
  0
LINE
  5
255
330
1F
100
AcDbEntity
  8
LAYER-256
  6
Continuous
 62
     1
100
AcDbLine
 10
-443.4316960328471
 20
-178.2531366912088
 30
0.0
 11
-443.4316960328471
 21
-236.3992041069392
 31
0.0
  0
LINE
  5
256
330
1F
100
AcDbEntity
  8
LAYER-256
  6
Continuous
 62
     1
100
AcDbLine
 10
-415.2452283362147
 20
-178.2531366912088
 30
0.0
 11
-415.2452283362147
 21
-236.3992041069392
 31
0.0
  0
LINE
  5
257
330
1F
100
AcDbEntity
  8
LAYER-256
  6
CENTER
 62
     4
100
AcDbLine
 10
-407.3150144036283
 20
-205.6003653990799
 30
0.0
 11
-449.667518055318
 21
-205.6003653990799
 31
0.0
  0
CIRCLE
  5
258
330
1F
100
AcDbEntity
  8
LAYER-256
  6
Continuous
 62
     1
100
AcDbCircle
 10
-429.3384615384616
 20
-205.6003653990799
 30
0.0
 40
5.168539325842697
  0
CIRCLE
  5
259
330
1F
100
AcDbEntity
  8
LAYER-256
  6
Continuous
 62
     1
100
AcDbCircle
 10
-429.3384615384616
 20
-205.6003653990799
 30
0.0
 40
10.66011235955056
  0
LINE
  5
25A
330
1F
100
AcDbEntity
  8
LAYER-256
  6
Continuous
 62
     1
100
AcDbLine
 10
-429.3384615384616
 20
-193.2911271968327
 30
0.0
 11
-418.6783491789133
 21
-199.4457462979505
 31
0.0
  0
LINE
  5
25B
330
1F
100
AcDbEntity
  8
LAYER-256
  6
Continuous
 62
     1
100
AcDbLine
 10
-418.6783491789133
 20
-199.4457462979505
 30
0.0
 11
-418.6783491789133
 21
-211.7549845001977
 31
0.0
  0
LINE
  5
25C
330
1F
100
AcDbEntity
  8
LAYER-256
  6
Continuous
 62
     1
100
AcDbLine
 10
-418.6783491789133
 20
-211.7549845001977
 30
0.0
 11
-429.3384615384616
 21
-217.9096023091884
 31
0.0
  0
LINE
  5
25D
330
1F
100
AcDbEntity
  8
LAYER-256
  6
Continuous
 62
     1
100
AcDbLine
 10
-429.3384615384616
 20
-217.9096023091884
 30
0.0
 11
-439.9985738980157
 21
-211.7549845001977
 31
0.0
  0
LINE
  5
25E
330
1F
100
AcDbEntity
  8
LAYER-256
  6
Continuous
 62
     1
100
AcDbLine
 10
-439.9985738980157
 20
-211.7549845001977
 30
0.0
 11
-439.9985738980157
 21
-199.4457462979505
 31
0.0
  0
LINE
  5
25F
330
1F
100
AcDbEntity
  8
LAYER-256
  6
Continuous
 62
     1
100
AcDbLine
 10
-439.9985738980157
 20
-199.4457462979505
 30
0.0
 11
-429.3384615384616
 21
-193.2911271968327
 31
0.0
  0
LINE
  5
260
330
1F
100
AcDbEntity
  8
LAYER-256
  6
CENTER
 62
     4
100
AcDbLine
 10
-429.3384615384616
 20
-178.2531366912088
 30
0.0
 11
-429.3384615384616
 21
-258.9295156802088
 31
0.0
  0
CIRCLE
  5
261
330
1F
100
AcDbEntity
  8
LAYER-256
  6
Continuous
 62
     1
100
AcDbCircle
 10
-213.7213729991358
 20
113.4682970165576
 30
0.0
 40
5.54002808988764
  0
ARC
  5
262
330
1F
100
AcDbEntity
  8
LAYER-256
  6
Continuous
 62
     1
100
AcDbCircle
 10
-213.7213729991358
 20
113.4682970165576
 30
0.0
 40
10.28862359550562
100
AcDbArc
 50
0.0
 51
180.0
  0
LINE
  5
263
330
1F
100
AcDbEntity
  8
LAYER-256
  6
Continuous
 62
     1
100
AcDbLine
 10
-224.0099965946398
 20
113.4682970165576
 30
0.0
 11
-224.0099965946398
 21
94.21673493800734
 31
0.0
  0
LINE
  5
264
330
1F
100
AcDbEntity
  8
LAYER-256
  6
Continuous
 62
     1
100
AcDbLine
 10
-203.4327494036319
 20
113.4682970165576
 30
0.0
 11
-203.4327494036319
 21
94.21673493800734
 31
0.0
  0
LINE
  5
265
330
1F
100
AcDbEntity
  8
LAYER-256
  6
Continuous
 62
     1
100
AcDbLine
 10
-220.2087827182366
 20
106.7721442076694
 30
0.0
 11
-220.2087827182366
 21
98.6166310616025
 31
0.0
  0
LINE
  5
266
330
1F
100
AcDbEntity
  8
LAYER-256
  6
Continuous
 62
     1
100
AcDbLine
 10
-207.2339632800351
 20
106.7721442076694
 30
0.0
 11
-207.2339632800351
 21
98.6166310616025
 31
0.0
  0
LINE
  5
267
330
1F
100
AcDbEntity
  8
LAYER-256
  6
Continuous
 62
     1
100
AcDbLine
 10
-224.0099965946398
 20
94.21673493800734
 30
0.0
 11
-203.4327494036319
 21
94.21673493800734
 31
0.0
  0
LINE
  5
268
330
1F
100
AcDbEntity
  8
LAYER-256
  6
Continuous
 62
     1
100
AcDbLine
 10
-220.2087827182366
 20
94.21673493800734
 30
0.0
 11
-220.2087827182366
 21
84.612031848117
 31
0.0
  0
LINE
  5
269
330
1F
100
AcDbEntity
  8
LAYER-256
  6
Continuous
 62
     1
100
AcDbLine
 10
-207.2339632800351
 20
94.21673493800734
 30
0.0
 11
-207.2339632800351
 21
84.612031848117
 31
0.0
  0
CIRCLE
  5
26A
330
1F
100
AcDbEntity
  8
LAYER-256
  6
Continuous
 62
     1
100
AcDbCircle
 10
-174.9555513699261
 20
113.4682970165576
 30
0.0
 40
5.54002808988764
  0
ARC
  5
26B
330
1F
100
AcDbEntity
  8
LAYER-256
  6
Continuous
 62
     1
100
AcDbCircle
 10
-174.9555513699261
 20
113.4682970165576
 30
0.0
 40
10.28862359550562
100
AcDbArc
 50
0.0
 51
180.0
  0
LINE
  5
26C
330
1F
100
AcDbEntity
  8
LAYER-256
  6
Continuous
 62
     1
100
AcDbLine
 10
-164.6669277744163
 20
113.4682970165576
 30
0.0
 11
-164.6669277744163
 21
94.21673493800734
 31
0.0
  0
LINE
  5
26D
330
1F
100
AcDbEntity
  8
LAYER-256
  6
Continuous
 62
     1
100
AcDbLine
 10
-185.2441749654301
 20
113.4682970165576
 30
0.0
 11
-185.2441749654301
 21
94.21673493800734
 31
0.0
  0
LINE
  5
26E
330
1F
100
AcDbEntity
  8
LAYER-256
  6
Continuous
 62
     1
100
AcDbLine
 10
-168.4681416508253
 20
106.7721442076694
 30
0.0
 11
-168.4681416508253
 21
98.6166310616025
 31
0.0
  0
LINE
  5
26F
330
1F
100
AcDbEntity
  8
LAYER-256
  6
Continuous
 62
     1
100
AcDbLine
 10
-181.4429597968885
 20
106.7721442076694
 30
0.0
 11
-181.4429597968885
 21
98.6166310616025
 31
0.0
  0
LINE
  5
270
330
1F
100
AcDbEntity
  8
LAYER-256
  6
Continuous
 62
     1
100
AcDbLine
 10
-164.6669277744163
 20
94.21673493800734
 30
0.0
 11
-185.2441749654301
 21
94.21673493800734
 31
0.0
  0
LINE
  5
271
330
1F
100
AcDbEntity
  8
LAYER-256
  6
Continuous
 62
     1
100
AcDbLine
 10
-168.4681416508253
 20
94.21673493800734
 30
0.0
 11
-168.4681416508253
 21
84.612031848117
 31
0.0
  0
LINE
  5
272
330
1F
100
AcDbEntity
  8
LAYER-256
  6
Continuous
 62
     1
100
AcDbLine
 10
-181.4429597968885
 20
94.21673493800734
 30
0.0
 11
-181.4429597968885
 21
84.612031848117
 31
0.0
  0
LINE
  5
273
330
1F
100
AcDbEntity
  8
LAYER-256
  6
Continuous
 62
     1
100
AcDbLine
 10
-203.4327494036319
 20
97.53338016272375
 30
0.0
 11
-185.2441749654301
 21
97.53338016272375
 31
0.0
  0
LINE
  5
274
330
1F
100
AcDbEntity
  8
LAYER-256
  6
CENTER
 62
     4
100
AcDbLine
 10
-407.3150144036283
 20
124.880608870589
 30
0.0
 11
-449.667518055318
 21
124.880608870589
 31
0.0
  0
CIRCLE
  5
275
330
1F
100
AcDbEntity
  8
LAYER-256
  6
Continuous
 62
     1
100
AcDbCircle
 10
-429.3384615384616
 20
124.880608870589
 30
0.0
 40
5.168539325842697
  0
CIRCLE
  5
276
330
1F
100
AcDbEntity
  8
LAYER-256
  6
Continuous
 62
     1
100
AcDbCircle
 10
-429.3384615384616
 20
124.880608870589
 30
0.0
 40
10.66011235955056
  0
LINE
  5
277
330
1F
100
AcDbEntity
  8
LAYER-256
  6
Continuous
 62
     1
100
AcDbLine
 10
-429.3384615384616
 20
112.5713719604747
 30
0.0
 11
-418.6783491789133
 21
118.7259897694654
 31
0.0
  0
LINE
  5
278
330
1F
100
AcDbEntity
  8
LAYER-256
  6
Continuous
 62
     1
100
AcDbLine
 10
-418.6783491789133
 20
118.7259897694654
 30
0.0
 11
-418.6783491789133
 21
131.0352279717126
 31
0.0
  0
LINE
  5
279
330
1F
100
AcDbEntity
  8
LAYER-256
  6
Continuous
 62
     1
100
AcDbLine
 10
-418.6783491789133
 20
131.0352279717126
 30
0.0
 11
-429.3384615384616
 21
137.1898470728362
 31
0.0
  0
LINE
  5
27A
330
1F
100
AcDbEntity
  8
LAYER-256
  6
Continuous
 62
     1
100
AcDbLine
 10
-429.3384615384616
 20
137.1898470728362
 30
0.0
 11
-439.9985738980157
 21
131.0352279717126
 31
0.0
  0
LINE
  5
27B
330
1F
100
AcDbEntity
  8
LAYER-256
  6
Continuous
 62
     1
100
AcDbLine
 10
-439.9985738980157
 20
131.0352279717126
 30
0.0
 11
-439.9985738980157
 21
118.7259897694654
 31
0.0
  0
LINE
  5
27C
330
1F
100
AcDbEntity
  8
LAYER-256
  6
Continuous
 62
     1
100
AcDbLine
 10
-439.9985738980157
 20
118.7259897694654
 30
0.0
 11
-429.3384615384616
 21
112.5713719604747
 31
0.0
  0
LINE
  5
27D
330
1F
100
AcDbEntity
  8
LAYER-256
  6
CENTER
 62
     4
100
AcDbLine
 10
-429.3384615384616
 20
97.53338016272375
 30
0.0
 11
-429.3384615384616
 21
152.4617992638476
 31
0.0
  0
LINE
  5
27E
330
1F
100
AcDbEntity
  8
LAYER-256
  6
CENTER
 62
     4
100
AcDbLine
 10
-194.3384615384616
 20
160.6102935295382
 30
0.0
 11
-194.3384615384616
 21
-269.0838373653684
 31
0.0
  0
LINE
  5
27F
330
1F
100
AcDbEntity
  8
LAYER-256
  6
Continuous
 62
     1
100
AcDbLine
 10
54.75477166378528
 20
-178.2531366912088
 30
0.0
 11
54.75477166378528
 21
-236.3992041069391
 31
0.0
  0
LINE
  5
280
330
1F
100
AcDbEntity
  8
LAYER-256
  6
Continuous
 62
     1
100
AcDbLine
 10
26.56830396665038
 20
-178.2531366912088
 30
0.0
 11
26.56830396665038
 21
-236.3992041069391
 31
0.0
  0
LINE
  5
281
330
1F
100
AcDbEntity
  8
LAYER-256
  6
CENTER
 62
     4
100
AcDbLine
 10
18.63809132670511
 20
-205.6003653990799
 30
0.0
 11
60.99059368625609
 21
-205.6003653990799
 31
0.0
  0
CIRCLE
  5
282
330
1F
100
AcDbEntity
  8
LAYER-256
  6
Continuous
 62
     1
100
AcDbCircle
 10
40.66153846153844
 20
-205.6003653990799
 30
0.0
 40
5.168539325842697
  0
CIRCLE
  5
283
330
1F
100
AcDbEntity
  8
LAYER-256
  6
Continuous
 62
     1
100
AcDbCircle
 10
40.66153846153844
 20
-205.6003653990799
 30
0.0
 40
10.66011235955056
  0
LINE
  5
284
330
1F
100
AcDbEntity
  8
LAYER-256
  6
Continuous
 62
     1
100
AcDbLine
 10
40.66153846153844
 20
-193.2911271968327
 30
0.0
 11
30.00142610198432
 21
-199.4457462979505
 31
0.0
  0
LINE
  5
285
330
1F
100
AcDbEntity
  8
LAYER-256
  6
Continuous
 62
     1
100
AcDbLine
 10
30.00142610198432
 20
-199.4457462979505
 30
0.0
 11
30.00142610198432
 21
-211.7549845001977
 31
0.0
  0
LINE
  5
286
330
1F
100
AcDbEntity
  8
LAYER-256
  6
Continuous
 62
     1
100
AcDbLine
 10
30.00142610198432
 20
-211.7549845001977
 30
0.0
 11
40.66153846153844
 21
-217.9096023091884
 31
0.0
  0
LINE
  5
287
330
1F
100
AcDbEntity
  8
LAYER-256
  6
Continuous
 62
     1
100
AcDbLine
 10
40.66153846153844
 20
-217.9096023091884
 30
0.0
 11
51.32165082089023
 21
-211.7549845001977
 31
0.0
  0
LINE
  5
288
330
1F
100
AcDbEntity
  8
LAYER-256
  6
Continuous
 62
     1
100
AcDbLine
 10
51.32165082089023
 20
-211.7549845001977
 30
0.0
 11
51.32165082089023
 21
-199.4457462979505
 31
0.0
  0
LINE
  5
289
330
1F
100
AcDbEntity
  8
LAYER-256
  6
Continuous
 62
     1
100
AcDbLine
 10
51.32165082089023
 20
-199.4457462979505
 30
0.0
 11
40.66153846153844
 21
-193.2911271968327
 31
0.0
  0
LINE
  5
28A
330
1F
100
AcDbEntity
  8
LAYER-256
  6
CENTER
 62
     4
100
AcDbLine
 10
40.66153846153844
 20
-178.2531366912088
 30
0.0
 11
40.66153846153844
 21
-258.9295156799735
 31
0.0
  0
LINE
  5
28B
330
1F
100
AcDbEntity
  8
LAYER-256
  6
Continuous
 62
     1
100
AcDbLine
 10
-379.3143052463284
 20
97.53338016272375
 30
0.0
 11
-361.1257308073169
 21
97.53338016272375
 31
0.0
  0
LINE
  5
28C
330
1F
100
AcDbEntity
  8
LAYER-256
  6
CENTER
 62
     4
100
AcDbLine
 10
-531.7087568193634
 20
-29.36276511817252
 30
0.0
 11
110.371322057042
 21
-29.36276511817252
 31
0.0
  0
LINE
  5
28D
330
1F
100
AcDbEntity
  8
LAYER-256
  6
Continuous
 62
     1
100
AcDbLine
 10
-494.3384615384616
 20
-242.8598782642425
 30
0.0
 11
-494.3384615384616
 21
162.360457859353
 31
0.0
  0
LINE
  5
28E
330
1F
100
AcDbEntity
  8
LAYER-256
  6
Continuous
 62
     1
100
AcDbLine
 10
105.6615384615384
 20
162.1401217357575
 30
0.0
 11
105.6615384615384
 21
-242.8598782642425
 31
0.0
  0
LINE
  5
28F
330
1F
100
AcDbEntity
  8
LAYER-256
  6
Continuous
 62
     1
100
AcDbLine
 10
-481.4171132237865
 20
332.1401217357575
 30
0.0
 11
-481.4171132237865
 21
162.360457859353
 31
0.0
  0
LINE
  5
290
330
1F
100
AcDbEntity
  8
LAYER-256
  6
Continuous
 62
     1
100
AcDbLine
 10
-462.328225751946
 20
332.1401217357575
 30
0.0
 11
-462.328225751946
 21
162.360457859353
 31
0.0
  0
LINE
  5
291
330
1F
100
AcDbEntity
  8
LAYER-256
  6
Continuous
 62
     1
100
AcDbLine
 10
92.7401901469317
 20
332.1401217357575
 30
0.0
 11
92.7401901469317
 21
162.360457859353
 31
0.0
  0
LINE
  5
292
330
1F
100
AcDbEntity
  8
LAYER-256
  6
Continuous
 62
     1
100
AcDbLine
 10
73.65130138288407
 20
332.1401217357575
 30
0.0
 11
73.65130138288407
 21
162.360457859353
 31
0.0
  0
LINE
  5
293
330
1F
100
AcDbEntity
  8
LAYER-256
  6
CENTER
 62
     4
100
AcDbLine
 10
18.63809132670511
 20
124.880608870589
 30
0.0
 11
60.99059368625609
 21
124.880608870589
 31
0.0
  0
CIRCLE
  5
294
330
1F
100
AcDbEntity
  8
LAYER-256
  6
Continuous
 62
     1
100
AcDbCircle
 10
40.66153846153844
 20
124.880608870589
 30
0.0
 40
5.168539325842697
  0
CIRCLE
  5
295
330
1F
100
AcDbEntity
  8
LAYER-256
  6
Continuous
 62
     1
100
AcDbCircle
 10
40.66153846153844
 20
124.880608870589
 30
0.0
 40
10.66011235955056
  0
LINE
  5
296
330
1F
100
AcDbEntity
  8
LAYER-256
  6
Continuous
 62
     1
100
AcDbLine
 10
40.66153846153844
 20
112.5713719604747
 30
0.0
 11
30.00142610198432
 21
118.7259897694654
 31
0.0
  0
LINE
  5
297
330
1F
100
AcDbEntity
  8
LAYER-256
  6
Continuous
 62
     1
100
AcDbLine
 10
30.00142610198432
 20
118.7259897694654
 30
0.0
 11
30.00142610198432
 21
131.0352279717126
 31
0.0
  0
LINE
  5
298
330
1F
100
AcDbEntity
  8
LAYER-256
  6
Continuous
 62
     1
100
AcDbLine
 10
30.00142610198432
 20
131.0352279717126
 30
0.0
 11
40.66153846153844
 21
137.1898470728362
 31
0.0
  0
LINE
  5
299
330
1F
100
AcDbEntity
  8
LAYER-256
  6
Continuous
 62
     1
100
AcDbLine
 10
40.66153846153844
 20
137.1898470728362
 30
0.0
 11
51.32165082089023
 21
131.0352279717126
 31
0.0
  0
LINE
  5
29A
330
1F
100
AcDbEntity
  8
LAYER-256
  6
Continuous
 62
     1
100
AcDbLine
 10
51.32165082089023
 20
131.0352279717126
 30
0.0
 11
51.32165082089023
 21
118.7259897694654
 31
0.0
  0
LINE
  5
29B
330
1F
100
AcDbEntity
  8
LAYER-256
  6
Continuous
 62
     1
100
AcDbLine
 10
51.32165082089023
 20
118.7259897694654
 30
0.0
 11
40.66153846153844
 21
112.5713719604747
 31
0.0
  0
LINE
  5
29C
330
1F
100
AcDbEntity
  8
LAYER-256
  6
CENTER
 62
     4
100
AcDbLine
 10
40.66153846153844
 20
97.53338016272375
 30
0.0
 11
40.66153846153844
 21
152.4617992638476
 31
0.0
  0
LINE
  5
29D
330
1F
100
AcDbEntity
  8
LAYER-256
  6
Continuous
 62
     1
100
AcDbLine
 10
-469.6987863699225
 20
97.53338016272375
 30
0.0
 11
-469.6987863699225
 21
-178.2531366912088
 31
0.0
  0
LINE
  5
29E
330
1F
100
AcDbEntity
  8
LAYER-256
  6
Continuous
 62
     1
100
AcDbLine
 10
81.02186200095463
 20
97.53338016272375
 30
0.0
 11
81.02186200095463
 21
-178.2531366912088
 31
0.0
  0
LINE
  5
29F
330
1F
100
AcDbEntity
  8
LAYER-256
  6
Continuous
 62
     1
100
AcDbLine
 10
-447.7200173811581
 20
84.612031848117
 30
0.0
 11
-447.7200173811581
 21
-165.3317883766021
 31
0.0
  0
LINE
  5
2A0
330
1F
100
AcDbEntity
  8
LAYER-256
  6
Continuous
 62
     1
100
AcDbLine
 10
59.04309301210213
 20
84.612031848117
 30
0.0
 11
59.04309301210213
 21
-165.3317883766021
 31
0.0
  0
LINE
  5
2A1
330
1F
100
AcDbEntity
  8
LAYER-256
  6
Continuous
 62
     1
100
AcDbLine
 10
-292.7200173811582
 20
84.612031848117
 30
0.0
 11
-292.7200173811582
 21
-165.3317883766021
 31
0.0
  0
LINE
  5
2A2
330
1F
100
AcDbEntity
  8
LAYER-256
  6
Continuous
 62
     1
100
AcDbLine
 10
-271.8384615384616
 20
84.612031848117
 30
0.0
 11
-271.8384615384616
 21
-165.3317883766021
 31
0.0
  0
LINE
  5
2A3
330
1F
100
AcDbEntity
  8
LAYER-256
  6
Continuous
 62
     1
100
AcDbLine
 10
-116.8384615384616
 20
84.612031848117
 30
0.0
 11
-116.8384615384616
 21
-165.3317883766021
 31
0.0
  0
LINE
  5
2A4
330
1F
100
AcDbEntity
  8
LAYER-256
  6
Continuous
 62
     1
100
AcDbLine
 10
-95.95690698789787
 20
84.612031848117
 30
0.0
 11
-95.95690698789787
 21
-165.3317883766021
 31
0.0
  0
LINE
  5
2A5
330
1F
100
AcDbEntity
  8
LAYER-256
  6
CENTER
 62
     4
100
AcDbLine
 10
-514.4226287294725
 20
299.8367509492407
 30
0.0
 11
134.0911303154675
 21
299.8367509492407
 31
0.0
  0
CIRCLE
  5
2A6
330
1F
100
AcDbEntity
  8
LAYER-256
  6
Continuous
 62
     1
100
AcDbCircle
 10
-381.2766637856525
 20
299.8367509492407
 30
0.0
 40
5.168539325842697
  0
CIRCLE
  5
2A7
330
1F
100
AcDbEntity
  8
LAYER-256
  6
Continuous
 62
     1
100
AcDbCircle
 10
-381.2766637856525
 20
299.8367509492407
 30
0.0
 40
10.66011235955056
  0
LINE
  5
2A8
330
1F
100
AcDbEntity
  8
LAYER-256
  6
Continuous
 62
     1
100
AcDbLine
 10
-381.2766637856525
 20
287.5275140392263
 30
0.0
 11
-391.9367761452481
 21
293.6821318481111
 31
0.0
  0
LINE
  5
2A9
330
1F
100
AcDbEntity
  8
LAYER-256
  6
Continuous
 62
     1
100
AcDbLine
 10
-391.9367761452481
 20
293.6821318481111
 30
0.0
 11
-391.9367761452481
 21
305.9913700503583
 31
0.0
  0
LINE
  5
2AA
330
1F
100
AcDbEntity
  8
LAYER-256
  6
Continuous
 62
     1
100
AcDbLine
 10
-391.9367761452481
 20
305.9913700503583
 30
0.0
 11
-381.2766637856525
 21
312.1459878593491
 31
0.0
  0
LINE
  5
2AB
330
1F
100
AcDbEntity
  8
LAYER-256
  6
Continuous
 62
     1
100
AcDbLine
 10
-381.2766637856525
 20
312.1459878593491
 30
0.0
 11
-370.6165514261044
 21
305.9913700503583
 31
0.0
  0
LINE
  5
2AC
330
1F
100
AcDbEntity
  8
LAYER-256
  6
Continuous
 62
     1
100
AcDbLine
 10
-370.6165514261044
 20
305.9913700503583
 30
0.0
 11
-370.6165514261044
 21
293.6821318481111
 31
0.0
  0
LINE
  5
2AD
330
1F
100
AcDbEntity
  8
LAYER-256
  6
Continuous
 62
     1
100
AcDbLine
 10
-370.6165514261044
 20
293.6821318481111
 30
0.0
 11
-381.2766637856525
 21
287.5275140392263
 31
0.0
  0
CIRCLE
  5
2AE
330
1F
100
AcDbEntity
  8
LAYER-256
  6
Continuous
 62
     1
100
AcDbCircle
 10
-306.5013828867761
 20
299.8367509492407
 30
0.0
 40
5.168539325842697
  0
CIRCLE
  5
2AF
330
1F
100
AcDbEntity
  8
LAYER-256
  6
Continuous
 62
     1
100
AcDbCircle
 10
-306.5013828867761
 20
299.8367509492407
 30
0.0
 40
10.66011235955056
  0
LINE
  5
2B0
330
1F
100
AcDbEntity
  8
LAYER-256
  6
Continuous
 62
     1
100
AcDbLine
 10
-306.5013828867761
 20
287.5275140391263
 30
0.0
 11
-317.1614952477963
 21
293.6821318481111
 31
0.0
  0
LINE
  5
2B1
330
1F
100
AcDbEntity
  8
LAYER-256
  6
Continuous
 62
     1
100
AcDbLine
 10
-317.1614952477963
 20
293.6821318481111
 30
0.0
 11
-317.1614952477963
 21
305.9913700503583
 31
0.0
  0
LINE
  5
2B2
330
1F
100
AcDbEntity
  8
LAYER-256
  6
Continuous
 62
     1
100
AcDbLine
 10
-317.1614952477963
 20
305.9913700503583
 30
0.0
 11
-306.5013828867761
 21
312.1459878593491
 31
0.0
  0
LINE
  5
2B3
330
1F
100
AcDbEntity
  8
LAYER-256
  6
Continuous
 62
     1
100
AcDbLine
 10
-306.5013828867761
 20
312.1459878593491
 30
0.0
 11
-295.8412705272244
 21
305.9913700503583
 31
0.0
  0
LINE
  5
2B4
330
1F
100
AcDbEntity
  8
LAYER-256
  6
Continuous
 62
     1
100
AcDbLine
 10
-295.8412705272244
 20
305.9913700503583
 30
0.0
 11
-295.8412705272244
 21
293.6821318481111
 31
0.0
  0
LINE
  5
2B5
330
1F
100
AcDbEntity
  8
LAYER-256
  6
Continuous
 62
     1
100
AcDbLine
 10
-295.8412705272244
 20
293.6821318481111
 30
0.0
 11
-306.5013828867761
 21
287.5275140391263
 31
0.0
  0
CIRCLE
  5
2B6
330
1F
100
AcDbEntity
  8
LAYER-256
  6
Continuous
 62
     1
100
AcDbCircle
 10
-231.7261019951448
 20
299.8367509492407
 30
0.0
 40
5.168539325842697
  0
CIRCLE
  5
2B7
330
1F
100
AcDbEntity
  8
LAYER-256
  6
Continuous
 62
     1
100
AcDbCircle
 10
-231.7261019951448
 20
299.8367509492407
 30
0.0
 40
10.66011235955056
  0
LINE
  5
2B8
330
1F
100
AcDbEntity
  8
LAYER-256
  6
Continuous
 62
     1
100
AcDbLine
 10
-231.7261019951448
 20
287.5275140391263
 30
0.0
 11
-242.3862143546976
 21
293.6821318481111
 31
0.0
  0
LINE
  5
2B9
330
1F
100
AcDbEntity
  8
LAYER-256
  6
Continuous
 62
     1
100
AcDbLine
 10
-242.3862143546976
 20
293.6821318481111
 30
0.0
 11
-242.3862143546976
 21
305.9913700503583
 31
0.0
  0
LINE
  5
2BA
330
1F
100
AcDbEntity
  8
LAYER-256
  6
Continuous
 62
     1
100
AcDbLine
 10
-242.3862143546976
 20
305.9913700503583
 30
0.0
 11
-231.7261019951448
 21
312.1459878593491
 31
0.0
  0
LINE
  5
2BB
330
1F
100
AcDbEntity
  8
LAYER-256
  6
Continuous
 62
     1
100
AcDbLine
 10
-231.7261019951448
 20
312.1459878593491
 30
0.0
 11
-221.0659896355953
 21
305.9913700503583
 31
0.0
  0
LINE
  5
2BC
330
1F
100
AcDbEntity
  8
LAYER-256
  6
Continuous
 62
     1
100
AcDbLine
 10
-221.0659896355953
 20
305.9913700503583
 30
0.0
 11
-221.0659896355953
 21
293.6821318481111
 31
0.0
  0
LINE
  5
2BD
330
1F
100
AcDbEntity
  8
LAYER-256
  6
Continuous
 62
     1
100
AcDbLine
 10
-221.0659896355953
 20
293.6821318481111
 30
0.0
 11
-231.7261019951448
 21
287.5275140391263
 31
0.0
  0
CIRCLE
  5
2BE
330
1F
100
AcDbEntity
  8
LAYER-256
  6
Continuous
 62
     1
100
AcDbCircle
 10
-156.9508210890234
 20
299.8367509492407
 30
0.0
 40
5.168539325842697
  0
CIRCLE
  5
2BF
330
1F
100
AcDbEntity
  8
LAYER-256
  6
Continuous
 62
     1
100
AcDbCircle
 10
-156.9508210890234
 20
299.8367509492407
 30
0.0
 40
10.66011235955056
  0
LINE
  5
2C0
330
1F
100
AcDbEntity
  8
LAYER-256
  6
Continuous
 62
     1
100
AcDbLine
 10
-156.9508210890234
 20
287.5275140391263
 30
0.0
 11
-167.6109334485716
 21
293.6821318481111
 31
0.0
  0
LINE
  5
2C1
330
1F
100
AcDbEntity
  8
LAYER-256
  6
Continuous
 62
     1
100
AcDbLine
 10
-167.6109334485716
 20
293.6821318481111
 30
0.0
 11
-167.6109334485716
 21
305.9913700503583
 31
0.0
  0
LINE
  5
2C2
330
1F
100
AcDbEntity
  8
LAYER-256
  6
Continuous
 62
     1
100
AcDbLine
 10
-167.6109334485716
 20
305.9913700503583
 30
0.0
 11
-156.9508210890234
 21
312.1459878593491
 31
0.0
  0
LINE
  5
2C3
330
1F
100
AcDbEntity
  8
LAYER-256
  6
Continuous
 62
     1
100
AcDbLine
 10
-156.9508210890234
 20
312.1459878593491
 30
0.0
 11
-146.2907087296704
 21
305.9913700503583
 31
0.0
  0
LINE
  5
2C4
330
1F
100
AcDbEntity
  8
LAYER-256
  6
Continuous
 62
     1
100
AcDbLine
 10
-146.2907087296704
 20
305.9913700503583
 30
0.0
 11
-146.2907087296704
 21
293.6821318481111
 31
0.0
  0
LINE
  5
2C5
330
1F
100
AcDbEntity
  8
LAYER-256
  6
Continuous
 62
     1
100
AcDbLine
 10
-146.2907087296704
 20
293.6821318481111
 30
0.0
 11
-156.9508210890234
 21
287.5275140391263
 31
0.0
  0
CIRCLE
  5
2C6
330
1F
100
AcDbEntity
  8
LAYER-256
  6
Continuous
 62
     1
100
AcDbCircle
 10
-82.17554019014696
 20
299.8367509492407
 30
0.0
 40
5.168539325842697
  0
CIRCLE
  5
2C7
330
1F
100
AcDbEntity
  8
LAYER-256
  6
Continuous
 62
     1
100
AcDbCircle
 10
-82.17554019014696
 20
299.8367509492407
 30
0.0
 40
10.66011235955056
  0
LINE
  5
2C8
330
1F
100
AcDbEntity
  8
LAYER-256
  6
Continuous
 62
     1
100
AcDbLine
 10
-82.17554019014696
 20
287.5275140391263
 30
0.0
 11
-92.83565254969517
 21
293.6821318481111
 31
0.0
  0
LINE
  5
2C9
330
1F
100
AcDbEntity
  8
LAYER-256
  6
Continuous
 62
     1
100
AcDbLine
 10
-92.83565254969517
 20
293.6821318481111
 30
0.0
 11
-92.83565254969517
 21
305.9913700503583
 31
0.0
  0
LINE
  5
2CA
330
1F
100
AcDbEntity
  8
LAYER-256
  6
Continuous
 62
     1
100
AcDbLine
 10
-92.83565254969517
 20
305.9913700503583
 30
0.0
 11
-82.17554019014696
 21
312.1459878593491
 31
0.0
  0
LINE
  5
2CB
330
1F
100
AcDbEntity
  8
LAYER-256
  6
Continuous
 62
     1
100
AcDbLine
 10
-82.17554019014696
 20
312.1459878593491
 30
0.0
 11
-71.51542783079162
 21
305.9913700503583
 31
0.0
  0
LINE
  5
2CC
330
1F
100
AcDbEntity
  8
LAYER-256
  6
Continuous
 62
     1
100
AcDbLine
 10
-71.51542783079162
 20
305.9913700503583
 30
0.0
 11
-71.51542783079162
 21
293.6821318481111
 31
0.0
  0
LINE
  5
2CD
330
1F
100
AcDbEntity
  8
LAYER-256
  6
Continuous
 62
     1
100
AcDbLine
 10
-71.51542783079162
 20
293.6821318481111
 30
0.0
 11
-82.17554019014696
 21
287.5275140391263
 31
0.0
  0
CIRCLE
  5
2CE
330
1F
100
AcDbEntity
  8
LAYER-256
  6
Continuous
 62
     1
100
AcDbCircle
 10
-7.400259291270544
 20
299.8367509492407
 30
0.0
 40
5.168539325842697
  0
CIRCLE
  5
2CF
330
1F
100
AcDbEntity
  8
LAYER-256
  6
Continuous
 62
     1
100
AcDbCircle
 10
-7.400259291270544
 20
299.8367509492407
 30
0.0
 40
10.66011235955056
  0
LINE
  5
2D0
330
1F
100
AcDbEntity
  8
LAYER-256
  6
Continuous
 62
     1
100
AcDbLine
 10
-7.400259291270544
 20
287.5275140392263
 30
0.0
 11
-18.06037165082464
 21
293.6821318481111
 31
0.0
  0
LINE
  5
2D1
330
1F
100
AcDbEntity
  8
LAYER-256
  6
Continuous
 62
     1
100
AcDbLine
 10
-18.06037165082464
 20
293.6821318481111
 30
0.0
 11
-18.06037165082464
 21
305.9913700503583
 31
0.0
  0
LINE
  5
2D2
330
1F
100
AcDbEntity
  8
LAYER-256
  6
Continuous
 62
     1
100
AcDbLine
 10
-18.06037165082464
 20
305.9913700503583
 30
0.0
 11
-7.400259291270544
 21
312.1459878593491
 31
0.0
  0
LINE
  5
2D3
330
1F
100
AcDbEntity
  8
LAYER-256
  6
Continuous
 62
     1
100
AcDbLine
 10
-7.400259291270544
 20
312.1459878593491
 30
0.0
 11
3.259853068324958
 21
305.9913700503583
 31
0.0
  0
LINE
  5
2D4
330
1F
100
AcDbEntity
  8
LAYER-256
  6
Continuous
 62
     1
100
AcDbLine
 10
3.259853068324958
 20
305.9913700503583
 30
0.0
 11
3.259853068324958
 21
293.6821318481111
 31
0.0
  0
LINE
  5
2D5
330
1F
100
AcDbEntity
  8
LAYER-256
  6
Continuous
 62
     1
100
AcDbLine
 10
3.259853068324958
 20
293.6821318481111
 30
0.0
 11
-7.400259291270544
 21
287.5275140392263
 31
0.0
  0
LINE
  5
2D6
330
1F
100
AcDbEntity
  8
LAYER-256
  6
Continuous
 62
     1
100
AcDbLine
 10
-0.9128508643026976
 20
261.9933520728357
 30
0.0
 11
-0.9128508643026976
 21
162.1401217357575
 31
0.0
  0
LINE
  5
2D7
330
1F
100
AcDbEntity
  8
LAYER-256
  6
Continuous
 62
     1
100
AcDbLine
 10
-13.8876690103713
 20
261.9933520728357
 30
0.0
 11
-13.8876690103713
 21
162.1401217357575
 31
0.0
  0
LINE
  5
2D8
330
1F
100
AcDbEntity
  8
LAYER-256
  6
Continuous
 62
     1
100
AcDbLine
 10
2.88836430423342
 20
261.9933520728357
 30
0.0
 11
-17.688882887
 21
261.9933520728357
 31
0.0
  0
LINE
  5
2D9
330
1F
100
AcDbEntity
  8
LAYER-256
  6
Continuous
 62
     1
100
AcDbLine
 10
-17.688882887
 20
261.9933520728357
 30
0.0
 11
-17.688882887
 21
267.5333801627238
 31
0.0
  0
LINE
  5
2DA
330
1F
100
AcDbEntity
  8
LAYER-256
  6
Continuous
 62
     1
100
AcDbLine
 10
2.88836430423342
 20
261.9933520728357
 30
0.0
 11
2.88836430423342
 21
267.5333801627238
 31
0.0
  0
LINE
  5
2DB
330
1F
100
AcDbEntity
  8
LAYER-256
  6
Continuous
 62
     1
100
AcDbLine
 10
-75.68813176027715
 20
261.9933520728357
 30
0.0
 11
-75.68813176027715
 21
162.1401217357575
 31
0.0
  0
LINE
  5
2DC
330
1F
100
AcDbEntity
  8
LAYER-256
  6
Continuous
 62
     1
100
AcDbLine
 10
-88.66294990879163
 20
261.9933520728357
 30
0.0
 11
-88.66294990879163
 21
162.1401217357575
 31
0.0
  0
LINE
  5
2DD
330
1F
100
AcDbEntity
  8
LAYER-256
  6
Continuous
 62
     1
100
AcDbLine
 10
-71.88691659463711
 20
261.9933520728357
 30
0.0
 11
-92.46416378565095
 21
261.9933520728357
 31
0.0
  0
LINE
  5
2DE
330
1F
100
AcDbEntity
  8
LAYER-256
  6
Continuous
 62
     1
100
AcDbLine
 10
-92.46416378565095
 20
261.9933520728357
 30
0.0
 11
-92.46416378565095
 21
267.5333801627238
 31
0.0
  0
LINE
  5
2DF
330
1F
100
AcDbEntity
  8
LAYER-256
  6
Continuous
 62
     1
100
AcDbLine
 10
-71.88691659463711
 20
261.9933520728357
 30
0.0
 11
-71.88691659463711
 21
267.5333801627238
 31
0.0
  0
LINE
  5
2E0
330
1F
100
AcDbEntity
  8
LAYER-256
  6
Continuous
 62
     1
100
AcDbLine
 10
-150.4634126620559
 20
261.9933520728357
 30
0.0
 11
-150.4634126620559
 21
162.1401217357575
 31
0.0
  0
LINE
  5
2E1
330
1F
100
AcDbEntity
  8
LAYER-256
  6
Continuous
 62
     1
100
AcDbLine
 10
-163.4382308076704
 20
261.9933520728357
 30
0.0
 11
-163.4382308076704
 21
162.1401217357575
 31
0.0
  0
LINE
  5
2E2
330
1F
100
AcDbEntity
  8
LAYER-256
  6
Continuous
 62
     1
100
AcDbLine
 10
-146.6621974935194
 20
261.9933520728357
 30
0.0
 11
-167.2394446845274
 21
261.9933520728357
 31
0.0
  0
LINE
  5
2E3
330
1F
100
AcDbEntity
  8
LAYER-256
  6
Continuous
 62
     1
100
AcDbLine
 10
-167.2394446845274
 20
261.9933520728357
 30
0.0
 11
-167.2394446845274
 21
267.5333801627238
 31
0.0
  0
LINE
  5
2E4
330
1F
100
AcDbEntity
  8
LAYER-256
  6
Continuous
 62
     1
100
AcDbLine
 10
-146.6621974935194
 20
261.9933520728357
 30
0.0
 11
-146.6621974935194
 21
267.5333801627238
 31
0.0
  0
LINE
  5
2E5
330
1F
100
AcDbEntity
  8
LAYER-256
  6
Continuous
 62
     1
100
AcDbLine
 10
-225.2386935681816
 20
261.9933520728357
 30
0.0
 11
-225.2386935681816
 21
162.1401217357575
 31
0.0
  0
LINE
  5
2E6
330
1F
100
AcDbEntity
  8
LAYER-256
  6
Continuous
 62
     1
100
AcDbLine
 10
-238.2135117142458
 20
261.9933520728357
 30
0.0
 11
-238.2135117142458
 21
162.1401217357575
 31
0.0
  0
LINE
  5
2E7
330
1F
100
AcDbEntity
  8
LAYER-256
  6
Continuous
 62
     1
100
AcDbLine
 10
-221.4374783996395
 20
261.9933520728357
 30
0.0
 11
-242.0147255906534
 21
261.9933520728357
 31
0.0
  0
LINE
  5
2E8
330
1F
100
AcDbEntity
  8
LAYER-256
  6
Continuous
 62
     1
100
AcDbLine
 10
-242.0147255906534
 20
261.9933520728357
 30
0.0
 11
-242.0147255906534
 21
267.5333801627238
 31
0.0
  0
LINE
  5
2E9
330
1F
100
AcDbEntity
  8
LAYER-256
  6
Continuous
 62
     1
100
AcDbLine
 10
-221.4374783996395
 20
261.9933520728357
 30
0.0
 11
-221.4374783996395
 21
267.5333801627238
 31
0.0
  0
LINE
  5
2EA
330
1F
100
AcDbEntity
  8
LAYER-256
  6
Continuous
 62
     1
100
AcDbLine
 10
-300.0139744598106
 20
261.9933520728357
 30
0.0
 11
-300.0139744598106
 21
162.1401217357575
 31
0.0
  0
LINE
  5
2EB
330
1F
100
AcDbEntity
  8
LAYER-256
  6
Continuous
 62
     1
100
AcDbLine
 10
-312.9887926058773
 20
261.9933520728357
 30
0.0
 11
-312.9887926058773
 21
162.1401217357575
 31
0.0
  0
LINE
  5
2EC
330
1F
100
AcDbEntity
  8
LAYER-256
  6
Continuous
 62
     1
100
AcDbLine
 10
-296.2127592914719
 20
261.9933520728357
 30
0.0
 11
-316.7900064848386
 21
261.9933520728357
 31
0.0
  0
LINE
  5
2ED
330
1F
100
AcDbEntity
  8
LAYER-256
  6
Continuous
 62
     1
100
AcDbLine
 10
-316.7900064848386
 20
261.9933520728357
 30
0.0
 11
-316.7900064848386
 21
267.5333801627238
 31
0.0
  0
LINE
  5
2EE
330
1F
100
AcDbEntity
  8
LAYER-256
  6
Continuous
 62
     1
100
AcDbLine
 10
-296.2127592914719
 20
261.9933520728357
 30
0.0
 11
-296.2127592914719
 21
267.5333801627238
 31
0.0
  0
LINE
  5
2EF
330
1F
100
AcDbEntity
  8
LAYER-256
  6
Continuous
 62
     1
100
AcDbLine
 10
-374.7892553586847
 20
261.9933520728357
 30
0.0
 11
-374.7892553586847
 21
162.1401217357575
 31
0.0
  0
LINE
  5
2F0
330
1F
100
AcDbEntity
  8
LAYER-256
  6
Continuous
 62
     1
100
AcDbLine
 10
-387.7640735047537
 20
261.9933520728357
 30
0.0
 11
-387.7640735047537
 21
162.1401217357575
 31
0.0
  0
LINE
  5
2F1
330
1F
100
AcDbEntity
  8
LAYER-256
  6
Continuous
 62
     1
100
AcDbLine
 10
-370.9880401901486
 20
261.9933520728357
 30
0.0
 11
-391.5652873811565
 21
261.9933520728357
 31
0.0
  0
LINE
  5
2F2
330
1F
100
AcDbEntity
  8
LAYER-256
  6
Continuous
 62
     1
100
AcDbLine
 10
-391.5652873811565
 20
261.9933520728357
 30
0.0
 11
-391.5652873811565
 21
267.5333801627238
 31
0.0
  0
LINE
  5
2F3
330
1F
100
AcDbEntity
  8
LAYER-256
  6
Continuous
 62
     1
100
AcDbLine
 10
-370.9880401901486
 20
261.9933520728357
 30
0.0
 11
-370.9880401901486
 21
267.5333801627238
 31
0.0
  0
LINE
  5
2F4
330
1F
100
AcDbEntity
  8
LAYER-256
  6
Continuous
 62
     1
100
AcDbLine
 10
511.1722993874629
 20
337.269938174706
 30
0.0
 11
529.6728160255882
 21
337.269938174706
 31
0.0
  0
LINE
  5
2F5
330
1F
100
AcDbEntity
  8
LAYER-256
  6
Continuous
 62
     1
100
AcDbLine
 10
468.1111564469758
 20
332.1401217357575
 30
0.0
 11
511.1722993874629
 21
332.1401217357575
 31
0.0
  0
ARC
  5
2F6
330
1F
100
AcDbEntity
  8
LAYER-256
  6
Continuous
 62
     1
100
AcDbCircle
 10
532.0735869052184
 20
329.0989666004174
 30
0.0
 40
47.73572914828203
100
AcDbArc
 50
248.0702609998118
 51
264.3383439973216
  0
ARC
  5
2F7
330
1F
100
AcDbEntity
  8
LAYER-256
  6
Continuous
 62
     1
100
AcDbCircle
 10
527.111601717451
 20
321.202504693169
 30
0.0
 40
2.561214308139557
100
AcDbArc
 50
275.6616560083427
 51
0.0
  0
LINE
  5
2F8
330
1F
100
AcDbEntity
  8
LAYER-256
  6
Continuous
 62
     1
100
AcDbLine
 10
529.6728160255882
 20
321.202504693169
 30
0.0
 11
529.6728160255882
 21
337.269938174706
 31
0.0
  0
LINE
  5
2F9
330
1F
100
AcDbEntity
  8
LAYER-256
  6
Continuous
 62
     1
100
AcDbLine
 10
514.2457565575882
 20
315.4326113473968
 30
0.0
 11
514.2457565575882
 21
284.8172744206233
 31
0.0
  0
LINE
  5
2FA
330
1F
100
AcDbEntity
  8
LAYER-256
  6
Continuous
 62
     1
100
AcDbLine
 10
465.0376992769405
 20
312.891067165143
 30
0.0
 11
465.0376992769405
 21
287.3588198834824
 31
0.0
  0
LINE
  5
2FB
330
1F
100
AcDbEntity
  8
LAYER-256
  6
Continuous
 62
     1
100
AcDbLine
 10
468.1111564469758
 20
312.891067165143
 30
0.0
 11
465.0376992769405
 21
312.891067165143
 31
0.0
  0
LINE
  5
2FC
330
1F
100
AcDbEntity
  8
LAYER-256
  6
Continuous
 62
     1
100
AcDbLine
 10
514.2457565575882
 20
312.891067165143
 30
0.0
 11
511.1722993874629
 21
312.891067165143
 31
0.0
  0
LINE
  5
2FD
330
1F
100
AcDbEntity
  8
LAYER-256
  6
Continuous
 62
     1
100
AcDbLine
 10
454.3863747727618
 20
310.7162094744421
 30
0.0
 11
465.0376992769405
 21
310.7162094744421
 31
0.0
  0
LINE
  5
2FE
330
1F
100
AcDbEntity
  8
LAYER-256
  6
Continuous
 62
     1
100
AcDbLine
 10
524.8970823423102
 20
310.7162094744421
 30
0.0
 11
514.2457565575882
 21
310.7162094744421
 31
0.0
  0
ARC
  5
2FF
330
1F
100
AcDbEntity
  8
LAYER-256
  6
Continuous
 62
     1
100
AcDbCircle
 10
457.7738393785126
 20
307.7461293171868
 30
0.0
 40
4.505141391624322
100
AcDbArc
 50
138.7561740075056
 51
221.2438260022576
  0
ARC
  5
300
330
1F
100
AcDbEntity
  8
LAYER-256
  6
Continuous
 62
     1
100
AcDbCircle
 10
521.5096177371521
 20
307.7461293171868
 30
0.0
 40
4.505141391624322
100
AcDbArc
 50
318.756173992792
 51
41.24382599744487
  0
LINE
  5
301
330
1F
100
AcDbEntity
  8
LAYER-256
  6
Continuous
 62
     1
100
AcDbLine
 10
534.3694337988925
 20
305.2473715002921
 30
0.0
 11
534.3694337988925
 21
295.0025142677339
 31
0.0
  0
LINE
  5
302
330
1F
100
AcDbEntity
  8
LAYER-256
  6
Continuous
 62
     1
100
AcDbLine
 10
534.3694337988925
 20
305.2473715002921
 30
0.0
 11
526.0147578506176
 21
305.2473715002921
 31
0.0
  0
LINE
  5
303
330
1F
100
AcDbEntity
  8
LAYER-256
  6
Continuous
 62
     1
100
AcDbLine
 10
454.3863747727618
 20
304.7760478790571
 30
0.0
 11
465.0376992769405
 21
304.7760478790571
 31
0.0
  0
LINE
  5
304
330
1F
100
AcDbEntity
  8
LAYER-256
  6
Continuous
 62
     1
100
AcDbLine
 10
524.8970823423102
 20
304.7760478790571
 30
0.0
 11
514.2457565575882
 21
304.7760478790571
 31
0.0
  0
ARC
  5
305
330
1F
100
AcDbEntity
  8
LAYER-256
  6
Continuous
 62
     1
100
AcDbCircle
 10
463.5050993698145
 20
300.124942884013
 30
0.0
 40
10.23640138351991
100
AcDbArc
 50
152.9756510000022
 51
207.0243490000268
  0
ARC
  5
306
330
1F
100
AcDbEntity
  8
LAYER-256
  6
Continuous
 62
     1
100
AcDbCircle
 10
515.778357745254
 20
300.124942884013
 30
0.0
 40
10.23640138351991
100
AcDbArc
 50
332.975650997653
 51
27.0243490023181
  0
LINE
  5
307
330
1F
100
AcDbEntity
  8
LAYER-256
  6
CENTER
 62
     4
100
AcDbLine
 10
544.6775466218237
 20
300.124942884013
 30
0.0
 11
447.0243256005173
 21
300.124942884013
 31
0.0
  0
LINE
  5
308
330
1F
100
AcDbEntity
  8
LAYER-256
  6
Continuous
 62
     1
100
AcDbLine
 10
454.3863747727618
 20
295.4738391695742
 30
0.0
 11
465.0376992769405
 21
295.4738391695742
 31
0.0
  0
LINE
  5
309
330
1F
100
AcDbEntity
  8
LAYER-256
  6
Continuous
 62
     1
100
AcDbLine
 10
524.8970823423102
 20
295.4738391695742
 30
0.0
 11
514.2457565575882
 21
295.4738391695742
 31
0.0
  0
LINE
  5
30A
330
1F
100
AcDbEntity
  8
LAYER-256
  6
Continuous
 62
     1
100
AcDbLine
 10
534.3694337988925
 20
295.0025142677339
 30
0.0
 11
526.0147578506176
 21
295.0025142677339
 31
0.0
  0
ARC
  5
30B
330
1F
100
AcDbEntity
  8
LAYER-256
  6
Continuous
 62
     1
100
AcDbCircle
 10
457.7738393785126
 20
292.5037577317081
 30
0.0
 40
4.505141391624322
100
AcDbArc
 50
138.7561740049291
 51
221.2438259926977
  0
ARC
  5
30C
330
1F
100
AcDbEntity
  8
LAYER-256
  6
Continuous
 62
     1
100
AcDbCircle
 10
521.5096177371521
 20
292.5037577317081
 30
0.0
 40
4.505141391624322
100
AcDbArc
 50
318.7561740023518
 51
41.24382600002141
  0
LINE
  5
30D
330
1F
100
AcDbEntity
  8
LAYER-256
  6
Continuous
 62
     1
100
AcDbLine
 10
526.0147578506176
 20
292.5037577317081
 30
0.0
 11
526.0147578506176
 21
307.7461293171868
 31
0.0
  0
LINE
  5
30E
330
1F
100
AcDbEntity
  8
LAYER-256
  6
Continuous
 62
     1
100
AcDbLine
 10
454.3863747727618
 20
289.5336762938479
 30
0.0
 11
465.0376992769405
 21
289.5336762938479
 31
0.0
  0
LINE
  5
30F
330
1F
100
AcDbEntity
  8
LAYER-256
  6
Continuous
 62
     1
100
AcDbLine
 10
524.8970823423102
 20
289.5336762938479
 30
0.0
 11
514.2457565575882
 21
289.5336762938479
 31
0.0
  0
LINE
  5
310
330
1F
100
AcDbEntity
  8
LAYER-256
  6
Continuous
 62
     1
100
AcDbLine
 10
468.1111564469758
 20
287.3588198834824
 30
0.0
 11
465.0376992769405
 21
287.3588198834824
 31
0.0
  0
ARC
  5
311
330
1F
100
AcDbEntity
  8
LAYER-256
  6
Continuous
 62
     1
100
AcDbCircle
 10
527.111601717451
 20
279.0473810677072
 30
0.0
 40
2.561214308139557
100
AcDbArc
 50
0.0
 51
84.33834400742357
  0
LINE
  5
312
330
1F
100
AcDbEntity
  8
LAYER-256
  6
Continuous
 62
     1
100
AcDbLine
 10
529.6728160255882
 20
279.0473810677072
 30
0.0
 11
529.6728160255882
 21
262.4035637237724
 31
0.0
  0
ARC
  5
313
330
1F
100
AcDbEntity
  8
LAYER-256
  6
Continuous
 62
     1
100
AcDbCircle
 10
532.0735869052184
 20
271.1509191671778
 30
0.0
 40
47.73572914828203
100
AcDbArc
 50
95.66165600230815
 51
111.9297389999977
  0
LINE
  5
314
330
1F
100
AcDbEntity
  8
LAYER-256
  6
Continuous
 62
     1
100
AcDbLine
 10
471.3856087514242
 20
267.5333801627238
 30
0.0
 11
511.1722993874629
 21
267.5333801627238
 31
0.0
  0
LINE
  5
315
330
1F
100
AcDbEntity
  8
LAYER-256
  6
Continuous
 62
     1
100
AcDbLine
 10
511.1722993874629
 20
262.4035637237724
 30
0.0
 11
529.6728160255882
 21
262.4035637237724
 31
0.0
  0
LINE
  5
316
330
1F
100
AcDbEntity
  8
LAYER-256
  6
Continuous
 62
     1
100
AcDbLine
 10
511.1722993874629
 20
262.4035637237724
 30
0.0
 11
511.1722993874629
 21
337.269938174706
 31
0.0
  0
LINE
  5
317
330
1F
100
AcDbEntity
  8
LAYER-256
  6
CENTER
 62
     4
100
AcDbLine
 10
361.3506214615359
 20
165.638265375
 30
0.0
 11
361.3506214615359
 21
-259.6691072788519
 31
0.0
  0
LINE
  5
318
330
1F
100
AcDbEntity
  8
LAYER-256
  6
Continuous
 62
     1
100
AcDbLine
 10
254.5900864760959
 20
162.1401217357575
 30
0.0
 11
318.6204441795359
 21
162.1401217357575
 31
0.0
  0
LINE
  5
319
330
1F
100
AcDbEntity
  8
LAYER-256
  6
Continuous
 62
     1
100
AcDbLine
 10
468.1111564469758
 20
162.1401217357575
 30
0.0
 11
404.0807987435359
 21
162.1401217357575
 31
0.0
  0
LINE
  5
31A
330
1F
100
AcDbEntity
  8
LAYER-256
  6
Continuous
 62
     1
100
AcDbLine
 10
264.6239047720711
 20
155.7370859654086
 30
0.0
 11
264.6239047720711
 21
-236.4568424938937
 31
0.0
  0
LINE
  5
31B
330
1F
100
AcDbEntity
  8
LAYER-256
  6
Continuous
 62
     1
100
AcDbLine
 10
318.6204441795359
 20
155.7370859654086
 30
0.0
 11
318.6204441795359
 21
162.1401217357575
 31
0.0
  0
LINE
  5
31C
330
1F
100
AcDbEntity
  8
LAYER-256
  6
Continuous
 62
     1
100
AcDbLine
 10
404.0807987435359
 20
155.7370859654086
 30
0.0
 11
404.0807987435359
 21
162.1401217357575
 31
0.0
  0
LINE
  5
31D
330
1F
100
AcDbEntity
  8
LAYER-256
  6
Continuous
 62
     1
100
AcDbLine
 10
458.0773394344885
 20
155.7370859654086
 30
0.0
 11
458.0773394344885
 21
-236.4568424938937
 31
0.0
  0
ARC
  5
31E
330
1F
100
AcDbEntity
  8
LAYER-256
  6
Continuous
 62
     1
100
AcDbCircle
 10
200.0991328197515
 20
140.7783727066504
 30
0.0
 40
38.28704971494492
100
AcDbArc
 50
250.4313920000029
 51
267.5391279999987
  0
LINE
  5
31F
330
1F
100
AcDbEntity
  8
LAYER-256
  6
Continuous
 62
     1
100
AcDbLine
 10
243.9387619716
 20
135.8042832195708
 30
0.0
 11
254.5900864760959
 21
135.8042832195708
 31
0.0
  0
LINE
  5
320
330
1F
100
AcDbEntity
  8
LAYER-256
  6
Continuous
 62
     1
100
AcDbLine
 10
471.3856087514242
 20
135.8042832195708
 30
0.0
 11
471.3856087514242
 21
332.1401217357575
 31
0.0
  0
LINE
  5
321
330
1F
100
AcDbEntity
  8
LAYER-256
  6
Continuous
 62
     1
100
AcDbLine
 10
478.7624822321834
 20
135.8042832195708
 30
0.0
 11
468.1111564469758
 21
135.8042832195708
 31
0.0
  0
LINE
  5
322
330
1F
100
AcDbEntity
  8
LAYER-256
  6
Continuous
 62
     1
100
AcDbLine
 10
242.8210851851362
 20
132.8342017821976
 30
0.0
 11
242.8210851851362
 21
117.5918314775994
 31
0.0
  0
ARC
  5
323
330
1F
100
AcDbEntity
  8
LAYER-256
  6
Continuous
 62
     1
100
AcDbCircle
 10
247.3262265792076
 20
132.8342017821976
 30
0.0
 40
4.505141391624322
100
AcDbArc
 50
138.7561740244662
 51
221.2438259818356
  0
ARC
  5
324
330
1F
100
AcDbEntity
  8
LAYER-256
  6
Continuous
 62
     1
100
AcDbCircle
 10
475.3750176269247
 20
132.8342017821976
 30
0.0
 40
4.505141391624322
100
AcDbArc
 50
318.7561739976275
 51
41.24382599607083
  0
LINE
  5
325
330
1F
100
AcDbEntity
  8
LAYER-256
  6
Continuous
 62
     1
100
AcDbLine
 10
479.8801590185467
 20
132.8342017821976
 30
0.0
 11
479.8801590185467
 21
117.5918314775994
 31
0.0
  0
LINE
  5
326
330
1F
100
AcDbEntity
  8
LAYER-256
  6
Continuous
 62
     1
100
AcDbLine
 10
243.9387619716
 20
129.8641216249426
 30
0.0
 11
254.5900864760959
 21
129.8641216249426
 31
0.0
  0
LINE
  5
327
330
1F
100
AcDbEntity
  8
LAYER-256
  6
Continuous
 62
     1
100
AcDbLine
 10
478.7624822321834
 20
129.8641216249426
 30
0.0
 11
468.1111564469758
 21
129.8641216249426
 31
0.0
  0
ARC
  5
328
330
1F
100
AcDbEntity
  8
LAYER-256
  6
Continuous
 62
     1
100
AcDbCircle
 10
253.0574865686563
 20
125.2130166298985
 30
0.0
 40
10.23640138351991
100
AcDbArc
 50
152.9756509960729
 51
207.0243490009407
  0
ARC
  5
329
330
1F
100
AcDbEntity
  8
LAYER-256
  6
Continuous
 62
     1
100
AcDbCircle
 10
469.6437576350265
 20
125.2130166298985
 30
0.0
 40
10.23640138351991
100
AcDbArc
 50
332.9756510000169
 51
27.02434900296956
  0
LINE
  5
32A
330
1F
100
AcDbEntity
  8
LAYER-256
  6
Continuous
 62
     1
100
AcDbLine
 10
243.9387619716
 20
120.5619129154596
 30
0.0
 11
254.5900864760959
 21
120.5619129154596
 31
0.0
  0
LINE
  5
32B
330
1F
100
AcDbEntity
  8
LAYER-256
  6
Continuous
 62
     1
100
AcDbLine
 10
478.7624822321834
 20
120.5619129154596
 30
0.0
 11
468.1111564469758
 21
120.5619129154596
 31
0.0
  0
ARC
  5
32C
330
1F
100
AcDbEntity
  8
LAYER-256
  6
Continuous
 62
     1
100
AcDbCircle
 10
247.3262265792076
 20
117.5918314775994
 30
0.0
 40
4.505141391624322
100
AcDbArc
 50
138.7561740205725
 51
221.243825979484
  0
ARC
  5
32D
330
1F
100
AcDbEntity
  8
LAYER-256
  6
Continuous
 62
     1
100
AcDbCircle
 10
475.3750176269247
 20
117.5918314775994
 30
0.0
 40
4.505141391624322
100
AcDbArc
 50
318.756173999979
 51
41.24382599996447
  0
LINE
  5
32E
330
1F
100
AcDbEntity
  8
LAYER-256
  6
Continuous
 62
     1
100
AcDbLine
 10
185.0378365249142
 20
116.3402211113173
 30
0.0
 11
187.2754452470443
 21
116.3402211113173
 31
0.0
  0
LINE
  5
32F
330
1F
100
AcDbEntity
  8
LAYER-256
  6
Continuous
 62
     1
100
AcDbLine
 10
185.0378365249142
 20
116.3402211113173
 30
0.0
 11
185.0378365249142
 21
92.91890489210556
 31
0.0
  0
LINE
  5
330
330
1F
100
AcDbEntity
  8
LAYER-256
  6
Continuous
 62
     1
100
AcDbLine
 10
187.2754452470443
 20
116.3402211113173
 30
0.0
 11
187.2754452470443
 21
104.7027407363182
 31
0.0
  0
LINE
  5
331
330
1F
100
AcDbEntity
  8
LAYER-256
  6
Continuous
 62
     1
100
AcDbLine
 10
243.9387619716
 20
114.6217500397333
 30
0.0
 11
254.5900864760959
 21
114.6217500397333
 31
0.0
  0
LINE
  5
332
330
1F
100
AcDbEntity
  8
LAYER-256
  6
Continuous
 62
     1
100
AcDbLine
 10
478.7624822321834
 20
114.6217500397333
 30
0.0
 11
468.1111564469758
 21
114.6217500397333
 31
0.0
  0
ARC
  5
333
330
1F
100
AcDbEntity
  8
LAYER-256
  6
Continuous
 62
     1
100
AcDbCircle
 10
198.4002114969821
 20
101.2472054578789
 30
0.0
 40
1.280607154069779
100
AcDbArc
 50
0.0
 51
87.53912799996616
  0
LINE
  5
334
330
1F
100
AcDbEntity
  8
LAYER-256
  6
Continuous
 62
     1
100
AcDbLine
 10
254.5900864760959
 20
97.53338016272375
 30
0.0
 11
254.5900864760959
 21
162.1401217357575
 31
0.0
  0
LINE
  5
335
330
1F
100
AcDbEntity
  8
LAYER-256
  6
Continuous
 62
     1
100
AcDbLine
 10
254.5900864760959
 20
97.53338016272375
 30
0.0
 11
260.9931222464204
 21
97.53338016272375
 31
0.0
  0
LINE
  5
336
330
1F
100
AcDbEntity
  8
LAYER-256
  6
Continuous
 62
     1
100
AcDbLine
 10
461.7081206766513
 20
97.53338016272375
 30
0.0
 11
471.3856087514242
 21
97.53338016272375
 31
0.0
  0
LINE
  5
337
330
1F
100
AcDbEntity
  8
LAYER-256
  6
Continuous
 62
     1
100
AcDbLine
 10
468.1111564469758
 20
97.53338016272375
 30
0.0
 11
468.1111564469758
 21
332.1401217357575
 31
0.0
  0
LINE
  5
338
330
1F
100
AcDbEntity
  8
LAYER-256
  6
Continuous
 62
     1
100
AcDbLine
 10
471.3856087514242
 20
97.53338016272375
 30
0.0
 11
471.3856087514242
 21
114.6217500397333
 31
0.0
  0
LINE
  5
339
330
1F
100
AcDbEntity
  8
LAYER-256
  6
Continuous
 62
     1
100
AcDbLine
 10
185.0378365249142
 20
92.91890489210556
 30
0.0
 11
199.6808186510565
 21
92.91890489210556
 31
0.0
  0
LINE
  5
33A
330
1F
100
AcDbEntity
  8
LAYER-256
  6
Continuous
 62
     1
100
AcDbLine
 10
187.2754452470443
 20
92.91890489210556
 30
0.0
 11
187.2754452470443
 21
84.612031848117
 31
0.0
  0
LINE
  5
33B
330
1F
100
AcDbEntity
  8
LAYER-256
  6
Continuous
 62
     1
100
AcDbLine
 10
197.5587206948151
 20
92.91890489210556
 30
0.0
 11
197.5587206948151
 21
84.612031848117
 31
0.0
  0
LINE
  5
33C
330
1F
100
AcDbEntity
  8
LAYER-256
  6
Continuous
 62
     1
100
AcDbLine
 10
199.6808186510565
 20
92.91890489210556
 30
0.0
 11
199.6808186510565
 21
101.2472054578789
 31
0.0
  0
LINE
  5
33D
330
1F
100
AcDbEntity
  8
LAYER-256
  6
Continuous
 62
     1
100
AcDbLine
 10
248.1870507057226
 20
-178.2531366912088
 30
0.0
 11
260.9931222464204
 21
-178.2531366912088
 31
0.0
  0
LINE
  5
33E
330
1F
100
AcDbEntity
  8
LAYER-256
  6
Continuous
 62
     1
100
AcDbLine
 10
474.5141922173491
 20
-178.2531366912088
 30
0.0
 11
461.7081206766513
 21
-178.2531366912088
 31
0.0
  0
LINE
  5
33F
330
1F
100
AcDbEntity
  8
LAYER-256
  6
Continuous
 62
     1
100
AcDbLine
 10
237.5357262012511
 20
-195.0090988087629
 30
0.0
 11
248.1870507057226
 21
-195.0090988087629
 31
0.0
  0
LINE
  5
340
330
1F
100
AcDbEntity
  8
LAYER-256
  6
Continuous
 62
     1
100
AcDbLine
 10
485.1655180025323
 20
-195.0090988087629
 30
0.0
 11
474.5141922173491
 21
-195.0090988087629
 31
0.0
  0
LINE
  5
341
330
1F
100
AcDbEntity
  8
LAYER-256
  6
Continuous
 62
     1
100
AcDbLine
 10
236.4180494147873
 20
-197.9791802466252
 30
0.0
 11
236.4180494147873
 21
-213.2215505515752
 31
0.0
  0
ARC
  5
342
330
1F
100
AcDbEntity
  8
LAYER-256
  6
Continuous
 62
     1
100
AcDbCircle
 10
240.9231908064092
 20
-197.9791802466252
 30
0.0
 40
4.505141391624322
100
AcDbArc
 50
138.7561740369027
 51
221.2438260033514
  0
ARC
  5
343
330
1F
100
AcDbEntity
  8
LAYER-256
  6
Continuous
 62
     1
100
AcDbCircle
 10
481.7780533972737
 20
-197.9791802466252
 30
0.0
 40
4.505141391624322
100
AcDbArc
 50
318.7561739966486
 51
41.24382596309842
  0
LINE
  5
344
330
1F
100
AcDbEntity
  8
LAYER-256
  6
Continuous
 62
     1
100
AcDbLine
 10
486.2831947888956
 20
-197.9791802466252
 30
0.0
 11
486.2831947888956
 21
-213.2215505515751
 31
0.0
  0
LINE
  5
345
330
1F
100
AcDbEntity
  8
LAYER-256
  6
Continuous
 62
     1
100
AcDbLine
 10
228.063373464
 20
-200.477936782998
 30
0.0
 11
236.4180494147873
 21
-200.477936782998
 31
0.0
  0
LINE
  5
346
330
1F
100
AcDbEntity
  8
LAYER-256
  6
Continuous
 62
     1
100
AcDbLine
 10
237.5357262012511
 20
-200.9492604038804
 30
0.0
 11
248.1870507057226
 21
-200.9492604038804
 31
0.0
  0
LINE
  5
347
330
1F
100
AcDbEntity
  8
LAYER-256
  6
Continuous
 62
     1
100
AcDbLine
 10
485.1655180025323
 20
-200.9492604038804
 30
0.0
 11
474.5141922173491
 21
-200.9492604038804
 31
0.0
  0
ARC
  5
348
330
1F
100
AcDbEntity
  8
LAYER-256
  6
Continuous
 62
     1
100
AcDbCircle
 10
246.6544507983074
 20
-205.6003653990799
 30
0.0
 40
10.23640138351991
100
AcDbArc
 50
152.9756509996956
 51
207.0243490003045
  0
ARC
  5
349
330
1F
100
AcDbEntity
  8
LAYER-256
  6
Continuous
 62
     1
100
AcDbCircle
 10
476.0467934053754
 20
-205.6003653990799
 30
0.0
 40
10.23640138351991
100
AcDbArc
 50
332.9756509996957
 51
27.02434900030434
  0
LINE
  5
34A
330
1F
100
AcDbEntity
  8
LAYER-256
  6
Continuous
 62
     1
100
AcDbLine
 10
237.5357262012511
 20
-210.2514691137128
 30
0.0
 11
248.1870507057226
 21
-210.2514691137128
 31
0.0
  0
LINE
  5
34B
330
1F
100
AcDbEntity
  8
LAYER-256
  6
Continuous
 62
     1
100
AcDbLine
 10
485.1655180025323
 20
-210.2514691137128
 30
0.0
 11
474.5141922173491
 21
-210.2514691137128
 31
0.0
  0
LINE
  5
34C
330
1F
100
AcDbEntity
  8
LAYER-256
  6
Continuous
 62
     1
100
AcDbLine
 10
228.063373464
 20
-210.7227940155528
 30
0.0
 11
228.063373464
 21
-200.477936782998
 31
0.0
  0
LINE
  5
34D
330
1F
100
AcDbEntity
  8
LAYER-256
  6
Continuous
 62
     1
100
AcDbLine
 10
228.063373464
 20
-210.7227940155528
 30
0.0
 11
236.4180494147873
 21
-210.7227940155528
 31
0.0
  0
ARC
  5
34E
330
1F
100
AcDbEntity
  8
LAYER-256
  6
Continuous
 62
     1
100
AcDbCircle
 10
240.9231908064092
 20
-213.2215505515752
 30
0.0
 40
4.505141391624322
100
AcDbArc
 50
138.7561739999998
 51
221.2438259999877
  0
ARC
  5
34F
330
1F
100
AcDbEntity
  8
LAYER-256
  6
Continuous
 62
     1
100
AcDbCircle
 10
481.7780533972737
 20
-213.2215505515751
 30
0.0
 40
4.505141391624322
100
AcDbArc
 50
318.7561740000123
 51
41.24382599999967
  0
LINE
  5
350
330
1F
100
AcDbEntity
  8
LAYER-256
  6
Continuous
 62
     1
100
AcDbLine
 10
237.5357262012511
 20
-216.1916319889448
 30
0.0
 11
248.1870507057226
 21
-216.1916319889448
 31
0.0
  0
LINE
  5
351
330
1F
100
AcDbEntity
  8
LAYER-256
  6
Continuous
 62
     1
100
AcDbLine
 10
485.1655180025323
 20
-216.1916319891188
 30
0.0
 11
474.5141922173491
 21
-216.1916319891188
 31
0.0
  0
LINE
  5
352
330
1F
100
AcDbEntity
  8
LAYER-256
  6
CENTER
 62
     4
100
AcDbLine
 10
211.3506214615359
 20
-221.8105704879804
 30
0.0
 11
211.3506214615359
 21
-259.6691072788519
 31
0.0
  0
LINE
  5
353
330
1F
100
AcDbEntity
  8
LAYER-256
  6
CENTER
 62
     4
100
AcDbLine
 10
511.3506214615359
 20
-221.8105704879805
 30
0.0
 11
511.3506214615359
 21
-259.6691072788518
 31
0.0
  0
LINE
  5
354
330
1F
100
AcDbEntity
  8
LAYER-256
  6
Continuous
 62
     1
100
AcDbLine
 10
188.8506214615359
 20
-236.4568424938937
 30
0.0
 11
188.8506214615359
 21
-242.8598782642425
 31
0.0
  0
LINE
  5
355
330
1F
100
AcDbEntity
  8
LAYER-256
  6
Continuous
 62
     1
100
AcDbLine
 10
248.1870507057226
 20
-236.4568424938937
 30
0.0
 11
248.1870507057226
 21
-178.2531366912088
 31
0.0
  0
LINE
  5
356
330
1F
100
AcDbEntity
  8
LAYER-256
  6
Continuous
 62
     1
100
AcDbLine
 10
260.9931222464204
 20
-236.4568424938937
 30
0.0
 11
260.9931222464204
 21
155.7370859654086
 31
0.0
  0
LINE
  5
357
330
1F
100
AcDbEntity
  8
LAYER-256
  6
Continuous
 62
     1
100
AcDbLine
 10
461.7081206766513
 20
-236.4568424938937
 30
0.0
 11
461.7081206766513
 21
155.7370859654086
 31
0.0
  0
LINE
  5
358
330
1F
100
AcDbEntity
  8
LAYER-256
  6
Continuous
 62
     1
100
AcDbLine
 10
474.5141922173491
 20
-236.4568424938937
 30
0.0
 11
474.5141922173491
 21
-178.2531366912088
 31
0.0
  0
LINE
  5
359
330
1F
100
AcDbEntity
  8
LAYER-256
  6
Continuous
 62
     1
100
AcDbLine
 10
533.8506214615359
 20
-236.4568424938937
 30
0.0
 11
533.8506214615359
 21
-242.8598782642425
 31
0.0
  0
LINE
  5
35A
330
1F
100
AcDbEntity
  8
LAYER-256
  6
Continuous
 62
     1
100
AcDbLine
 10
254.5900864760959
 20
-242.8598782642425
 30
0.0
 11
254.5900864760959
 21
-178.2531366912088
 31
0.0
  0
LINE
  5
35B
330
1F
100
AcDbEntity
  8
LAYER-256
  6
Continuous
 62
     1
100
AcDbLine
 10
468.1111564469758
 20
-242.8598782642425
 30
0.0
 11
468.1111564469758
 21
-178.2531366912088
 31
0.0
  0
LINE
  5
35C
330
1F
100
AcDbEntity
  8
LAYER-033
  6
Continuous
 62
     4
100
AcDbLine
 10
-13.8876690103713
 20
256.5112882636366
 30
0.0
 11
-8.405605201172193
 21
261.9933520728357
 31
0.0
  0
LINE
  5
35D
330
1F
100
AcDbEntity
  8
LAYER-033
  6
Continuous
 62
     4
100
AcDbLine
 10
-13.8876690103713
 20
251.0292244550149
 30
0.0
 11
-2.92354139197306
 21
261.9933520728357
 31
0.0
  0
LINE
  5
35E
330
1F
100
AcDbEntity
  8
LAYER-033
  6
Continuous
 62
     4
100
AcDbLine
 10
-13.8876690103713
 20
245.5471606452384
 30
0.0
 11
-0.9128508643026976
 21
258.521978791307
 31
0.0
  0
LINE
  5
35F
330
1F
100
AcDbEntity
  8
LAYER-033
  6
Continuous
 62
     4
100
AcDbLine
 10
-13.8876690103713
 20
240.0650968366167
 30
0.0
 11
-0.9128508643026976
 21
253.0399149826853
 31
0.0
  0
LINE
  5
360
330
1F
100
AcDbEntity
  8
LAYER-033
  6
Continuous
 62
     4
100
AcDbLine
 10
-13.8876690103713
 20
234.5830330274176
 30
0.0
 11
-0.9128508643026976
 21
247.5578511734862
 31
0.0
  0
LINE
  5
361
330
1F
100
AcDbEntity
  8
LAYER-033
  6
Continuous
 62
     4
100
AcDbLine
 10
-13.8876690103713
 20
229.1009692182186
 30
0.0
 11
-0.9128508643026976
 21
242.0757873642871
 31
0.0
  0
LINE
  5
362
330
1F
100
AcDbEntity
  8
LAYER-033
  6
Continuous
 62
     4
100
AcDbLine
 10
-13.8876690103713
 20
223.6189054090194
 30
0.0
 11
-0.9128508643026976
 21
236.5937235550881
 31
0.0
  0
LINE
  5
363
330
1F
100
AcDbEntity
  8
LAYER-033
  6
Continuous
 62
     4
100
AcDbLine
 10
-13.8876690103713
 20
216.9292945773514
 30
0.0
 11
-0.9128508643026976
 21
231.1116597458795
 31
0.0
  0
LINE
  5
364
330
1F
100
AcDbEntity
  8
LAYER-033
  6
Continuous
 62
     4
100
AcDbLine
 10
-13.8876690103713
 20
211.4472307681523
 30
0.0
 11
-0.9128508643026976
 21
225.6295959366898
 31
0.0
  0
LINE
  5
365
330
1F
100
AcDbEntity
  8
LAYER-033
  6
Continuous
 62
     4
100
AcDbLine
 10
-13.8876690103713
 20
205.9651669589534
 30
0.0
 11
-0.9128508643026976
 21
218.939985105022
 31
0.0
  0
LINE
  5
366
330
1F
100
AcDbEntity
  8
LAYER-033
  6
Continuous
 62
     4
100
AcDbLine
 10
-13.8876690103713
 20
200.4831031497542
 30
0.0
 11
-0.9128508643026976
 21
213.4579212958228
 31
0.0
  0
LINE
  5
367
330
1F
100
AcDbEntity
  8
LAYER-033
  6
Continuous
 62
     4
100
AcDbLine
 10
-13.8876690103713
 20
195.0010393405552
 30
0.0
 11
-0.9128508643026976
 21
207.9758574866238
 31
0.0
  0
LINE
  5
368
330
1F
100
AcDbEntity
  8
LAYER-033
  6
Continuous
 62
     4
100
AcDbLine
 10
-13.8876690103713
 20
189.5189755313562
 30
0.0
 11
-0.9128508643026976
 21
202.493793677425
 31
0.0
  0
LINE
  5
369
330
1F
100
AcDbEntity
  8
LAYER-033
  6
Continuous
 62
     4
100
AcDbLine
 10
-13.8876690103713
 20
184.036911722157
 30
0.0
 11
-0.9128508643026976
 21
197.0117298682256
 31
0.0
  0
LINE
  5
36A
330
1F
100
AcDbEntity
  8
LAYER-033
  6
Continuous
 62
     4
100
AcDbLine
 10
-13.8876690103713
 20
178.5548479129581
 30
0.0
 11
-0.9128508643026976
 21
191.5296660590266
 31
0.0
  0
LINE
  5
36B
330
1F
100
AcDbEntity
  8
LAYER-033
  6
Continuous
 62
     4
100
AcDbLine
 10
-13.8876690103713
 20
173.0727841037575
 30
0.0
 11
-0.9128508643026976
 21
186.0476022500505
 31
0.0
  0
LINE
  5
36C
330
1F
100
AcDbEntity
  8
LAYER-033
  6
Continuous
 62
     4
100
AcDbLine
 10
-13.8876690103713
 20
167.5907202945598
 30
0.0
 11
-0.9128508643026976
 21
180.5655384402886
 31
0.0
  0
LINE
  5
36D
330
1F
100
AcDbEntity
  8
LAYER-033
  6
Continuous
 62
     4
100
AcDbLine
 10
-13.85620375997465
 20
162.1401217357575
 30
0.0
 11
-0.9128508643026976
 21
175.0834746314294
 31
0.0
  0
LINE
  5
36E
330
1F
100
AcDbEntity
  8
LAYER-033
  6
Continuous
 62
     4
100
AcDbLine
 10
-8.374139950461554
 20
162.1401217357575
 30
0.0
 11
-0.9128508643026976
 21
169.6014108222303
 31
0.0
  0
LINE
  5
36F
330
1F
100
AcDbEntity
  8
LAYER-033
  6
Continuous
 62
     4
100
AcDbLine
 10
-2.892076141576553
 20
162.1401217357575
 30
0.0
 11
-0.9128508643026976
 21
164.1193470130313
 31
0.0
  0
LINE
  5
370
330
1F
100
AcDbEntity
  8
LAYER-033
  6
Continuous
 62
     4
100
AcDbLine
 10
-13.8876690103713
 20
167.6221855455724
 30
0.0
 11
-8.40560520117225
 21
162.1401217357575
 31
0.0
  0
LINE
  5
371
330
1F
100
AcDbEntity
  8
LAYER-033
  6
Continuous
 62
     4
100
AcDbLine
 10
-13.8876690103713
 20
173.1042493541556
 30
0.0
 11
-2.923541391973203
 21
162.1401217357575
 31
0.0
  0
LINE
  5
372
330
1F
100
AcDbEntity
  8
LAYER-033
  6
Continuous
 62
     4
100
AcDbLine
 10
-13.8876690103713
 20
178.5863131633547
 30
0.0
 11
-0.9128508643026976
 21
165.6114950172861
 31
0.0
  0
LINE
  5
373
330
1F
100
AcDbEntity
  8
LAYER-033
  6
Continuous
 62
     4
100
AcDbLine
 10
-13.8876690103713
 20
184.0683769725537
 30
0.0
 11
-0.9128508643026976
 21
171.0935588264852
 31
0.0
  0
LINE
  5
374
330
1F
100
AcDbEntity
  8
LAYER-033
  6
Continuous
 62
     4
100
AcDbLine
 10
-13.8876690103713
 20
189.5504407817528
 30
0.0
 11
-0.9128508643026976
 21
176.5756226356842
 31
0.0
  0
LINE
  5
375
330
1F
100
AcDbEntity
  8
LAYER-033
  6
Continuous
 62
     4
100
AcDbLine
 10
-13.8876690103713
 20
195.0325045909519
 30
0.0
 11
-0.9128508643026976
 21
182.0576864448833
 31
0.0
  0
LINE
  5
376
330
1F
100
AcDbEntity
  8
LAYER-033
  6
Continuous
 62
     4
100
AcDbLine
 10
-13.8876690103713
 20
200.5145684001509
 30
0.0
 11
-0.9128508643026976
 21
187.5397502540823
 31
0.0
  0
LINE
  5
377
330
1F
100
AcDbEntity
  8
LAYER-033
  6
Continuous
 62
     4
100
AcDbLine
 10
-13.8876690103713
 20
205.9966322094122
 30
0.0
 11
-0.9128508643026976
 21
193.0218140633448
 31
0.0
  0
LINE
  5
378
330
1F
100
AcDbEntity
  8
LAYER-033
  6
Continuous
 62
     4
100
AcDbLine
 10
-13.8876690103713
 20
211.478696018549
 30
0.0
 11
-0.9128508643026976
 21
198.5038778724805
 31
0.0
  0
LINE
  5
379
330
1F
100
AcDbEntity
  8
LAYER-033
  6
Continuous
 62
     4
100
AcDbLine
 10
-13.8876690103713
 20
216.9607598277481
 30
0.0
 11
-0.9128508643026976
 21
203.9859416816795
 31
0.0
  0
LINE
  5
37A
330
1F
100
AcDbEntity
  8
LAYER-033
  6
Continuous
 62
     4
100
AcDbLine
 10
-13.8876690103713
 20
223.650370659416
 30
0.0
 11
-0.9128508643026976
 21
209.4680054908786
 31
0.0
  0
LINE
  5
37B
330
1F
100
AcDbEntity
  8
LAYER-033
  6
Continuous
 62
     4
100
AcDbLine
 10
-13.8876690103713
 20
229.132434468615
 30
0.0
 11
-0.9128508643026976
 21
214.9500693002886
 31
0.0
  0
LINE
  5
37C
330
1F
100
AcDbEntity
  8
LAYER-033
  6
Continuous
 62
     4
100
AcDbLine
 10
-13.8876690103713
 20
234.6144982778142
 30
0.0
 11
-0.9128508643026976
 21
220.4321331092767
 31
0.0
  0
LINE
  5
37D
330
1F
100
AcDbEntity
  8
LAYER-033
  6
Continuous
 62
     4
100
AcDbLine
 10
-13.8876690103713
 20
240.0965620870132
 30
0.0
 11
-0.9128508643026976
 21
227.1217439409446
 31
0.0
  0
LINE
  5
37E
330
1F
100
AcDbEntity
  8
LAYER-033
  6
Continuous
 62
     4
100
AcDbLine
 10
-13.8876690103713
 20
245.5786258962123
 30
0.0
 11
-0.9128508643026976
 21
232.6038077501437
 31
0.0
  0
LINE
  5
37F
330
1F
100
AcDbEntity
  8
LAYER-033
  6
Continuous
 62
     4
100
AcDbLine
 10
-13.8876690103713
 20
251.0606897054113
 30
0.0
 11
-0.9128508643026976
 21
238.0858715593507
 31
0.0
  0
LINE
  5
380
330
1F
100
AcDbEntity
  8
LAYER-033
  6
Continuous
 62
     4
100
AcDbLine
 10
-13.8876690103713
 20
256.5427535146104
 30
0.0
 11
-0.9128508643026976
 21
243.5679353685418
 31
0.0
  0
LINE
  5
381
330
1F
100
AcDbEntity
  8
LAYER-033
  6
Continuous
 62
     4
100
AcDbLine
 10
-13.85620375898876
 20
261.9933520728357
 30
0.0
 11
-0.9128508643026976
 21
249.0499991777409
 31
0.0
  0
LINE
  5
382
330
1F
100
AcDbEntity
  8
LAYER-033
  6
Continuous
 62
     4
100
AcDbLine
 10
-8.374139950461554
 20
261.9933520728357
 30
0.0
 11
-0.9128508643026976
 21
254.5320629869399
 31
0.0
  0
LINE
  5
383
330
1F
100
AcDbEntity
  8
LAYER-033
  6
Continuous
 62
     4
100
AcDbLine
 10
-2.892076140999393
 20
261.9933520728357
 30
0.0
 11
-0.9128508643026976
 21
260.014126796139
 31
0.0
  0
LINE
  5
384
330
1F
100
AcDbEntity
  8
LAYER-033
  6
Continuous
 62
     4
100
AcDbLine
 10
-88.66294990879163
 20
256.5112882636366
 30
0.0
 11
-83.18088610004861
 21
261.9933520728357
 31
0.0
  0
LINE
  5
385
330
1F
100
AcDbEntity
  8
LAYER-033
  6
Continuous
 62
     4
100
AcDbLine
 10
-88.66294990879163
 20
251.0292244550149
 30
0.0
 11
-77.69882229084948
 21
261.9933520728357
 31
0.0
  0
LINE
  5
386
330
1F
100
AcDbEntity
  8
LAYER-033
  6
Continuous
 62
     4
100
AcDbLine
 10
-88.66294990879163
 20
245.5471606452384
 30
0.0
 11
-75.68813176027715
 21
258.5219787937575
 31
0.0
  0
LINE
  5
387
330
1F
100
AcDbEntity
  8
LAYER-033
  6
Continuous
 62
     4
100
AcDbLine
 10
-88.66294990879163
 20
240.0650968366167
 30
0.0
 11
-75.68813176027715
 21
253.0399149855873
 31
0.0
  0
LINE
  5
388
330
1F
100
AcDbEntity
  8
LAYER-033
  6
Continuous
 62
     4
100
AcDbLine
 10
-88.66294990879163
 20
234.5830330274176
 30
0.0
 11
-75.68813176027715
 21
247.5578511763882
 31
0.0
  0
LINE
  5
389
330
1F
100
AcDbEntity
  8
LAYER-033
  6
Continuous
 62
     4
100
AcDbLine
 10
-88.66294990879163
 20
229.1009692182186
 30
0.0
 11
-75.68813176027715
 21
242.0757873671892
 31
0.0
  0
LINE
  5
38A
330
1F
100
AcDbEntity
  8
LAYER-033
  6
Continuous
 62
     4
100
AcDbLine
 10
-88.66294990879163
 20
223.6189054092407
 30
0.0
 11
-75.68813176027715
 21
236.59372355799
 31
0.0
  0
LINE
  5
38B
330
1F
100
AcDbEntity
  8
LAYER-033
  6
Continuous
 62
     4
100
AcDbLine
 10
-88.66294990879163
 20
216.9292945773514
 30
0.0
 11
-75.68813176027715
 21
231.1116597487909
 31
0.0
  0
LINE
  5
38C
330
1F
100
AcDbEntity
  8
LAYER-033
  6
Continuous
 62
     4
100
AcDbLine
 10
-88.66294990879163
 20
211.4472307681523
 30
0.0
 11
-75.68813176027715
 21
225.6295959395918
 31
0.0
  0
LINE
  5
38D
330
1F
100
AcDbEntity
  8
LAYER-033
  6
Continuous
 62
     4
100
AcDbLine
 10
-88.66294990879163
 20
205.9651669589533
 30
0.0
 11
-75.68813176027715
 21
218.9399851079239
 31
0.0
  0
LINE
  5
38E
330
1F
100
AcDbEntity
  8
LAYER-033
  6
Continuous
 62
     4
100
AcDbLine
 10
-88.66294990879163
 20
200.4831031497542
 30
0.0
 11
-75.68813176027715
 21
213.4579212987248
 31
0.0
  0
LINE
  5
38F
330
1F
100
AcDbEntity
  8
LAYER-033
  6
Continuous
 62
     4
100
AcDbLine
 10
-88.66294990879163
 20
195.0010393405551
 30
0.0
 11
-75.68813176027715
 21
207.9758574895257
 31
0.0
  0
LINE
  5
390
330
1F
100
AcDbEntity
  8
LAYER-033
  6
Continuous
 62
     4
100
AcDbLine
 10
-88.66294990879163
 20
189.518975531356
 30
0.0
 11
-75.68813176027715
 21
202.493793680327
 31
0.0
  0
LINE
  5
391
330
1F
100
AcDbEntity
  8
LAYER-033
  6
Continuous
 62
     4
100
AcDbLine
 10
-88.66294990879163
 20
184.036911722157
 30
0.0
 11
-75.68813176027715
 21
197.0117298711276
 31
0.0
  0
LINE
  5
392
330
1F
100
AcDbEntity
  8
LAYER-033
  6
Continuous
 62
     4
100
AcDbLine
 10
-88.66294990879163
 20
178.5548479129579
 30
0.0
 11
-75.68813176027715
 21
191.5296660619285
 31
0.0
  0
LINE
  5
393
330
1F
100
AcDbEntity
  8
LAYER-033
  6
Continuous
 62
     4
100
AcDbLine
 10
-88.66294990879163
 20
173.0727841037589
 30
0.0
 11
-75.68813176027715
 21
186.0476022527295
 31
0.0
  0
LINE
  5
394
330
1F
100
AcDbEntity
  8
LAYER-033
  6
Continuous
 62
     4
100
AcDbLine
 10
-88.66294990879163
 20
167.5907202945598
 30
0.0
 11
-75.68813176027715
 21
180.5655384435304
 31
0.0
  0
LINE
  5
395
330
1F
100
AcDbEntity
  8
LAYER-033
  6
Continuous
 62
     4
100
AcDbLine
 10
-88.63148465885098
 20
162.1401217357575
 30
0.0
 11
-75.68813176027715
 21
175.0834746343313
 31
0.0
  0
LINE
  5
396
330
1F
100
AcDbEntity
  8
LAYER-033
  6
Continuous
 62
     4
100
AcDbLine
 10
-83.14942084965196
 20
162.1401217357575
 30
0.0
 11
-75.68813176027715
 21
169.6014108251323
 31
0.0
  0
LINE
  5
397
330
1F
100
AcDbEntity
  8
LAYER-033
  6
Continuous
 62
     4
100
AcDbLine
 10
-77.66735704045283
 20
162.1401217357575
 30
0.0
 11
-75.68813176027715
 21
164.119347016455
 31
0.0
  0
LINE
  5
398
330
1F
100
AcDbEntity
  8
LAYER-033
  6
Continuous
 62
     4
100
AcDbLine
 10
-88.66294990879163
 20
167.6221855455724
 30
0.0
 11
-83.18088610004867
 21
162.1401217357575
 31
0.0
  0
LINE
  5
399
330
1F
100
AcDbEntity
  8
LAYER-033
  6
Continuous
 62
     4
100
AcDbLine
 10
-88.66294990879163
 20
173.1042493541556
 30
0.0
 11
-77.69882229084962
 21
162.1401217357575
 31
0.0
  0
LINE
  5
39A
330
1F
100
AcDbEntity
  8
LAYER-033
  6
Continuous
 62
     4
100
AcDbLine
 10
-88.66294990879163
 20
178.5863131633547
 30
0.0
 11
-75.68813176027715
 21
165.6114950143841
 31
0.0
  0
LINE
  5
39B
330
1F
100
AcDbEntity
  8
LAYER-033
  6
Continuous
 62
     4
100
AcDbLine
 10
-88.66294990879163
 20
184.0683769725537
 30
0.0
 11
-75.68813176027715
 21
171.0935588235832
 31
0.0
  0
LINE
  5
39C
330
1F
100
AcDbEntity
  8
LAYER-033
  6
Continuous
 62
     4
100
AcDbLine
 10
-88.66294990879163
 20
189.5504407817528
 30
0.0
 11
-75.68813176027715
 21
176.5756226327822
 31
0.0
  0
LINE
  5
39D
330
1F
100
AcDbEntity
  8
LAYER-033
  6
Continuous
 62
     4
100
AcDbLine
 10
-88.66294990879163
 20
195.0325045909519
 30
0.0
 11
-75.68813176027715
 21
182.0576864419813
 31
0.0
  0
LINE
  5
39E
330
1F
100
AcDbEntity
  8
LAYER-033
  6
Continuous
 62
     4
100
AcDbLine
 10
-88.66294990879163
 20
200.514568400151
 30
0.0
 11
-75.68813176027715
 21
187.5397502511804
 31
0.0
  0
LINE
  5
39F
330
1F
100
AcDbEntity
  8
LAYER-033
  6
Continuous
 62
     4
100
AcDbLine
 10
-88.66294990879163
 20
205.9966322094122
 30
0.0
 11
-75.68813176027715
 21
193.0218140603794
 31
0.0
  0
LINE
  5
3A0
330
1F
100
AcDbEntity
  8
LAYER-033
  6
Continuous
 62
     4
100
AcDbLine
 10
-88.66294990879163
 20
211.478696018549
 30
0.0
 11
-75.68813176027715
 21
198.5038778695785
 31
0.0
  0
LINE
  5
3A1
330
1F
100
AcDbEntity
  8
LAYER-033
  6
Continuous
 62
     4
100
AcDbLine
 10
-88.66294990879163
 20
216.9607598277481
 30
0.0
 11
-75.68813176027715
 21
203.9859416787775
 31
0.0
  0
LINE
  5
3A2
330
1F
100
AcDbEntity
  8
LAYER-033
  6
Continuous
 62
     4
100
AcDbLine
 10
-88.66294990879163
 20
223.6503706594161
 30
0.0
 11
-75.68813176027715
 21
209.4680054879767
 31
0.0
  0
LINE
  5
3A3
330
1F
100
AcDbEntity
  8
LAYER-033
  6
Continuous
 62
     4
100
AcDbLine
 10
-88.66294990879163
 20
229.1324344686151
 30
0.0
 11
-75.68813176027715
 21
214.9500692969403
 31
0.0
  0
LINE
  5
3A4
330
1F
100
AcDbEntity
  8
LAYER-033
  6
Continuous
 62
     4
100
AcDbLine
 10
-88.66294990879163
 20
234.6144982778142
 30
0.0
 11
-75.68813176027715
 21
220.4321331063748
 31
0.0
  0
LINE
  5
3A5
330
1F
100
AcDbEntity
  8
LAYER-033
  6
Continuous
 62
     4
100
AcDbLine
 10
-88.66294990879163
 20
240.0965620870132
 30
0.0
 11
-75.68813176027715
 21
227.1217439380427
 31
0.0
  0
LINE
  5
3A6
330
1F
100
AcDbEntity
  8
LAYER-033
  6
Continuous
 62
     4
100
AcDbLine
 10
-88.66294990879163
 20
245.5786258962123
 30
0.0
 11
-75.68813176027715
 21
232.6038077472417
 31
0.0
  0
LINE
  5
3A7
330
1F
100
AcDbEntity
  8
LAYER-033
  6
Continuous
 62
     4
100
AcDbLine
 10
-88.66294990879163
 20
251.0606897054114
 30
0.0
 11
-75.68813176027715
 21
238.0858715564408
 31
0.0
  0
LINE
  5
3A8
330
1F
100
AcDbEntity
  8
LAYER-033
  6
Continuous
 62
     4
100
AcDbLine
 10
-88.66294990879163
 20
256.5427535146104
 30
0.0
 11
-75.68813176027715
 21
243.5679353656399
 31
0.0
  0
LINE
  5
3A9
330
1F
100
AcDbEntity
  8
LAYER-033
  6
Continuous
 62
     4
100
AcDbLine
 10
-88.63148465786168
 20
261.9933520728357
 30
0.0
 11
-75.68813176027715
 21
249.0499991748389
 31
0.0
  0
LINE
  5
3AA
330
1F
100
AcDbEntity
  8
LAYER-033
  6
Continuous
 62
     4
100
AcDbLine
 10
-83.14942084907477
 20
261.9933520728357
 30
0.0
 11
-75.68813176027715
 21
254.532062984038
 31
0.0
  0
LINE
  5
3AB
330
1F
100
AcDbEntity
  8
LAYER-033
  6
Continuous
 62
     4
100
AcDbLine
 10
-77.66735703987575
 20
261.9933520728357
 30
0.0
 11
-75.68813176027715
 21
260.0141267932371
 31
0.0
  0
LINE
  5
3AC
330
1F
100
AcDbEntity
  8
LAYER-033
  6
Continuous
 62
     4
100
AcDbLine
 10
-163.4382308076704
 20
256.5112882636366
 30
0.0
 11
-157.956166998925
 21
261.9933520728357
 31
0.0
  0
LINE
  5
3AD
330
1F
100
AcDbEntity
  8
LAYER-033
  6
Continuous
 62
     4
100
AcDbLine
 10
-163.4382308076704
 20
251.0292244550149
 30
0.0
 11
-152.474103189726
 21
261.9933520728357
 31
0.0
  0
LINE
  5
3AE
330
1F
100
AcDbEntity
  8
LAYER-033
  6
Continuous
 62
     4
100
AcDbLine
 10
-163.4382308076704
 20
245.5471606452385
 30
0.0
 11
-150.4634126620559
 21
258.5219787913066
 31
0.0
  0
LINE
  5
3AF
330
1F
100
AcDbEntity
  8
LAYER-033
  6
Continuous
 62
     4
100
AcDbLine
 10
-163.4382308076704
 20
240.0650968366168
 30
0.0
 11
-150.4634126620559
 21
253.0399149826851
 31
0.0
  0
LINE
  5
3B0
330
1F
100
AcDbEntity
  8
LAYER-033
  6
Continuous
 62
     4
100
AcDbLine
 10
-163.4382308076704
 20
234.5830330274177
 30
0.0
 11
-150.4634126620559
 21
247.5578511734859
 31
0.0
  0
LINE
  5
3B1
330
1F
100
AcDbEntity
  8
LAYER-033
  6
Continuous
 62
     4
100
AcDbLine
 10
-163.4382308076704
 20
229.1009692182186
 30
0.0
 11
-150.4634126620559
 21
242.0757873642868
 31
0.0
  0
LINE
  5
3B2
330
1F
100
AcDbEntity
  8
LAYER-033
  6
Continuous
 62
     4
100
AcDbLine
 10
-163.4382308076704
 20
223.6189054092407
 30
0.0
 11
-150.4634126620559
 21
236.5937235550878
 31
0.0
  0
LINE
  5
3B3
330
1F
100
AcDbEntity
  8
LAYER-033
  6
Continuous
 62
     4
100
AcDbLine
 10
-163.4382308076704
 20
216.9292945773516
 30
0.0
 11
-150.4634126620559
 21
231.1116597458795
 31
0.0
  0
LINE
  5
3B4
330
1F
100
AcDbEntity
  8
LAYER-033
  6
Continuous
 62
     4
100
AcDbLine
 10
-163.4382308076704
 20
211.4472307681525
 30
0.0
 11
-150.4634126620559
 21
225.6295959366897
 31
0.0
  0
LINE
  5
3B5
330
1F
100
AcDbEntity
  8
LAYER-033
  6
Continuous
 62
     4
100
AcDbLine
 10
-163.4382308076704
 20
205.9651669589535
 30
0.0
 11
-150.4634126620559
 21
218.9399851050217
 31
0.0
  0
LINE
  5
3B6
330
1F
100
AcDbEntity
  8
LAYER-033
  6
Continuous
 62
     4
100
AcDbLine
 10
-163.4382308076704
 20
200.4831031497544
 30
0.0
 11
-150.4634126620559
 21
213.4579212958227
 31
0.0
  0
LINE
  5
3B7
330
1F
100
AcDbEntity
  8
LAYER-033
  6
Continuous
 62
     4
100
AcDbLine
 10
-163.4382308076704
 20
195.0010393405554
 30
0.0
 11
-150.4634126620559
 21
207.9758574866236
 31
0.0
  0
LINE
  5
3B8
330
1F
100
AcDbEntity
  8
LAYER-033
  6
Continuous
 62
     4
100
AcDbLine
 10
-163.4382308076704
 20
189.5189755313563
 30
0.0
 11
-150.4634126620559
 21
202.4937936774249
 31
0.0
  0
LINE
  5
3B9
330
1F
100
AcDbEntity
  8
LAYER-033
  6
Continuous
 62
     4
100
AcDbLine
 10
-163.4382308076704
 20
184.0369117221573
 30
0.0
 11
-150.4634126620559
 21
197.0117298682255
 31
0.0
  0
LINE
  5
3BA
330
1F
100
AcDbEntity
  8
LAYER-033
  6
Continuous
 62
     4
100
AcDbLine
 10
-163.4382308076704
 20
178.5548479129583
 30
0.0
 11
-150.4634126620559
 21
191.5296660590265
 31
0.0
  0
LINE
  5
3BB
330
1F
100
AcDbEntity
  8
LAYER-033
  6
Continuous
 62
     4
100
AcDbLine
 10
-163.4382308076704
 20
173.0727841037592
 30
0.0
 11
-150.4634126620559
 21
186.0476022500505
 31
0.0
  0
LINE
  5
3BC
330
1F
100
AcDbEntity
  8
LAYER-033
  6
Continuous
 62
     4
100
AcDbLine
 10
-163.4382308076704
 20
167.5907202945601
 30
0.0
 11
-150.4634126620559
 21
180.5655384402886
 31
0.0
  0
LINE
  5
3BD
330
1F
100
AcDbEntity
  8
LAYER-033
  6
Continuous
 62
     4
100
AcDbLine
 10
-163.4067655577278
 20
162.1401217357575
 30
0.0
 11
-150.4634126620559
 21
175.0834746314293
 31
0.0
  0
LINE
  5
3BE
330
1F
100
AcDbEntity
  8
LAYER-033
  6
Continuous
 62
     4
100
AcDbLine
 10
-157.9247017485286
 20
162.1401217357575
 30
0.0
 11
-150.4634126620559
 21
169.6014108222303
 31
0.0
  0
LINE
  5
3BF
330
1F
100
AcDbEntity
  8
LAYER-033
  6
Continuous
 62
     4
100
AcDbLine
 10
-152.4426379393297
 20
162.1401217357575
 30
0.0
 11
-150.4634126620559
 21
164.1193470130312
 31
0.0
  0
LINE
  5
3C0
330
1F
100
AcDbEntity
  8
LAYER-033
  6
Continuous
 62
     4
100
AcDbLine
 10
-163.4382308076704
 20
167.6221855455724
 30
0.0
 11
-157.9561669989251
 21
162.1401217357575
 31
0.0
  0
LINE
  5
3C1
330
1F
100
AcDbEntity
  8
LAYER-033
  6
Continuous
 62
     4
100
AcDbLine
 10
-163.4382308076704
 20
173.1042493541556
 30
0.0
 11
-152.474103189726
 21
162.1401217357575
 31
0.0
  0
LINE
  5
3C2
330
1F
100
AcDbEntity
  8
LAYER-033
  6
Continuous
 62
     4
100
AcDbLine
 10
-163.4382308076704
 20
178.5863131633546
 30
0.0
 11
-150.4634126620559
 21
165.6114950172864
 31
0.0
  0
LINE
  5
3C3
330
1F
100
AcDbEntity
  8
LAYER-033
  6
Continuous
 62
     4
100
AcDbLine
 10
-163.4382308076704
 20
184.0683769725537
 30
0.0
 11
-150.4634126620559
 21
171.0935588264854
 31
0.0
  0
LINE
  5
3C4
330
1F
100
AcDbEntity
  8
LAYER-033
  6
Continuous
 62
     4
100
AcDbLine
 10
-163.4382308076704
 20
189.5504407817527
 30
0.0
 11
-150.4634126620559
 21
176.5756226356845
 31
0.0
  0
LINE
  5
3C5
330
1F
100
AcDbEntity
  8
LAYER-033
  6
Continuous
 62
     4
100
AcDbLine
 10
-163.4382308076704
 20
195.0325045909518
 30
0.0
 11
-150.4634126620559
 21
182.0576864448835
 31
0.0
  0
LINE
  5
3C6
330
1F
100
AcDbEntity
  8
LAYER-033
  6
Continuous
 62
     4
100
AcDbLine
 10
-163.4382308076704
 20
200.5145684001508
 30
0.0
 11
-150.4634126620559
 21
187.5397502540826
 31
0.0
  0
LINE
  5
3C7
330
1F
100
AcDbEntity
  8
LAYER-033
  6
Continuous
 62
     4
100
AcDbLine
 10
-163.4382308076704
 20
205.9966322094122
 30
0.0
 11
-150.4634126620559
 21
193.0218140633448
 31
0.0
  0
LINE
  5
3C8
330
1F
100
AcDbEntity
  8
LAYER-033
  6
Continuous
 62
     4
100
AcDbLine
 10
-163.4382308076704
 20
211.4786960185489
 30
0.0
 11
-150.4634126620559
 21
198.5038778724806
 31
0.0
  0
LINE
  5
3C9
330
1F
100
AcDbEntity
  8
LAYER-033
  6
Continuous
 62
     4
100
AcDbLine
 10
-163.4382308076704
 20
216.960759827748
 30
0.0
 11
-150.4634126620559
 21
203.9859416816797
 31
0.0
  0
LINE
  5
3CA
330
1F
100
AcDbEntity
  8
LAYER-033
  6
Continuous
 62
     4
100
AcDbLine
 10
-163.4382308076704
 20
223.6503706594158
 30
0.0
 11
-150.4634126620559
 21
209.4680054908787
 31
0.0
  0
LINE
  5
3CB
330
1F
100
AcDbEntity
  8
LAYER-033
  6
Continuous
 62
     4
100
AcDbLine
 10
-163.4382308076704
 20
229.1324344686149
 30
0.0
 11
-150.4634126620559
 21
214.9500693002886
 31
0.0
  0
LINE
  5
3CC
330
1F
100
AcDbEntity
  8
LAYER-033
  6
Continuous
 62
     4
100
AcDbLine
 10
-163.4382308076704
 20
234.6144982778139
 30
0.0
 11
-150.4634126620559
 21
220.4321331092768
 31
0.0
  0
LINE
  5
3CD
330
1F
100
AcDbEntity
  8
LAYER-033
  6
Continuous
 62
     4
100
AcDbLine
 10
-163.4382308076704
 20
240.096562087013
 30
0.0
 11
-150.4634126620559
 21
227.1217439409448
 31
0.0
  0
LINE
  5
3CE
330
1F
100
AcDbEntity
  8
LAYER-033
  6
Continuous
 62
     4
100
AcDbLine
 10
-163.4382308076704
 20
245.578625896212
 30
0.0
 11
-150.4634126620559
 21
232.6038077501438
 31
0.0
  0
LINE
  5
3CF
330
1F
100
AcDbEntity
  8
LAYER-033
  6
Continuous
 62
     4
100
AcDbLine
 10
-163.4382308076704
 20
251.0606897054111
 30
0.0
 11
-150.4634126620559
 21
238.0858715593507
 31
0.0
  0
LINE
  5
3D0
330
1F
100
AcDbEntity
  8
LAYER-033
  6
Continuous
 62
     4
100
AcDbLine
 10
-163.4382308076704
 20
256.5427535146101
 30
0.0
 11
-150.4634126620559
 21
243.5679353685419
 31
0.0
  0
LINE
  5
3D1
330
1F
100
AcDbEntity
  8
LAYER-033
  6
Continuous
 62
     4
100
AcDbLine
 10
-163.406765557
 20
261.9933520728357
 30
0.0
 11
-150.4634126620559
 21
249.049999177741
 31
0.0
  0
LINE
  5
3D2
330
1F
100
AcDbEntity
  8
LAYER-033
  6
Continuous
 62
     4
100
AcDbLine
 10
-157.9247017479516
 20
261.9933520728357
 30
0.0
 11
-150.4634126620559
 21
254.53206298694
 31
0.0
  0
LINE
  5
3D3
330
1F
100
AcDbEntity
  8
LAYER-033
  6
Continuous
 62
     4
100
AcDbLine
 10
-152.4426379387525
 20
261.9933520728357
 30
0.0
 11
-150.4634126620559
 21
260.0141267961391
 31
0.0
  0
LINE
  5
3D4
330
1F
100
AcDbEntity
  8
LAYER-033
  6
Continuous
 62
     4
100
AcDbLine
 10
-238.2135117142458
 20
256.5112882636366
 30
0.0
 11
-232.7314479050452
 21
261.9933520728357
 31
0.0
  0
LINE
  5
3D5
330
1F
100
AcDbEntity
  8
LAYER-033
  6
Continuous
 62
     4
100
AcDbLine
 10
-238.2135117142458
 20
251.0292244550149
 30
0.0
 11
-227.2493840958462
 21
261.9933520728357
 31
0.0
  0
LINE
  5
3D6
330
1F
100
AcDbEntity
  8
LAYER-033
  6
Continuous
 62
     4
100
AcDbLine
 10
-238.2135117142458
 20
245.5471606452385
 30
0.0
 11
-225.2386935681816
 21
258.5219787913012
 31
0.0
  0
LINE
  5
3D7
330
1F
100
AcDbEntity
  8
LAYER-033
  6
Continuous
 62
     4
100
AcDbLine
 10
-238.2135117142458
 20
240.0650968366168
 30
0.0
 11
-225.2386935681816
 21
253.0399149826795
 31
0.0
  0
LINE
  5
3D8
330
1F
100
AcDbEntity
  8
LAYER-033
  6
Continuous
 62
     4
100
AcDbLine
 10
-238.2135117142458
 20
234.5830330274177
 30
0.0
 11
-225.2386935681816
 21
247.5578511734804
 31
0.0
  0
LINE
  5
3D9
330
1F
100
AcDbEntity
  8
LAYER-033
  6
Continuous
 62
     4
100
AcDbLine
 10
-238.2135117142458
 20
229.1009692182186
 30
0.0
 11
-225.2386935681816
 21
242.0757873642813
 31
0.0
  0
LINE
  5
3DA
330
1F
100
AcDbEntity
  8
LAYER-033
  6
Continuous
 62
     4
100
AcDbLine
 10
-238.2135117142458
 20
223.6189054092407
 30
0.0
 11
-225.2386935681816
 21
236.5937235550823
 31
0.0
  0
LINE
  5
3DB
330
1F
100
AcDbEntity
  8
LAYER-033
  6
Continuous
 62
     4
100
AcDbLine
 10
-238.2135117142458
 20
216.9292945773516
 30
0.0
 11
-225.2386935681816
 21
231.1116597458795
 31
0.0
  0
LINE
  5
3DC
330
1F
100
AcDbEntity
  8
LAYER-033
  6
Continuous
 62
     4
100
AcDbLine
 10
-238.2135117142458
 20
211.4472307681525
 30
0.0
 11
-225.2386935681816
 21
225.629595936684
 31
0.0
  0
LINE
  5
3DD
330
1F
100
AcDbEntity
  8
LAYER-033
  6
Continuous
 62
     4
100
AcDbLine
 10
-238.2135117142458
 20
205.9651669589535
 30
0.0
 11
-225.2386935681816
 21
218.9399851050162
 31
0.0
  0
LINE
  5
3DE
330
1F
100
AcDbEntity
  8
LAYER-033
  6
Continuous
 62
     4
100
AcDbLine
 10
-238.2135117142458
 20
200.4831031497544
 30
0.0
 11
-225.2386935681816
 21
213.4579212958171
 31
0.0
  0
LINE
  5
3DF
330
1F
100
AcDbEntity
  8
LAYER-033
  6
Continuous
 62
     4
100
AcDbLine
 10
-238.2135117142458
 20
195.0010393405554
 30
0.0
 11
-225.2386935681816
 21
207.9758574866181
 31
0.0
  0
LINE
  5
3E0
330
1F
100
AcDbEntity
  8
LAYER-033
  6
Continuous
 62
     4
100
AcDbLine
 10
-238.2135117142458
 20
189.5189755313563
 30
0.0
 11
-225.2386935681816
 21
202.4937936774194
 31
0.0
  0
LINE
  5
3E1
330
1F
100
AcDbEntity
  8
LAYER-033
  6
Continuous
 62
     4
100
AcDbLine
 10
-238.2135117142458
 20
184.0369117221573
 30
0.0
 11
-225.2386935681816
 21
197.01172986822
 31
0.0
  0
LINE
  5
3E2
330
1F
100
AcDbEntity
  8
LAYER-033
  6
Continuous
 62
     4
100
AcDbLine
 10
-238.2135117142458
 20
178.5548479129583
 30
0.0
 11
-225.2386935681816
 21
191.5296660590209
 31
0.0
  0
LINE
  5
3E3
330
1F
100
AcDbEntity
  8
LAYER-033
  6
Continuous
 62
     4
100
AcDbLine
 10
-238.2135117142458
 20
173.0727841037592
 30
0.0
 11
-225.2386935681816
 21
186.0476022500505
 31
0.0
  0
LINE
  5
3E4
330
1F
100
AcDbEntity
  8
LAYER-033
  6
Continuous
 62
     4
100
AcDbLine
 10
-238.2135117142458
 20
167.5907202945601
 30
0.0
 11
-225.2386935681816
 21
180.5655384402886
 31
0.0
  0
LINE
  5
3E5
330
1F
100
AcDbEntity
  8
LAYER-033
  6
Continuous
 62
     4
100
AcDbLine
 10
-238.1820464638479
 20
162.1401217357575
 30
0.0
 11
-225.2386935681816
 21
175.0834746314238
 31
0.0
  0
LINE
  5
3E6
330
1F
100
AcDbEntity
  8
LAYER-033
  6
Continuous
 62
     4
100
AcDbLine
 10
-232.6999826546489
 20
162.1401217357575
 30
0.0
 11
-225.2386935681816
 21
169.6014108222247
 31
0.0
  0
LINE
  5
3E7
330
1F
100
AcDbEntity
  8
LAYER-033
  6
Continuous
 62
     4
100
AcDbLine
 10
-227.2179188454498
 20
162.1401217357575
 30
0.0
 11
-225.2386935681816
 21
164.1193470130257
 31
0.0
  0
LINE
  5
3E8
330
1F
100
AcDbEntity
  8
LAYER-033
  6
Continuous
 62
     4
100
AcDbLine
 10
-238.2135117142458
 20
167.6221855455724
 30
0.0
 11
-232.7314479050452
 21
162.1401217357575
 31
0.0
  0
LINE
  5
3E9
330
1F
100
AcDbEntity
  8
LAYER-033
  6
Continuous
 62
     4
100
AcDbLine
 10
-238.2135117142458
 20
173.1042493541556
 30
0.0
 11
-227.2493840958462
 21
162.1401217357575
 31
0.0
  0
LINE
  5
3EA
330
1F
100
AcDbEntity
  8
LAYER-033
  6
Continuous
 62
     4
100
AcDbLine
 10
-238.2135117142458
 20
178.5863131633546
 30
0.0
 11
-225.2386935681816
 21
165.6114950172919
 31
0.0
  0
LINE
  5
3EB
330
1F
100
AcDbEntity
  8
LAYER-033
  6
Continuous
 62
     4
100
AcDbLine
 10
-238.2135117142458
 20
184.0683769725537
 30
0.0
 11
-225.2386935681816
 21
171.093558826491
 31
0.0
  0
LINE
  5
3EC
330
1F
100
AcDbEntity
  8
LAYER-033
  6
Continuous
 62
     4
100
AcDbLine
 10
-238.2135117142458
 20
189.5504407817527
 30
0.0
 11
-225.2386935681816
 21
176.57562263569
 31
0.0
  0
LINE
  5
3ED
330
1F
100
AcDbEntity
  8
LAYER-033
  6
Continuous
 62
     4
100
AcDbLine
 10
-238.2135117142458
 20
195.0325045909518
 30
0.0
 11
-225.2386935681816
 21
182.057686444889
 31
0.0
  0
LINE
  5
3EE
330
1F
100
AcDbEntity
  8
LAYER-033
  6
Continuous
 62
     4
100
AcDbLine
 10
-238.2135117142458
 20
200.5145684001508
 30
0.0
 11
-225.2386935681816
 21
187.5397502540881
 31
0.0
  0
LINE
  5
3EF
330
1F
100
AcDbEntity
  8
LAYER-033
  6
Continuous
 62
     4
100
AcDbLine
 10
-238.2135117142458
 20
205.9966322094122
 30
0.0
 11
-225.2386935681816
 21
193.0218140633448
 31
0.0
  0
LINE
  5
3F0
330
1F
100
AcDbEntity
  8
LAYER-033
  6
Continuous
 62
     4
100
AcDbLine
 10
-238.2135117142458
 20
211.4786960188895
 30
0.0
 11
-225.2386935681816
 21
198.5038778724862
 31
0.0
  0
LINE
  5
3F1
330
1F
100
AcDbEntity
  8
LAYER-033
  6
Continuous
 62
     4
100
AcDbLine
 10
-238.2135117142458
 20
216.960759827748
 30
0.0
 11
-225.2386935681816
 21
203.9859416816852
 31
0.0
  0
LINE
  5
3F2
330
1F
100
AcDbEntity
  8
LAYER-033
  6
Continuous
 62
     4
100
AcDbLine
 10
-238.2135117142458
 20
223.6503706594158
 30
0.0
 11
-225.2386935681816
 21
209.4680054908843
 31
0.0
  0
LINE
  5
3F3
330
1F
100
AcDbEntity
  8
LAYER-033
  6
Continuous
 62
     4
100
AcDbLine
 10
-238.2135117142458
 20
229.1324344686149
 30
0.0
 11
-225.2386935681816
 21
214.9500693002886
 31
0.0
  0
LINE
  5
3F4
330
1F
100
AcDbEntity
  8
LAYER-033
  6
Continuous
 62
     4
100
AcDbLine
 10
-238.2135117142458
 20
234.6144982778139
 30
0.0
 11
-225.2386935681816
 21
220.4321331092824
 31
0.0
  0
LINE
  5
3F5
330
1F
100
AcDbEntity
  8
LAYER-033
  6
Continuous
 62
     4
100
AcDbLine
 10
-238.2135117142458
 20
240.096562087013
 30
0.0
 11
-225.2386935681816
 21
227.1217439409503
 31
0.0
  0
LINE
  5
3F6
330
1F
100
AcDbEntity
  8
LAYER-033
  6
Continuous
 62
     4
100
AcDbLine
 10
-238.2135117142458
 20
245.578625896212
 30
0.0
 11
-225.2386935681816
 21
232.6038077501493
 31
0.0
  0
LINE
  5
3F7
330
1F
100
AcDbEntity
  8
LAYER-033
  6
Continuous
 62
     4
100
AcDbLine
 10
-238.2135117142458
 20
251.0606897054111
 30
0.0
 11
-225.2386935681816
 21
238.0858715593507
 31
0.0
  0
LINE
  5
3F8
330
1F
100
AcDbEntity
  8
LAYER-033
  6
Continuous
 62
     4
100
AcDbLine
 10
-238.2135117142458
 20
256.5427535146101
 30
0.0
 11
-225.2386935681816
 21
243.5679353683584
 31
0.0
  0
LINE
  5
3F9
330
1F
100
AcDbEntity
  8
LAYER-033
  6
Continuous
 62
     4
100
AcDbLine
 10
-238.1820464628629
 20
261.9933520728357
 30
0.0
 11
-225.2386935681816
 21
249.0499991777465
 31
0.0
  0
LINE
  5
3FA
330
1F
100
AcDbEntity
  8
LAYER-033
  6
Continuous
 62
     4
100
AcDbLine
 10
-232.6999826540717
 20
261.9933520728357
 30
0.0
 11
-225.2386935681816
 21
254.5320629869455
 31
0.0
  0
LINE
  5
3FB
330
1F
100
AcDbEntity
  8
LAYER-033
  6
Continuous
 62
     4
100
AcDbLine
 10
-227.2179188448727
 20
261.9933520728357
 30
0.0
 11
-225.2386935681816
 21
260.0141267961446
 31
0.0
  0
LINE
  5
3FC
330
1F
100
AcDbEntity
  8
LAYER-033
  6
Continuous
 62
     4
100
AcDbLine
 10
-312.9887926058773
 20
256.5112882636366
 30
0.0
 11
-307.5067287966801
 21
261.9933520728357
 31
0.0
  0
LINE
  5
3FD
330
1F
100
AcDbEntity
  8
LAYER-033
  6
Continuous
 62
     4
100
AcDbLine
 10
-312.9887926058773
 20
251.0292244550149
 30
0.0
 11
-302.024664987481
 21
261.9933520728357
 31
0.0
  0
LINE
  5
3FE
330
1F
100
AcDbEntity
  8
LAYER-033
  6
Continuous
 62
     4
100
AcDbLine
 10
-312.9887926058773
 20
245.5471606452383
 30
0.0
 11
-300.0139744598106
 21
258.5219787913069
 31
0.0
  0
LINE
  5
3FF
330
1F
100
AcDbEntity
  8
LAYER-033
  6
Continuous
 62
     4
100
AcDbLine
 10
-312.9887926058773
 20
240.0650968366167
 30
0.0
 11
-300.0139744598106
 21
253.0399149826852
 31
0.0
  0
LINE
  5
400
330
1F
100
AcDbEntity
  8
LAYER-033
  6
Continuous
 62
     4
100
AcDbLine
 10
-312.9887926058773
 20
234.5830330274175
 30
0.0
 11
-300.0139744598106
 21
247.5578511734861
 31
0.0
  0
LINE
  5
401
330
1F
100
AcDbEntity
  8
LAYER-033
  6
Continuous
 62
     4
100
AcDbLine
 10
-312.9887926058773
 20
229.1009692182184
 30
0.0
 11
-300.0139744598106
 21
242.075787364287
 31
0.0
  0
LINE
  5
402
330
1F
100
AcDbEntity
  8
LAYER-033
  6
Continuous
 62
     4
100
AcDbLine
 10
-312.9887926058773
 20
223.6189054092407
 30
0.0
 11
-300.0139744598106
 21
236.5937235550879
 31
0.0
  0
LINE
  5
403
330
1F
100
AcDbEntity
  8
LAYER-033
  6
Continuous
 62
     4
100
AcDbLine
 10
-312.9887926058773
 20
216.9292945773513
 30
0.0
 11
-300.0139744598106
 21
231.1116597458795
 31
0.0
  0
LINE
  5
404
330
1F
100
AcDbEntity
  8
LAYER-033
  6
Continuous
 62
     4
100
AcDbLine
 10
-312.9887926058773
 20
211.4472307681522
 30
0.0
 11
-300.0139744598106
 21
225.6295959366897
 31
0.0
  0
LINE
  5
405
330
1F
100
AcDbEntity
  8
LAYER-033
  6
Continuous
 62
     4
100
AcDbLine
 10
-312.9887926058773
 20
205.965166958953
 30
0.0
 11
-300.0139744598106
 21
218.9399851050217
 31
0.0
  0
LINE
  5
406
330
1F
100
AcDbEntity
  8
LAYER-033
  6
Continuous
 62
     4
100
AcDbLine
 10
-312.9887926058773
 20
200.483103149754
 30
0.0
 11
-300.0139744598106
 21
213.4579212958226
 31
0.0
  0
LINE
  5
407
330
1F
100
AcDbEntity
  8
LAYER-033
  6
Continuous
 62
     4
100
AcDbLine
 10
-312.9887926058773
 20
195.0010393405549
 30
0.0
 11
-300.0139744598106
 21
207.9758574866236
 31
0.0
  0
LINE
  5
408
330
1F
100
AcDbEntity
  8
LAYER-033
  6
Continuous
 62
     4
100
AcDbLine
 10
-312.9887926058773
 20
189.5189755313559
 30
0.0
 11
-300.0139744598106
 21
202.4937936774247
 31
0.0
  0
LINE
  5
409
330
1F
100
AcDbEntity
  8
LAYER-033
  6
Continuous
 62
     4
100
AcDbLine
 10
-312.9887926058773
 20
184.0369117221567
 30
0.0
 11
-300.0139744598106
 21
197.0117298682253
 31
0.0
  0
LINE
  5
40A
330
1F
100
AcDbEntity
  8
LAYER-033
  6
Continuous
 62
     4
100
AcDbLine
 10
-312.9887926058773
 20
178.5548479129577
 30
0.0
 11
-300.0139744598106
 21
191.5296660590263
 31
0.0
  0
LINE
  5
40B
330
1F
100
AcDbEntity
  8
LAYER-033
  6
Continuous
 62
     4
100
AcDbLine
 10
-312.9887926058773
 20
173.0727841037586
 30
0.0
 11
-300.0139744598106
 21
186.0476022500505
 31
0.0
  0
LINE
  5
40C
330
1F
100
AcDbEntity
  8
LAYER-033
  6
Continuous
 62
     4
100
AcDbLine
 10
-312.9887926058773
 20
167.5907202945595
 30
0.0
 11
-300.0139744598106
 21
180.5655384402886
 31
0.0
  0
LINE
  5
40D
330
1F
100
AcDbEntity
  8
LAYER-033
  6
Continuous
 62
     4
100
AcDbLine
 10
-312.9573273554822
 20
162.1401217357575
 30
0.0
 11
-300.0139744598106
 21
175.0834746314291
 31
0.0
  0
LINE
  5
40E
330
1F
100
AcDbEntity
  8
LAYER-033
  6
Continuous
 62
     4
100
AcDbLine
 10
-307.4752635462832
 20
162.1401217357575
 30
0.0
 11
-300.0139744598106
 21
169.60141082223
 31
0.0
  0
LINE
  5
40F
330
1F
100
AcDbEntity
  8
LAYER-033
  6
Continuous
 62
     4
100
AcDbLine
 10
-301.9931997370841
 20
162.1401217357575
 30
0.0
 11
-300.0139744598106
 21
164.119347013031
 31
0.0
  0
LINE
  5
410
330
1F
100
AcDbEntity
  8
LAYER-033
  6
Continuous
 62
     4
100
AcDbLine
 10
-312.9887926058773
 20
167.6221855455724
 30
0.0
 11
-307.5067287966802
 21
162.1401217357575
 31
0.0
  0
LINE
  5
411
330
1F
100
AcDbEntity
  8
LAYER-033
  6
Continuous
 62
     4
100
AcDbLine
 10
-312.9887926058773
 20
173.1042493541556
 30
0.0
 11
-302.0246649874811
 21
162.1401217357575
 31
0.0
  0
LINE
  5
412
330
1F
100
AcDbEntity
  8
LAYER-033
  6
Continuous
 62
     4
100
AcDbLine
 10
-312.9887926058773
 20
178.5863131633547
 30
0.0
 11
-300.0139744598106
 21
165.6114950172861
 31
0.0
  0
LINE
  5
413
330
1F
100
AcDbEntity
  8
LAYER-033
  6
Continuous
 62
     4
100
AcDbLine
 10
-312.9887926058773
 20
184.0683769725538
 30
0.0
 11
-300.0139744598106
 21
171.0935588264852
 31
0.0
  0
LINE
  5
414
330
1F
100
AcDbEntity
  8
LAYER-033
  6
Continuous
 62
     4
100
AcDbLine
 10
-312.9887926058773
 20
189.5504407817529
 30
0.0
 11
-300.0139744598106
 21
176.5756226356843
 31
0.0
  0
LINE
  5
415
330
1F
100
AcDbEntity
  8
LAYER-033
  6
Continuous
 62
     4
100
AcDbLine
 10
-312.9887926058773
 20
195.032504590952
 30
0.0
 11
-300.0139744598106
 21
182.0576864448834
 31
0.0
  0
LINE
  5
416
330
1F
100
AcDbEntity
  8
LAYER-033
  6
Continuous
 62
     4
100
AcDbLine
 10
-312.9887926058773
 20
200.514568400151
 30
0.0
 11
-300.0139744598106
 21
187.5397502540824
 31
0.0
  0
LINE
  5
417
330
1F
100
AcDbEntity
  8
LAYER-033
  6
Continuous
 62
     4
100
AcDbLine
 10
-312.9887926058773
 20
205.9966322094122
 30
0.0
 11
-300.0139744598106
 21
193.0218140633448
 31
0.0
  0
LINE
  5
418
330
1F
100
AcDbEntity
  8
LAYER-033
  6
Continuous
 62
     4
100
AcDbLine
 10
-312.9887926058773
 20
211.4786960185493
 30
0.0
 11
-300.0139744598106
 21
198.5038778724806
 31
0.0
  0
LINE
  5
419
330
1F
100
AcDbEntity
  8
LAYER-033
  6
Continuous
 62
     4
100
AcDbLine
 10
-312.9887926058773
 20
216.9607598277483
 30
0.0
 11
-300.0139744598106
 21
203.9859416816797
 31
0.0
  0
LINE
  5
41A
330
1F
100
AcDbEntity
  8
LAYER-033
  6
Continuous
 62
     4
100
AcDbLine
 10
-312.9887926058773
 20
223.6503706594162
 30
0.0
 11
-300.0139744598106
 21
209.4680054908787
 31
0.0
  0
LINE
  5
41B
330
1F
100
AcDbEntity
  8
LAYER-033
  6
Continuous
 62
     4
100
AcDbLine
 10
-312.9887926058773
 20
229.1324344686154
 30
0.0
 11
-300.0139744598106
 21
214.9500693002886
 31
0.0
  0
LINE
  5
41C
330
1F
100
AcDbEntity
  8
LAYER-033
  6
Continuous
 62
     4
100
AcDbLine
 10
-312.9887926058773
 20
234.6144982778145
 30
0.0
 11
-300.0139744598106
 21
220.432133109277
 31
0.0
  0
LINE
  5
41D
330
1F
100
AcDbEntity
  8
LAYER-033
  6
Continuous
 62
     4
100
AcDbLine
 10
-312.9887926058773
 20
240.0965620870135
 30
0.0
 11
-300.0139744598106
 21
227.1217439409449
 31
0.0
  0
LINE
  5
41E
330
1F
100
AcDbEntity
  8
LAYER-033
  6
Continuous
 62
     4
100
AcDbLine
 10
-312.9887926058773
 20
245.5786258962125
 30
0.0
 11
-300.0139744598106
 21
232.603807750144
 31
0.0
  0
LINE
  5
41F
330
1F
100
AcDbEntity
  8
LAYER-033
  6
Continuous
 62
     4
100
AcDbLine
 10
-312.9887926058773
 20
251.0606897054117
 30
0.0
 11
-300.0139744598106
 21
238.0858715593507
 31
0.0
  0
LINE
  5
420
330
1F
100
AcDbEntity
  8
LAYER-033
  6
Continuous
 62
     4
100
AcDbLine
 10
-312.9887926058773
 20
256.5427535146108
 30
0.0
 11
-300.0139744598106
 21
243.5679353685421
 31
0.0
  0
LINE
  5
421
330
1F
100
AcDbEntity
  8
LAYER-033
  6
Continuous
 62
     4
100
AcDbLine
 10
-312.9573273544943
 20
261.9933520728357
 30
0.0
 11
-300.0139744598106
 21
249.0499991777412
 31
0.0
  0
LINE
  5
422
330
1F
100
AcDbEntity
  8
LAYER-033
  6
Continuous
 62
     4
100
AcDbLine
 10
-307.4752635457061
 20
261.9933520728357
 30
0.0
 11
-300.0139744598106
 21
254.5320629869403
 31
0.0
  0
LINE
  5
423
330
1F
100
AcDbEntity
  8
LAYER-033
  6
Continuous
 62
     4
100
AcDbLine
 10
-301.9931997365071
 20
261.9933520728357
 30
0.0
 11
-300.0139744598106
 21
260.0141267961393
 31
0.0
  0
LINE
  5
424
330
1F
100
AcDbEntity
  8
LAYER-033
  6
Continuous
 62
     4
100
AcDbLine
 10
-387.7640735047537
 20
256.5112882636366
 30
0.0
 11
-382.2820096955546
 21
261.9933520728357
 31
0.0
  0
LINE
  5
425
330
1F
100
AcDbEntity
  8
LAYER-033
  6
Continuous
 62
     4
100
AcDbLine
 10
-387.7640735047537
 20
251.0292244550149
 30
0.0
 11
-376.7999458863554
 21
261.9933520728357
 31
0.0
  0
LINE
  5
426
330
1F
100
AcDbEntity
  8
LAYER-033
  6
Continuous
 62
     4
100
AcDbLine
 10
-387.7640735047537
 20
245.5471606452383
 30
0.0
 11
-374.7892553586847
 21
258.5219787913073
 31
0.0
  0
LINE
  5
427
330
1F
100
AcDbEntity
  8
LAYER-033
  6
Continuous
 62
     4
100
AcDbLine
 10
-387.7640735047537
 20
240.0650968366167
 30
0.0
 11
-374.7892553586847
 21
253.0399149826856
 31
0.0
  0
LINE
  5
428
330
1F
100
AcDbEntity
  8
LAYER-033
  6
Continuous
 62
     4
100
AcDbLine
 10
-387.7640735047537
 20
234.5830330274175
 30
0.0
 11
-374.7892553586847
 21
247.5578511734865
 31
0.0
  0
LINE
  5
429
330
1F
100
AcDbEntity
  8
LAYER-033
  6
Continuous
 62
     4
100
AcDbLine
 10
-387.7640735047537
 20
229.1009692182184
 30
0.0
 11
-374.7892553586847
 21
242.0757873642874
 31
0.0
  0
LINE
  5
42A
330
1F
100
AcDbEntity
  8
LAYER-033
  6
Continuous
 62
     4
100
AcDbLine
 10
-387.7640735047537
 20
223.6189054090193
 30
0.0
 11
-374.7892553586847
 21
236.5937235550883
 31
0.0
  0
LINE
  5
42B
330
1F
100
AcDbEntity
  8
LAYER-033
  6
Continuous
 62
     4
100
AcDbLine
 10
-387.7640735047537
 20
216.9292945773513
 30
0.0
 11
-374.7892553586847
 21
231.1116597458795
 31
0.0
  0
LINE
  5
42C
330
1F
100
AcDbEntity
  8
LAYER-033
  6
Continuous
 62
     4
100
AcDbLine
 10
-387.7640735047537
 20
211.4472307681522
 30
0.0
 11
-374.7892553586847
 21
225.62959593669
 31
0.0
  0
LINE
  5
42D
330
1F
100
AcDbEntity
  8
LAYER-033
  6
Continuous
 62
     4
100
AcDbLine
 10
-387.7640735047537
 20
205.965166958953
 30
0.0
 11
-374.7892553586847
 21
218.9399851050221
 31
0.0
  0
LINE
  5
42E
330
1F
100
AcDbEntity
  8
LAYER-033
  6
Continuous
 62
     4
100
AcDbLine
 10
-387.7640735047537
 20
200.483103149754
 30
0.0
 11
-374.7892553586847
 21
213.457921295823
 31
0.0
  0
LINE
  5
42F
330
1F
100
AcDbEntity
  8
LAYER-033
  6
Continuous
 62
     4
100
AcDbLine
 10
-387.7640735047537
 20
195.0010393405549
 30
0.0
 11
-374.7892553586847
 21
207.9758574866239
 31
0.0
  0
LINE
  5
430
330
1F
100
AcDbEntity
  8
LAYER-033
  6
Continuous
 62
     4
100
AcDbLine
 10
-387.7640735047537
 20
189.5189755313559
 30
0.0
 11
-374.7892553586847
 21
202.4937936774251
 31
0.0
  0
LINE
  5
431
330
1F
100
AcDbEntity
  8
LAYER-033
  6
Continuous
 62
     4
100
AcDbLine
 10
-387.7640735047537
 20
184.0369117221567
 30
0.0
 11
-374.7892553586847
 21
197.0117298682258
 31
0.0
  0
LINE
  5
432
330
1F
100
AcDbEntity
  8
LAYER-033
  6
Continuous
 62
     4
100
AcDbLine
 10
-387.7640735047537
 20
178.5548479129577
 30
0.0
 11
-374.7892553586847
 21
191.5296660590266
 31
0.0
  0
LINE
  5
433
330
1F
100
AcDbEntity
  8
LAYER-033
  6
Continuous
 62
     4
100
AcDbLine
 10
-387.7640735047537
 20
173.0727841037575
 30
0.0
 11
-374.7892553586847
 21
186.0476022500505
 31
0.0
  0
LINE
  5
434
330
1F
100
AcDbEntity
  8
LAYER-033
  6
Continuous
 62
     4
100
AcDbLine
 10
-387.7640735047537
 20
167.5907202945595
 30
0.0
 11
-374.7892553586847
 21
180.5655384402886
 31
0.0
  0
LINE
  5
435
330
1F
100
AcDbEntity
  8
LAYER-033
  6
Continuous
 62
     4
100
AcDbLine
 10
-387.7326082543567
 20
162.1401217357575
 30
0.0
 11
-374.7892553586847
 21
175.0834746314294
 31
0.0
  0
LINE
  5
436
330
1F
100
AcDbEntity
  8
LAYER-033
  6
Continuous
 62
     4
100
AcDbLine
 10
-382.2505444451575
 20
162.1401217357575
 30
0.0
 11
-374.7892553586847
 21
169.6014108222303
 31
0.0
  0
LINE
  5
437
330
1F
100
AcDbEntity
  8
LAYER-033
  6
Continuous
 62
     4
100
AcDbLine
 10
-376.7684806359585
 20
162.1401217357575
 30
0.0
 11
-374.7892553586847
 21
164.1193470130312
 31
0.0
  0
LINE
  5
438
330
1F
100
AcDbEntity
  8
LAYER-033
  6
Continuous
 62
     4
100
AcDbLine
 10
-387.7640735047537
 20
167.6221855455724
 30
0.0
 11
-382.2820096955546
 21
162.1401217357575
 31
0.0
  0
LINE
  5
439
330
1F
100
AcDbEntity
  8
LAYER-033
  6
Continuous
 62
     4
100
AcDbLine
 10
-387.7640735047537
 20
173.1042493541556
 30
0.0
 11
-376.7999458863555
 21
162.1401217357575
 31
0.0
  0
LINE
  5
43A
330
1F
100
AcDbEntity
  8
LAYER-033
  6
Continuous
 62
     4
100
AcDbLine
 10
-387.7640735047537
 20
178.5863131633547
 30
0.0
 11
-374.7892553586847
 21
165.6114950172858
 31
0.0
  0
LINE
  5
43B
330
1F
100
AcDbEntity
  8
LAYER-033
  6
Continuous
 62
     4
100
AcDbLine
 10
-387.7640735047537
 20
184.0683769725538
 30
0.0
 11
-374.7892553586847
 21
171.0935588264849
 31
0.0
  0
LINE
  5
43C
330
1F
100
AcDbEntity
  8
LAYER-033
  6
Continuous
 62
     4
100
AcDbLine
 10
-387.7640735047537
 20
189.5504407817529
 30
0.0
 11
-374.7892553586847
 21
176.5756226356839
 31
0.0
  0
LINE
  5
43D
330
1F
100
AcDbEntity
  8
LAYER-033
  6
Continuous
 62
     4
100
AcDbLine
 10
-387.7640735047537
 20
195.032504590952
 30
0.0
 11
-374.7892553586847
 21
182.057686444883
 31
0.0
  0
LINE
  5
43E
330
1F
100
AcDbEntity
  8
LAYER-033
  6
Continuous
 62
     4
100
AcDbLine
 10
-387.7640735047537
 20
200.514568400151
 30
0.0
 11
-374.7892553586847
 21
187.5397502540822
 31
0.0
  0
LINE
  5
43F
330
1F
100
AcDbEntity
  8
LAYER-033
  6
Continuous
 62
     4
100
AcDbLine
 10
-387.7640735047537
 20
205.9966322094122
 30
0.0
 11
-374.7892553586847
 21
193.0218140633448
 31
0.0
  0
LINE
  5
440
330
1F
100
AcDbEntity
  8
LAYER-033
  6
Continuous
 62
     4
100
AcDbLine
 10
-387.7640735047537
 20
211.4786960185493
 30
0.0
 11
-374.7892553586847
 21
198.5038778724803
 31
0.0
  0
LINE
  5
441
330
1F
100
AcDbEntity
  8
LAYER-033
  6
Continuous
 62
     4
100
AcDbLine
 10
-387.7640735047537
 20
216.9607598277483
 30
0.0
 11
-374.7892553586847
 21
203.9859416816793
 31
0.0
  0
LINE
  5
442
330
1F
100
AcDbEntity
  8
LAYER-033
  6
Continuous
 62
     4
100
AcDbLine
 10
-387.7640735047537
 20
223.6503706594162
 30
0.0
 11
-374.7892553586847
 21
209.4680054908785
 31
0.0
  0
LINE
  5
443
330
1F
100
AcDbEntity
  8
LAYER-033
  6
Continuous
 62
     4
100
AcDbLine
 10
-387.7640735047537
 20
229.1324344686154
 30
0.0
 11
-374.7892553586847
 21
214.9500693002886
 31
0.0
  0
LINE
  5
444
330
1F
100
AcDbEntity
  8
LAYER-033
  6
Continuous
 62
     4
100
AcDbLine
 10
-387.7640735047537
 20
234.6144982778145
 30
0.0
 11
-374.7892553586847
 21
220.4321331092766
 31
0.0
  0
LINE
  5
445
330
1F
100
AcDbEntity
  8
LAYER-033
  6
Continuous
 62
     4
100
AcDbLine
 10
-387.7640735047537
 20
240.0965620870135
 30
0.0
 11
-374.7892553586847
 21
227.1217439409446
 31
0.0
  0
LINE
  5
446
330
1F
100
AcDbEntity
  8
LAYER-033
  6
Continuous
 62
     4
100
AcDbLine
 10
-387.7640735047537
 20
245.5786258962125
 30
0.0
 11
-374.7892553586847
 21
232.6038077501437
 31
0.0
  0
LINE
  5
447
330
1F
100
AcDbEntity
  8
LAYER-033
  6
Continuous
 62
     4
100
AcDbLine
 10
-387.7640735047537
 20
251.0606897054117
 30
0.0
 11
-374.7892553586847
 21
238.0858715593507
 31
0.0
  0
LINE
  5
448
330
1F
100
AcDbEntity
  8
LAYER-033
  6
Continuous
 62
     4
100
AcDbLine
 10
-387.7640735047537
 20
256.5427535146108
 30
0.0
 11
-374.7892553586847
 21
243.5679353685418
 31
0.0
  0
LINE
  5
449
330
1F
100
AcDbEntity
  8
LAYER-033
  6
Continuous
 62
     4
100
AcDbLine
 10
-387.7326082533708
 20
261.9933520728357
 30
0.0
 11
-374.7892553586847
 21
249.0499991777409
 31
0.0
  0
LINE
  5
44A
330
1F
100
AcDbEntity
  8
LAYER-033
  6
Continuous
 62
     4
100
AcDbLine
 10
-382.2505444445804
 20
261.9933520728357
 30
0.0
 11
-374.7892553586847
 21
254.53206298694
 31
0.0
  0
LINE
  5
44B
330
1F
100
AcDbEntity
  8
LAYER-033
  6
Continuous
 62
     4
100
AcDbLine
 10
-376.7684806353814
 20
261.9933520728357
 30
0.0
 11
-374.7892553586847
 21
260.0141267961391
 31
0.0
  0
LINE
  5
44C
330
1F
100
AcDbEntity
  8
LAYER-256
  6
CENTER
 62
     4
100
AcDbLine
 10
-7.400259291270544
 20
332.1401217357575
 30
0.0
 11
-7.400259291270544
 21
145.4636978026136
 31
0.0
  0
LINE
  5
44D
330
1F
100
AcDbEntity
  8
LAYER-256
  6
CENTER
 62
     4
100
AcDbLine
 10
-82.17554019014696
 20
332.1401217357575
 30
0.0
 11
-82.17554019014696
 21
145.4636978026136
 31
0.0
  0
LINE
  5
44E
330
1F
100
AcDbEntity
  8
LAYER-256
  6
CENTER
 62
     4
100
AcDbLine
 10
-156.9508210890234
 20
332.1401217357575
 30
0.0
 11
-156.9508210890234
 21
145.4636978026136
 31
0.0
  0
LINE
  5
44F
330
1F
100
AcDbEntity
  8
LAYER-256
  6
CENTER
 62
     4
100
AcDbLine
 10
-231.7261019951448
 20
332.1401217357575
 30
0.0
 11
-231.7261019951448
 21
145.4636978026136
 31
0.0
  0
LINE
  5
450
330
1F
100
AcDbEntity
  8
LAYER-256
  6
CENTER
 62
     4
100
AcDbLine
 10
-306.5013828867761
 20
332.1401217357575
 30
0.0
 11
-306.5013828867761
 21
145.4636978026136
 31
0.0
  0
LINE
  5
451
330
1F
100
AcDbEntity
  8
LAYER-256
  6
CENTER
 62
     4
100
AcDbLine
 10
-381.2766637856525
 20
332.1401217357575
 30
0.0
 11
-381.2766637856525
 21
145.4636978026136
 31
0.0
  0
LINE
  5
452
330
1F
100
AcDbEntity
  8
LAYER-256
  6
Continuous
 62
     1
100
AcDbLine
 10
105.6615384615384
 20
97.53338016272375
 30
0.0
 11
11.21462677614744
 21
97.53338016272375
 31
0.0
  0
LINE
  5
453
330
1F
100
AcDbEntity
  8
LAYER-256
  6
Continuous
 62
     1
100
AcDbLine
 10
59.04309301210213
 20
84.612031848117
 30
0.0
 11
-95.95690698789787
 21
84.612031848117
 31
0.0
  0
LINE
  5
454
330
1F
100
AcDbEntity
  8
LAYER-256
  6
Continuous
 62
     1
100
AcDbLine
 10
-95.95690698789787
 20
-165.3317883766021
 30
0.0
 11
59.04309301210213
 21
-165.3317883766021
 31
0.0
  0
LINE
  5
455
330
1F
100
AcDbEntity
  8
LAYER-256
  6
Continuous
 62
     1
100
AcDbLine
 10
-494.3384615384616
 20
97.53338016272375
 30
0.0
 11
-399.8915524373364
 21
97.53338016272375
 31
0.0
  0
LINE
  5
456
330
1F
100
AcDbEntity
  8
LAYER-256
  6
Continuous
 62
     1
100
AcDbLine
 10
-292.7200173811582
 20
84.612031848117
 30
0.0
 11
-447.7200173811582
 21
84.612031848117
 31
0.0
  0
LINE
  5
457
330
1F
100
AcDbEntity
  8
LAYER-256
  6
HIDDEN
 62
     4
100
AcDbLine
 10
-494.3384615384616
 20
155.6794475784541
 30
0.0
 11
105.6615384615384
 21
155.6794475784541
 31
0.0
  0
LINE
  5
458
330
1F
100
AcDbEntity
  8
LAYER-256
  6
Continuous
 62
     1
100
AcDbLine
 10
-494.3384615384616
 20
162.1401217357575
 30
0.0
 11
105.6615384615384
 21
162.1401217357575
 31
0.0
  0
LINE
  5
459
330
1F
100
AcDbEntity
  8
LAYER-256
  6
Continuous
 62
     1
100
AcDbLine
 10
-462.328225751946
 20
267.5333801627238
 30
0.0
 11
73.65130138288407
 21
267.5333801627238
 31
0.0
  0
LINE
  5
45A
330
1F
100
AcDbEntity
  8
LAYER-256
  6
Continuous
 62
     1
100
AcDbLine
 10
-481.4171132237865
 20
332.1401217357575
 30
0.0
 11
92.7401901469317
 21
332.1401217357575
 31
0.0
  0
LINE
  5
45B
330
1F
100
AcDbEntity
  8
LAYER-256
  6
Continuous
 62
     1
100
AcDbLine
 10
-447.7200173811581
 20
-165.3317883766021
 30
0.0
 11
-292.7200173811582
 21
-165.3317883766021
 31
0.0
  0
LINE
  5
45C
330
1F
100
AcDbEntity
  8
LAYER-256
  6
Continuous
 62
     1
100
AcDbLine
 10
-494.3384615384616
 20
-178.2531366912088
 30
0.0
 11
105.6615384615384
 21
-178.2531366912088
 31
0.0
  0
LINE
  5
45D
330
1F
100
AcDbEntity
  8
LAYER-256
  6
Continuous
 62
     1
100
AcDbLine
 10
-494.3384615384616
 20
-236.3992041069392
 30
0.0
 11
105.6615384615384
 21
-236.3992041069392
 31
0.0
  0
LINE
  5
45E
330
1F
100
AcDbEntity
  8
LAYER-256
  6
Continuous
 62
     1
100
AcDbLine
 10
-494.3384615384616
 20
-242.8598782642425
 30
0.0
 11
105.6615384615384
 21
-242.8598782642425
 31
0.0
  0
LINE
  5
45F
330
1F
100
AcDbEntity
  8
LAYER-256
  6
Continuous
 62
     1
100
AcDbLine
 10
-116.8384615384616
 20
84.612031848117
 30
0.0
 11
-271.8384615384616
 21
84.612031848117
 31
0.0
  0
LINE
  5
460
330
1F
100
AcDbEntity
  8
LAYER-256
  6
Continuous
 62
     1
100
AcDbLine
 10
-271.8384615384616
 20
-165.3317883766021
 30
0.0
 11
-116.8384615384616
 21
-165.3317883766021
 31
0.0
  0
LINE
  5
461
330
1F
100
AcDbEntity
  8
LAYER-256
  6
Continuous
 62
     1
100
AcDbLine
 10
11.21462677614744
 20
113.4682970165576
 30
0.0
 11
11.21462677614744
 21
94.21673493800734
 31
0.0
  0
LINE
  5
462
330
1F
100
AcDbEntity
  8
LAYER-256
  6
Continuous
 62
     1
100
AcDbLine
 10
7.413412899738347
 20
106.7721442076694
 30
0.0
 11
7.413412899738347
 21
98.6166310616025
 31
0.0
  0
LINE
  5
463
330
1F
100
AcDbEntity
  8
LAYER-256
  6
Continuous
 62
     1
100
AcDbLine
 10
-5.561405246324796
 20
106.7721442076694
 30
0.0
 11
-5.561405246324796
 21
98.6166310616025
 31
0.0
  0
CIRCLE
  5
464
330
1F
100
AcDbEntity
  8
LAYER-256
  6
Continuous
 62
     1
100
AcDbCircle
 10
0.9260031806375935
 20
113.4682970165576
 30
0.0
 40
5.54002808988764
  0
ARC
  5
465
330
1F
100
AcDbEntity
  8
LAYER-256
  6
Continuous
 62
     1
100
AcDbCircle
 10
0.9260031806375935
 20
113.4682970165576
 30
0.0
 40
10.28862359550562
100
AcDbArc
 50
0.0
 51
180.0
  0
LINE
  5
466
330
1F
100
AcDbEntity
  8
LAYER-256
  6
Continuous
 62
     1
100
AcDbLine
 10
-9.36262041486637
 20
113.4682970165576
 30
0.0
 11
-9.36262041486637
 21
94.21673493800734
 31
0.0
  0
LINE
  5
467
330
1F
100
AcDbEntity
  8
LAYER-256
  6
Continuous
 62
     1
100
AcDbLine
 10
11.21462677614744
 20
94.21673493800734
 30
0.0
 11
-9.36262041486637
 21
94.21673493800734
 31
0.0
  0
LINE
  5
468
330
1F
100
AcDbEntity
  8
LAYER-256
  6
Continuous
 62
     1
100
AcDbLine
 10
-5.561405246324796
 20
94.21673493800734
 30
0.0
 11
-5.561405246324796
 21
84.612031848117
 31
0.0
  0
LINE
  5
469
330
1F
100
AcDbEntity
  8
LAYER-256
  6
Continuous
 62
     1
100
AcDbLine
 10
7.413412899738347
 20
94.21673493800734
 30
0.0
 11
7.413412899738347
 21
84.612031848117
 31
0.0
  0
LINE
  5
46A
330
1F
100
AcDbEntity
  8
LAYER-256
  6
Continuous
 62
     1
100
AcDbLine
 10
-31.35240872947136
 20
94.21673493800734
 30
0.0
 11
-31.35240872947136
 21
84.612031848117
 31
0.0
  0
LINE
  5
46B
330
1F
100
AcDbEntity
  8
LAYER-256
  6
Continuous
 62
     1
100
AcDbLine
 10
-48.12844204407611
 20
94.21673493800734
 30
0.0
 11
-27.55119485306815
 21
94.21673493800734
 31
0.0
  0
LINE
  5
46C
330
1F
100
AcDbEntity
  8
LAYER-256
  6
Continuous
 62
     1
100
AcDbLine
 10
-44.3272281676729
 20
94.21673493800734
 30
0.0
 11
-44.3272281676729
 21
84.612031848117
 31
0.0
  0
LINE
  5
46D
330
1F
100
AcDbEntity
  8
LAYER-256
  6
Continuous
 62
     1
100
AcDbLine
 10
-44.3272281676729
 20
106.7721442076694
 30
0.0
 11
-44.3272281676729
 21
98.6166310616025
 31
0.0
  0
LINE
  5
46E
330
1F
100
AcDbEntity
  8
LAYER-256
  6
Continuous
 62
     1
100
AcDbLine
 10
-31.35240872947136
 20
106.7721442076694
 30
0.0
 11
-31.35240872947136
 21
98.6166310616025
 31
0.0
  0
LINE
  5
46F
330
1F
100
AcDbEntity
  8
LAYER-256
  6
Continuous
 62
     1
100
AcDbLine
 10
-27.55119485306815
 20
113.4682970165576
 30
0.0
 11
-27.55119485306815
 21
94.21673493800734
 31
0.0
  0
CIRCLE
  5
470
330
1F
100
AcDbEntity
  8
LAYER-256
  6
Continuous
 62
     1
100
AcDbCircle
 10
-37.83981844857215
 20
113.4682970165576
 30
0.0
 40
5.54002808988764
  0
LINE
  5
471
330
1F
100
AcDbEntity
  8
LAYER-256
  6
Continuous
 62
     1
100
AcDbLine
 10
-48.12844204407611
 20
113.4682970165576
 30
0.0
 11
-48.12844204407611
 21
94.21673493800734
 31
0.0
  0
ARC
  5
472
330
1F
100
AcDbEntity
  8
LAYER-256
  6
Continuous
 62
     1
100
AcDbCircle
 10
-37.83981844857215
 20
113.4682970165576
 30
0.0
 40
10.28862359550562
100
AcDbArc
 50
0.0
 51
180.0
  0
LINE
  5
473
330
1F
100
AcDbEntity
  8
LAYER-256
  6
Continuous
 62
     1
100
AcDbLine
 10
-340.5484836171129
 20
113.4682970165576
 30
0.0
 11
-340.5484836171129
 21
94.21673493800734
 31
0.0
  0
LINE
  5
474
330
1F
100
AcDbEntity
  8
LAYER-256
  6
Continuous
 62
     1
100
AcDbLine
 10
-344.3496974935219
 20
106.7721442076694
 30
0.0
 11
-344.3496974935219
 21
98.6166310616025
 31
0.0
  0
LINE
  5
475
330
1F
100
AcDbEntity
  8
LAYER-256
  6
Continuous
 62
     1
100
AcDbLine
 10
-357.3245156395851
 20
106.7721442076694
 30
0.0
 11
-357.3245156395851
 21
98.6166310616025
 31
0.0
  0
CIRCLE
  5
476
330
1F
100
AcDbEntity
  8
LAYER-256
  6
Continuous
 62
     1
100
AcDbCircle
 10
-350.8371072126228
 20
113.4682970165576
 30
0.0
 40
5.54002808988764
  0
ARC
  5
477
330
1F
100
AcDbEntity
  8
LAYER-256
  6
Continuous
 62
     1
100
AcDbCircle
 10
-350.8371072126228
 20
113.4682970165576
 30
0.0
 40
10.28862359550562
100
AcDbArc
 50
0.0
 51
180.0
  0
LINE
  5
478
330
1F
100
AcDbEntity
  8
LAYER-256
  6
Continuous
 62
     1
100
AcDbLine
 10
-361.1257308081267
 20
113.4682970165576
 30
0.0
 11
-361.1257308081267
 21
94.21673493800734
 31
0.0
  0
LINE
  5
479
330
1F
100
AcDbEntity
  8
LAYER-256
  6
Continuous
 62
     1
100
AcDbLine
 10
-340.5484836171129
 20
94.21673493800734
 30
0.0
 11
-361.1257308081267
 21
94.21673493800734
 31
0.0
  0
LINE
  5
47A
330
1F
100
AcDbEntity
  8
LAYER-256
  6
Continuous
 62
     1
100
AcDbLine
 10
-357.3245156395851
 20
94.21673493800734
 30
0.0
 11
-357.3245156395851
 21
84.612031848117
 31
0.0
  0
LINE
  5
47B
330
1F
100
AcDbEntity
  8
LAYER-256
  6
Continuous
 62
     1
100
AcDbLine
 10
-344.3496974935219
 20
94.21673493800734
 30
0.0
 11
-344.3496974935219
 21
84.612031848117
 31
0.0
  0
LINE
  5
47C
330
1F
100
AcDbEntity
  8
LAYER-256
  6
Continuous
 62
     1
100
AcDbLine
 10
-383.1155191227317
 20
94.21673493800734
 30
0.0
 11
-383.1155191227317
 21
84.612031848117
 31
0.0
  0
LINE
  5
47D
330
1F
100
AcDbEntity
  8
LAYER-256
  6
Continuous
 62
     1
100
AcDbLine
 10
-399.8915524373364
 20
94.21673493800734
 30
0.0
 11
-379.3143052463284
 21
94.21673493800734
 31
0.0
  0
LINE
  5
47E
330
1F
100
AcDbEntity
  8
LAYER-256
  6
Continuous
 62
     1
100
AcDbLine
 10
-396.0903385609332
 20
94.21673493800734
 30
0.0
 11
-396.0903385609332
 21
84.612031848117
 31
0.0
  0
LINE
  5
47F
330
1F
100
AcDbEntity
  8
LAYER-256
  6
Continuous
 62
     1
100
AcDbLine
 10
-396.0903385609332
 20
106.7721442076694
 30
0.0
 11
-396.0903385609332
 21
98.6166310616025
 31
0.0
  0
LINE
  5
480
330
1F
100
AcDbEntity
  8
LAYER-256
  6
Continuous
 62
     1
100
AcDbLine
 10
-383.1155191227317
 20
106.7721442076694
 30
0.0
 11
-383.1155191227317
 21
98.6166310616025
 31
0.0
  0
LINE
  5
481
330
1F
100
AcDbEntity
  8
LAYER-256
  6
Continuous
 62
     1
100
AcDbLine
 10
-379.3143052463284
 20
113.4682970165576
 30
0.0
 11
-379.3143052463284
 21
94.21673493800734
 31
0.0
  0
CIRCLE
  5
482
330
1F
100
AcDbEntity
  8
LAYER-256
  6
Continuous
 62
     1
100
AcDbCircle
 10
-389.6029288418325
 20
113.4682970165576
 30
0.0
 40
5.54002808988764
  0
LINE
  5
483
330
1F
100
AcDbEntity
  8
LAYER-256
  6
Continuous
 62
     1
100
AcDbLine
 10
-399.8915524373364
 20
113.4682970165576
 30
0.0
 11
-399.8915524373364
 21
94.21673493800734
 31
0.0
  0
ARC
  5
484
330
1F
100
AcDbEntity
  8
LAYER-256
  6
Continuous
 62
     1
100
AcDbCircle
 10
-389.6029288418325
 20
113.4682970165576
 30
0.0
 40
10.28862359550562
100
AcDbArc
 50
0.0
 51
180.0
  0
LINE
  5
485
330
1F
100
AcDbEntity
  8
LAYER-256
  6
Continuous
 62
     1
100
AcDbLine
 10
-340.5484836171129
 20
97.53338016272375
 30
0.0
 11
-224.0099965946398
 21
97.53338016272375
 31
0.0
  0
LINE
  5
486
330
1F
100
AcDbEntity
  8
LAYER-256
  6
Continuous
 62
     1
100
AcDbLine
 10
-164.6669277744163
 20
97.53338016272375
 30
0.0
 11
-48.12844204407611
 21
97.53338016272375
 31
0.0
  0
LINE
  5
487
330
1F
100
AcDbEntity
  8
LAYER-256
  6
Continuous
 62
     1
100
AcDbLine
 10
-9.36262041486637
 20
97.53338016272375
 30
0.0
 11
-27.55119485306815
 21
97.53338016272375
 31
0.0
  0
LINE
  5
488
330
1F
100
AcDbEntity
  8
LAYER-256
  6
Continuous
 62
     1
100
AcDbLine
 10
461.7081206766513
 20
-165.3317883766021
 30
0.0
 11
551.3506214615359
 21
-165.3317883766021
 31
0.0
  0
LINE
  5
489
330
1F
100
AcDbEntity
  8
LAYER-256
  6
Continuous
 62
     1
100
AcDbLine
 10
461.7081206766513
 20
84.612031848117
 30
0.0
 11
551.3506214615359
 21
84.612031848117
 31
0.0
  0
LINE
  5
48A
330
1F
100
AcDbEntity
  8
LAYER-256
  6
Continuous
 62
     1
100
AcDbLine
 10
474.5141922173491
 20
-236.4568424938937
 30
0.0
 11
502.2174084092114
 21
-236.4568424938937
 31
0.0
  0
LINE
  5
48B
330
1F
100
AcDbEntity
  8
LAYER-256
  6
Continuous
 62
     1
100
AcDbLine
 10
260.9931222464204
 20
155.7370859654086
 30
0.0
 11
461.7081206766513
 21
155.7370859654086
 31
0.0
  0
LINE
  5
48C
330
1F
100
AcDbEntity
  8
LAYER-256
  6
Continuous
 62
     1
100
AcDbLine
 10
264.6239047720711
 20
130.3354452499353
 30
0.0
 11
458.0773394344885
 21
130.3354452499353
 31
0.0
  0
LINE
  5
48D
330
1F
100
AcDbEntity
  8
LAYER-256
  6
Continuous
 62
     1
100
AcDbLine
 10
264.6239047720711
 20
120.0905880136182
 30
0.0
 11
458.0773394344885
 21
120.0905880136182
 31
0.0
  0
LINE
  5
48E
330
1F
100
AcDbEntity
  8
LAYER-256
  6
Continuous
 62
     1
100
AcDbLine
 10
264.6239047720711
 20
84.612031848117
 30
0.0
 11
458.0773394344885
 21
84.612031848117
 31
0.0
  0
LINE
  5
48F
330
1F
100
AcDbEntity
  8
LAYER-256
  6
Continuous
 62
     1
100
AcDbLine
 10
264.6239047720711
 20
-165.3317883766021
 30
0.0
 11
458.0773394344885
 21
-165.3317883766021
 31
0.0
  0
LINE
  5
490
330
1F
100
AcDbEntity
  8
LAYER-256
  6
Continuous
 62
     1
100
AcDbLine
 10
264.6239047720711
 20
-200.477936782998
 30
0.0
 11
458.0773394344885
 21
-200.477936782998
 31
0.0
  0
LINE
  5
491
330
1F
100
AcDbEntity
  8
LAYER-256
  6
Continuous
 62
     1
100
AcDbLine
 10
264.6239047720711
 20
-210.7227940155528
 30
0.0
 11
458.0773394344885
 21
-210.7227940155528
 31
0.0
  0
LINE
  5
492
330
1F
100
AcDbEntity
  8
LAYER-256
  6
Continuous
 62
     1
100
AcDbLine
 10
260.9931222464204
 20
-236.4568424938937
 30
0.0
 11
461.7081206766513
 21
-236.4568424938937
 31
0.0
  0
LINE
  5
493
330
1F
100
AcDbEntity
  8
LAYER-256
  6
Continuous
 62
     1
100
AcDbLine
 10
171.3506214615359
 20
-165.3317883766021
 30
0.0
 11
260.9931222464204
 21
-165.3317883766021
 31
0.0
  0
LINE
  5
494
330
1F
100
AcDbEntity
  8
LAYER-256
  6
Continuous
 62
     1
100
AcDbLine
 10
171.3506214615359
 20
84.612031848117
 30
0.0
 11
260.9931222464204
 21
84.612031848117
 31
0.0
  0
LINE
  5
495
330
1F
100
AcDbEntity
  8
LAYER-256
  6
Continuous
 62
     1
100
AcDbLine
 10
99.93659965193916
 20
-242.8598782642425
 30
0.0
 11
105.6615384615384
 21
-242.8598782642425
 31
0.0
  0
LINE
  5
496
330
1F
100
AcDbEntity
  8
LAYER-256
  6
Continuous
 62
     1
100
AcDbLine
 10
474.5141922173491
 20
-236.4568424938937
 30
0.0
 11
533.8506214615359
 21
-236.4568424938937
 31
0.0
  0
LINE
  5
497
330
1F
100
AcDbEntity
  8
LAYER-256
  6
Continuous
 62
     1
100
AcDbLine
 10
188.8506214615359
 20
-236.4568424938937
 30
0.0
 11
248.1870507057226
 21
-236.4568424938937
 31
0.0
  0
LINE
  5
498
330
1F
100
AcDbEntity
  8
LAYER-256
  6
Continuous
 62
     1
100
AcDbLine
 10
188.8506214615359
 20
-242.8598782642425
 30
0.0
 11
533.8506214615359
 21
-242.8598782642425
 31
0.0
  0
LINE
  5
499
330
1F
100
AcDbEntity
  8
LAYER-256
  6
Continuous
 62
     1
100
AcDbLine
 10
527.0505897508122
 20
262.4035637237724
 30
0.0
 11
527.0505897508122
 21
84.612031848117
 31
0.0
  0
LINE
  5
49A
330
1F
100
AcDbEntity
  8
LAYER-256
  6
Continuous
 62
     1
100
AcDbLine
 10
513.7945269428501
 20
262.4035637237724
 30
0.0
 11
513.7945269428501
 21
84.612031848117
 31
0.0
  0
LINE
  5
49B
330
1F
100
AcDbEntity
  8
LAYER-256
  6
Continuous
 62
     1
100
AcDbLine
 10
551.3506214615359
 20
84.61203184811694
 30
0.0
 11
551.3506214615359
 21
-165.3317883766021
 31
0.0
  0
LINE
  5
49C
330
1F
100
AcDbEntity
  8
LAYER-256
  6
Continuous
 62
     1
100
AcDbLine
 10
171.3506214615359
 20
84.612031848117
 30
0.0
 11
171.3506214615359
 21
-165.3317883766021
 31
0.0
  0
LINE
  5
49D
330
1F
100
AcDbEntity
  8
LAYER-033
  6
Continuous
 62
     4
100
AcDbLine
 10
513.7945269428501
 20
258.1609230366531
 30
0.0
 11
518.0371676299694
 21
262.4035637237724
 31
0.0
  0
LINE
  5
49E
330
1F
100
AcDbEntity
  8
LAYER-033
  6
Continuous
 62
     4
100
AcDbLine
 10
513.7945269428501
 20
253.9182823495338
 30
0.0
 11
522.2798083170887
 21
262.4035637237724
 31
0.0
  0
LINE
  5
49F
330
1F
100
AcDbEntity
  8
LAYER-033
  6
Continuous
 62
     4
100
AcDbLine
 10
513.7945269428501
 20
249.6756416624145
 30
0.0
 11
526.5224490042081
 21
262.4035637237724
 31
0.0
  0
LINE
  5
4A0
330
1F
100
AcDbEntity
  8
LAYER-033
  6
Continuous
 62
     4
100
AcDbLine
 10
513.7945269428501
 20
245.4330009752952
 30
0.0
 11
527.0505897508122
 21
258.6890637832573
 31
0.0
  0
LINE
  5
4A1
330
1F
100
AcDbEntity
  8
LAYER-033
  6
Continuous
 62
     4
100
AcDbLine
 10
513.7945269428501
 20
241.1903602881759
 30
0.0
 11
527.0505897508122
 21
254.446423096138
 31
0.0
  0
LINE
  5
4A2
330
1F
100
AcDbEntity
  8
LAYER-033
  6
Continuous
 62
     4
100
AcDbLine
 10
513.7945269428501
 20
236.9477196010566
 30
0.0
 11
527.0505897508122
 21
250.2037824087575
 31
0.0
  0
LINE
  5
4A3
330
1F
100
AcDbEntity
  8
LAYER-033
  6
Continuous
 62
     4
100
AcDbLine
 10
513.7945269428501
 20
232.7050789139373
 30
0.0
 11
527.0505897508122
 21
245.9611417218994
 31
0.0
  0
LINE
  5
4A4
330
1F
100
AcDbEntity
  8
LAYER-033
  6
Continuous
 62
     4
100
AcDbLine
 10
513.7945269428501
 20
228.4624382268181
 30
0.0
 11
527.0505897508122
 21
241.7185010347801
 31
0.0
  0
LINE
  5
4A5
330
1F
100
AcDbEntity
  8
LAYER-033
  6
Continuous
 62
     4
100
AcDbLine
 10
513.7945269428501
 20
224.2197975397575
 30
0.0
 11
527.0505897508122
 21
237.4758603476608
 31
0.0
  0
LINE
  5
4A6
330
1F
100
AcDbEntity
  8
LAYER-033
  6
Continuous
 62
     4
100
AcDbLine
 10
513.7945269428501
 20
218.7696098301106
 30
0.0
 11
527.0505897508122
 21
233.2332196605415
 31
0.0
  0
LINE
  5
4A7
330
1F
100
AcDbEntity
  8
LAYER-033
  6
Continuous
 62
     4
100
AcDbLine
 10
513.7945269428501
 20
214.5269691429913
 30
0.0
 11
527.0505897508122
 21
228.9905789734222
 31
0.0
  0
LINE
  5
4A8
330
1F
100
AcDbEntity
  8
LAYER-033
  6
Continuous
 62
     4
100
AcDbLine
 10
513.7945269428501
 20
210.284328455872
 30
0.0
 11
527.0505897508122
 21
224.7479382863029
 31
0.0
  0
LINE
  5
4A9
330
1F
100
AcDbEntity
  8
LAYER-033
  6
Continuous
 62
     4
100
AcDbLine
 10
513.7945269428501
 20
206.0416877687528
 30
0.0
 11
527.0505897508122
 21
219.2977505767148
 31
0.0
  0
LINE
  5
4AA
330
1F
100
AcDbEntity
  8
LAYER-033
  6
Continuous
 62
     4
100
AcDbLine
 10
513.7945269428501
 20
201.7990470816334
 30
0.0
 11
527.0505897508122
 21
215.0551098895955
 31
0.0
  0
LINE
  5
4AB
330
1F
100
AcDbEntity
  8
LAYER-033
  6
Continuous
 62
     4
100
AcDbLine
 10
513.7945269428501
 20
197.5564063945142
 30
0.0
 11
527.0505897508122
 21
210.8124692024762
 31
0.0
  0
LINE
  5
4AC
330
1F
100
AcDbEntity
  8
LAYER-033
  6
Continuous
 62
     4
100
AcDbLine
 10
513.7945269428501
 20
193.3137657073949
 30
0.0
 11
527.0505897508122
 21
206.5698285153569
 31
0.0
  0
LINE
  5
4AD
330
1F
100
AcDbEntity
  8
LAYER-033
  6
Continuous
 62
     4
100
AcDbLine
 10
513.7945269428501
 20
189.0711250202756
 30
0.0
 11
527.0505897508122
 21
202.3271878282376
 31
0.0
  0
LINE
  5
4AE
330
1F
100
AcDbEntity
  8
LAYER-033
  6
Continuous
 62
     4
100
AcDbLine
 10
513.7945269428501
 20
184.8284843331563
 30
0.0
 11
527.0505897508122
 21
198.0845471411183
 31
0.0
  0
LINE
  5
4AF
330
1F
100
AcDbEntity
  8
LAYER-033
  6
Continuous
 62
     4
100
AcDbLine
 10
513.7945269428501
 20
180.585843646037
 30
0.0
 11
527.0505897508122
 21
193.8419064542886
 31
0.0
  0
LINE
  5
4B0
330
1F
100
AcDbEntity
  8
LAYER-033
  6
Continuous
 62
     4
100
AcDbLine
 10
513.7945269428501
 20
176.3432029589177
 30
0.0
 11
527.0505897508122
 21
189.5992657668797
 31
0.0
  0
LINE
  5
4B1
330
1F
100
AcDbEntity
  8
LAYER-033
  6
Continuous
 62
     4
100
AcDbLine
 10
513.7945269428501
 20
172.1005622717984
 30
0.0
 11
527.0505897508122
 21
185.3566250797605
 31
0.0
  0
LINE
  5
4B2
330
1F
100
AcDbEntity
  8
LAYER-033
  6
Continuous
 62
     4
100
AcDbLine
 10
513.7945269428501
 20
167.8579215846791
 30
0.0
 11
527.0505897508122
 21
181.1139843926411
 31
0.0
  0
LINE
  5
4B3
330
1F
100
AcDbEntity
  8
LAYER-033
  6
Continuous
 62
     4
100
AcDbLine
 10
513.7945269428501
 20
163.6152808975598
 30
0.0
 11
527.0505897508122
 21
176.8713437055218
 31
0.0
  0
LINE
  5
4B4
330
1F
100
AcDbEntity
  8
LAYER-033
  6
Continuous
 62
     4
100
AcDbLine
 10
513.7945269428501
 20
159.3726402104406
 30
0.0
 11
527.0505897508122
 21
172.6287030184026
 31
0.0
  0
LINE
  5
4B5
330
1F
100
AcDbEntity
  8
LAYER-033
  6
Continuous
 62
     4
100
AcDbLine
 10
513.7945269428501
 20
155.1299995233213
 30
0.0
 11
527.0505897508122
 21
168.3860623312833
 31
0.0
  0
LINE
  5
4B6
330
1F
100
AcDbEntity
  8
LAYER-033
  6
Continuous
 62
     4
100
AcDbLine
 10
513.7945269428501
 20
150.887358836202
 30
0.0
 11
527.0505897508122
 21
164.143421644164
 31
0.0
  0
LINE
  5
4B7
330
1F
100
AcDbEntity
  8
LAYER-033
  6
Continuous
 62
     4
100
AcDbLine
 10
513.7945269428501
 20
146.6447181490827
 30
0.0
 11
527.0505897508122
 21
159.9007809570447
 31
0.0
  0
LINE
  5
4B8
330
1F
100
AcDbEntity
  8
LAYER-033
  6
Continuous
 62
     4
100
AcDbLine
 10
513.7945269428501
 20
142.4020774619634
 30
0.0
 11
527.0505897508122
 21
155.6581402699254
 31
0.0
  0
LINE
  5
4B9
330
1F
100
AcDbEntity
  8
LAYER-033
  6
Continuous
 62
     4
100
AcDbLine
 10
513.7945269428501
 20
138.1594367748441
 30
0.0
 11
527.0505897508122
 21
151.4154995828061
 31
0.0
  0
LINE
  5
4BA
330
1F
100
AcDbEntity
  8
LAYER-033
  6
Continuous
 62
     4
100
AcDbLine
 10
513.7945269428501
 20
133.9167960877248
 30
0.0
 11
527.0505897508122
 21
147.1728588956868
 31
0.0
  0
LINE
  5
4BB
330
1F
100
AcDbEntity
  8
LAYER-033
  6
Continuous
 62
     4
100
AcDbLine
 10
513.7945269428501
 20
129.6741554006055
 30
0.0
 11
527.0505897508122
 21
142.9302182085676
 31
0.0
  0
LINE
  5
4BC
330
1F
100
AcDbEntity
  8
LAYER-033
  6
Continuous
 62
     4
100
AcDbLine
 10
513.7945269428501
 20
125.4315147134862
 30
0.0
 11
527.0505897508122
 21
138.6875775214483
 31
0.0
  0
LINE
  5
4BD
330
1F
100
AcDbEntity
  8
LAYER-033
  6
Continuous
 62
     4
100
AcDbLine
 10
513.7945269428501
 20
121.1888740263669
 30
0.0
 11
527.0505897508122
 21
134.444936834329
 31
0.0
  0
LINE
  5
4BE
330
1F
100
AcDbEntity
  8
LAYER-033
  6
Continuous
 62
     4
100
AcDbLine
 10
513.7945269428501
 20
116.9462333392476
 30
0.0
 11
527.0505897508122
 21
130.2022961472097
 31
0.0
  0
LINE
  5
4BF
330
1F
100
AcDbEntity
  8
LAYER-033
  6
Continuous
 62
     4
100
AcDbLine
 10
513.7945269428501
 20
112.7035926521283
 30
0.0
 11
527.0505897508122
 21
125.9596554600904
 31
0.0
  0
LINE
  5
4C0
330
1F
100
AcDbEntity
  8
LAYER-033
  6
Continuous
 62
     4
100
AcDbLine
 10
513.7945269428501
 20
108.4609519650091
 30
0.0
 11
527.0505897508122
 21
121.7170147729711
 31
0.0
  0
LINE
  5
4C1
330
1F
100
AcDbEntity
  8
LAYER-033
  6
Continuous
 62
     4
100
AcDbLine
 10
513.7945269428501
 20
104.2183112778897
 30
0.0
 11
527.0505897508122
 21
117.4743740858518
 31
0.0
  0
LINE
  5
4C2
330
1F
100
AcDbEntity
  8
LAYER-033
  6
Continuous
 62
     4
100
AcDbLine
 10
513.7945269428501
 20
99.97567059077048
 30
0.0
 11
527.0505897508122
 21
113.2317333987325
 31
0.0
  0
LINE
  5
4C3
330
1F
100
AcDbEntity
  8
LAYER-033
  6
Continuous
 62
     4
100
AcDbLine
 10
513.7945269428501
 20
95.73302990365116
 30
0.0
 11
527.0505897508122
 21
108.9890927116132
 31
0.0
  0
LINE
  5
4C4
330
1F
100
AcDbEntity
  8
LAYER-033
  6
Continuous
 62
     4
100
AcDbLine
 10
513.7945269428501
 20
91.4903892165319
 30
0.0
 11
527.0505897508122
 21
104.7464520244939
 31
0.0
  0
LINE
  5
4C5
330
1F
100
AcDbEntity
  8
LAYER-033
  6
Continuous
 62
     4
100
AcDbLine
 10
513.7945269428501
 20
87.24774852941258
 30
0.0
 11
527.0505897508122
 21
100.5038113373746
 31
0.0
  0
LINE
  5
4C6
330
1F
100
AcDbEntity
  8
LAYER-033
  6
Continuous
 62
     4
100
AcDbLine
 10
515.4014509487147
 20
84.61203184811694
 30
0.0
 11
527.0505897508122
 21
96.26117065025534
 31
0.0
  0
LINE
  5
4C7
330
1F
100
AcDbEntity
  8
LAYER-033
  6
Continuous
 62
     4
100
AcDbLine
 10
519.6440916357931
 20
84.61203184811694
 30
0.0
 11
527.0505897508122
 21
92.01852996313605
 31
0.0
  0
LINE
  5
4C8
330
1F
100
AcDbEntity
  8
LAYER-033
  6
Continuous
 62
     4
100
AcDbLine
 10
523.8867323229317
 20
84.61203184811694
 30
0.0
 11
527.0505897508122
 21
87.77588927601676
 31
0.0
  0
LINE
  5
4C9
330
1F
100
AcDbEntity
  8
LAYER-033
  6
Continuous
 62
     4
100
AcDbLine
 10
513.7945269428501
 20
88.85467253523626
 30
0.0
 11
518.0371676299694
 21
84.61203184811694
 31
0.0
  0
LINE
  5
4CA
330
1F
100
AcDbEntity
  8
LAYER-033
  6
Continuous
 62
     4
100
AcDbLine
 10
513.7945269428501
 20
93.09731322235555
 30
0.0
 11
522.2798083170887
 21
84.61203184811694
 31
0.0
  0
LINE
  5
4CB
330
1F
100
AcDbEntity
  8
LAYER-033
  6
Continuous
 62
     4
100
AcDbLine
 10
513.7945269428501
 20
97.33995390947487
 30
0.0
 11
526.5224490042081
 21
84.61203184811694
 31
0.0
  0
LINE
  5
4CC
330
1F
100
AcDbEntity
  8
LAYER-033
  6
Continuous
 62
     4
100
AcDbLine
 10
513.7945269428501
 20
101.5825945965942
 30
0.0
 11
527.0505897508122
 21
88.32653178863211
 31
0.0
  0
LINE
  5
4CD
330
1F
100
AcDbEntity
  8
LAYER-033
  6
Continuous
 62
     4
100
AcDbLine
 10
513.7945269428501
 20
105.8252352837135
 30
0.0
 11
527.0505897508122
 21
92.56917247575143
 31
0.0
  0
LINE
  5
4CE
330
1F
100
AcDbEntity
  8
LAYER-033
  6
Continuous
 62
     4
100
AcDbLine
 10
513.7945269428501
 20
110.0678759708328
 30
0.0
 11
527.0505897508122
 21
96.81181316287072
 31
0.0
  0
LINE
  5
4CF
330
1F
100
AcDbEntity
  8
LAYER-033
  6
Continuous
 62
     4
100
AcDbLine
 10
513.7945269428501
 20
114.3105166579521
 30
0.0
 11
527.0505897508122
 21
101.05445384999
 31
0.0
  0
LINE
  5
4D0
330
1F
100
AcDbEntity
  8
LAYER-033
  6
Continuous
 62
     4
100
AcDbLine
 10
513.7945269428501
 20
118.5531573450714
 30
0.0
 11
527.0505897508122
 21
105.2970945371093
 31
0.0
  0
LINE
  5
4D1
330
1F
100
AcDbEntity
  8
LAYER-033
  6
Continuous
 62
     4
100
AcDbLine
 10
513.7945269428501
 20
122.7957980321907
 30
0.0
 11
527.0505897508122
 21
109.5397352242287
 31
0.0
  0
LINE
  5
4D2
330
1F
100
AcDbEntity
  8
LAYER-033
  6
Continuous
 62
     4
100
AcDbLine
 10
513.7945269428501
 20
127.03843871931
 30
0.0
 11
527.0505897508122
 21
113.7823759113479
 31
0.0
  0
LINE
  5
4D3
330
1F
100
AcDbEntity
  8
LAYER-033
  6
Continuous
 62
     4
100
AcDbLine
 10
513.7945269428501
 20
131.2810794064293
 30
0.0
 11
527.0505897508122
 21
118.0250165984672
 31
0.0
  0
LINE
  5
4D4
330
1F
100
AcDbEntity
  8
LAYER-033
  6
Continuous
 62
     4
100
AcDbLine
 10
513.7945269428501
 20
135.5237200935486
 30
0.0
 11
527.0505897508122
 21
122.2676572855866
 31
0.0
  0
LINE
  5
4D5
330
1F
100
AcDbEntity
  8
LAYER-033
  6
Continuous
 62
     4
100
AcDbLine
 10
513.7945269428501
 20
139.766360780668
 30
0.0
 11
527.0505897508122
 21
126.5102979727059
 31
0.0
  0
LINE
  5
4D6
330
1F
100
AcDbEntity
  8
LAYER-033
  6
Continuous
 62
     4
100
AcDbLine
 10
513.7945269428501
 20
144.0090014677872
 30
0.0
 11
527.0505897508122
 21
130.752938659
 31
0.0
  0
LINE
  5
4D7
330
1F
100
AcDbEntity
  8
LAYER-033
  6
Continuous
 62
     4
100
AcDbLine
 10
513.7945269428501
 20
148.2516421549065
 30
0.0
 11
527.0505897508122
 21
134.9955793469445
 31
0.0
  0
LINE
  5
4D8
330
1F
100
AcDbEntity
  8
LAYER-033
  6
Continuous
 62
     4
100
AcDbLine
 10
513.7945269428501
 20
152.4942828420258
 30
0.0
 11
527.0505897508122
 21
139.2382200340638
 31
0.0
  0
LINE
  5
4D9
330
1F
100
AcDbEntity
  8
LAYER-033
  6
Continuous
 62
     4
100
AcDbLine
 10
513.7945269428501
 20
156.7369235291452
 30
0.0
 11
527.0505897508122
 21
143.480860721
 31
0.0
  0
LINE
  5
4DA
330
1F
100
AcDbEntity
  8
LAYER-033
  6
Continuous
 62
     4
100
AcDbLine
 10
513.7945269428501
 20
160.9795642162645
 30
0.0
 11
527.0505897508122
 21
147.7235014083024
 31
0.0
  0
LINE
  5
4DB
330
1F
100
AcDbEntity
  8
LAYER-033
  6
Continuous
 62
     4
100
AcDbLine
 10
513.7945269428501
 20
165.2222049033838
 30
0.0
 11
527.0505897508122
 21
151.9661420954217
 31
0.0
  0
LINE
  5
4DC
330
1F
100
AcDbEntity
  8
LAYER-033
  6
Continuous
 62
     4
100
AcDbLine
 10
513.7945269428501
 20
169.4648455905031
 30
0.0
 11
527.0505897508122
 21
156.208782783
 31
0.0
  0
LINE
  5
4DD
330
1F
100
AcDbEntity
  8
LAYER-033
  6
Continuous
 62
     4
100
AcDbLine
 10
513.7945269428501
 20
173.7074862776224
 30
0.0
 11
527.0505897508122
 21
160.4514234696603
 31
0.0
  0
LINE
  5
4DE
330
1F
100
AcDbEntity
  8
LAYER-033
  6
Continuous
 62
     4
100
AcDbLine
 10
513.7945269428501
 20
177.9501269647416
 30
0.0
 11
527.0505897508122
 21
164.6940641567796
 31
0.0
  0
LINE
  5
4DF
330
1F
100
AcDbEntity
  8
LAYER-033
  6
Continuous
 62
     4
100
AcDbLine
 10
513.7945269428501
 20
182.192767652
 30
0.0
 11
527.0505897508122
 21
168.9367048438988
 31
0.0
  0
LINE
  5
4E0
330
1F
100
AcDbEntity
  8
LAYER-033
  6
Continuous
 62
     4
100
AcDbLine
 10
513.7945269428501
 20
186.4354083389802
 30
0.0
 11
527.0505897508122
 21
173.1793455310182
 31
0.0
  0
LINE
  5
4E1
330
1F
100
AcDbEntity
  8
LAYER-033
  6
Continuous
 62
     4
100
AcDbLine
 10
513.7945269428501
 20
190.6780490260995
 30
0.0
 11
527.0505897508122
 21
177.4219862181374
 31
0.0
  0
LINE
  5
4E2
330
1F
100
AcDbEntity
  8
LAYER-033
  6
Continuous
 62
     4
100
AcDbLine
 10
513.7945269428501
 20
194.9206897132188
 30
0.0
 11
527.0505897508122
 21
181.6646269052567
 31
0.0
  0
LINE
  5
4E3
330
1F
100
AcDbEntity
  8
LAYER-033
  6
Continuous
 62
     4
100
AcDbLine
 10
513.7945269428501
 20
199.1633304001108
 30
0.0
 11
527.0505897508122
 21
185.9072675921488
 31
0.0
  0
LINE
  5
4E4
330
1F
100
AcDbEntity
  8
LAYER-033
  6
Continuous
 62
     4
100
AcDbLine
 10
513.7945269428501
 20
203.4059710872301
 30
0.0
 11
527.0505897508122
 21
190.1499082792681
 31
0.0
  0
LINE
  5
4E5
330
1F
100
AcDbEntity
  8
LAYER-033
  6
Continuous
 62
     4
100
AcDbLine
 10
513.7945269428501
 20
207.6486117743494
 30
0.0
 11
527.0505897508122
 21
194.3925489663874
 31
0.0
  0
LINE
  5
4E6
330
1F
100
AcDbEntity
  8
LAYER-033
  6
Continuous
 62
     4
100
AcDbLine
 10
513.7945269428501
 20
211.8912524614687
 30
0.0
 11
527.0505897508122
 21
198.6351896535066
 31
0.0
  0
LINE
  5
4E7
330
1F
100
AcDbEntity
  8
LAYER-033
  6
Continuous
 62
     4
100
AcDbLine
 10
513.7945269428501
 20
216.133893148588
 30
0.0
 11
527.0505897508122
 21
202.8778303406259
 31
0.0
  0
LINE
  5
4E8
330
1F
100
AcDbEntity
  8
LAYER-033
  6
Continuous
 62
     4
100
AcDbLine
 10
513.7945269428501
 20
220.3765338357073
 30
0.0
 11
527.0505897508122
 21
207.1204710277428
 31
0.0
  0
LINE
  5
4E9
330
1F
100
AcDbEntity
  8
LAYER-033
  6
Continuous
 62
     4
100
AcDbLine
 10
513.7945269428501
 20
225.8267215452954
 30
0.0
 11
527.0505897508122
 21
211.3631117148645
 31
0.0
  0
LINE
  5
4EA
330
1F
100
AcDbEntity
  8
LAYER-033
  6
Continuous
 62
     4
100
AcDbLine
 10
513.7945269428501
 20
230.0693622324147
 30
0.0
 11
527.0505897508122
 21
215.6057524019805
 31
0.0
  0
LINE
  5
4EB
330
1F
100
AcDbEntity
  8
LAYER-033
  6
Continuous
 62
     4
100
AcDbLine
 10
513.7945269428501
 20
234.312002919534
 30
0.0
 11
527.0505897508122
 21
219.8483930891031
 31
0.0
  0
LINE
  5
4EC
330
1F
100
AcDbEntity
  8
LAYER-033
  6
Continuous
 62
     4
100
AcDbLine
 10
513.7945269428501
 20
238.5546436066533
 30
0.0
 11
527.0505897508122
 21
225.2985807986912
 31
0.0
  0
LINE
  5
4ED
330
1F
100
AcDbEntity
  8
LAYER-033
  6
Continuous
 62
     4
100
AcDbLine
 10
513.7945269428501
 20
242.7972842937726
 30
0.0
 11
527.0505897508122
 21
229.5412214858105
 31
0.0
  0
LINE
  5
4EE
330
1F
100
AcDbEntity
  8
LAYER-033
  6
Continuous
 62
     4
100
AcDbLine
 10
513.7945269428501
 20
247.0399249808919
 30
0.0
 11
527.0505897508122
 21
233.7838621729298
 31
0.0
  0
LINE
  5
4EF
330
1F
100
AcDbEntity
  8
LAYER-033
  6
Continuous
 62
     4
100
AcDbLine
 10
513.7945269428501
 20
251.2825656680112
 30
0.0
 11
527.0505897508122
 21
238.0265028600491
 31
0.0
  0
LINE
  5
4F0
330
1F
100
AcDbEntity
  8
LAYER-033
  6
Continuous
 62
     4
100
AcDbLine
 10
513.7945269428501
 20
255.5252063548553
 30
0.0
 11
527.0505897508122
 21
242.2691435468932
 31
0.0
  0
LINE
  5
4F1
330
1F
100
AcDbEntity
  8
LAYER-033
  6
Continuous
 62
     4
100
AcDbLine
 10
513.7945269428501
 20
259.7678470419746
 30
0.0
 11
527.0505897508122
 21
246.5117842340125
 31
0.0
  0
LINE
  5
4F2
330
1F
100
AcDbEntity
  8
LAYER-033
  6
Continuous
 62
     4
100
AcDbLine
 10
515.4014509481715
 20
262.4035637237724
 30
0.0
 11
527.0505897508122
 21
250.7544249211318
 31
0.0
  0
LINE
  5
4F3
330
1F
100
AcDbEntity
  8
LAYER-033
  6
Continuous
 62
     4
100
AcDbLine
 10
519.6440916352908
 20
262.4035637237724
 30
0.0
 11
527.0505897508122
 21
254.9970656082511
 31
0.0
  0
LINE
  5
4F4
330
1F
100
AcDbEntity
  8
LAYER-033
  6
Continuous
 62
     4
100
AcDbLine
 10
523.8867323224101
 20
262.4035637237724
 30
0.0
 11
527.0505897508122
 21
259.2397062953704
 31
0.0
  0
LINE
  5
4F5
330
1F
100
AcDbEntity
  8
LAYER-256
  6
CENTER
 62
     4
100
AcDbLine
 10
235.6263395467409
 20
125.2130166298985
 30
0.0
 11
498.688073878548
 21
125.2130166298985
 31
0.0
  0
LINE
  5
4F6
330
1F
100
AcDbEntity
  8
LAYER-256
  6
CENTER
 62
     4
100
AcDbLine
 10
217.0624599480786
 20
-205.6003653990799
 30
0.0
 11
504.8280588527723
 21
-205.6003653990799
 31
0.0
  0
TEXT
  5
4F7
330
1F
100
AcDbEntity
  8
LAYER-033
  6
Continuous
 62
     7
100
AcDbText
 10
-78.59006319201528
 20
-368.1521608153309
 30
0.0
 40
4.0
  1
４００／４４０Ｖ　５０／６０Ｈｚ　　３００ｋＷ
  7
STRING_H
 11
-78.59006319201528
 21
-366.1521608153309
 31
0.0
100
AcDbText
 73
     2
  0
TEXT
  5
4F8
330
1F
100
AcDbEntity
  8
LAYER-033
  6
Continuous
 62
     7
100
AcDbText
 10
-78.59006319201528
 20
-376.2376109162981
 30
0.0
 40
4.0
  1
質　　量　３４０㎏
  7
STRING_H
 11
-78.59006319201528
 21
-374.2376109162981
 31
0.0
100
AcDbText
 73
     2
  0
TEXT
  5
4F9
330
1F
100
AcDbEntity
  8
LAYER-033
  6
Continuous
 62
     7
100
AcDbText
 10
-78.59006319201528
 20
-360.0667107140266
 30
0.0
 40
4.0
  1
ＫＲ－１Ｐ(低　圧)
  7
STRING_H
 11
-78.59006319201528
 21
-358.0667107140266
 31
0.0
100
AcDbText
 73
     2
  0
DIMENSION
  5
509
330
1F
100
AcDbEntity
  8
LAYER-035
  6
Continuous
 62
     5
100
AcDbDimension
  2
*D02
 10
-549.3129541784615
 20
332.1401217357574
 30
0.0
 11
-549.3129541784615
 21
44.64012173575742
 31
0.0
 70
   128
  1
<>
 71
     0
 42
0.0
  3
DIO_DIMSTYLE
100
AcDbAlignedDimension
 13
-494.3384615384615
 23
-242.8598782642426
 33
0.0
 14
-481.4171132237865
 24
332.1401217357575
 34
0.0
 50
270.0
100
AcDbRotatedDimension
1001
ACAD
1000
DSTYLE
1002
{
1070
    41
1040
4.0
1070
    44
1040
1.0
1070
    42
1040
1.0
1070
     6
1000
_OPEN
1070
     7
1000
_OPEN
1070
   173
1070
     1
1070
   140
1040
4.0
1070
   178
1070
     5
1070
   147
1040
0.5
1002
}
  0
DIMENSION
  5
513
330
1F
100
AcDbEntity
  8
LAYER-035
  6
Continuous
 62
     5
100
AcDbDimension
  2
*D13
 10
40.66153846153844
 20
-291.7616685445728
 30
0.0
 11
-194.3384615384616
 21
-291.7616685445728
 31
0.0
 70
   129
  1
<>
 71
     0
 42
0.0
  3
DIO_DIMSTYLE
100
AcDbAlignedDimension
 13
-429.3384615384616
 23
-258.9295156802088
 33
0.0
 14
40.66153846153844
 24
-258.9295156799735
 34
0.0
1001
ACAD
1000
DSTYLE
1002
{
1070
    41
1040
4.0
1070
    44
1040
1.0
1070
    42
1040
1.0
1070
     6
1000
_OPEN
1070
     7
1000
_OPEN
1070
   173
1070
     1
1070
   140
1040
4.0
1070
   178
1070
     5
1070
   147
1040
0.5
1002
}
  0
DIMENSION
  5
51D
330
1F
100
AcDbEntity
  8
LAYER-035
  6
Continuous
 62
     5
100
AcDbDimension
  2
*D24
 10
105.6615384615384
 20
-323.5354459377481
 30
0.0
 11
-194.3384615384616
 21
-323.5354459377481
 31
0.0
 70
   129
  1
<>
 71
     0
 42
0.0
  3
DIO_DIMSTYLE
100
AcDbAlignedDimension
 13
-494.3384615384616
 23
-242.8598782642425
 33
0.0
 14
105.6615384615384
 24
-242.8598782642425
 34
0.0
1001
ACAD
1000
DSTYLE
1002
{
1070
    41
1040
4.0
1070
    44
1040
1.0
1070
    42
1040
1.0
1070
     6
1000
_OPEN
1070
     7
1000
_OPEN
1070
   173
1070
     1
1070
   140
1040
4.0
1070
   178
1070
     5
1070
   147
1040
0.5
1002
}
  0
DIMENSION
  5
527
330
1F
100
AcDbEntity
  8
LAYER-035
  6
Continuous
 62
     5
100
AcDbDimension
  2
*D35
 10
551.3506214615359
 20
-21.70309890778118
 30
0.0
 11
349.0125893602823
 21
-21.70309890778118
 31
0.0
 70
   129
  1
<>
 71
     0
 42
0.0
  3
DIO_DIMSTYLE
100
AcDbAlignedDimension
 13
171.3506214615359
 23
84.612031848117
 33
0.0
 14
551.3506214615359
 24
84.612031848117
 34
0.0
1001
ACAD
1000
DSTYLE
1002
{
1070
    41
1040
4.0
1070
    44
1040
1.0
1070
    42
1040
1.0
1070
     6
1000
_OPEN
1070
     7
1000
_OPEN
1070
   173
1070
     1
1070
   140
1040
4.0
1070
   178
1070
     5
1070
   147
1040
0.5
1002
}
  0
DIMENSION
  5
531
330
1F
100
AcDbEntity
  8
LAYER-035
  6
Continuous
 62
     5
100
AcDbDimension
  2
*D46
 10
511.3506214615359
 20
-291.7616685445728
 30
0.0
 11
361.3506214615359
 21
-291.7616685445728
 31
0.0
 70
   129
  1
<>
 71
     0
 42
0.0
  3
DIO_DIMSTYLE
100
AcDbAlignedDimension
 13
211.3506214615359
 23
-259.6691072788519
 33
0.0
 14
511.3506214615359
 24
-259.6691072788518
 34
0.0
1001
ACAD
1000
DSTYLE
1002
{
1070
    41
1040
4.0
1070
    44
1040
1.0
1070
    42
1040
1.0
1070
     6
1000
_OPEN
1070
     7
1000
_OPEN
1070
   173
1070
     1
1070
   140
1040
4.0
1070
   178
1070
     5
1070
   147
1040
0.5
1002
}
  0
DIMENSION
  5
53B
330
1F
100
AcDbEntity
  8
LAYER-035
  6
Continuous
 62
     5
100
AcDbDimension
  2
*D57
 10
533.8506214615359
 20
-323.5354459377481
 30
0.0
 11
361.3506214615359
 21
-323.5354459377481
 31
0.0
 70
   129
  1
<>
 71
     0
 42
0.0
  3
DIO_DIMSTYLE
100
AcDbAlignedDimension
 13
188.8506214615359
 23
-242.8598782642425
 33
0.0
 14
533.8506214615359
 24
-242.8598782642425
 34
0.0
1001
ACAD
1000
DSTYLE
1002
{
1070
    41
1040
4.0
1070
    44
1040
1.0
1070
    42
1040
1.0
1070
     6
1000
_OPEN
1070
     7
1000
_OPEN
1070
   173
1070
     1
1070
   140
1040
4.0
1070
   178
1070
     5
1070
   147
1040
0.5
1002
}
  0
ENDSEC
  0
SECTION
  2
OBJECTS
  0
DICTIONARY
  5
C
330
0
100
AcDbDictionary
281
     1
  3
ACAD_GROUP
350
D
  3
ACAD_LAYOUT
350
1A
  3
ACAD_MLINESTYLE
350
17
  3
ACAD_PLOTSETTINGS
350
19
  3
ACAD_PLOTSTYLENAME
350
E
  0
DICTIONARY
  5
D
102
{ACAD_REACTORS
330
C
102
}
330
C
100
AcDbDictionary
281
     1
  0
DICTIONARY
  5
1A
102
{ACAD_REACTORS
330
C
102
}
330
C
100
AcDbDictionary
281
     1
  3
Model
350
22
  3
ﾚｲｱｳﾄ1
350
1E
  3
ﾚｲｱｳﾄ2
350
26
  0
DICTIONARY
  5
17
102
{ACAD_REACTORS
330
C
102
}
330
C
100
AcDbDictionary
281
     1
  3
Standard
350
18
  0
DICTIONARY
  5
19
102
{ACAD_REACTORS
330
C
102
}
330
C
100
AcDbDictionary
281
     1
  0
ACDBDICTIONARYWDFLT
  5
E
102
{ACAD_REACTORS
330
C
102
}
330
C
100
AcDbDictionary
281
     1
  3
Normal
350
F
100
AcDbDictionaryWithDefault
340
F
  0
LAYOUT
  5
22
102
{ACAD_REACTORS
330
1A
102
}
330
1A
100
AcDbPlotSettings
  1

  2
DWF ePlot.pc3
  4
ANSI_A_(8.50_x_11.00_Inches)
  6

 40
5.793749809265137
 41
17.79375076293945
 42
5.793746948242188
 43
17.79376220703125
 44
215.8999938964844
 45
279.3999938964844
 46
0.0
 47
0.0
 48
0.0
 49
0.0
140
0.0
141
0.0
142
1.0
143
39.26051453979704
 70
 11952
 72
     0
 73
     1
 74
     0
  7
acad.ctb
 75
     0
147
0.0254708837039396
148
-1793.922354682663
149
1.490346453088415
100
AcDbLayout
  1
Model
 70
     1
 71
     0
 10
-594.5
 20
-420.5
 11
594.5
 21
420.5
 12
0.0
 22
0.0
 32
0.0
 14
-594.5
 24
-420.5
 34
0.0
 15
594.5
 25
420.5
 35
0.0
146
0.0
 13
0.0
 23
0.0
 33
0.0
 16
1.0
 26
0.0
 36
0.0
 17
0.0
 27
1.0
 37
0.0
 76
     0
330
1F
  0
LAYOUT
  5
1E
102
{ACAD_REACTORS
330
1A
102
}
330
1A
100
AcDbPlotSettings
  1

  2
RICOH IPSiO NX700
  4

  6

 40
0.0
 41
0.0
 42
0.0
 43
0.0
 44
0.0
 45
0.0
 46
0.0
 47
0.0
 48
0.0
 49
0.0
140
0.0
141
0.0
142
1.0
143
1.0
 70
   688
 72
     0
 73
     0
 74
     5
  7
acad.ctb
 75
    16
147
1.0
148
0.0
149
0.0
100
AcDbLayout
  1
ﾚｲｱｳﾄ1
 70
     1
 71
     1
 10
-594.5
 20
-420.5
 11
594.5
 21
420.5
 12
0.0
 22
0.0
 32
0.0
 14
-594.5
 24
-420.5
 34
0.0
 15
594.5
 25
420.5
 35
0.0
146
0.0
 13
0.0
 23
0.0
 33
0.0
 16
1.0
 26
0.0
 36
0.0
 17
0.0
 27
1.0
 37
0.0
 76
     0
330
1B
  0
LAYOUT
  5
26
102
{ACAD_REACTORS
330
1A
102
}
330
1A
100
AcDbPlotSettings
  1

  2
RICOH IPSiO NX700
  4

  6

 40
0.0
 41
0.0
 42
0.0
 43
0.0
 44
0.0
 45
0.0
 46
0.0
 47
0.0
 48
0.0
 49
0.0
140
0.0
141
0.0
142
1.0
143
1.0
 70
   688
 72
     0
 73
     0
 74
     5
  7
acad.ctb
 75
    16
147
1.0
148
0.0
149
0.0
100
AcDbLayout
  1
ﾚｲｱｳﾄ2
 70
     1
 71
     2
 10
0.0
 20
0.0
 11
12.0
 21
9.0
 12
0.0
 22
0.0
 32
0.0
 14
0.0
 24
0.0
 34
0.0
 15
0.0
 25
0.0
 35
0.0
146
0.0
 13
0.0
 23
0.0
 33
0.0
 16
1.0
 26
0.0
 36
0.0
 17
0.0
 27
1.0
 37
0.0
 76
     0
330
23
  0
MLINESTYLE
  5
18
102
{ACAD_REACTORS
330
17
102
}
330
17
100
AcDbMlineStyle
  2
STANDARD
 70
     0
  3

 62
   256
 51
90.0
 52
90.0
 71
     2
 49
0.5
 62
   256
  6
BYLAYER
 49
-0.5
 62
   256
  6
BYLAYER
  0
ACDBPLACEHOLDER
  5
F
102
{ACAD_REACTORS
330
E
102
}
330
E
  0
ENDSEC
  0
EOF
