  0
SECTION
  2
HEADER
  9
$ACADVER
  1
AC1015
  9
$ACADMAINTVER
 70
     6
  9
$DWGCODEPAGE
  3
ANSI_932
  9
$INSBASE
 10
0.0
 20
0.0
 30
0.0
  9
$EXTMIN
 10
-594.5
 20
-420.5
 30
0.0
  9
$EXTMAX
 10
594.5
 20
420.5
 30
0.0
  9
$LIMMIN
 10
-594.5
 20
-420.5
  9
$LIMMAX
 10
594.5
 20
420.5
  9
$ORTHOMODE
 70
     0
  9
$REGENMODE
 70
     1
  9
$FILLMODE
 70
     1
  9
$QTEXTMODE
 70
     0
  9
$MIRRTEXT
 70
     1
  9
$LTSCALE
 40
4.0
  9
$ATTMODE
 70
     1
  9
$TEXTSIZE
 40
2.5
  9
$TRACEWID
 40
1.0
  9
$TEXTSTYLE
  7
Standard
  9
$CLAYER
  8
0
  9
$CELTYPE
  6
ByLayer
  9
$CECOLOR
 62
   256
  9
$CELTSCALE
 40
1.0
  9
$DISPSILH
 70
     0
  9
$DIMSCALE
 40
1.0
  9
$DIMASZ
 40
4.0
  9
$DIMEXO
 40
1.0
  9
$DIMDLI
 40
3.75
  9
$DIMRND
 40
0.1
  9
$DIMDLE
 40
0.0
  9
$DIMEXE
 40
1.0
  9
$DIMTP
 40
0.0
  9
$DIMTM
 40
0.0
  9
$DIMTXT
 40
2.5
  9
$DIMCEN
 40
2.5
  9
$DIMTSZ
 40
0.0
  9
$DIMTOL
 70
     0
  9
$DIMLIM
 70
     0
  9
$DIMTIH
 70
     0
  9
$DIMTOH
 70
     0
  9
$DIMSE1
 70
     0
  9
$DIMSE2
 70
     0
  9
$DIMTAD
 70
     1
  9
$DIMZIN
 70
     8
  9
$DIMBLK
  1

  9
$DIMASO
 70
     1
  9
$DIMSHO
 70
     1
  9
$DIMPOST
  1

  9
$DIMAPOST
  1

  9
$DIMALT
 70
     0
  9
$DIMALTD
 70
     3
  9
$DIMALTF
 40
0.03937007874016
  9
$DIMLFAC
 40
1.0
  9
$DIMTOFL
 70
     1
  9
$DIMTVP
 40
0.0
  9
$DIMTIX
 70
     0
  9
$DIMSOXD
 70
     0
  9
$DIMSAH
 70
     1
  9
$DIMBLK1
  1

  9
$DIMBLK2
  1

  9
$DIMSTYLE
  2
ISO-25
  9
$DIMCLRD
 70
     0
  9
$DIMCLRE
 70
     0
  9
$DIMCLRT
 70
     0
  9
$DIMTFAC
 40
1.0
  9
$DIMGAP
 40
0.5
  9
$DIMJUST
 70
     0
  9
$DIMSD1
 70
     0
  9
$DIMSD2
 70
     0
  9
$DIMTOLJ
 70
     0
  9
$DIMTZIN
 70
     8
  9
$DIMALTZ
 70
     0
  9
$DIMALTTZ
 70
     0
  9
$DIMUPT
 70
     1
  9
$DIMDEC
 70
     1
  9
$DIMTDEC
 70
     2
  9
$DIMALTU
 70
     2
  9
$DIMALTTD
 70
     3
  9
$DIMTXSTY
  7
Standard
  9
$DIMAUNIT
 70
     0
  9
$DIMADEC
 70
     1
  9
$DIMALTRND
 40
0.0
  9
$DIMAZIN
 70
     2
  9
$DIMDSEP
 70
    46
  9
$DIMATFIT
 70
     0
  9
$DIMFRAC
 70
     0
  9
$DIMLDRBLK
  1

  9
$DIMLUNIT
 70
     2
  9
$DIMLWD
 70
    -2
  9
$DIMLWE
 70
    -2
  9
$DIMTMOVE
 70
     0
  9
$LUNITS
 70
     2
  9
$LUPREC
 70
     4
  9
$SKETCHINC
 40
1.0
  9
$FILLETRAD
 40
10.0
  9
$AUNITS
 70
     0
  9
$AUPREC
 70
     0
  9
$MENU
  1
.
  9
$ELEVATION
 40
0.0
  9
$PELEVATION
 40
0.0
  9
$THICKNESS
 40
0.0
  9
$LIMCHECK
 70
     0
  9
$CHAMFERA
 40
10.0
  9
$CHAMFERB
 40
10.0
  9
$CHAMFERC
 40
20.0
  9
$CHAMFERD
 40
0.0
  9
$SKPOLY
 70
     0
  9
$TDCREATE
 40
2455091.0
  9
$TDUCREATE
 40
2451562.87528772
  9
$TDUPDATE
 40
2455121.0
  9
$TDUUPDATE
 40
2452026.917654526
  9
$TDINDWG
 40
0.0010008681
  9
$TDUSRTIMER
 40
0.0009680671
  9
$USRTIMER
 70
     1
  9
$ANGBASE
 50
0.0
  9
$ANGDIR
 70
     0
  9
$PDMODE
 70
     0
  9
$PDSIZE
 40
0.0
  9
$PLINEWID
 40
0.0
  9
$SPLFRAME
 70
     0
  9
$SPLINETYPE
 70
     6
  9
$SPLINESEGS
 70
     8
  9
$HANDSEED
  5
653
  9
$SURFTAB1
 70
     6
  9
$SURFTAB2
 70
     6
  9
$SURFTYPE
 70
     6
  9
$SURFU
 70
     6
  9
$SURFV
 70
     6
  9
$UCSBASE
  2

  9
$UCSNAME
  2

  9
$UCSORG
 10
0.0
 20
0.0
 30
0.0
  9
$UCSXDIR
 10
1.0
 20
0.0
 30
0.0
  9
$UCSYDIR
 10
0.0
 20
1.0
 30
0.0
  9
$UCSORTHOREF
  2

  9
$UCSORTHOVIEW
 70
     0
  9
$UCSORGTOP
 10
0.0
 20
0.0
 30
0.0
  9
$UCSORGBOTTOM
 10
0.0
 20
0.0
 30
0.0
  9
$UCSORGLEFT
 10
0.0
 20
0.0
 30
0.0
  9
$UCSORGRIGHT
 10
0.0
 20
0.0
 30
0.0
  9
$UCSORGFRONT
 10
0.0
 20
0.0
 30
0.0
  9
$UCSORGBACK
 10
0.0
 20
0.0
 30
0.0
  9
$PUCSBASE
  2

  9
$PUCSNAME
  2

  9
$PUCSORG
 10
0.0
 20
0.0
 30
0.0
  9
$PUCSXDIR
 10
1.0
 20
0.0
 30
0.0
  9
$PUCSYDIR
 10
0.0
 20
1.0
 30
0.0
  9
$PUCSORTHOREF
  2

  9
$PUCSORTHOVIEW
 70
     0
  9
$PUCSORGTOP
 10
0.0
 20
0.0
 30
0.0
  9
$PUCSORGBOTTOM
 10
0.0
 20
0.0
 30
0.0
  9
$PUCSORGLEFT
 10
0.0
 20
0.0
 30
0.0
  9
$PUCSORGRIGHT
 10
0.0
 20
0.0
 30
0.0
  9
$PUCSORGFRONT
 10
0.0
 20
0.0
 30
0.0
  9
$PUCSORGBACK
 10
0.0
 20
0.0
 30
0.0
  9
$USERI1
 70
     0
  9
$USERI2
 70
     0
  9
$USERI3
 70
     0
  9
$USERI4
 70
     0
  9
$USERI5
 70
     0
  9
$USERR1
 40
0.0
  9
$USERR2
 40
0.0
  9
$USERR3
 40
0.0
  9
$USERR4
 40
0.0
  9
$USERR5
 40
0.0
  9
$WORLDVIEW
 70
     1
  9
$SHADEDGE
 70
     3
  9
$SHADEDIF
 70
    70
  9
$TILEMODE
 70
     1
  9
$MAXACTVP
 70
    64
  9
$PINSBASE
 10
0.0
 20
0.0
 30
0.0
  9
$PLIMCHECK
 70
     0
  9
$PEXTMIN
 10
-594.5
 20
-420.5
 30
0.0
  9
$PEXTMAX
 10
594.5
 20
420.5
 30
0.0
  9
$PLIMMIN
 10
-594.5
 20
-420.5
  9
$PLIMMAX
 10
594.5
 20
420.5
  9
$UNITMODE
 70
     0
  9
$VISRETAIN
 70
     1
  9
$PLINEGEN
 70
     0
  9
$PSLTSCALE
 70
     1
  9
$TREEDEPTH
 70
  3020
  9
$CMLSTYLE
  2
Standard
  9
$CMLJUST
 70
     0
  9
$CMLSCALE
 40
20.0
  9
$PROXYGRAPHICS
 70
     1
  9
$MEASUREMENT
 70
     1
  9
$CELWEIGHT
370
    -1
  9
$ENDCAPS
280
     0
  9
$JOINSTYLE
280
     0
  9
$LWDISPLAY
290
     0
  9
$INSUNITS
 70
     4
  9
$HYPERLINKBASE
  1

  9
$STYLESHEET
  1

  9
$XEDIT
290
     1
  9
$CEPSNTYPE
380
     0
  9
$PSTYLEMODE
290
     1
  9
$FINGERPRINTGUID
  2
{B6423330-CE35-11D3-AA43-00E0292263AD}
  9
$VERSIONGUID
  2
{EAA0F794-BAE8-4B09-85E0-65C527BE2B8E}
  9
$EXTNAMES
290
     1
  9
$PSVPSCALE
 40
0.0
  9
$OLESTARTUP
290
     0
  0
ENDSEC
  0
SECTION
  2
CLASSES
  0
CLASS
  1
ACDBDICTIONARYWDFLT
  2
AcDbDictionaryWithDefault
  3
ObjectDBX Classes
 90
        0
280
     0
281
     0
  0
CLASS
  1
ACDBPLACEHOLDER
  2
AcDbPlaceHolder
  3
ObjectDBX Classes
 90
        0
280
     0
281
     0
  0
CLASS
  1
LAYOUT
  2
AcDbLayout
  3
ObjectDBX Classes
 90
        0
280
     0
281
     0
  0
ENDSEC
  0
SECTION
  2
TABLES
  0
TABLE
  2
VPORT
  5
8
330
0
100
AcDbSymbolTable
 70
     3
  0
VPORT
  5
30
330
8
100
AcDbSymbolTableRecord
100
AcDbViewportTableRecord
  2
*Active
 70
     0
 10
0.0
 20
0.0
 11
1.0
 21
1.0
 12
259.0560661764706
 22
148.5
 13
0.0
 23
0.0
 14
10.0
 24
10.0
 15
10.0
 25
10.0
 16
0.0
 26
0.0
 36
1.0
 17
0.0
 27
0.0
 37
0.0
 40
297.1173501144164
 41
1.268382352941176
 42
50.0
 43
0.0
 44
0.0
 50
0.0
 51
0.0
 71
     0
 72
   100
 73
     1
 74
     3
 75
     0
 76
     0
 77
     0
 78
     0
281
     0
 65
     1
110
0.0
120
0.0
130
0.0
111
1.0
121
0.0
131
0.0
112
0.0
122
1.0
132
0.0
 79
     0
146
0.0
  0
ENDTAB
  0
TABLE
  2
LTYPE
  5
5
330
0
100
AcDbSymbolTable
 70
    26
  0
LTYPE
  5
14
330
5
100
AcDbSymbolTableRecord
100
AcDbLinetypeTableRecord
  2
ByBlock
 70
     0
  3

 72
    65
 73
     0
 40
0.0
  0
LTYPE
  5
15
330
5
100
AcDbSymbolTableRecord
100
AcDbLinetypeTableRecord
  2
ByLayer
 70
     0
  3

 72
    65
 73
     0
 40
0.0
  0
LTYPE
  5
16
330
5
100
AcDbSymbolTableRecord
100
AcDbLinetypeTableRecord
  2
Continuous
 70
     0
  3
Solid line
 72
    65
 73
     0
 40
0.0
  0
LTYPE
  5
37
330
5
100
AcDbSymbolTableRecord
100
AcDbLinetypeTableRecord
  2
BORDER
 70
     0
  3
 __ __ . __ __ . __ __ . __ __ . __ __ . __ __
 72
    65
 73
     6
 40
1.75
 49
0.5
 74
     0
 49
-0.25
 74
     0
 49
0.5
 74
     0
 49
-0.25
 74
     0
 49
0.0
 74
     0
 49
-0.25
 74
     0
  0
LTYPE
  5
38
330
5
100
AcDbSymbolTableRecord
100
AcDbLinetypeTableRecord
  2
BORDER2
 70
     0
  3
__.__.__.__.__.__.__.__.__.__.__.__.__.__.__
 72
    65
 73
     6
 40
0.875
 49
0.25
 74
     0
 49
-0.125
 74
     0
 49
0.25
 74
     0
 49
-0.125
 74
     0
 49
0.0
 74
     0
 49
-0.125
 74
     0
  0
LTYPE
  5
39
330
5
100
AcDbSymbolTableRecord
100
AcDbLinetypeTableRecord
  2
BORDERX2
 70
     0
  3
____  ____  .  ____  ____  .  ____  ____  .
 72
    65
 73
     6
 40
3.5
 49
1.0
 74
     0
 49
-0.5
 74
     0
 49
1.0
 74
     0
 49
-0.5
 74
     0
 49
0.0
 74
     0
 49
-0.5
 74
     0
  0
LTYPE
  5
3A
330
5
100
AcDbSymbolTableRecord
100
AcDbLinetypeTableRecord
  2
CENTER
 70
     0
  3
____ _ ____ _ ____ _ ____ _ ____ _ ____ _ ____
 72
    65
 73
     4
 40
2.0
 49
1.25
 74
     0
 49
-0.25
 74
     0
 49
0.25
 74
     0
 49
-0.25
 74
     0
  0
LTYPE
  5
3B
330
5
100
AcDbSymbolTableRecord
100
AcDbLinetypeTableRecord
  2
CENTER2
 70
     0
  3
___ _ ___ _ ___ _ ___ _ ___ _ ___ _ ___ _ ___ 
 72
    65
 73
     4
 40
1.125
 49
0.75
 74
     0
 49
-0.125
 74
     0
 49
0.125
 74
     0
 49
-0.125
 74
     0
  0
LTYPE
  5
3C
330
5
100
AcDbSymbolTableRecord
100
AcDbLinetypeTableRecord
  2
CENTERX2
 70
     0
  3
________  __  ________  __  ________  __
 72
    65
 73
     4
 40
4.0
 49
2.5
 74
     0
 49
-0.5
 74
     0
 49
0.5
 74
     0
 49
-0.5
 74
     0
  0
LTYPE
  5
3D
330
5
100
AcDbSymbolTableRecord
100
AcDbLinetypeTableRecord
  2
DASHDOT
 70
     0
  3
__ . __ . __ . __ . __ . __ . __ . __ . __ .
 72
    65
 73
     4
 40
1.0
 49
0.5
 74
     0
 49
-0.25
 74
     0
 49
0.0
 74
     0
 49
-0.25
 74
     0
  0
LTYPE
  5
3E
330
5
100
AcDbSymbolTableRecord
100
AcDbLinetypeTableRecord
  2
DASHDOT2
 70
     0
  3
_._._._._._._._._._._._._._._._._._._._._._._.
 72
    65
 73
     4
 40
0.5
 49
0.25
 74
     0
 49
-0.125
 74
     0
 49
0.0
 74
     0
 49
-0.125
 74
     0
  0
LTYPE
  5
3F
330
5
100
AcDbSymbolTableRecord
100
AcDbLinetypeTableRecord
  2
DASHDOTX2
 70
     0
  3
____  .  ____  .  ____  .  ____  .  ____  .
 72
    65
 73
     4
 40
2.0
 49
1.0
 74
     0
 49
-0.5
 74
     0
 49
0.0
 74
     0
 49
-0.5
 74
     0
  0
LTYPE
  5
40
330
5
100
AcDbSymbolTableRecord
100
AcDbLinetypeTableRecord
  2
DASHED
 70
     0
  3
__ __ __ __ __ __ __ __ __ __ __ __ __ __ __
 72
    65
 73
     2
 40
0.75
 49
0.5
 74
     0
 49
-0.25
 74
     0
  0
LTYPE
  5
41
330
5
100
AcDbSymbolTableRecord
100
AcDbLinetypeTableRecord
  2
DASHED2
 70
     0
  3
_ _ _ _ _ _ _ _ _ _ _ _ _ _ _ _ _ _ _ _ _ _ _
 72
    65
 73
     2
 40
0.375
 49
0.25
 74
     0
 49
-0.125
 74
     0
  0
LTYPE
  5
42
330
5
100
AcDbSymbolTableRecord
100
AcDbLinetypeTableRecord
  2
DASHEDX2
 70
     0
  3
____  ____  ____  ____  ____  ____  ____  ____
 72
    65
 73
     2
 40
1.5
 49
1.0
 74
     0
 49
-0.5
 74
     0
  0
LTYPE
  5
43
330
5
100
AcDbSymbolTableRecord
100
AcDbLinetypeTableRecord
  2
DIVIDE
 70
     0
  3
____ . . ____ . . ____ . . ____ . . ____ . .
 72
    65
 73
     6
 40
1.25
 49
0.5
 74
     0
 49
-0.25
 74
     0
 49
0.0
 74
     0
 49
-0.25
 74
     0
 49
0.0
 74
     0
 49
-0.25
 74
     0
  0
LTYPE
  5
44
330
5
100
AcDbSymbolTableRecord
100
AcDbLinetypeTableRecord
  2
DIVIDE2
 70
     0
  3
__..__..__..__..__..__..__..__..__..__..__..__
 72
    65
 73
     6
 40
0.625
 49
0.25
 74
     0
 49
-0.125
 74
     0
 49
0.0
 74
     0
 49
-0.125
 74
     0
 49
0.0
 74
     0
 49
-0.125
 74
     0
  0
LTYPE
  5
45
330
5
100
AcDbSymbolTableRecord
100
AcDbLinetypeTableRecord
  2
DIVIDEX2
 70
     0
  3
________  .  .  ________  .  .  ________  .  .
 72
    65
 73
     6
 40
2.5
 49
1.0
 74
     0
 49
-0.5
 74
     0
 49
0.0
 74
     0
 49
-0.5
 74
     0
 49
0.0
 74
     0
 49
-0.5
 74
     0
  0
LTYPE
  5
46
330
5
100
AcDbSymbolTableRecord
100
AcDbLinetypeTableRecord
  2
DOT
 70
     0
  3
. . . . . . . . . . . . . . . . . . . . . . .
 72
    65
 73
     2
 40
0.25
 49
0.0
 74
     0
 49
-0.25
 74
     0
  0
LTYPE
  5
47
330
5
100
AcDbSymbolTableRecord
100
AcDbLinetypeTableRecord
  2
DOT2
 70
     0
  3
..............................................
 72
    65
 73
     2
 40
0.125
 49
0.0
 74
     0
 49
-0.125
 74
     0
  0
LTYPE
  5
48
330
5
100
AcDbSymbolTableRecord
100
AcDbLinetypeTableRecord
  2
DOTX2
 70
     0
  3
.  .  .  .  .  .  .  .  .  .  .  .  .  .  .  .
 72
    65
 73
     2
 40
0.5
 49
0.0
 74
     0
 49
-0.5
 74
     0
  0
LTYPE
  5
49
330
5
100
AcDbSymbolTableRecord
100
AcDbLinetypeTableRecord
  2
HIDDEN
 70
     0
  3
__ __ __ __ __ __ __ __ __ __ __ __ __ __ __
 72
    65
 73
     2
 40
0.375
 49
0.25
 74
     0
 49
-0.125
 74
     0
  0
LTYPE
  5
4A
330
5
100
AcDbSymbolTableRecord
100
AcDbLinetypeTableRecord
  2
HIDDEN2
 70
     0
  3
_ _ _ _ _ _ _ _ _ _ _ _ _ _ _ _ _ _ _ _ _ _ _
 72
    65
 73
     2
 40
0.1875
 49
0.125
 74
     0
 49
-0.0625
 74
     0
  0
LTYPE
  5
4B
330
5
100
AcDbSymbolTableRecord
100
AcDbLinetypeTableRecord
  2
HIDDENX2
 70
     0
  3
____ ____ ____ ____ ____ ____ ____ ____ ____
 72
    65
 73
     2
 40
0.75
 49
0.5
 74
     0
 49
-0.25
 74
     0
  0
LTYPE
  5
4C
330
5
100
AcDbSymbolTableRecord
100
AcDbLinetypeTableRecord
  2
PHANTOM
 70
     0
  3
______  __  __  ______  __  __  ______  __
 72
    65
 73
     6
 40
2.5
 49
1.25
 74
     0
 49
-0.25
 74
     0
 49
0.25
 74
     0
 49
-0.25
 74
     0
 49
0.25
 74
     0
 49
-0.25
 74
     0
  0
LTYPE
  5
4D
330
5
100
AcDbSymbolTableRecord
100
AcDbLinetypeTableRecord
  2
PHANTOM2
 70
     0
  3
___ _ _ ___ _ _ ___ _ _ ___ _ _ ___ _ _ ___ _
 72
    65
 73
     6
 40
1.25
 49
0.625
 74
     0
 49
-0.125
 74
     0
 49
0.125
 74
     0
 49
-0.125
 74
     0
 49
0.125
 74
     0
 49
-0.125
 74
     0
  0
LTYPE
  5
4E
330
5
100
AcDbSymbolTableRecord
100
AcDbLinetypeTableRecord
  2
PHANTOMX2
 70
     0
  3
____________    ____    ____    ____________
 72
    65
 73
     6
 40
5.0
 49
2.5
 74
     0
 49
-0.5
 74
     0
 49
0.5
 74
     0
 49
-0.5
 74
     0
 49
0.5
 74
     0
 49
-0.5
 74
     0
  0
LTYPE
  5
4F
330
5
100
AcDbSymbolTableRecord
100
AcDbLinetypeTableRecord
  2
CONTINUOUS2
 70
     0
  3
Solid line
 72
    65
 73
     0
 40
0.0
  0
ENDTAB
  0
TABLE
  2
LAYER
  5
2
330
0
100
AcDbSymbolTable
 70
   514
  0
LAYER
  5
10
330
2
100
AcDbSymbolTableRecord
100
AcDbLayerTableRecord
  2
0
 70
     0
 62
     7
  6
Continuous
370
    -3
390
F
  0
LAYER
  5
50
330
2
100
AcDbSymbolTableRecord
100
AcDbLayerTableRecord
  2
LAYER-001
 70
     0
 62
     7
  6
Continuous
370
    -3
390
F
  0
LAYER
  5
51
330
2
100
AcDbSymbolTableRecord
100
AcDbLayerTableRecord
  2
LAYER-002
 70
     0
 62
     7
  6
Continuous
370
    -3
390
F
  0
LAYER
  5
52
330
2
100
AcDbSymbolTableRecord
100
AcDbLayerTableRecord
  2
LAYER-003
 70
     0
 62
     7
  6
Continuous
370
    -3
390
F
  0
LAYER
  5
53
330
2
100
AcDbSymbolTableRecord
100
AcDbLayerTableRecord
  2
LAYER-004
 70
     0
 62
     7
  6
Continuous
370
    -3
390
F
  0
LAYER
  5
54
330
2
100
AcDbSymbolTableRecord
100
AcDbLayerTableRecord
  2
LAYER-005
 70
     0
 62
     7
  6
Continuous
370
    -3
390
F
  0
LAYER
  5
55
330
2
100
AcDbSymbolTableRecord
100
AcDbLayerTableRecord
  2
LAYER-006
 70
     0
 62
     7
  6
Continuous
370
    -3
390
F
  0
LAYER
  5
56
330
2
100
AcDbSymbolTableRecord
100
AcDbLayerTableRecord
  2
LAYER-007
 70
     0
 62
     7
  6
Continuous
370
    -3
390
F
  0
LAYER
  5
57
330
2
100
AcDbSymbolTableRecord
100
AcDbLayerTableRecord
  2
LAYER-008
 70
     0
 62
     7
  6
Continuous
370
    -3
390
F
  0
LAYER
  5
58
330
2
100
AcDbSymbolTableRecord
100
AcDbLayerTableRecord
  2
LAYER-009
 70
     0
 62
     7
  6
Continuous
370
    -3
390
F
  0
LAYER
  5
59
330
2
100
AcDbSymbolTableRecord
100
AcDbLayerTableRecord
  2
LAYER-010
 70
     0
 62
     7
  6
Continuous
370
    -3
390
F
  0
LAYER
  5
5A
330
2
100
AcDbSymbolTableRecord
100
AcDbLayerTableRecord
  2
LAYER-011
 70
     0
 62
     7
  6
Continuous
370
    -3
390
F
  0
LAYER
  5
5B
330
2
100
AcDbSymbolTableRecord
100
AcDbLayerTableRecord
  2
LAYER-012
 70
     0
 62
     7
  6
Continuous
370
    -3
390
F
  0
LAYER
  5
5C
330
2
100
AcDbSymbolTableRecord
100
AcDbLayerTableRecord
  2
LAYER-013
 70
     0
 62
     7
  6
Continuous
370
    -3
390
F
  0
LAYER
  5
5D
330
2
100
AcDbSymbolTableRecord
100
AcDbLayerTableRecord
  2
LAYER-014
 70
     0
 62
     7
  6
Continuous
370
    -3
390
F
  0
LAYER
  5
5E
330
2
100
AcDbSymbolTableRecord
100
AcDbLayerTableRecord
  2
LAYER-015
 70
     0
 62
     7
  6
Continuous
370
    -3
390
F
  0
LAYER
  5
5F
330
2
100
AcDbSymbolTableRecord
100
AcDbLayerTableRecord
  2
LAYER-016
 70
     0
 62
     4
  6
Continuous
370
    -3
390
F
  0
LAYER
  5
60
330
2
100
AcDbSymbolTableRecord
100
AcDbLayerTableRecord
  2
LAYER-017
 70
     0
 62
     7
  6
Continuous
370
    -3
390
F
  0
LAYER
  5
61
330
2
100
AcDbSymbolTableRecord
100
AcDbLayerTableRecord
  2
LAYER-018
 70
     0
 62
     2
  6
Continuous
370
    -3
390
F
  0
LAYER
  5
62
330
2
100
AcDbSymbolTableRecord
100
AcDbLayerTableRecord
  2
LAYER-019
 70
     0
 62
     3
  6
Continuous
370
    -3
390
F
  0
LAYER
  5
63
330
2
100
AcDbSymbolTableRecord
100
AcDbLayerTableRecord
  2
LAYER-020
 70
     0
 62
     2
  6
Continuous
370
    -3
390
F
  0
LAYER
  5
64
330
2
100
AcDbSymbolTableRecord
100
AcDbLayerTableRecord
  2
LAYER-021
 70
     0
 62
     7
  6
Continuous
370
    -3
390
F
  0
LAYER
  5
65
330
2
100
AcDbSymbolTableRecord
100
AcDbLayerTableRecord
  2
LAYER-022
 70
     0
 62
     4
  6
Continuous
370
    -3
390
F
  0
LAYER
  5
66
330
2
100
AcDbSymbolTableRecord
100
AcDbLayerTableRecord
  2
LAYER-023
 70
     0
 62
     4
  6
Continuous
370
    -3
390
F
  0
LAYER
  5
67
330
2
100
AcDbSymbolTableRecord
100
AcDbLayerTableRecord
  2
LAYER-024
 70
     0
 62
     7
  6
Continuous
370
    -3
390
F
  0
LAYER
  5
68
330
2
100
AcDbSymbolTableRecord
100
AcDbLayerTableRecord
  2
LAYER-025
 70
     0
 62
     7
  6
Continuous
370
    -3
390
F
  0
LAYER
  5
69
330
2
100
AcDbSymbolTableRecord
100
AcDbLayerTableRecord
  2
LAYER-026
 70
     0
 62
     7
  6
Continuous
370
    -3
390
F
  0
LAYER
  5
6A
330
2
100
AcDbSymbolTableRecord
100
AcDbLayerTableRecord
  2
LAYER-027
 70
     0
 62
     7
  6
Continuous
370
    -3
390
F
  0
LAYER
  5
6B
330
2
100
AcDbSymbolTableRecord
100
AcDbLayerTableRecord
  2
LAYER-028
 70
     0
 62
     7
  6
Continuous
370
    -3
390
F
  0
LAYER
  5
6C
330
2
100
AcDbSymbolTableRecord
100
AcDbLayerTableRecord
  2
LAYER-029
 70
     0
 62
     7
  6
Continuous
370
    -3
390
F
  0
LAYER
  5
6D
330
2
100
AcDbSymbolTableRecord
100
AcDbLayerTableRecord
  2
LAYER-030
 70
     0
 62
     2
  6
Continuous
370
    -3
390
F
  0
LAYER
  5
6E
330
2
100
AcDbSymbolTableRecord
100
AcDbLayerTableRecord
  2
LAYER-031
 70
     0
 62
     7
  6
Continuous
370
    -3
390
F
  0
LAYER
  5
6F
330
2
100
AcDbSymbolTableRecord
100
AcDbLayerTableRecord
  2
LAYER-032
 70
     0
 62
     2
  6
Continuous
370
    -3
390
F
  0
LAYER
  5
70
330
2
100
AcDbSymbolTableRecord
100
AcDbLayerTableRecord
  2
LAYER-033
 70
     0
 62
     7
  6
Continuous
370
    -3
390
F
  0
LAYER
  5
71
330
2
100
AcDbSymbolTableRecord
100
AcDbLayerTableRecord
  2
LAYER-034
 70
     0
 62
     7
  6
Continuous
370
    -3
390
F
  0
LAYER
  5
72
330
2
100
AcDbSymbolTableRecord
100
AcDbLayerTableRecord
  2
LAYER-035
 70
     0
 62
     3
  6
Continuous
370
    -3
390
F
  0
LAYER
  5
73
330
2
100
AcDbSymbolTableRecord
100
AcDbLayerTableRecord
  2
LAYER-036
 70
     0
 62
     2
  6
Continuous
370
    -3
390
F
  0
LAYER
  5
74
330
2
100
AcDbSymbolTableRecord
100
AcDbLayerTableRecord
  2
LAYER-037
 70
     0
 62
     7
  6
Continuous
370
    -3
390
F
  0
LAYER
  5
75
330
2
100
AcDbSymbolTableRecord
100
AcDbLayerTableRecord
  2
LAYER-038
 70
     0
 62
     7
  6
Continuous
370
    -3
390
F
  0
LAYER
  5
76
330
2
100
AcDbSymbolTableRecord
100
AcDbLayerTableRecord
  2
LAYER-039
 70
     0
 62
     7
  6
Continuous
370
    -3
390
F
  0
LAYER
  5
77
330
2
100
AcDbSymbolTableRecord
100
AcDbLayerTableRecord
  2
LAYER-040
 70
     0
 62
     7
  6
Continuous
370
    -3
390
F
  0
LAYER
  5
78
330
2
100
AcDbSymbolTableRecord
100
AcDbLayerTableRecord
  2
LAYER-041
 70
     0
 62
     7
  6
Continuous
370
    -3
390
F
  0
LAYER
  5
79
330
2
100
AcDbSymbolTableRecord
100
AcDbLayerTableRecord
  2
LAYER-042
 70
     0
 62
     7
  6
Continuous
370
    -3
390
F
  0
LAYER
  5
7A
330
2
100
AcDbSymbolTableRecord
100
AcDbLayerTableRecord
  2
LAYER-043
 70
     0
 62
     7
  6
Continuous
370
    -3
390
F
  0
LAYER
  5
7B
330
2
100
AcDbSymbolTableRecord
100
AcDbLayerTableRecord
  2
LAYER-044
 70
     0
 62
     7
  6
Continuous
370
    -3
390
F
  0
LAYER
  5
7C
330
2
100
AcDbSymbolTableRecord
100
AcDbLayerTableRecord
  2
LAYER-045
 70
     0
 62
     7
  6
Continuous
370
    -3
390
F
  0
LAYER
  5
7D
330
2
100
AcDbSymbolTableRecord
100
AcDbLayerTableRecord
  2
LAYER-046
 70
     0
 62
     7
  6
Continuous
370
    -3
390
F
  0
LAYER
  5
7E
330
2
100
AcDbSymbolTableRecord
100
AcDbLayerTableRecord
  2
LAYER-047
 70
     0
 62
     7
  6
Continuous
370
    -3
390
F
  0
LAYER
  5
7F
330
2
100
AcDbSymbolTableRecord
100
AcDbLayerTableRecord
  2
LAYER-048
 70
     0
 62
     2
  6
Continuous
370
    -3
390
F
  0
LAYER
  5
80
330
2
100
AcDbSymbolTableRecord
100
AcDbLayerTableRecord
  2
LAYER-049
 70
     0
 62
     3
  6
Continuous
370
    -3
390
F
  0
LAYER
  5
81
330
2
100
AcDbSymbolTableRecord
100
AcDbLayerTableRecord
  2
LAYER-050
 70
     0
 62
     7
  6
Continuous
370
    -3
390
F
  0
LAYER
  5
82
330
2
100
AcDbSymbolTableRecord
100
AcDbLayerTableRecord
  2
LAYER-051
 70
     0
 62
     2
  6
Continuous
370
    -3
390
F
  0
LAYER
  5
83
330
2
100
AcDbSymbolTableRecord
100
AcDbLayerTableRecord
  2
LAYER-052
 70
     0
 62
     7
  6
Continuous
370
    -3
390
F
  0
LAYER
  5
84
330
2
100
AcDbSymbolTableRecord
100
AcDbLayerTableRecord
  2
LAYER-053
 70
     0
 62
     7
  6
Continuous
370
    -3
390
F
  0
LAYER
  5
85
330
2
100
AcDbSymbolTableRecord
100
AcDbLayerTableRecord
  2
LAYER-054
 70
     0
 62
     7
  6
Continuous
370
    -3
390
F
  0
LAYER
  5
86
330
2
100
AcDbSymbolTableRecord
100
AcDbLayerTableRecord
  2
LAYER-055
 70
     0
 62
     7
  6
Continuous
370
    -3
390
F
  0
LAYER
  5
87
330
2
100
AcDbSymbolTableRecord
100
AcDbLayerTableRecord
  2
LAYER-056
 70
     0
 62
     7
  6
Continuous
370
    -3
390
F
  0
LAYER
  5
88
330
2
100
AcDbSymbolTableRecord
100
AcDbLayerTableRecord
  2
LAYER-057
 70
     0
 62
     7
  6
Continuous
370
    -3
390
F
  0
LAYER
  5
89
330
2
100
AcDbSymbolTableRecord
100
AcDbLayerTableRecord
  2
LAYER-058
 70
     0
 62
     7
  6
Continuous
370
    -3
390
F
  0
LAYER
  5
8A
330
2
100
AcDbSymbolTableRecord
100
AcDbLayerTableRecord
  2
LAYER-059
 70
     0
 62
     7
  6
Continuous
370
    -3
390
F
  0
LAYER
  5
8B
330
2
100
AcDbSymbolTableRecord
100
AcDbLayerTableRecord
  2
LAYER-060
 70
     0
 62
     7
  6
Continuous
370
    -3
390
F
  0
LAYER
  5
8C
330
2
100
AcDbSymbolTableRecord
100
AcDbLayerTableRecord
  2
LAYER-061
 70
     0
 62
     7
  6
Continuous
370
    -3
390
F
  0
LAYER
  5
8D
330
2
100
AcDbSymbolTableRecord
100
AcDbLayerTableRecord
  2
LAYER-062
 70
     0
 62
     7
  6
Continuous
370
    -3
390
F
  0
LAYER
  5
8E
330
2
100
AcDbSymbolTableRecord
100
AcDbLayerTableRecord
  2
LAYER-063
 70
     0
 62
     7
  6
Continuous
370
    -3
390
F
  0
LAYER
  5
8F
330
2
100
AcDbSymbolTableRecord
100
AcDbLayerTableRecord
  2
LAYER-064
 70
     0
 62
     2
  6
Continuous
370
    -3
390
F
  0
LAYER
  5
90
330
2
100
AcDbSymbolTableRecord
100
AcDbLayerTableRecord
  2
LAYER-065
 70
     0
 62
     7
  6
Continuous
370
    -3
390
F
  0
LAYER
  5
91
330
2
100
AcDbSymbolTableRecord
100
AcDbLayerTableRecord
  2
LAYER-066
 70
     0
 62
     2
  6
Continuous
370
    -3
390
F
  0
LAYER
  5
92
330
2
100
AcDbSymbolTableRecord
100
AcDbLayerTableRecord
  2
LAYER-067
 70
     0
 62
     2
  6
Continuous
370
    -3
390
F
  0
LAYER
  5
93
330
2
100
AcDbSymbolTableRecord
100
AcDbLayerTableRecord
  2
LAYER-068
 70
     0
 62
     7
  6
Continuous
370
    -3
390
F
  0
LAYER
  5
94
330
2
100
AcDbSymbolTableRecord
100
AcDbLayerTableRecord
  2
LAYER-069
 70
     0
 62
     7
  6
Continuous
370
    -3
390
F
  0
LAYER
  5
95
330
2
100
AcDbSymbolTableRecord
100
AcDbLayerTableRecord
  2
LAYER-070
 70
     0
 62
     7
  6
Continuous
370
    -3
390
F
  0
LAYER
  5
96
330
2
100
AcDbSymbolTableRecord
100
AcDbLayerTableRecord
  2
LAYER-071
 70
     0
 62
     7
  6
Continuous
370
    -3
390
F
  0
LAYER
  5
97
330
2
100
AcDbSymbolTableRecord
100
AcDbLayerTableRecord
  2
LAYER-072
 70
     0
 62
     7
  6
Continuous
370
    -3
390
F
  0
LAYER
  5
98
330
2
100
AcDbSymbolTableRecord
100
AcDbLayerTableRecord
  2
LAYER-073
 70
     0
 62
     7
  6
Continuous
370
    -3
390
F
  0
LAYER
  5
99
330
2
100
AcDbSymbolTableRecord
100
AcDbLayerTableRecord
  2
LAYER-074
 70
     0
 62
     7
  6
Continuous
370
    -3
390
F
  0
LAYER
  5
9A
330
2
100
AcDbSymbolTableRecord
100
AcDbLayerTableRecord
  2
LAYER-075
 70
     0
 62
     7
  6
Continuous
370
    -3
390
F
  0
LAYER
  5
9B
330
2
100
AcDbSymbolTableRecord
100
AcDbLayerTableRecord
  2
LAYER-076
 70
     0
 62
     7
  6
Continuous
370
    -3
390
F
  0
LAYER
  5
9C
330
2
100
AcDbSymbolTableRecord
100
AcDbLayerTableRecord
  2
LAYER-077
 70
     0
 62
     7
  6
Continuous
370
    -3
390
F
  0
LAYER
  5
9D
330
2
100
AcDbSymbolTableRecord
100
AcDbLayerTableRecord
  2
LAYER-078
 70
     0
 62
     7
  6
Continuous
370
    -3
390
F
  0
LAYER
  5
9E
330
2
100
AcDbSymbolTableRecord
100
AcDbLayerTableRecord
  2
LAYER-079
 70
     0
 62
     7
  6
Continuous
370
    -3
390
F
  0
LAYER
  5
9F
330
2
100
AcDbSymbolTableRecord
100
AcDbLayerTableRecord
  2
LAYER-080
 70
     0
 62
     2
  6
Continuous
370
    -3
390
F
  0
LAYER
  5
A0
330
2
100
AcDbSymbolTableRecord
100
AcDbLayerTableRecord
  2
LAYER-081
 70
     0
 62
     7
  6
Continuous
370
    -3
390
F
  0
LAYER
  5
A1
330
2
100
AcDbSymbolTableRecord
100
AcDbLayerTableRecord
  2
LAYER-082
 70
     0
 62
     7
  6
Continuous
370
    -3
390
F
  0
LAYER
  5
A2
330
2
100
AcDbSymbolTableRecord
100
AcDbLayerTableRecord
  2
LAYER-083
 70
     0
 62
     7
  6
Continuous
370
    -3
390
F
  0
LAYER
  5
A3
330
2
100
AcDbSymbolTableRecord
100
AcDbLayerTableRecord
  2
LAYER-084
 70
     0
 62
     7
  6
Continuous
370
    -3
390
F
  0
LAYER
  5
A4
330
2
100
AcDbSymbolTableRecord
100
AcDbLayerTableRecord
  2
LAYER-085
 70
     0
 62
     7
  6
Continuous
370
    -3
390
F
  0
LAYER
  5
A5
330
2
100
AcDbSymbolTableRecord
100
AcDbLayerTableRecord
  2
LAYER-086
 70
     0
 62
     7
  6
Continuous
370
    -3
390
F
  0
LAYER
  5
A6
330
2
100
AcDbSymbolTableRecord
100
AcDbLayerTableRecord
  2
LAYER-087
 70
     0
 62
     7
  6
Continuous
370
    -3
390
F
  0
LAYER
  5
A7
330
2
100
AcDbSymbolTableRecord
100
AcDbLayerTableRecord
  2
LAYER-088
 70
     0
 62
     7
  6
Continuous
370
    -3
390
F
  0
LAYER
  5
A8
330
2
100
AcDbSymbolTableRecord
100
AcDbLayerTableRecord
  2
LAYER-089
 70
     0
 62
     7
  6
Continuous
370
    -3
390
F
  0
LAYER
  5
A9
330
2
100
AcDbSymbolTableRecord
100
AcDbLayerTableRecord
  2
LAYER-090
 70
     0
 62
     7
  6
Continuous
370
    -3
390
F
  0
LAYER
  5
AA
330
2
100
AcDbSymbolTableRecord
100
AcDbLayerTableRecord
  2
LAYER-091
 70
     0
 62
     7
  6
Continuous
370
    -3
390
F
  0
LAYER
  5
AB
330
2
100
AcDbSymbolTableRecord
100
AcDbLayerTableRecord
  2
LAYER-092
 70
     0
 62
     7
  6
Continuous
370
    -3
390
F
  0
LAYER
  5
AC
330
2
100
AcDbSymbolTableRecord
100
AcDbLayerTableRecord
  2
LAYER-093
 70
     0
 62
     7
  6
Continuous
370
    -3
390
F
  0
LAYER
  5
AD
330
2
100
AcDbSymbolTableRecord
100
AcDbLayerTableRecord
  2
LAYER-094
 70
     0
 62
     7
  6
Continuous
370
    -3
390
F
  0
LAYER
  5
AE
330
2
100
AcDbSymbolTableRecord
100
AcDbLayerTableRecord
  2
LAYER-095
 70
     0
 62
     7
  6
Continuous
370
    -3
390
F
  0
LAYER
  5
AF
330
2
100
AcDbSymbolTableRecord
100
AcDbLayerTableRecord
  2
LAYER-096
 70
     0
 62
     7
  6
Continuous
370
    -3
390
F
  0
LAYER
  5
B0
330
2
100
AcDbSymbolTableRecord
100
AcDbLayerTableRecord
  2
LAYER-097
 70
     0
 62
     7
  6
Continuous
370
    -3
390
F
  0
LAYER
  5
B1
330
2
100
AcDbSymbolTableRecord
100
AcDbLayerTableRecord
  2
LAYER-098
 70
     0
 62
     7
  6
Continuous
370
    -3
390
F
  0
LAYER
  5
B2
330
2
100
AcDbSymbolTableRecord
100
AcDbLayerTableRecord
  2
LAYER-099
 70
     0
 62
     7
  6
Continuous
370
    -3
390
F
  0
LAYER
  5
B3
330
2
100
AcDbSymbolTableRecord
100
AcDbLayerTableRecord
  2
LAYER-100
 70
     0
 62
     7
  6
Continuous
370
    -3
390
F
  0
LAYER
  5
B4
330
2
100
AcDbSymbolTableRecord
100
AcDbLayerTableRecord
  2
LAYER-101
 70
     0
 62
     7
  6
Continuous
370
    -3
390
F
  0
LAYER
  5
B5
330
2
100
AcDbSymbolTableRecord
100
AcDbLayerTableRecord
  2
LAYER-102
 70
     0
 62
     7
  6
Continuous
370
    -3
390
F
  0
LAYER
  5
B6
330
2
100
AcDbSymbolTableRecord
100
AcDbLayerTableRecord
  2
LAYER-103
 70
     0
 62
     7
  6
Continuous
370
    -3
390
F
  0
LAYER
  5
B7
330
2
100
AcDbSymbolTableRecord
100
AcDbLayerTableRecord
  2
LAYER-104
 70
     0
 62
     7
  6
Continuous
370
    -3
390
F
  0
LAYER
  5
B8
330
2
100
AcDbSymbolTableRecord
100
AcDbLayerTableRecord
  2
LAYER-105
 70
     0
 62
     7
  6
Continuous
370
    -3
390
F
  0
LAYER
  5
B9
330
2
100
AcDbSymbolTableRecord
100
AcDbLayerTableRecord
  2
LAYER-106
 70
     0
 62
     7
  6
Continuous
370
    -3
390
F
  0
LAYER
  5
BA
330
2
100
AcDbSymbolTableRecord
100
AcDbLayerTableRecord
  2
LAYER-107
 70
     0
 62
     7
  6
Continuous
370
    -3
390
F
  0
LAYER
  5
BB
330
2
100
AcDbSymbolTableRecord
100
AcDbLayerTableRecord
  2
LAYER-108
 70
     0
 62
     7
  6
Continuous
370
    -3
390
F
  0
LAYER
  5
BC
330
2
100
AcDbSymbolTableRecord
100
AcDbLayerTableRecord
  2
LAYER-109
 70
     0
 62
     7
  6
Continuous
370
    -3
390
F
  0
LAYER
  5
BD
330
2
100
AcDbSymbolTableRecord
100
AcDbLayerTableRecord
  2
LAYER-110
 70
     0
 62
     7
  6
Continuous
370
    -3
390
F
  0
LAYER
  5
BE
330
2
100
AcDbSymbolTableRecord
100
AcDbLayerTableRecord
  2
LAYER-111
 70
     0
 62
     7
  6
Continuous
370
    -3
390
F
  0
LAYER
  5
BF
330
2
100
AcDbSymbolTableRecord
100
AcDbLayerTableRecord
  2
LAYER-112
 70
     0
 62
     7
  6
Continuous
370
    -3
390
F
  0
LAYER
  5
C0
330
2
100
AcDbSymbolTableRecord
100
AcDbLayerTableRecord
  2
LAYER-113
 70
     0
 62
     7
  6
Continuous
370
    -3
390
F
  0
LAYER
  5
C1
330
2
100
AcDbSymbolTableRecord
100
AcDbLayerTableRecord
  2
LAYER-114
 70
     0
 62
     7
  6
Continuous
370
    -3
390
F
  0
LAYER
  5
C2
330
2
100
AcDbSymbolTableRecord
100
AcDbLayerTableRecord
  2
LAYER-115
 70
     0
 62
     7
  6
Continuous
370
    -3
390
F
  0
LAYER
  5
C3
330
2
100
AcDbSymbolTableRecord
100
AcDbLayerTableRecord
  2
LAYER-116
 70
     0
 62
     7
  6
Continuous
370
    -3
390
F
  0
LAYER
  5
C4
330
2
100
AcDbSymbolTableRecord
100
AcDbLayerTableRecord
  2
LAYER-117
 70
     0
 62
     7
  6
Continuous
370
    -3
390
F
  0
LAYER
  5
C5
330
2
100
AcDbSymbolTableRecord
100
AcDbLayerTableRecord
  2
LAYER-118
 70
     0
 62
     7
  6
Continuous
370
    -3
390
F
  0
LAYER
  5
C6
330
2
100
AcDbSymbolTableRecord
100
AcDbLayerTableRecord
  2
LAYER-119
 70
     0
 62
     7
  6
Continuous
370
    -3
390
F
  0
LAYER
  5
C7
330
2
100
AcDbSymbolTableRecord
100
AcDbLayerTableRecord
  2
LAYER-120
 70
     0
 62
     7
  6
Continuous
370
    -3
390
F
  0
LAYER
  5
C8
330
2
100
AcDbSymbolTableRecord
100
AcDbLayerTableRecord
  2
LAYER-121
 70
     0
 62
     7
  6
Continuous
370
    -3
390
F
  0
LAYER
  5
C9
330
2
100
AcDbSymbolTableRecord
100
AcDbLayerTableRecord
  2
LAYER-122
 70
     0
 62
     7
  6
Continuous
370
    -3
390
F
  0
LAYER
  5
CA
330
2
100
AcDbSymbolTableRecord
100
AcDbLayerTableRecord
  2
LAYER-123
 70
     0
 62
     7
  6
Continuous
370
    -3
390
F
  0
LAYER
  5
CB
330
2
100
AcDbSymbolTableRecord
100
AcDbLayerTableRecord
  2
LAYER-124
 70
     0
 62
     7
  6
Continuous
370
    -3
390
F
  0
LAYER
  5
CC
330
2
100
AcDbSymbolTableRecord
100
AcDbLayerTableRecord
  2
LAYER-125
 70
     0
 62
     7
  6
Continuous
370
    -3
390
F
  0
LAYER
  5
CD
330
2
100
AcDbSymbolTableRecord
100
AcDbLayerTableRecord
  2
LAYER-126
 70
     0
 62
     7
  6
Continuous
370
    -3
390
F
  0
LAYER
  5
CE
330
2
100
AcDbSymbolTableRecord
100
AcDbLayerTableRecord
  2
LAYER-127
 70
     0
 62
     7
  6
Continuous
370
    -3
390
F
  0
LAYER
  5
CF
330
2
100
AcDbSymbolTableRecord
100
AcDbLayerTableRecord
  2
LAYER-128
 70
     0
 62
     7
  6
Continuous
370
    -3
390
F
  0
LAYER
  5
D0
330
2
100
AcDbSymbolTableRecord
100
AcDbLayerTableRecord
  2
LAYER-129
 70
     0
 62
     7
  6
Continuous
370
    -3
390
F
  0
LAYER
  5
D1
330
2
100
AcDbSymbolTableRecord
100
AcDbLayerTableRecord
  2
LAYER-130
 70
     0
 62
     7
  6
Continuous
370
    -3
390
F
  0
LAYER
  5
D2
330
2
100
AcDbSymbolTableRecord
100
AcDbLayerTableRecord
  2
LAYER-131
 70
     0
 62
     7
  6
Continuous
370
    -3
390
F
  0
LAYER
  5
D3
330
2
100
AcDbSymbolTableRecord
100
AcDbLayerTableRecord
  2
LAYER-132
 70
     0
 62
     7
  6
Continuous
370
    -3
390
F
  0
LAYER
  5
D4
330
2
100
AcDbSymbolTableRecord
100
AcDbLayerTableRecord
  2
LAYER-133
 70
     0
 62
     7
  6
Continuous
370
    -3
390
F
  0
LAYER
  5
D5
330
2
100
AcDbSymbolTableRecord
100
AcDbLayerTableRecord
  2
LAYER-134
 70
     0
 62
     7
  6
Continuous
370
    -3
390
F
  0
LAYER
  5
D6
330
2
100
AcDbSymbolTableRecord
100
AcDbLayerTableRecord
  2
LAYER-135
 70
     0
 62
     4
  6
Continuous
370
    -3
390
F
  0
LAYER
  5
D7
330
2
100
AcDbSymbolTableRecord
100
AcDbLayerTableRecord
  2
LAYER-136
 70
     0
 62
     3
  6
Continuous
370
    -3
390
F
  0
LAYER
  5
D8
330
2
100
AcDbSymbolTableRecord
100
AcDbLayerTableRecord
  2
LAYER-137
 70
     0
 62
     1
  6
Continuous
370
    -3
390
F
  0
LAYER
  5
D9
330
2
100
AcDbSymbolTableRecord
100
AcDbLayerTableRecord
  2
LAYER-138
 70
     0
 62
     7
  6
Continuous
370
    -3
390
F
  0
LAYER
  5
DA
330
2
100
AcDbSymbolTableRecord
100
AcDbLayerTableRecord
  2
LAYER-139
 70
     0
 62
     7
  6
Continuous
370
    -3
390
F
  0
LAYER
  5
DB
330
2
100
AcDbSymbolTableRecord
100
AcDbLayerTableRecord
  2
LAYER-140
 70
     0
 62
     7
  6
Continuous
370
    -3
390
F
  0
LAYER
  5
DC
330
2
100
AcDbSymbolTableRecord
100
AcDbLayerTableRecord
  2
LAYER-141
 70
     0
 62
     7
  6
Continuous
370
    -3
390
F
  0
LAYER
  5
DD
330
2
100
AcDbSymbolTableRecord
100
AcDbLayerTableRecord
  2
LAYER-142
 70
     0
 62
     3
  6
Continuous
370
    -3
390
F
  0
LAYER
  5
DE
330
2
100
AcDbSymbolTableRecord
100
AcDbLayerTableRecord
  2
LAYER-143
 70
     0
 62
     7
  6
Continuous
370
    -3
390
F
  0
LAYER
  5
DF
330
2
100
AcDbSymbolTableRecord
100
AcDbLayerTableRecord
  2
LAYER-144
 70
     0
 62
     7
  6
Continuous
370
    -3
390
F
  0
LAYER
  5
E0
330
2
100
AcDbSymbolTableRecord
100
AcDbLayerTableRecord
  2
LAYER-145
 70
     0
 62
     3
  6
Continuous
370
    -3
390
F
  0
LAYER
  5
E1
330
2
100
AcDbSymbolTableRecord
100
AcDbLayerTableRecord
  2
LAYER-146
 70
     0
 62
     7
  6
Continuous
370
    -3
390
F
  0
LAYER
  5
E2
330
2
100
AcDbSymbolTableRecord
100
AcDbLayerTableRecord
  2
LAYER-147
 70
     0
 62
     7
  6
Continuous
370
    -3
390
F
  0
LAYER
  5
E3
330
2
100
AcDbSymbolTableRecord
100
AcDbLayerTableRecord
  2
LAYER-148
 70
     0
 62
     7
  6
Continuous
370
    -3
390
F
  0
LAYER
  5
E4
330
2
100
AcDbSymbolTableRecord
100
AcDbLayerTableRecord
  2
LAYER-149
 70
     0
 62
     7
  6
Continuous
370
    -3
390
F
  0
LAYER
  5
E5
330
2
100
AcDbSymbolTableRecord
100
AcDbLayerTableRecord
  2
LAYER-150
 70
     0
 62
     7
  6
Continuous
370
    -3
390
F
  0
LAYER
  5
E6
330
2
100
AcDbSymbolTableRecord
100
AcDbLayerTableRecord
  2
LAYER-151
 70
     0
 62
     7
  6
Continuous
370
    -3
390
F
  0
LAYER
  5
E7
330
2
100
AcDbSymbolTableRecord
100
AcDbLayerTableRecord
  2
LAYER-152
 70
     0
 62
     7
  6
Continuous
370
    -3
390
F
  0
LAYER
  5
E8
330
2
100
AcDbSymbolTableRecord
100
AcDbLayerTableRecord
  2
LAYER-153
 70
     0
 62
     7
  6
Continuous
370
    -3
390
F
  0
LAYER
  5
E9
330
2
100
AcDbSymbolTableRecord
100
AcDbLayerTableRecord
  2
LAYER-154
 70
     0
 62
     7
  6
Continuous
370
    -3
390
F
  0
LAYER
  5
EA
330
2
100
AcDbSymbolTableRecord
100
AcDbLayerTableRecord
  2
LAYER-155
 70
     0
 62
     7
  6
Continuous
370
    -3
390
F
  0
LAYER
  5
EB
330
2
100
AcDbSymbolTableRecord
100
AcDbLayerTableRecord
  2
LAYER-156
 70
     0
 62
     7
  6
Continuous
370
    -3
390
F
  0
LAYER
  5
EC
330
2
100
AcDbSymbolTableRecord
100
AcDbLayerTableRecord
  2
LAYER-157
 70
     0
 62
     7
  6
Continuous
370
    -3
390
F
  0
LAYER
  5
ED
330
2
100
AcDbSymbolTableRecord
100
AcDbLayerTableRecord
  2
LAYER-158
 70
     0
 62
     7
  6
Continuous
370
    -3
390
F
  0
LAYER
  5
EE
330
2
100
AcDbSymbolTableRecord
100
AcDbLayerTableRecord
  2
LAYER-159
 70
     0
 62
     7
  6
Continuous
370
    -3
390
F
  0
LAYER
  5
EF
330
2
100
AcDbSymbolTableRecord
100
AcDbLayerTableRecord
  2
LAYER-160
 70
     0
 62
     7
  6
Continuous
370
    -3
390
F
  0
LAYER
  5
F0
330
2
100
AcDbSymbolTableRecord
100
AcDbLayerTableRecord
  2
LAYER-161
 70
     0
 62
     7
  6
Continuous
370
    -3
390
F
  0
LAYER
  5
F1
330
2
100
AcDbSymbolTableRecord
100
AcDbLayerTableRecord
  2
LAYER-162
 70
     0
 62
     7
  6
Continuous
370
    -3
390
F
  0
LAYER
  5
F2
330
2
100
AcDbSymbolTableRecord
100
AcDbLayerTableRecord
  2
LAYER-163
 70
     0
 62
     7
  6
Continuous
370
    -3
390
F
  0
LAYER
  5
F3
330
2
100
AcDbSymbolTableRecord
100
AcDbLayerTableRecord
  2
LAYER-164
 70
     0
 62
     7
  6
Continuous
370
    -3
390
F
  0
LAYER
  5
F4
330
2
100
AcDbSymbolTableRecord
100
AcDbLayerTableRecord
  2
LAYER-165
 70
     0
 62
     7
  6
Continuous
370
    -3
390
F
  0
LAYER
  5
F5
330
2
100
AcDbSymbolTableRecord
100
AcDbLayerTableRecord
  2
LAYER-166
 70
     0
 62
     7
  6
Continuous
370
    -3
390
F
  0
LAYER
  5
F6
330
2
100
AcDbSymbolTableRecord
100
AcDbLayerTableRecord
  2
LAYER-167
 70
     0
 62
     7
  6
Continuous
370
    -3
390
F
  0
LAYER
  5
F7
330
2
100
AcDbSymbolTableRecord
100
AcDbLayerTableRecord
  2
LAYER-168
 70
     0
 62
     7
  6
Continuous
370
    -3
390
F
  0
LAYER
  5
F8
330
2
100
AcDbSymbolTableRecord
100
AcDbLayerTableRecord
  2
LAYER-169
 70
     0
 62
     7
  6
Continuous
370
    -3
390
F
  0
LAYER
  5
F9
330
2
100
AcDbSymbolTableRecord
100
AcDbLayerTableRecord
  2
LAYER-170
 70
     0
 62
     7
  6
Continuous
370
    -3
390
F
  0
LAYER
  5
FA
330
2
100
AcDbSymbolTableRecord
100
AcDbLayerTableRecord
  2
LAYER-171
 70
     0
 62
     7
  6
Continuous
370
    -3
390
F
  0
LAYER
  5
FB
330
2
100
AcDbSymbolTableRecord
100
AcDbLayerTableRecord
  2
LAYER-172
 70
     0
 62
     7
  6
Continuous
370
    -3
390
F
  0
LAYER
  5
FC
330
2
100
AcDbSymbolTableRecord
100
AcDbLayerTableRecord
  2
LAYER-173
 70
     0
 62
     7
  6
Continuous
370
    -3
390
F
  0
LAYER
  5
FD
330
2
100
AcDbSymbolTableRecord
100
AcDbLayerTableRecord
  2
LAYER-174
 70
     0
 62
     7
  6
Continuous
370
    -3
390
F
  0
LAYER
  5
FE
330
2
100
AcDbSymbolTableRecord
100
AcDbLayerTableRecord
  2
LAYER-175
 70
     0
 62
     7
  6
Continuous
370
    -3
390
F
  0
LAYER
  5
FF
330
2
100
AcDbSymbolTableRecord
100
AcDbLayerTableRecord
  2
LAYER-176
 70
     0
 62
     7
  6
Continuous
370
    -3
390
F
  0
LAYER
  5
100
330
2
100
AcDbSymbolTableRecord
100
AcDbLayerTableRecord
  2
LAYER-177
 70
     0
 62
     7
  6
Continuous
370
    -3
390
F
  0
LAYER
  5
101
330
2
100
AcDbSymbolTableRecord
100
AcDbLayerTableRecord
  2
LAYER-178
 70
     0
 62
     7
  6
Continuous
370
    -3
390
F
  0
LAYER
  5
102
330
2
100
AcDbSymbolTableRecord
100
AcDbLayerTableRecord
  2
LAYER-179
 70
     0
 62
     7
  6
Continuous
370
    -3
390
F
  0
LAYER
  5
103
330
2
100
AcDbSymbolTableRecord
100
AcDbLayerTableRecord
  2
LAYER-180
 70
     0
 62
     7
  6
Continuous
370
    -3
390
F
  0
LAYER
  5
104
330
2
100
AcDbSymbolTableRecord
100
AcDbLayerTableRecord
  2
LAYER-181
 70
     0
 62
     7
  6
Continuous
370
    -3
390
F
  0
LAYER
  5
105
330
2
100
AcDbSymbolTableRecord
100
AcDbLayerTableRecord
  2
LAYER-182
 70
     0
 62
     7
  6
Continuous
370
    -3
390
F
  0
LAYER
  5
106
330
2
100
AcDbSymbolTableRecord
100
AcDbLayerTableRecord
  2
LAYER-183
 70
     0
 62
     7
  6
Continuous
370
    -3
390
F
  0
LAYER
  5
107
330
2
100
AcDbSymbolTableRecord
100
AcDbLayerTableRecord
  2
LAYER-184
 70
     0
 62
     7
  6
Continuous
370
    -3
390
F
  0
LAYER
  5
108
330
2
100
AcDbSymbolTableRecord
100
AcDbLayerTableRecord
  2
LAYER-185
 70
     0
 62
     7
  6
Continuous
370
    -3
390
F
  0
LAYER
  5
109
330
2
100
AcDbSymbolTableRecord
100
AcDbLayerTableRecord
  2
LAYER-186
 70
     0
 62
     7
  6
Continuous
370
    -3
390
F
  0
LAYER
  5
10A
330
2
100
AcDbSymbolTableRecord
100
AcDbLayerTableRecord
  2
LAYER-187
 70
     0
 62
     7
  6
Continuous
370
    -3
390
F
  0
LAYER
  5
10B
330
2
100
AcDbSymbolTableRecord
100
AcDbLayerTableRecord
  2
LAYER-188
 70
     0
 62
     7
  6
Continuous
370
    -3
390
F
  0
LAYER
  5
10C
330
2
100
AcDbSymbolTableRecord
100
AcDbLayerTableRecord
  2
LAYER-189
 70
     0
 62
     7
  6
Continuous
370
    -3
390
F
  0
LAYER
  5
10D
330
2
100
AcDbSymbolTableRecord
100
AcDbLayerTableRecord
  2
LAYER-190
 70
     0
 62
     7
  6
Continuous
370
    -3
390
F
  0
LAYER
  5
10E
330
2
100
AcDbSymbolTableRecord
100
AcDbLayerTableRecord
  2
LAYER-191
 70
     0
 62
     7
  6
Continuous
370
    -3
390
F
  0
LAYER
  5
10F
330
2
100
AcDbSymbolTableRecord
100
AcDbLayerTableRecord
  2
LAYER-192
 70
     0
 62
     7
  6
Continuous
370
    -3
390
F
  0
LAYER
  5
110
330
2
100
AcDbSymbolTableRecord
100
AcDbLayerTableRecord
  2
LAYER-193
 70
     0
 62
     7
  6
Continuous
370
    -3
390
F
  0
LAYER
  5
111
330
2
100
AcDbSymbolTableRecord
100
AcDbLayerTableRecord
  2
LAYER-194
 70
     0
 62
     2
  6
Continuous
370
    -3
390
F
  0
LAYER
  5
112
330
2
100
AcDbSymbolTableRecord
100
AcDbLayerTableRecord
  2
LAYER-195
 70
     0
 62
     2
  6
Continuous
370
    -3
390
F
  0
LAYER
  5
113
330
2
100
AcDbSymbolTableRecord
100
AcDbLayerTableRecord
  2
LAYER-196
 70
     0
 62
     2
  6
Continuous
370
    -3
390
F
  0
LAYER
  5
114
330
2
100
AcDbSymbolTableRecord
100
AcDbLayerTableRecord
  2
LAYER-197
 70
     0
 62
     7
  6
Continuous
370
    -3
390
F
  0
LAYER
  5
115
330
2
100
AcDbSymbolTableRecord
100
AcDbLayerTableRecord
  2
LAYER-198
 70
     0
 62
     7
  6
Continuous
370
    -3
390
F
  0
LAYER
  5
116
330
2
100
AcDbSymbolTableRecord
100
AcDbLayerTableRecord
  2
LAYER-199
 70
     0
 62
     4
  6
Continuous
370
    -3
390
F
  0
LAYER
  5
117
330
2
100
AcDbSymbolTableRecord
100
AcDbLayerTableRecord
  2
LAYER-200
 70
     0
 62
     1
  6
Continuous
370
    -3
390
F
  0
LAYER
  5
118
330
2
100
AcDbSymbolTableRecord
100
AcDbLayerTableRecord
  2
LAYER-201
 70
     0
 62
     1
  6
Continuous
370
    -3
390
F
  0
LAYER
  5
119
330
2
100
AcDbSymbolTableRecord
100
AcDbLayerTableRecord
  2
LAYER-202
 70
     0
 62
     2
  6
Continuous
370
    -3
390
F
  0
LAYER
  5
11A
330
2
100
AcDbSymbolTableRecord
100
AcDbLayerTableRecord
  2
LAYER-203
 70
     0
 62
     2
  6
Continuous
370
    -3
390
F
  0
LAYER
  5
11B
330
2
100
AcDbSymbolTableRecord
100
AcDbLayerTableRecord
  2
LAYER-204
 70
     0
 62
     7
  6
Continuous
370
    -3
390
F
  0
LAYER
  5
11C
330
2
100
AcDbSymbolTableRecord
100
AcDbLayerTableRecord
  2
LAYER-205
 70
     0
 62
     7
  6
Continuous
370
    -3
390
F
  0
LAYER
  5
11D
330
2
100
AcDbSymbolTableRecord
100
AcDbLayerTableRecord
  2
LAYER-206
 70
     0
 62
     7
  6
Continuous
370
    -3
390
F
  0
LAYER
  5
11E
330
2
100
AcDbSymbolTableRecord
100
AcDbLayerTableRecord
  2
LAYER-207
 70
     0
 62
    -7
  6
Continuous
370
    -3
390
F
  0
LAYER
  5
11F
330
2
100
AcDbSymbolTableRecord
100
AcDbLayerTableRecord
  2
LAYER-208
 70
     0
 62
     2
  6
Continuous
370
    -3
390
F
  0
LAYER
  5
120
330
2
100
AcDbSymbolTableRecord
100
AcDbLayerTableRecord
  2
LAYER-209
 70
     0
 62
     7
  6
Continuous
370
    -3
390
F
  0
LAYER
  5
121
330
2
100
AcDbSymbolTableRecord
100
AcDbLayerTableRecord
  2
LAYER-210
 70
     0
 62
     2
  6
Continuous
370
    -3
390
F
  0
LAYER
  5
122
330
2
100
AcDbSymbolTableRecord
100
AcDbLayerTableRecord
  2
LAYER-211
 70
     0
 62
     7
  6
Continuous
370
    -3
390
F
  0
LAYER
  5
123
330
2
100
AcDbSymbolTableRecord
100
AcDbLayerTableRecord
  2
LAYER-212
 70
     0
 62
     7
  6
Continuous
370
    -3
390
F
  0
LAYER
  5
124
330
2
100
AcDbSymbolTableRecord
100
AcDbLayerTableRecord
  2
LAYER-213
 70
     0
 62
     2
  6
Continuous
370
    -3
390
F
  0
LAYER
  5
125
330
2
100
AcDbSymbolTableRecord
100
AcDbLayerTableRecord
  2
LAYER-214
 70
     0
 62
     7
  6
Continuous
370
    -3
390
F
  0
LAYER
  5
126
330
2
100
AcDbSymbolTableRecord
100
AcDbLayerTableRecord
  2
LAYER-215
 70
     0
 62
     7
  6
Continuous
370
    -3
390
F
  0
LAYER
  5
127
330
2
100
AcDbSymbolTableRecord
100
AcDbLayerTableRecord
  2
LAYER-216
 70
     0
 62
     4
  6
Continuous
370
    -3
390
F
  0
LAYER
  5
128
330
2
100
AcDbSymbolTableRecord
100
AcDbLayerTableRecord
  2
LAYER-217
 70
     0
 62
     7
  6
Continuous
370
    -3
390
F
  0
LAYER
  5
129
330
2
100
AcDbSymbolTableRecord
100
AcDbLayerTableRecord
  2
LAYER-218
 70
     0
 62
     7
  6
Continuous
370
    -3
390
F
  0
LAYER
  5
12A
330
2
100
AcDbSymbolTableRecord
100
AcDbLayerTableRecord
  2
LAYER-219
 70
     0
 62
     7
  6
Continuous
370
    -3
390
F
  0
LAYER
  5
12B
330
2
100
AcDbSymbolTableRecord
100
AcDbLayerTableRecord
  2
LAYER-220
 70
     0
 62
     4
  6
Continuous
370
    -3
390
F
  0
LAYER
  5
12C
330
2
100
AcDbSymbolTableRecord
100
AcDbLayerTableRecord
  2
LAYER-221
 70
     0
 62
     7
  6
Continuous
370
    -3
390
F
  0
LAYER
  5
12D
330
2
100
AcDbSymbolTableRecord
100
AcDbLayerTableRecord
  2
LAYER-222
 70
     0
 62
     4
  6
Continuous
370
    -3
390
F
  0
LAYER
  5
12E
330
2
100
AcDbSymbolTableRecord
100
AcDbLayerTableRecord
  2
LAYER-223
 70
     0
 62
     1
  6
Continuous
370
    -3
390
F
  0
LAYER
  5
12F
330
2
100
AcDbSymbolTableRecord
100
AcDbLayerTableRecord
  2
LAYER-224
 70
     0
 62
     1
  6
Continuous
370
    -3
390
F
  0
LAYER
  5
130
330
2
100
AcDbSymbolTableRecord
100
AcDbLayerTableRecord
  2
LAYER-225
 70
     0
 62
     7
  6
Continuous
370
    -3
390
F
  0
LAYER
  5
131
330
2
100
AcDbSymbolTableRecord
100
AcDbLayerTableRecord
  2
LAYER-226
 70
     0
 62
     2
  6
Continuous
370
    -3
390
F
  0
LAYER
  5
132
330
2
100
AcDbSymbolTableRecord
100
AcDbLayerTableRecord
  2
LAYER-227
 70
     0
 62
     7
  6
Continuous
370
    -3
390
F
  0
LAYER
  5
133
330
2
100
AcDbSymbolTableRecord
100
AcDbLayerTableRecord
  2
LAYER-228
 70
     0
 62
     7
  6
Continuous
370
    -3
390
F
  0
LAYER
  5
134
330
2
100
AcDbSymbolTableRecord
100
AcDbLayerTableRecord
  2
LAYER-229
 70
     0
 62
     7
  6
Continuous
370
    -3
390
F
  0
LAYER
  5
135
330
2
100
AcDbSymbolTableRecord
100
AcDbLayerTableRecord
  2
LAYER-230
 70
     0
 62
     7
  6
Continuous
370
    -3
390
F
  0
LAYER
  5
136
330
2
100
AcDbSymbolTableRecord
100
AcDbLayerTableRecord
  2
LAYER-231
 70
     0
 62
     7
  6
Continuous
370
    -3
390
F
  0
LAYER
  5
137
330
2
100
AcDbSymbolTableRecord
100
AcDbLayerTableRecord
  2
LAYER-232
 70
     0
 62
     7
  6
Continuous
370
    -3
390
F
  0
LAYER
  5
138
330
2
100
AcDbSymbolTableRecord
100
AcDbLayerTableRecord
  2
LAYER-233
 70
     0
 62
     7
  6
Continuous
370
    -3
390
F
  0
LAYER
  5
139
330
2
100
AcDbSymbolTableRecord
100
AcDbLayerTableRecord
  2
LAYER-234
 70
     0
 62
     7
  6
Continuous
370
    -3
390
F
  0
LAYER
  5
13A
330
2
100
AcDbSymbolTableRecord
100
AcDbLayerTableRecord
  2
LAYER-235
 70
     0
 62
     7
  6
Continuous
370
    -3
390
F
  0
LAYER
  5
13B
330
2
100
AcDbSymbolTableRecord
100
AcDbLayerTableRecord
  2
LAYER-236
 70
     0
 62
     7
  6
Continuous
370
    -3
390
F
  0
LAYER
  5
13C
330
2
100
AcDbSymbolTableRecord
100
AcDbLayerTableRecord
  2
LAYER-237
 70
     0
 62
     7
  6
Continuous
370
    -3
390
F
  0
LAYER
  5
13D
330
2
100
AcDbSymbolTableRecord
100
AcDbLayerTableRecord
  2
LAYER-238
 70
     0
 62
     7
  6
Continuous
370
    -3
390
F
  0
LAYER
  5
13E
330
2
100
AcDbSymbolTableRecord
100
AcDbLayerTableRecord
  2
LAYER-239
 70
     0
 62
     7
  6
Continuous
370
    -3
390
F
  0
LAYER
  5
13F
330
2
100
AcDbSymbolTableRecord
100
AcDbLayerTableRecord
  2
LAYER-240
 70
     0
 62
     7
  6
Continuous
370
    -3
390
F
  0
LAYER
  5
140
330
2
100
AcDbSymbolTableRecord
100
AcDbLayerTableRecord
  2
LAYER-241
 70
     0
 62
     7
  6
Continuous
370
    -3
390
F
  0
LAYER
  5
141
330
2
100
AcDbSymbolTableRecord
100
AcDbLayerTableRecord
  2
LAYER-242
 70
     0
 62
     7
  6
Continuous
370
    -3
390
F
  0
LAYER
  5
142
330
2
100
AcDbSymbolTableRecord
100
AcDbLayerTableRecord
  2
LAYER-243
 70
     0
 62
     7
  6
Continuous
370
    -3
390
F
  0
LAYER
  5
143
330
2
100
AcDbSymbolTableRecord
100
AcDbLayerTableRecord
  2
LAYER-244
 70
     0
 62
     7
  6
Continuous
370
    -3
390
F
  0
LAYER
  5
144
330
2
100
AcDbSymbolTableRecord
100
AcDbLayerTableRecord
  2
LAYER-245
 70
     0
 62
     7
  6
Continuous
370
    -3
390
F
  0
LAYER
  5
145
330
2
100
AcDbSymbolTableRecord
100
AcDbLayerTableRecord
  2
LAYER-246
 70
     0
 62
     7
  6
Continuous
370
    -3
390
F
  0
LAYER
  5
146
330
2
100
AcDbSymbolTableRecord
100
AcDbLayerTableRecord
  2
LAYER-247
 70
     0
 62
     7
  6
Continuous
370
    -3
390
F
  0
LAYER
  5
147
330
2
100
AcDbSymbolTableRecord
100
AcDbLayerTableRecord
  2
LAYER-248
 70
     0
 62
     7
  6
Continuous
370
    -3
390
F
  0
LAYER
  5
148
330
2
100
AcDbSymbolTableRecord
100
AcDbLayerTableRecord
  2
LAYER-249
 70
     0
 62
     7
  6
Continuous
370
    -3
390
F
  0
LAYER
  5
149
330
2
100
AcDbSymbolTableRecord
100
AcDbLayerTableRecord
  2
LAYER-250
 70
     0
 62
     7
  6
Continuous
370
    -3
390
F
  0
LAYER
  5
14A
330
2
100
AcDbSymbolTableRecord
100
AcDbLayerTableRecord
  2
LAYER-251
 70
     0
 62
     7
  6
Continuous
370
    -3
390
F
  0
LAYER
  5
14B
330
2
100
AcDbSymbolTableRecord
100
AcDbLayerTableRecord
  2
LAYER-252
 70
     0
 62
     7
  6
Continuous
370
    -3
390
F
  0
LAYER
  5
14C
330
2
100
AcDbSymbolTableRecord
100
AcDbLayerTableRecord
  2
LAYER-253
 70
     0
 62
     7
  6
Continuous
370
    -3
390
F
  0
LAYER
  5
14D
330
2
100
AcDbSymbolTableRecord
100
AcDbLayerTableRecord
  2
LAYER-254
 70
     0
 62
     7
  6
Continuous
370
    -3
390
F
  0
LAYER
  5
14E
330
2
100
AcDbSymbolTableRecord
100
AcDbLayerTableRecord
  2
LAYER-255
 70
     0
 62
     7
  6
Continuous
370
    -3
390
F
  0
LAYER
  5
14F
330
2
100
AcDbSymbolTableRecord
100
AcDbLayerTableRecord
  2
LAYER-256
 70
     0
 62
     7
  6
Continuous
370
    -3
390
F
  0
LAYER
  5
150
330
2
100
AcDbSymbolTableRecord
100
AcDbLayerTableRecord
  2
SUPLINE
 70
     0
 62
    -7
  6
Continuous
290
     0
370
    -3
390
F
  0
LAYER
  5
151
330
2
100
AcDbSymbolTableRecord
100
AcDbLayerTableRecord
  2
FRAMELAYER-001
 70
     0
 62
     7
  6
Continuous
370
    -3
390
F
  0
LAYER
  5
152
330
2
100
AcDbSymbolTableRecord
100
AcDbLayerTableRecord
  2
FRAMELAYER-002
 70
     0
 62
     7
  6
Continuous
370
    -3
390
F
  0
LAYER
  5
153
330
2
100
AcDbSymbolTableRecord
100
AcDbLayerTableRecord
  2
FRAMELAYER-003
 70
     0
 62
     7
  6
Continuous
370
    -3
390
F
  0
LAYER
  5
154
330
2
100
AcDbSymbolTableRecord
100
AcDbLayerTableRecord
  2
FRAMELAYER-004
 70
     0
 62
     7
  6
Continuous
370
    -3
390
F
  0
LAYER
  5
155
330
2
100
AcDbSymbolTableRecord
100
AcDbLayerTableRecord
  2
FRAMELAYER-005
 70
     0
 62
     7
  6
Continuous
370
    -3
390
F
  0
LAYER
  5
156
330
2
100
AcDbSymbolTableRecord
100
AcDbLayerTableRecord
  2
FRAMELAYER-006
 70
     0
 62
     7
  6
Continuous
370
    -3
390
F
  0
LAYER
  5
157
330
2
100
AcDbSymbolTableRecord
100
AcDbLayerTableRecord
  2
FRAMELAYER-007
 70
     0
 62
     7
  6
Continuous
370
    -3
390
F
  0
LAYER
  5
158
330
2
100
AcDbSymbolTableRecord
100
AcDbLayerTableRecord
  2
FRAMELAYER-008
 70
     0
 62
     7
  6
Continuous
370
    -3
390
F
  0
LAYER
  5
159
330
2
100
AcDbSymbolTableRecord
100
AcDbLayerTableRecord
  2
FRAMELAYER-009
 70
     0
 62
     7
  6
Continuous
370
    -3
390
F
  0
LAYER
  5
15A
330
2
100
AcDbSymbolTableRecord
100
AcDbLayerTableRecord
  2
FRAMELAYER-010
 70
     0
 62
     7
  6
Continuous
370
    -3
390
F
  0
LAYER
  5
15B
330
2
100
AcDbSymbolTableRecord
100
AcDbLayerTableRecord
  2
FRAMELAYER-011
 70
     0
 62
     7
  6
Continuous
370
    -3
390
F
  0
LAYER
  5
15C
330
2
100
AcDbSymbolTableRecord
100
AcDbLayerTableRecord
  2
FRAMELAYER-012
 70
     0
 62
     7
  6
Continuous
370
    -3
390
F
  0
LAYER
  5
15D
330
2
100
AcDbSymbolTableRecord
100
AcDbLayerTableRecord
  2
FRAMELAYER-013
 70
     0
 62
     7
  6
Continuous
370
    -3
390
F
  0
LAYER
  5
15E
330
2
100
AcDbSymbolTableRecord
100
AcDbLayerTableRecord
  2
FRAMELAYER-014
 70
     0
 62
     7
  6
Continuous
370
    -3
390
F
  0
LAYER
  5
15F
330
2
100
AcDbSymbolTableRecord
100
AcDbLayerTableRecord
  2
FRAMELAYER-015
 70
     0
 62
     7
  6
Continuous
370
    -3
390
F
  0
LAYER
  5
160
330
2
100
AcDbSymbolTableRecord
100
AcDbLayerTableRecord
  2
FRAMELAYER-016
 70
     0
 62
     4
  6
Continuous
370
    -3
390
F
  0
LAYER
  5
161
330
2
100
AcDbSymbolTableRecord
100
AcDbLayerTableRecord
  2
FRAMELAYER-017
 70
     0
 62
     7
  6
Continuous
370
    -3
390
F
  0
LAYER
  5
162
330
2
100
AcDbSymbolTableRecord
100
AcDbLayerTableRecord
  2
FRAMELAYER-018
 70
     0
 62
     2
  6
Continuous
370
    -3
390
F
  0
LAYER
  5
163
330
2
100
AcDbSymbolTableRecord
100
AcDbLayerTableRecord
  2
FRAMELAYER-019
 70
     0
 62
     3
  6
Continuous
370
    -3
390
F
  0
LAYER
  5
164
330
2
100
AcDbSymbolTableRecord
100
AcDbLayerTableRecord
  2
FRAMELAYER-020
 70
     0
 62
     2
  6
Continuous
370
    -3
390
F
  0
LAYER
  5
165
330
2
100
AcDbSymbolTableRecord
100
AcDbLayerTableRecord
  2
FRAMELAYER-021
 70
     0
 62
     7
  6
Continuous
370
    -3
390
F
  0
LAYER
  5
166
330
2
100
AcDbSymbolTableRecord
100
AcDbLayerTableRecord
  2
FRAMELAYER-022
 70
     0
 62
     4
  6
Continuous
370
    -3
390
F
  0
LAYER
  5
167
330
2
100
AcDbSymbolTableRecord
100
AcDbLayerTableRecord
  2
FRAMELAYER-023
 70
     0
 62
     4
  6
Continuous
370
    -3
390
F
  0
LAYER
  5
168
330
2
100
AcDbSymbolTableRecord
100
AcDbLayerTableRecord
  2
FRAMELAYER-024
 70
     0
 62
     7
  6
Continuous
370
    -3
390
F
  0
LAYER
  5
169
330
2
100
AcDbSymbolTableRecord
100
AcDbLayerTableRecord
  2
FRAMELAYER-025
 70
     0
 62
     7
  6
Continuous
370
    -3
390
F
  0
LAYER
  5
16A
330
2
100
AcDbSymbolTableRecord
100
AcDbLayerTableRecord
  2
FRAMELAYER-026
 70
     0
 62
     7
  6
Continuous
370
    -3
390
F
  0
LAYER
  5
16B
330
2
100
AcDbSymbolTableRecord
100
AcDbLayerTableRecord
  2
FRAMELAYER-027
 70
     0
 62
     7
  6
Continuous
370
    -3
390
F
  0
LAYER
  5
16C
330
2
100
AcDbSymbolTableRecord
100
AcDbLayerTableRecord
  2
FRAMELAYER-028
 70
     0
 62
     7
  6
Continuous
370
    -3
390
F
  0
LAYER
  5
16D
330
2
100
AcDbSymbolTableRecord
100
AcDbLayerTableRecord
  2
FRAMELAYER-029
 70
     0
 62
     7
  6
Continuous
370
    -3
390
F
  0
LAYER
  5
16E
330
2
100
AcDbSymbolTableRecord
100
AcDbLayerTableRecord
  2
FRAMELAYER-030
 70
     0
 62
     2
  6
Continuous
370
    -3
390
F
  0
LAYER
  5
16F
330
2
100
AcDbSymbolTableRecord
100
AcDbLayerTableRecord
  2
FRAMELAYER-031
 70
     0
 62
     7
  6
Continuous
370
    -3
390
F
  0
LAYER
  5
170
330
2
100
AcDbSymbolTableRecord
100
AcDbLayerTableRecord
  2
FRAMELAYER-032
 70
     0
 62
     2
  6
Continuous
370
    -3
390
F
  0
LAYER
  5
171
330
2
100
AcDbSymbolTableRecord
100
AcDbLayerTableRecord
  2
FRAMELAYER-033
 70
     0
 62
     7
  6
Continuous
370
    -3
390
F
  0
LAYER
  5
172
330
2
100
AcDbSymbolTableRecord
100
AcDbLayerTableRecord
  2
FRAMELAYER-034
 70
     0
 62
     7
  6
Continuous
370
    -3
390
F
  0
LAYER
  5
173
330
2
100
AcDbSymbolTableRecord
100
AcDbLayerTableRecord
  2
FRAMELAYER-035
 70
     0
 62
     3
  6
Continuous
370
    -3
390
F
  0
LAYER
  5
174
330
2
100
AcDbSymbolTableRecord
100
AcDbLayerTableRecord
  2
FRAMELAYER-036
 70
     0
 62
     2
  6
Continuous
370
    -3
390
F
  0
LAYER
  5
175
330
2
100
AcDbSymbolTableRecord
100
AcDbLayerTableRecord
  2
FRAMELAYER-037
 70
     0
 62
     7
  6
Continuous
370
    -3
390
F
  0
LAYER
  5
176
330
2
100
AcDbSymbolTableRecord
100
AcDbLayerTableRecord
  2
FRAMELAYER-038
 70
     0
 62
     7
  6
Continuous
370
    -3
390
F
  0
LAYER
  5
177
330
2
100
AcDbSymbolTableRecord
100
AcDbLayerTableRecord
  2
FRAMELAYER-039
 70
     0
 62
     7
  6
Continuous
370
    -3
390
F
  0
LAYER
  5
178
330
2
100
AcDbSymbolTableRecord
100
AcDbLayerTableRecord
  2
FRAMELAYER-040
 70
     0
 62
     7
  6
Continuous
370
    -3
390
F
  0
LAYER
  5
179
330
2
100
AcDbSymbolTableRecord
100
AcDbLayerTableRecord
  2
FRAMELAYER-041
 70
     0
 62
     7
  6
Continuous
370
    -3
390
F
  0
LAYER
  5
17A
330
2
100
AcDbSymbolTableRecord
100
AcDbLayerTableRecord
  2
FRAMELAYER-042
 70
     0
 62
     7
  6
Continuous
370
    -3
390
F
  0
LAYER
  5
17B
330
2
100
AcDbSymbolTableRecord
100
AcDbLayerTableRecord
  2
FRAMELAYER-043
 70
     0
 62
     7
  6
Continuous
370
    -3
390
F
  0
LAYER
  5
17C
330
2
100
AcDbSymbolTableRecord
100
AcDbLayerTableRecord
  2
FRAMELAYER-044
 70
     0
 62
     7
  6
Continuous
370
    -3
390
F
  0
LAYER
  5
17D
330
2
100
AcDbSymbolTableRecord
100
AcDbLayerTableRecord
  2
FRAMELAYER-045
 70
     0
 62
     7
  6
Continuous
370
    -3
390
F
  0
LAYER
  5
17E
330
2
100
AcDbSymbolTableRecord
100
AcDbLayerTableRecord
  2
FRAMELAYER-046
 70
     0
 62
     7
  6
Continuous
370
    -3
390
F
  0
LAYER
  5
17F
330
2
100
AcDbSymbolTableRecord
100
AcDbLayerTableRecord
  2
FRAMELAYER-047
 70
     0
 62
     7
  6
Continuous
370
    -3
390
F
  0
LAYER
  5
180
330
2
100
AcDbSymbolTableRecord
100
AcDbLayerTableRecord
  2
FRAMELAYER-048
 70
     0
 62
     2
  6
Continuous
370
    -3
390
F
  0
LAYER
  5
181
330
2
100
AcDbSymbolTableRecord
100
AcDbLayerTableRecord
  2
FRAMELAYER-049
 70
     0
 62
     3
  6
Continuous
370
    -3
390
F
  0
LAYER
  5
182
330
2
100
AcDbSymbolTableRecord
100
AcDbLayerTableRecord
  2
FRAMELAYER-050
 70
     0
 62
     7
  6
Continuous
370
    -3
390
F
  0
LAYER
  5
183
330
2
100
AcDbSymbolTableRecord
100
AcDbLayerTableRecord
  2
FRAMELAYER-051
 70
     0
 62
     2
  6
Continuous
370
    -3
390
F
  0
LAYER
  5
184
330
2
100
AcDbSymbolTableRecord
100
AcDbLayerTableRecord
  2
FRAMELAYER-052
 70
     0
 62
     7
  6
Continuous
370
    -3
390
F
  0
LAYER
  5
185
330
2
100
AcDbSymbolTableRecord
100
AcDbLayerTableRecord
  2
FRAMELAYER-053
 70
     0
 62
     7
  6
Continuous
370
    -3
390
F
  0
LAYER
  5
186
330
2
100
AcDbSymbolTableRecord
100
AcDbLayerTableRecord
  2
FRAMELAYER-054
 70
     0
 62
     7
  6
Continuous
370
    -3
390
F
  0
LAYER
  5
187
330
2
100
AcDbSymbolTableRecord
100
AcDbLayerTableRecord
  2
FRAMELAYER-055
 70
     0
 62
     7
  6
Continuous
370
    -3
390
F
  0
LAYER
  5
188
330
2
100
AcDbSymbolTableRecord
100
AcDbLayerTableRecord
  2
FRAMELAYER-056
 70
     0
 62
     7
  6
Continuous
370
    -3
390
F
  0
LAYER
  5
189
330
2
100
AcDbSymbolTableRecord
100
AcDbLayerTableRecord
  2
FRAMELAYER-057
 70
     0
 62
     7
  6
Continuous
370
    -3
390
F
  0
LAYER
  5
18A
330
2
100
AcDbSymbolTableRecord
100
AcDbLayerTableRecord
  2
FRAMELAYER-058
 70
     0
 62
     7
  6
Continuous
370
    -3
390
F
  0
LAYER
  5
18B
330
2
100
AcDbSymbolTableRecord
100
AcDbLayerTableRecord
  2
FRAMELAYER-059
 70
     0
 62
     7
  6
Continuous
370
    -3
390
F
  0
LAYER
  5
18C
330
2
100
AcDbSymbolTableRecord
100
AcDbLayerTableRecord
  2
FRAMELAYER-060
 70
     0
 62
     7
  6
Continuous
370
    -3
390
F
  0
LAYER
  5
18D
330
2
100
AcDbSymbolTableRecord
100
AcDbLayerTableRecord
  2
FRAMELAYER-061
 70
     0
 62
     7
  6
Continuous
370
    -3
390
F
  0
LAYER
  5
18E
330
2
100
AcDbSymbolTableRecord
100
AcDbLayerTableRecord
  2
FRAMELAYER-062
 70
     0
 62
     7
  6
Continuous
370
    -3
390
F
  0
LAYER
  5
18F
330
2
100
AcDbSymbolTableRecord
100
AcDbLayerTableRecord
  2
FRAMELAYER-063
 70
     0
 62
     7
  6
Continuous
370
    -3
390
F
  0
LAYER
  5
190
330
2
100
AcDbSymbolTableRecord
100
AcDbLayerTableRecord
  2
FRAMELAYER-064
 70
     0
 62
     2
  6
Continuous
370
    -3
390
F
  0
LAYER
  5
191
330
2
100
AcDbSymbolTableRecord
100
AcDbLayerTableRecord
  2
FRAMELAYER-065
 70
     0
 62
     7
  6
Continuous
370
    -3
390
F
  0
LAYER
  5
192
330
2
100
AcDbSymbolTableRecord
100
AcDbLayerTableRecord
  2
FRAMELAYER-066
 70
     0
 62
     2
  6
Continuous
370
    -3
390
F
  0
LAYER
  5
193
330
2
100
AcDbSymbolTableRecord
100
AcDbLayerTableRecord
  2
FRAMELAYER-067
 70
     0
 62
     2
  6
Continuous
370
    -3
390
F
  0
LAYER
  5
194
330
2
100
AcDbSymbolTableRecord
100
AcDbLayerTableRecord
  2
FRAMELAYER-068
 70
     0
 62
     7
  6
Continuous
370
    -3
390
F
  0
LAYER
  5
195
330
2
100
AcDbSymbolTableRecord
100
AcDbLayerTableRecord
  2
FRAMELAYER-069
 70
     0
 62
     7
  6
Continuous
370
    -3
390
F
  0
LAYER
  5
196
330
2
100
AcDbSymbolTableRecord
100
AcDbLayerTableRecord
  2
FRAMELAYER-070
 70
     0
 62
     7
  6
Continuous
370
    -3
390
F
  0
LAYER
  5
197
330
2
100
AcDbSymbolTableRecord
100
AcDbLayerTableRecord
  2
FRAMELAYER-071
 70
     0
 62
     7
  6
Continuous
370
    -3
390
F
  0
LAYER
  5
198
330
2
100
AcDbSymbolTableRecord
100
AcDbLayerTableRecord
  2
FRAMELAYER-072
 70
     0
 62
     7
  6
Continuous
370
    -3
390
F
  0
LAYER
  5
199
330
2
100
AcDbSymbolTableRecord
100
AcDbLayerTableRecord
  2
FRAMELAYER-073
 70
     0
 62
     7
  6
Continuous
370
    -3
390
F
  0
LAYER
  5
19A
330
2
100
AcDbSymbolTableRecord
100
AcDbLayerTableRecord
  2
FRAMELAYER-074
 70
     0
 62
     7
  6
Continuous
370
    -3
390
F
  0
LAYER
  5
19B
330
2
100
AcDbSymbolTableRecord
100
AcDbLayerTableRecord
  2
FRAMELAYER-075
 70
     0
 62
     7
  6
Continuous
370
    -3
390
F
  0
LAYER
  5
19C
330
2
100
AcDbSymbolTableRecord
100
AcDbLayerTableRecord
  2
FRAMELAYER-076
 70
     0
 62
     7
  6
Continuous
370
    -3
390
F
  0
LAYER
  5
19D
330
2
100
AcDbSymbolTableRecord
100
AcDbLayerTableRecord
  2
FRAMELAYER-077
 70
     0
 62
     7
  6
Continuous
370
    -3
390
F
  0
LAYER
  5
19E
330
2
100
AcDbSymbolTableRecord
100
AcDbLayerTableRecord
  2
FRAMELAYER-078
 70
     0
 62
     7
  6
Continuous
370
    -3
390
F
  0
LAYER
  5
19F
330
2
100
AcDbSymbolTableRecord
100
AcDbLayerTableRecord
  2
FRAMELAYER-079
 70
     0
 62
     7
  6
Continuous
370
    -3
390
F
  0
LAYER
  5
1A0
330
2
100
AcDbSymbolTableRecord
100
AcDbLayerTableRecord
  2
FRAMELAYER-080
 70
     0
 62
     2
  6
Continuous
370
    -3
390
F
  0
LAYER
  5
1A1
330
2
100
AcDbSymbolTableRecord
100
AcDbLayerTableRecord
  2
FRAMELAYER-081
 70
     0
 62
     7
  6
Continuous
370
    -3
390
F
  0
LAYER
  5
1A2
330
2
100
AcDbSymbolTableRecord
100
AcDbLayerTableRecord
  2
FRAMELAYER-082
 70
     0
 62
     7
  6
Continuous
370
    -3
390
F
  0
LAYER
  5
1A3
330
2
100
AcDbSymbolTableRecord
100
AcDbLayerTableRecord
  2
FRAMELAYER-083
 70
     0
 62
     7
  6
Continuous
370
    -3
390
F
  0
LAYER
  5
1A4
330
2
100
AcDbSymbolTableRecord
100
AcDbLayerTableRecord
  2
FRAMELAYER-084
 70
     0
 62
     7
  6
Continuous
370
    -3
390
F
  0
LAYER
  5
1A5
330
2
100
AcDbSymbolTableRecord
100
AcDbLayerTableRecord
  2
FRAMELAYER-085
 70
     0
 62
     7
  6
Continuous
370
    -3
390
F
  0
LAYER
  5
1A6
330
2
100
AcDbSymbolTableRecord
100
AcDbLayerTableRecord
  2
FRAMELAYER-086
 70
     0
 62
     7
  6
Continuous
370
    -3
390
F
  0
LAYER
  5
1A7
330
2
100
AcDbSymbolTableRecord
100
AcDbLayerTableRecord
  2
FRAMELAYER-087
 70
     0
 62
     7
  6
Continuous
370
    -3
390
F
  0
LAYER
  5
1A8
330
2
100
AcDbSymbolTableRecord
100
AcDbLayerTableRecord
  2
FRAMELAYER-088
 70
     0
 62
     7
  6
Continuous
370
    -3
390
F
  0
LAYER
  5
1A9
330
2
100
AcDbSymbolTableRecord
100
AcDbLayerTableRecord
  2
FRAMELAYER-089
 70
     0
 62
     7
  6
Continuous
370
    -3
390
F
  0
LAYER
  5
1AA
330
2
100
AcDbSymbolTableRecord
100
AcDbLayerTableRecord
  2
FRAMELAYER-090
 70
     0
 62
     7
  6
Continuous
370
    -3
390
F
  0
LAYER
  5
1AB
330
2
100
AcDbSymbolTableRecord
100
AcDbLayerTableRecord
  2
FRAMELAYER-091
 70
     0
 62
     7
  6
Continuous
370
    -3
390
F
  0
LAYER
  5
1AC
330
2
100
AcDbSymbolTableRecord
100
AcDbLayerTableRecord
  2
FRAMELAYER-092
 70
     0
 62
     7
  6
Continuous
370
    -3
390
F
  0
LAYER
  5
1AD
330
2
100
AcDbSymbolTableRecord
100
AcDbLayerTableRecord
  2
FRAMELAYER-093
 70
     0
 62
     7
  6
Continuous
370
    -3
390
F
  0
LAYER
  5
1AE
330
2
100
AcDbSymbolTableRecord
100
AcDbLayerTableRecord
  2
FRAMELAYER-094
 70
     0
 62
     7
  6
Continuous
370
    -3
390
F
  0
LAYER
  5
1AF
330
2
100
AcDbSymbolTableRecord
100
AcDbLayerTableRecord
  2
FRAMELAYER-095
 70
     0
 62
     7
  6
Continuous
370
    -3
390
F
  0
LAYER
  5
1B0
330
2
100
AcDbSymbolTableRecord
100
AcDbLayerTableRecord
  2
FRAMELAYER-096
 70
     0
 62
     7
  6
Continuous
370
    -3
390
F
  0
LAYER
  5
1B1
330
2
100
AcDbSymbolTableRecord
100
AcDbLayerTableRecord
  2
FRAMELAYER-097
 70
     0
 62
     7
  6
Continuous
370
    -3
390
F
  0
LAYER
  5
1B2
330
2
100
AcDbSymbolTableRecord
100
AcDbLayerTableRecord
  2
FRAMELAYER-098
 70
     0
 62
     7
  6
Continuous
370
    -3
390
F
  0
LAYER
  5
1B3
330
2
100
AcDbSymbolTableRecord
100
AcDbLayerTableRecord
  2
FRAMELAYER-099
 70
     0
 62
     7
  6
Continuous
370
    -3
390
F
  0
LAYER
  5
1B4
330
2
100
AcDbSymbolTableRecord
100
AcDbLayerTableRecord
  2
FRAMELAYER-100
 70
     0
 62
     7
  6
Continuous
370
    -3
390
F
  0
LAYER
  5
1B5
330
2
100
AcDbSymbolTableRecord
100
AcDbLayerTableRecord
  2
FRAMELAYER-101
 70
     0
 62
     7
  6
Continuous
370
    -3
390
F
  0
LAYER
  5
1B6
330
2
100
AcDbSymbolTableRecord
100
AcDbLayerTableRecord
  2
FRAMELAYER-102
 70
     0
 62
     7
  6
Continuous
370
    -3
390
F
  0
LAYER
  5
1B7
330
2
100
AcDbSymbolTableRecord
100
AcDbLayerTableRecord
  2
FRAMELAYER-103
 70
     0
 62
     7
  6
Continuous
370
    -3
390
F
  0
LAYER
  5
1B8
330
2
100
AcDbSymbolTableRecord
100
AcDbLayerTableRecord
  2
FRAMELAYER-104
 70
     0
 62
     7
  6
Continuous
370
    -3
390
F
  0
LAYER
  5
1B9
330
2
100
AcDbSymbolTableRecord
100
AcDbLayerTableRecord
  2
FRAMELAYER-105
 70
     0
 62
     7
  6
Continuous
370
    -3
390
F
  0
LAYER
  5
1BA
330
2
100
AcDbSymbolTableRecord
100
AcDbLayerTableRecord
  2
FRAMELAYER-106
 70
     0
 62
     7
  6
Continuous
370
    -3
390
F
  0
LAYER
  5
1BB
330
2
100
AcDbSymbolTableRecord
100
AcDbLayerTableRecord
  2
FRAMELAYER-107
 70
     0
 62
     7
  6
Continuous
370
    -3
390
F
  0
LAYER
  5
1BC
330
2
100
AcDbSymbolTableRecord
100
AcDbLayerTableRecord
  2
FRAMELAYER-108
 70
     0
 62
     7
  6
Continuous
370
    -3
390
F
  0
LAYER
  5
1BD
330
2
100
AcDbSymbolTableRecord
100
AcDbLayerTableRecord
  2
FRAMELAYER-109
 70
     0
 62
     7
  6
Continuous
370
    -3
390
F
  0
LAYER
  5
1BE
330
2
100
AcDbSymbolTableRecord
100
AcDbLayerTableRecord
  2
FRAMELAYER-110
 70
     0
 62
     7
  6
Continuous
370
    -3
390
F
  0
LAYER
  5
1BF
330
2
100
AcDbSymbolTableRecord
100
AcDbLayerTableRecord
  2
FRAMELAYER-111
 70
     0
 62
     7
  6
Continuous
370
    -3
390
F
  0
LAYER
  5
1C0
330
2
100
AcDbSymbolTableRecord
100
AcDbLayerTableRecord
  2
FRAMELAYER-112
 70
     0
 62
     7
  6
Continuous
370
    -3
390
F
  0
LAYER
  5
1C1
330
2
100
AcDbSymbolTableRecord
100
AcDbLayerTableRecord
  2
FRAMELAYER-113
 70
     0
 62
     7
  6
Continuous
370
    -3
390
F
  0
LAYER
  5
1C2
330
2
100
AcDbSymbolTableRecord
100
AcDbLayerTableRecord
  2
FRAMELAYER-114
 70
     0
 62
     7
  6
Continuous
370
    -3
390
F
  0
LAYER
  5
1C3
330
2
100
AcDbSymbolTableRecord
100
AcDbLayerTableRecord
  2
FRAMELAYER-115
 70
     0
 62
     7
  6
Continuous
370
    -3
390
F
  0
LAYER
  5
1C4
330
2
100
AcDbSymbolTableRecord
100
AcDbLayerTableRecord
  2
FRAMELAYER-116
 70
     0
 62
     7
  6
Continuous
370
    -3
390
F
  0
LAYER
  5
1C5
330
2
100
AcDbSymbolTableRecord
100
AcDbLayerTableRecord
  2
FRAMELAYER-117
 70
     0
 62
     7
  6
Continuous
370
    -3
390
F
  0
LAYER
  5
1C6
330
2
100
AcDbSymbolTableRecord
100
AcDbLayerTableRecord
  2
FRAMELAYER-118
 70
     0
 62
     7
  6
Continuous
370
    -3
390
F
  0
LAYER
  5
1C7
330
2
100
AcDbSymbolTableRecord
100
AcDbLayerTableRecord
  2
FRAMELAYER-119
 70
     0
 62
     7
  6
Continuous
370
    -3
390
F
  0
LAYER
  5
1C8
330
2
100
AcDbSymbolTableRecord
100
AcDbLayerTableRecord
  2
FRAMELAYER-120
 70
     0
 62
     7
  6
Continuous
370
    -3
390
F
  0
LAYER
  5
1C9
330
2
100
AcDbSymbolTableRecord
100
AcDbLayerTableRecord
  2
FRAMELAYER-121
 70
     0
 62
     7
  6
Continuous
370
    -3
390
F
  0
LAYER
  5
1CA
330
2
100
AcDbSymbolTableRecord
100
AcDbLayerTableRecord
  2
FRAMELAYER-122
 70
     0
 62
     7
  6
Continuous
370
    -3
390
F
  0
LAYER
  5
1CB
330
2
100
AcDbSymbolTableRecord
100
AcDbLayerTableRecord
  2
FRAMELAYER-123
 70
     0
 62
     7
  6
Continuous
370
    -3
390
F
  0
LAYER
  5
1CC
330
2
100
AcDbSymbolTableRecord
100
AcDbLayerTableRecord
  2
FRAMELAYER-124
 70
     0
 62
     7
  6
Continuous
370
    -3
390
F
  0
LAYER
  5
1CD
330
2
100
AcDbSymbolTableRecord
100
AcDbLayerTableRecord
  2
FRAMELAYER-125
 70
     0
 62
     7
  6
Continuous
370
    -3
390
F
  0
LAYER
  5
1CE
330
2
100
AcDbSymbolTableRecord
100
AcDbLayerTableRecord
  2
FRAMELAYER-126
 70
     0
 62
     7
  6
Continuous
370
    -3
390
F
  0
LAYER
  5
1CF
330
2
100
AcDbSymbolTableRecord
100
AcDbLayerTableRecord
  2
FRAMELAYER-127
 70
     0
 62
     7
  6
Continuous
370
    -3
390
F
  0
LAYER
  5
1D0
330
2
100
AcDbSymbolTableRecord
100
AcDbLayerTableRecord
  2
FRAMELAYER-128
 70
     0
 62
     7
  6
Continuous
370
    -3
390
F
  0
LAYER
  5
1D1
330
2
100
AcDbSymbolTableRecord
100
AcDbLayerTableRecord
  2
FRAMELAYER-129
 70
     0
 62
     7
  6
Continuous
370
    -3
390
F
  0
LAYER
  5
1D2
330
2
100
AcDbSymbolTableRecord
100
AcDbLayerTableRecord
  2
FRAMELAYER-130
 70
     0
 62
     7
  6
Continuous
370
    -3
390
F
  0
LAYER
  5
1D3
330
2
100
AcDbSymbolTableRecord
100
AcDbLayerTableRecord
  2
FRAMELAYER-131
 70
     0
 62
     7
  6
Continuous
370
    -3
390
F
  0
LAYER
  5
1D4
330
2
100
AcDbSymbolTableRecord
100
AcDbLayerTableRecord
  2
FRAMELAYER-132
 70
     0
 62
     7
  6
Continuous
370
    -3
390
F
  0
LAYER
  5
1D5
330
2
100
AcDbSymbolTableRecord
100
AcDbLayerTableRecord
  2
FRAMELAYER-133
 70
     0
 62
     7
  6
Continuous
370
    -3
390
F
  0
LAYER
  5
1D6
330
2
100
AcDbSymbolTableRecord
100
AcDbLayerTableRecord
  2
FRAMELAYER-134
 70
     0
 62
     7
  6
Continuous
370
    -3
390
F
  0
LAYER
  5
1D7
330
2
100
AcDbSymbolTableRecord
100
AcDbLayerTableRecord
  2
FRAMELAYER-135
 70
     0
 62
     4
  6
Continuous
370
    -3
390
F
  0
LAYER
  5
1D8
330
2
100
AcDbSymbolTableRecord
100
AcDbLayerTableRecord
  2
FRAMELAYER-136
 70
     0
 62
     3
  6
Continuous
370
    -3
390
F
  0
LAYER
  5
1D9
330
2
100
AcDbSymbolTableRecord
100
AcDbLayerTableRecord
  2
FRAMELAYER-137
 70
     0
 62
     1
  6
Continuous
370
    -3
390
F
  0
LAYER
  5
1DA
330
2
100
AcDbSymbolTableRecord
100
AcDbLayerTableRecord
  2
FRAMELAYER-138
 70
     0
 62
     7
  6
Continuous
370
    -3
390
F
  0
LAYER
  5
1DB
330
2
100
AcDbSymbolTableRecord
100
AcDbLayerTableRecord
  2
FRAMELAYER-139
 70
     0
 62
     7
  6
Continuous
370
    -3
390
F
  0
LAYER
  5
1DC
330
2
100
AcDbSymbolTableRecord
100
AcDbLayerTableRecord
  2
FRAMELAYER-140
 70
     0
 62
     7
  6
Continuous
370
    -3
390
F
  0
LAYER
  5
1DD
330
2
100
AcDbSymbolTableRecord
100
AcDbLayerTableRecord
  2
FRAMELAYER-141
 70
     0
 62
     7
  6
Continuous
370
    -3
390
F
  0
LAYER
  5
1DE
330
2
100
AcDbSymbolTableRecord
100
AcDbLayerTableRecord
  2
FRAMELAYER-142
 70
     0
 62
     3
  6
Continuous
370
    -3
390
F
  0
LAYER
  5
1DF
330
2
100
AcDbSymbolTableRecord
100
AcDbLayerTableRecord
  2
FRAMELAYER-143
 70
     0
 62
     7
  6
Continuous
370
    -3
390
F
  0
LAYER
  5
1E0
330
2
100
AcDbSymbolTableRecord
100
AcDbLayerTableRecord
  2
FRAMELAYER-144
 70
     0
 62
     7
  6
Continuous
370
    -3
390
F
  0
LAYER
  5
1E1
330
2
100
AcDbSymbolTableRecord
100
AcDbLayerTableRecord
  2
FRAMELAYER-145
 70
     0
 62
     3
  6
Continuous
370
    -3
390
F
  0
LAYER
  5
1E2
330
2
100
AcDbSymbolTableRecord
100
AcDbLayerTableRecord
  2
FRAMELAYER-146
 70
     0
 62
     7
  6
Continuous
370
    -3
390
F
  0
LAYER
  5
1E3
330
2
100
AcDbSymbolTableRecord
100
AcDbLayerTableRecord
  2
FRAMELAYER-147
 70
     0
 62
     7
  6
Continuous
370
    -3
390
F
  0
LAYER
  5
1E4
330
2
100
AcDbSymbolTableRecord
100
AcDbLayerTableRecord
  2
FRAMELAYER-148
 70
     0
 62
     7
  6
Continuous
370
    -3
390
F
  0
LAYER
  5
1E5
330
2
100
AcDbSymbolTableRecord
100
AcDbLayerTableRecord
  2
FRAMELAYER-149
 70
     0
 62
     7
  6
Continuous
370
    -3
390
F
  0
LAYER
  5
1E6
330
2
100
AcDbSymbolTableRecord
100
AcDbLayerTableRecord
  2
FRAMELAYER-150
 70
     0
 62
     7
  6
Continuous
370
    -3
390
F
  0
LAYER
  5
1E7
330
2
100
AcDbSymbolTableRecord
100
AcDbLayerTableRecord
  2
FRAMELAYER-151
 70
     0
 62
     7
  6
Continuous
370
    -3
390
F
  0
LAYER
  5
1E8
330
2
100
AcDbSymbolTableRecord
100
AcDbLayerTableRecord
  2
FRAMELAYER-152
 70
     0
 62
     7
  6
Continuous
370
    -3
390
F
  0
LAYER
  5
1E9
330
2
100
AcDbSymbolTableRecord
100
AcDbLayerTableRecord
  2
FRAMELAYER-153
 70
     0
 62
     7
  6
Continuous
370
    -3
390
F
  0
LAYER
  5
1EA
330
2
100
AcDbSymbolTableRecord
100
AcDbLayerTableRecord
  2
FRAMELAYER-154
 70
     0
 62
     7
  6
Continuous
370
    -3
390
F
  0
LAYER
  5
1EB
330
2
100
AcDbSymbolTableRecord
100
AcDbLayerTableRecord
  2
FRAMELAYER-155
 70
     0
 62
     7
  6
Continuous
370
    -3
390
F
  0
LAYER
  5
1EC
330
2
100
AcDbSymbolTableRecord
100
AcDbLayerTableRecord
  2
FRAMELAYER-156
 70
     0
 62
     7
  6
Continuous
370
    -3
390
F
  0
LAYER
  5
1ED
330
2
100
AcDbSymbolTableRecord
100
AcDbLayerTableRecord
  2
FRAMELAYER-157
 70
     0
 62
     7
  6
Continuous
370
    -3
390
F
  0
LAYER
  5
1EE
330
2
100
AcDbSymbolTableRecord
100
AcDbLayerTableRecord
  2
FRAMELAYER-158
 70
     0
 62
     7
  6
Continuous
370
    -3
390
F
  0
LAYER
  5
1EF
330
2
100
AcDbSymbolTableRecord
100
AcDbLayerTableRecord
  2
FRAMELAYER-159
 70
     0
 62
     7
  6
Continuous
370
    -3
390
F
  0
LAYER
  5
1F0
330
2
100
AcDbSymbolTableRecord
100
AcDbLayerTableRecord
  2
FRAMELAYER-160
 70
     0
 62
     7
  6
Continuous
370
    -3
390
F
  0
LAYER
  5
1F1
330
2
100
AcDbSymbolTableRecord
100
AcDbLayerTableRecord
  2
FRAMELAYER-161
 70
     0
 62
     7
  6
Continuous
370
    -3
390
F
  0
LAYER
  5
1F2
330
2
100
AcDbSymbolTableRecord
100
AcDbLayerTableRecord
  2
FRAMELAYER-162
 70
     0
 62
     7
  6
Continuous
370
    -3
390
F
  0
LAYER
  5
1F3
330
2
100
AcDbSymbolTableRecord
100
AcDbLayerTableRecord
  2
FRAMELAYER-163
 70
     0
 62
     7
  6
Continuous
370
    -3
390
F
  0
LAYER
  5
1F4
330
2
100
AcDbSymbolTableRecord
100
AcDbLayerTableRecord
  2
FRAMELAYER-164
 70
     0
 62
     7
  6
Continuous
370
    -3
390
F
  0
LAYER
  5
1F5
330
2
100
AcDbSymbolTableRecord
100
AcDbLayerTableRecord
  2
FRAMELAYER-165
 70
     0
 62
     7
  6
Continuous
370
    -3
390
F
  0
LAYER
  5
1F6
330
2
100
AcDbSymbolTableRecord
100
AcDbLayerTableRecord
  2
FRAMELAYER-166
 70
     0
 62
     7
  6
Continuous
370
    -3
390
F
  0
LAYER
  5
1F7
330
2
100
AcDbSymbolTableRecord
100
AcDbLayerTableRecord
  2
FRAMELAYER-167
 70
     0
 62
     7
  6
Continuous
370
    -3
390
F
  0
LAYER
  5
1F8
330
2
100
AcDbSymbolTableRecord
100
AcDbLayerTableRecord
  2
FRAMELAYER-168
 70
     0
 62
     7
  6
Continuous
370
    -3
390
F
  0
LAYER
  5
1F9
330
2
100
AcDbSymbolTableRecord
100
AcDbLayerTableRecord
  2
FRAMELAYER-169
 70
     0
 62
     7
  6
Continuous
370
    -3
390
F
  0
LAYER
  5
1FA
330
2
100
AcDbSymbolTableRecord
100
AcDbLayerTableRecord
  2
FRAMELAYER-170
 70
     0
 62
     7
  6
Continuous
370
    -3
390
F
  0
LAYER
  5
1FB
330
2
100
AcDbSymbolTableRecord
100
AcDbLayerTableRecord
  2
FRAMELAYER-171
 70
     0
 62
     7
  6
Continuous
370
    -3
390
F
  0
LAYER
  5
1FC
330
2
100
AcDbSymbolTableRecord
100
AcDbLayerTableRecord
  2
FRAMELAYER-172
 70
     0
 62
     7
  6
Continuous
370
    -3
390
F
  0
LAYER
  5
1FD
330
2
100
AcDbSymbolTableRecord
100
AcDbLayerTableRecord
  2
FRAMELAYER-173
 70
     0
 62
     7
  6
Continuous
370
    -3
390
F
  0
LAYER
  5
1FE
330
2
100
AcDbSymbolTableRecord
100
AcDbLayerTableRecord
  2
FRAMELAYER-174
 70
     0
 62
     7
  6
Continuous
370
    -3
390
F
  0
LAYER
  5
1FF
330
2
100
AcDbSymbolTableRecord
100
AcDbLayerTableRecord
  2
FRAMELAYER-175
 70
     0
 62
     7
  6
Continuous
370
    -3
390
F
  0
LAYER
  5
200
330
2
100
AcDbSymbolTableRecord
100
AcDbLayerTableRecord
  2
FRAMELAYER-176
 70
     0
 62
     7
  6
Continuous
370
    -3
390
F
  0
LAYER
  5
201
330
2
100
AcDbSymbolTableRecord
100
AcDbLayerTableRecord
  2
FRAMELAYER-177
 70
     0
 62
     7
  6
Continuous
370
    -3
390
F
  0
LAYER
  5
202
330
2
100
AcDbSymbolTableRecord
100
AcDbLayerTableRecord
  2
FRAMELAYER-178
 70
     0
 62
     7
  6
Continuous
370
    -3
390
F
  0
LAYER
  5
203
330
2
100
AcDbSymbolTableRecord
100
AcDbLayerTableRecord
  2
FRAMELAYER-179
 70
     0
 62
     7
  6
Continuous
370
    -3
390
F
  0
LAYER
  5
204
330
2
100
AcDbSymbolTableRecord
100
AcDbLayerTableRecord
  2
FRAMELAYER-180
 70
     0
 62
     7
  6
Continuous
370
    -3
390
F
  0
LAYER
  5
205
330
2
100
AcDbSymbolTableRecord
100
AcDbLayerTableRecord
  2
FRAMELAYER-181
 70
     0
 62
     7
  6
Continuous
370
    -3
390
F
  0
LAYER
  5
206
330
2
100
AcDbSymbolTableRecord
100
AcDbLayerTableRecord
  2
FRAMELAYER-182
 70
     0
 62
     7
  6
Continuous
370
    -3
390
F
  0
LAYER
  5
207
330
2
100
AcDbSymbolTableRecord
100
AcDbLayerTableRecord
  2
FRAMELAYER-183
 70
     0
 62
     7
  6
Continuous
370
    -3
390
F
  0
LAYER
  5
208
330
2
100
AcDbSymbolTableRecord
100
AcDbLayerTableRecord
  2
FRAMELAYER-184
 70
     0
 62
     7
  6
Continuous
370
    -3
390
F
  0
LAYER
  5
209
330
2
100
AcDbSymbolTableRecord
100
AcDbLayerTableRecord
  2
FRAMELAYER-185
 70
     0
 62
     7
  6
Continuous
370
    -3
390
F
  0
LAYER
  5
20A
330
2
100
AcDbSymbolTableRecord
100
AcDbLayerTableRecord
  2
FRAMELAYER-186
 70
     0
 62
     7
  6
Continuous
370
    -3
390
F
  0
LAYER
  5
20B
330
2
100
AcDbSymbolTableRecord
100
AcDbLayerTableRecord
  2
FRAMELAYER-187
 70
     0
 62
     7
  6
Continuous
370
    -3
390
F
  0
LAYER
  5
20C
330
2
100
AcDbSymbolTableRecord
100
AcDbLayerTableRecord
  2
FRAMELAYER-188
 70
     0
 62
     7
  6
Continuous
370
    -3
390
F
  0
LAYER
  5
20D
330
2
100
AcDbSymbolTableRecord
100
AcDbLayerTableRecord
  2
FRAMELAYER-189
 70
     0
 62
     7
  6
Continuous
370
    -3
390
F
  0
LAYER
  5
20E
330
2
100
AcDbSymbolTableRecord
100
AcDbLayerTableRecord
  2
FRAMELAYER-190
 70
     0
 62
     7
  6
Continuous
370
    -3
390
F
  0
LAYER
  5
20F
330
2
100
AcDbSymbolTableRecord
100
AcDbLayerTableRecord
  2
FRAMELAYER-191
 70
     0
 62
     7
  6
Continuous
370
    -3
390
F
  0
LAYER
  5
210
330
2
100
AcDbSymbolTableRecord
100
AcDbLayerTableRecord
  2
FRAMELAYER-192
 70
     0
 62
     7
  6
Continuous
370
    -3
390
F
  0
LAYER
  5
211
330
2
100
AcDbSymbolTableRecord
100
AcDbLayerTableRecord
  2
FRAMELAYER-193
 70
     0
 62
     7
  6
Continuous
370
    -3
390
F
  0
LAYER
  5
212
330
2
100
AcDbSymbolTableRecord
100
AcDbLayerTableRecord
  2
FRAMELAYER-194
 70
     0
 62
     2
  6
Continuous
370
    -3
390
F
  0
LAYER
  5
213
330
2
100
AcDbSymbolTableRecord
100
AcDbLayerTableRecord
  2
FRAMELAYER-195
 70
     0
 62
     2
  6
Continuous
370
    -3
390
F
  0
LAYER
  5
214
330
2
100
AcDbSymbolTableRecord
100
AcDbLayerTableRecord
  2
FRAMELAYER-196
 70
     0
 62
     2
  6
Continuous
370
    -3
390
F
  0
LAYER
  5
215
330
2
100
AcDbSymbolTableRecord
100
AcDbLayerTableRecord
  2
FRAMELAYER-197
 70
     0
 62
     7
  6
Continuous
370
    -3
390
F
  0
LAYER
  5
216
330
2
100
AcDbSymbolTableRecord
100
AcDbLayerTableRecord
  2
FRAMELAYER-198
 70
     0
 62
     7
  6
Continuous
370
    -3
390
F
  0
LAYER
  5
217
330
2
100
AcDbSymbolTableRecord
100
AcDbLayerTableRecord
  2
FRAMELAYER-199
 70
     0
 62
     4
  6
Continuous
370
    -3
390
F
  0
LAYER
  5
218
330
2
100
AcDbSymbolTableRecord
100
AcDbLayerTableRecord
  2
FRAMELAYER-200
 70
     0
 62
     1
  6
Continuous
370
    -3
390
F
  0
LAYER
  5
219
330
2
100
AcDbSymbolTableRecord
100
AcDbLayerTableRecord
  2
FRAMELAYER-201
 70
     0
 62
     1
  6
Continuous
370
    -3
390
F
  0
LAYER
  5
21A
330
2
100
AcDbSymbolTableRecord
100
AcDbLayerTableRecord
  2
FRAMELAYER-202
 70
     0
 62
     2
  6
Continuous
370
    -3
390
F
  0
LAYER
  5
21B
330
2
100
AcDbSymbolTableRecord
100
AcDbLayerTableRecord
  2
FRAMELAYER-203
 70
     0
 62
     2
  6
Continuous
370
    -3
390
F
  0
LAYER
  5
21C
330
2
100
AcDbSymbolTableRecord
100
AcDbLayerTableRecord
  2
FRAMELAYER-204
 70
     0
 62
     7
  6
Continuous
370
    -3
390
F
  0
LAYER
  5
21D
330
2
100
AcDbSymbolTableRecord
100
AcDbLayerTableRecord
  2
FRAMELAYER-205
 70
     0
 62
     7
  6
Continuous
370
    -3
390
F
  0
LAYER
  5
21E
330
2
100
AcDbSymbolTableRecord
100
AcDbLayerTableRecord
  2
FRAMELAYER-206
 70
     0
 62
     7
  6
Continuous
370
    -3
390
F
  0
LAYER
  5
21F
330
2
100
AcDbSymbolTableRecord
100
AcDbLayerTableRecord
  2
FRAMELAYER-207
 70
     0
 62
    -7
  6
Continuous
370
    -3
390
F
  0
LAYER
  5
220
330
2
100
AcDbSymbolTableRecord
100
AcDbLayerTableRecord
  2
FRAMELAYER-208
 70
     0
 62
     2
  6
Continuous
370
    -3
390
F
  0
LAYER
  5
221
330
2
100
AcDbSymbolTableRecord
100
AcDbLayerTableRecord
  2
FRAMELAYER-209
 70
     0
 62
     7
  6
Continuous
370
    -3
390
F
  0
LAYER
  5
222
330
2
100
AcDbSymbolTableRecord
100
AcDbLayerTableRecord
  2
FRAMELAYER-210
 70
     0
 62
     2
  6
Continuous
370
    -3
390
F
  0
LAYER
  5
223
330
2
100
AcDbSymbolTableRecord
100
AcDbLayerTableRecord
  2
FRAMELAYER-211
 70
     0
 62
     7
  6
Continuous
370
    -3
390
F
  0
LAYER
  5
224
330
2
100
AcDbSymbolTableRecord
100
AcDbLayerTableRecord
  2
FRAMELAYER-212
 70
     0
 62
     7
  6
Continuous
370
    -3
390
F
  0
LAYER
  5
225
330
2
100
AcDbSymbolTableRecord
100
AcDbLayerTableRecord
  2
FRAMELAYER-213
 70
     0
 62
     2
  6
Continuous
370
    -3
390
F
  0
LAYER
  5
226
330
2
100
AcDbSymbolTableRecord
100
AcDbLayerTableRecord
  2
FRAMELAYER-214
 70
     0
 62
     7
  6
Continuous
370
    -3
390
F
  0
LAYER
  5
227
330
2
100
AcDbSymbolTableRecord
100
AcDbLayerTableRecord
  2
FRAMELAYER-215
 70
     0
 62
     7
  6
Continuous
370
    -3
390
F
  0
LAYER
  5
228
330
2
100
AcDbSymbolTableRecord
100
AcDbLayerTableRecord
  2
FRAMELAYER-216
 70
     0
 62
     4
  6
Continuous
370
    -3
390
F
  0
LAYER
  5
229
330
2
100
AcDbSymbolTableRecord
100
AcDbLayerTableRecord
  2
FRAMELAYER-217
 70
     0
 62
     7
  6
Continuous
370
    -3
390
F
  0
LAYER
  5
22A
330
2
100
AcDbSymbolTableRecord
100
AcDbLayerTableRecord
  2
FRAMELAYER-218
 70
     0
 62
     7
  6
Continuous
370
    -3
390
F
  0
LAYER
  5
22B
330
2
100
AcDbSymbolTableRecord
100
AcDbLayerTableRecord
  2
FRAMELAYER-219
 70
     0
 62
     7
  6
Continuous
370
    -3
390
F
  0
LAYER
  5
22C
330
2
100
AcDbSymbolTableRecord
100
AcDbLayerTableRecord
  2
FRAMELAYER-220
 70
     0
 62
     4
  6
Continuous
370
    -3
390
F
  0
LAYER
  5
22D
330
2
100
AcDbSymbolTableRecord
100
AcDbLayerTableRecord
  2
FRAMELAYER-221
 70
     0
 62
     7
  6
Continuous
370
    -3
390
F
  0
LAYER
  5
22E
330
2
100
AcDbSymbolTableRecord
100
AcDbLayerTableRecord
  2
FRAMELAYER-222
 70
     0
 62
     4
  6
Continuous
370
    -3
390
F
  0
LAYER
  5
22F
330
2
100
AcDbSymbolTableRecord
100
AcDbLayerTableRecord
  2
FRAMELAYER-223
 70
     0
 62
     1
  6
Continuous
370
    -3
390
F
  0
LAYER
  5
230
330
2
100
AcDbSymbolTableRecord
100
AcDbLayerTableRecord
  2
FRAMELAYER-224
 70
     0
 62
     1
  6
Continuous
370
    -3
390
F
  0
LAYER
  5
231
330
2
100
AcDbSymbolTableRecord
100
AcDbLayerTableRecord
  2
FRAMELAYER-225
 70
     0
 62
     7
  6
Continuous
370
    -3
390
F
  0
LAYER
  5
232
330
2
100
AcDbSymbolTableRecord
100
AcDbLayerTableRecord
  2
FRAMELAYER-226
 70
     0
 62
     2
  6
Continuous
370
    -3
390
F
  0
LAYER
  5
233
330
2
100
AcDbSymbolTableRecord
100
AcDbLayerTableRecord
  2
FRAMELAYER-227
 70
     0
 62
     7
  6
Continuous
370
    -3
390
F
  0
LAYER
  5
234
330
2
100
AcDbSymbolTableRecord
100
AcDbLayerTableRecord
  2
FRAMELAYER-228
 70
     0
 62
     7
  6
Continuous
370
    -3
390
F
  0
LAYER
  5
235
330
2
100
AcDbSymbolTableRecord
100
AcDbLayerTableRecord
  2
FRAMELAYER-229
 70
     0
 62
     7
  6
Continuous
370
    -3
390
F
  0
LAYER
  5
236
330
2
100
AcDbSymbolTableRecord
100
AcDbLayerTableRecord
  2
FRAMELAYER-230
 70
     0
 62
     7
  6
Continuous
370
    -3
390
F
  0
LAYER
  5
237
330
2
100
AcDbSymbolTableRecord
100
AcDbLayerTableRecord
  2
FRAMELAYER-231
 70
     0
 62
     7
  6
Continuous
370
    -3
390
F
  0
LAYER
  5
238
330
2
100
AcDbSymbolTableRecord
100
AcDbLayerTableRecord
  2
FRAMELAYER-232
 70
     0
 62
     7
  6
Continuous
370
    -3
390
F
  0
LAYER
  5
239
330
2
100
AcDbSymbolTableRecord
100
AcDbLayerTableRecord
  2
FRAMELAYER-233
 70
     0
 62
     7
  6
Continuous
370
    -3
390
F
  0
LAYER
  5
23A
330
2
100
AcDbSymbolTableRecord
100
AcDbLayerTableRecord
  2
FRAMELAYER-234
 70
     0
 62
     7
  6
Continuous
370
    -3
390
F
  0
LAYER
  5
23B
330
2
100
AcDbSymbolTableRecord
100
AcDbLayerTableRecord
  2
FRAMELAYER-235
 70
     0
 62
     7
  6
Continuous
370
    -3
390
F
  0
LAYER
  5
23C
330
2
100
AcDbSymbolTableRecord
100
AcDbLayerTableRecord
  2
FRAMELAYER-236
 70
     0
 62
     7
  6
Continuous
370
    -3
390
F
  0
LAYER
  5
23D
330
2
100
AcDbSymbolTableRecord
100
AcDbLayerTableRecord
  2
FRAMELAYER-237
 70
     0
 62
     7
  6
Continuous
370
    -3
390
F
  0
LAYER
  5
23E
330
2
100
AcDbSymbolTableRecord
100
AcDbLayerTableRecord
  2
FRAMELAYER-238
 70
     0
 62
     7
  6
Continuous
370
    -3
390
F
  0
LAYER
  5
23F
330
2
100
AcDbSymbolTableRecord
100
AcDbLayerTableRecord
  2
FRAMELAYER-239
 70
     0
 62
     7
  6
Continuous
370
    -3
390
F
  0
LAYER
  5
240
330
2
100
AcDbSymbolTableRecord
100
AcDbLayerTableRecord
  2
FRAMELAYER-240
 70
     0
 62
     7
  6
Continuous
370
    -3
390
F
  0
LAYER
  5
241
330
2
100
AcDbSymbolTableRecord
100
AcDbLayerTableRecord
  2
FRAMELAYER-241
 70
     0
 62
     7
  6
Continuous
370
    -3
390
F
  0
LAYER
  5
242
330
2
100
AcDbSymbolTableRecord
100
AcDbLayerTableRecord
  2
FRAMELAYER-242
 70
     0
 62
     7
  6
Continuous
370
    -3
390
F
  0
LAYER
  5
243
330
2
100
AcDbSymbolTableRecord
100
AcDbLayerTableRecord
  2
FRAMELAYER-243
 70
     0
 62
     7
  6
Continuous
370
    -3
390
F
  0
LAYER
  5
244
330
2
100
AcDbSymbolTableRecord
100
AcDbLayerTableRecord
  2
FRAMELAYER-244
 70
     0
 62
     7
  6
Continuous
370
    -3
390
F
  0
LAYER
  5
245
330
2
100
AcDbSymbolTableRecord
100
AcDbLayerTableRecord
  2
FRAMELAYER-245
 70
     0
 62
     7
  6
Continuous
370
    -3
390
F
  0
LAYER
  5
246
330
2
100
AcDbSymbolTableRecord
100
AcDbLayerTableRecord
  2
FRAMELAYER-246
 70
     0
 62
     7
  6
Continuous
370
    -3
390
F
  0
LAYER
  5
247
330
2
100
AcDbSymbolTableRecord
100
AcDbLayerTableRecord
  2
FRAMELAYER-247
 70
     0
 62
     7
  6
Continuous
370
    -3
390
F
  0
LAYER
  5
248
330
2
100
AcDbSymbolTableRecord
100
AcDbLayerTableRecord
  2
FRAMELAYER-248
 70
     0
 62
     7
  6
Continuous
370
    -3
390
F
  0
LAYER
  5
249
330
2
100
AcDbSymbolTableRecord
100
AcDbLayerTableRecord
  2
FRAMELAYER-249
 70
     0
 62
     7
  6
Continuous
370
    -3
390
F
  0
LAYER
  5
24A
330
2
100
AcDbSymbolTableRecord
100
AcDbLayerTableRecord
  2
FRAMELAYER-250
 70
     0
 62
     7
  6
Continuous
370
    -3
390
F
  0
LAYER
  5
24B
330
2
100
AcDbSymbolTableRecord
100
AcDbLayerTableRecord
  2
FRAMELAYER-251
 70
     0
 62
     7
  6
Continuous
370
    -3
390
F
  0
LAYER
  5
24C
330
2
100
AcDbSymbolTableRecord
100
AcDbLayerTableRecord
  2
FRAMELAYER-252
 70
     0
 62
     7
  6
Continuous
370
    -3
390
F
  0
LAYER
  5
24D
330
2
100
AcDbSymbolTableRecord
100
AcDbLayerTableRecord
  2
FRAMELAYER-253
 70
     0
 62
     7
  6
Continuous
370
    -3
390
F
  0
LAYER
  5
24E
330
2
100
AcDbSymbolTableRecord
100
AcDbLayerTableRecord
  2
FRAMELAYER-254
 70
     0
 62
     7
  6
Continuous
370
    -3
390
F
  0
LAYER
  5
24F
330
2
100
AcDbSymbolTableRecord
100
AcDbLayerTableRecord
  2
FRAMELAYER-255
 70
     0
 62
     7
  6
Continuous
370
    -3
390
F
  0
LAYER
  5
250
330
2
100
AcDbSymbolTableRecord
100
AcDbLayerTableRecord
  2
FRAMELAYER-256
 70
     0
 62
     7
  6
Continuous
370
    -3
390
F
  0
ENDTAB
  0
TABLE
  2
STYLE
  5
3
330
0
100
AcDbSymbolTable
 70
     7
  0
STYLE
  5
11
330
3
100
AcDbSymbolTableRecord
100
AcDbTextStyleTableRecord
  2
Standard
 70
     0
 40
0.0
 41
1.0
 50
0.0
 71
     0
 42
2.5
  3
txt
  4

  0
STYLE
  5
31
330
3
100
AcDbSymbolTableRecord
100
AcDbTextStyleTableRecord
  2
STANDARD2
 70
     0
 40
0.0
 41
1.0
 50
0.0
 71
     0
 42
4.0
  3
MS Mincho.ttf
  4

1001
ACAD
1000
MS Mincho
1071
    32785
  0
STYLE
  5
32
330
3
100
AcDbSymbolTableRecord
100
AcDbTextStyleTableRecord
  2
STRING_H
 70
     0
 40
0.0
 41
1.0
 50
0.0
 71
     0
 42
4.0
  3
MS Mincho.ttf
  4

1001
ACAD
1000
MS Mincho
1071
    32785
  0
STYLE
  5
33
330
3
100
AcDbSymbolTableRecord
100
AcDbTextStyleTableRecord
  2
STRING_H_ITALIC
 70
     0
 40
0.0
 41
1.0
 50
15.0
 71
     0
 42
4.0
  3
MS Mincho.ttf
  4

1001
ACAD
1000
MS Mincho
1071
    32785
  0
STYLE
  5
34
330
3
100
AcDbSymbolTableRecord
100
AcDbTextStyleTableRecord
  2
STRING_V
 70
     0
 40
0.0
 41
1.0
 50
0.0
 71
     0
 42
4.0
  3
@MS Mincho.ttf
  4

1001
ACAD
1000
@MS Mincho
1071
    32785
  0
STYLE
  5
35
330
3
100
AcDbSymbolTableRecord
100
AcDbTextStyleTableRecord
  2
STRING_V_ITALIC
 70
     0
 40
0.0
 41
1.0
 50
15.0
 71
     0
 42
4.0
  3
@MS Mincho.ttf
  4

1001
ACAD
1000
@MS Mincho
1071
    32785
  0
STYLE
  5
36
330
3
100
AcDbSymbolTableRecord
100
AcDbTextStyleTableRecord
  2

 70
     1
 40
0.0
 41
1.0
 50
0.0
 71
     0
 42
0.2
  3
ltypeshp.shx
  4

  0
ENDTAB
  0
TABLE
  2
VIEW
  5
6
330
0
100
AcDbSymbolTable
 70
     0
  0
ENDTAB
  0
TABLE
  2
UCS
  5
7
330
0
100
AcDbSymbolTable
 70
     0
  0
ENDTAB
  0
TABLE
  2
APPID
  5
9
330
0
100
AcDbSymbolTable
 70
     1
  0
APPID
  5
12
330
9
100
AcDbSymbolTableRecord
100
AcDbRegAppTableRecord
  2
ACAD
 70
     0
  0
ENDTAB
  0
TABLE
  2
DIMSTYLE
  5
A
330
0
100
AcDbSymbolTable
 70
     2
100
AcDbDimStyleTable
  0
DIMSTYLE
105
27
330
A
100
AcDbSymbolTableRecord
100
AcDbDimStyleTableRecord
  2
ISO-25
 70
     0
 41
2.5
 42
0.625
 43
3.75
 44
1.25
 73
     0
 74
     0
 77
     1
 78
     8
140
2.5
141
2.5
143
0.03937007874016
147
0.625
171
     3
172
     1
271
     2
272
     2
274
     3
283
     0
284
     8
340
11
  0
DIMSTYLE
105
251
102
{ACAD_REACTORS
330
5FF
330
60C
330
616
330
620
330
62A
330
634
330
63E
330
648
330
652
102
}
330
A
100
AcDbSymbolTableRecord
100
AcDbDimStyleTableRecord
  2
DIO_DIMSTYLE
 70
     0
 41
4.0
 42
1.0
 43
3.75
 44
1.0
 45
0.1
 73
     0
 74
     0
 77
     1
 78
     8
 79
     2
140
3.0
141
2.5
143
0.03937007874016
147
0.5
171
     3
172
     1
173
     1
179
     1
271
     1
272
     1
274
     3
283
     0
284
     8
288
     1
289
     0
340
31
  0
ENDTAB
  0
TABLE
  2
BLOCK_RECORD
  5
1
330
0
100
AcDbSymbolTable
 70
    11
  0
BLOCK_RECORD
  5
1F
330
1
100
AcDbSymbolTableRecord
100
AcDbBlockTableRecord
  2
*Model_Space
340
22
  0
BLOCK_RECORD
  5
1B
330
1
100
AcDbSymbolTableRecord
100
AcDbBlockTableRecord
  2
*Paper_Space
340
1E
  0
BLOCK_RECORD
  5
23
330
1
100
AcDbSymbolTableRecord
100
AcDbBlockTableRecord
  2
*Paper_Space0
340
26
  0
BLOCK_RECORD
  5
5EE
330
1
100
AcDbSymbolTableRecord
100
AcDbBlockTableRecord
  2
_OPEN
340
0
102
{BLKREFS
331
5F7
331
5F8
331
606
331
607
331
610
331
611
331
61A
331
61B
331
624
331
625
331
62E
331
62F
331
638
331
639
331
642
331
643
331
64C
331
64D
102
}
  0
BLOCK_RECORD
  5
5F4
330
1
100
AcDbSymbolTableRecord
100
AcDbBlockTableRecord
  2
*D02
340
0
  0
BLOCK_RECORD
  5
603
330
1
100
AcDbSymbolTableRecord
100
AcDbBlockTableRecord
  2
*D13
340
0
  0
BLOCK_RECORD
  5
60D
330
1
100
AcDbSymbolTableRecord
100
AcDbBlockTableRecord
  2
*D24
340
0
  0
BLOCK_RECORD
  5
617
330
1
100
AcDbSymbolTableRecord
100
AcDbBlockTableRecord
  2
*D35
340
0
  0
BLOCK_RECORD
  5
621
330
1
100
AcDbSymbolTableRecord
100
AcDbBlockTableRecord
  2
*D46
340
0
  0
BLOCK_RECORD
  5
62B
330
1
100
AcDbSymbolTableRecord
100
AcDbBlockTableRecord
  2
*D57
340
0
  0
BLOCK_RECORD
  5
635
330
1
100
AcDbSymbolTableRecord
100
AcDbBlockTableRecord
  2
*D68
340
0
  0
BLOCK_RECORD
  5
63F
330
1
100
AcDbSymbolTableRecord
100
AcDbBlockTableRecord
  2
*D79
340
0
  0
BLOCK_RECORD
  5
649
330
1
100
AcDbSymbolTableRecord
100
AcDbBlockTableRecord
  2
*D810
340
0
  0
ENDTAB
  0
ENDSEC
  0
SECTION
  2
BLOCKS
  0
BLOCK
  5
20
330
1F
100
AcDbEntity
  8
0
100
AcDbBlockBegin
  2
*Model_Space
 70
     0
 71
     0
 10
0.0
 20
0.0
 30
0.0
  3
*Model_Space
  1

  0
ENDBLK
  5
21
330
1F
100
AcDbEntity
  8
0
100
AcDbBlockEnd
  0
BLOCK
  5
1C
330
1B
100
AcDbEntity
 67
     1
  8
0
100
AcDbBlockBegin
  2
*Paper_Space
 70
     0
 71
     0
 10
0.0
 20
0.0
 30
0.0
  3
*Paper_Space
  1

  0
ENDBLK
  5
1D
330
1B
100
AcDbEntity
 67
     1
  8
0
100
AcDbBlockEnd
  0
BLOCK
  5
24
330
23
100
AcDbEntity
  8
0
100
AcDbBlockBegin
  2
*Paper_Space0
 70
     0
 71
     0
 10
0.0
 20
0.0
 30
0.0
  3
*Paper_Space0
  1

  0
ENDBLK
  5
25
330
23
100
AcDbEntity
  8
0
100
AcDbBlockEnd
  0
BLOCK
  5
5EF
330
5EE
100
AcDbEntity
  8
0
100
AcDbBlockBegin
  2
_OPEN
 70
     0
 71
     0
 10
0.0
 20
0.0
 30
0.0
  3
_OPEN
  1

  0
LINE
  5
5F1
330
5EE
100
AcDbEntity
  8
LAYER-035
  6
Continuous
 62
     0
100
AcDbLine
 10
0.0
 20
0.0
 30
0.0
 11
-1.0
 21
0.0
 31
0.0
  0
LINE
  5
5F2
330
5EE
100
AcDbEntity
  8
LAYER-035
  6
Continuous
 62
     0
100
AcDbLine
 10
0.0
 20
0.0
 30
0.0
 11
-1.0
 21
0.1666250109338451
 31
0.0
  0
LINE
  5
5F3
330
5EE
100
AcDbEntity
  8
LAYER-035
  6
Continuous
 62
     0
100
AcDbLine
 10
0.0
 20
0.0
 30
0.0
 11
-1.0
 21
-0.1666250109338451
 31
0.0
  0
ENDBLK
  5
5F0
330
5EE
100
AcDbEntity
  8
0
100
AcDbBlockEnd
  0
BLOCK
  5
5F5
330
5F4
100
AcDbEntity
  8
0
100
AcDbBlockBegin
  2
*D02
 70
     1
 71
     0
 10
0.0
 20
0.0
 30
0.0
  3
*D02
  1

  0
INSERT
  5
5F7
330
5F4
100
AcDbEntity
  8
LAYER-035
  6
Continuous
 62
     5
100
AcDbBlockReference
  2
_OPEN
 10
266.2296567069295
 20
-153.8502666230861
 30
0.0
 41
4.0
 42
4.0
 43
4.0
 50
180.0
  0
INSERT
  5
5F8
330
5F4
100
AcDbEntity
  8
LAYER-035
  6
Continuous
 62
     5
100
AcDbBlockReference
  2
_OPEN
 10
256.2296567069295
 20
-153.8502666230861
 30
0.0
 41
4.0
 42
4.0
 43
4.0
  0
LINE
  5
5F9
330
5F4
100
AcDbEntity
  8
LAYER-035
  6
Continuous
 62
     5
100
AcDbLine
 10
266.2296567069295
 20
-135.7573426573426
 30
0.0
 11
266.2296567069295
 21
-154.8502666230861
 31
0.0
  0
LINE
  5
5FA
330
5F4
100
AcDbEntity
  8
LAYER-035
  6
Continuous
 62
     5
100
AcDbLine
 10
256.2296567069295
 20
-135.7573426573426
 30
0.0
 11
256.2296567069295
 21
-154.8502666230861
 31
0.0
  0
LINE
  5
5FB
330
5F4
100
AcDbEntity
  8
LAYER-035
  6
Continuous
 62
     5
100
AcDbLine
 10
266.2296567069295
 20
-153.8502666230861
 30
0.0
 11
256.2296567069295
 21
-153.8502666230861
 31
0.0
  0
LINE
  5
5FC
330
5F4
100
AcDbEntity
  8
LAYER-035
  6
Continuous
 62
     5
100
AcDbLine
 10
256.2296567069295
 20
-153.8502666230861
 30
0.0
 11
244.2692539449295
 21
-153.8502666230861
 31
0.0
  0
LINE
  5
5FD
330
5F4
100
AcDbEntity
  8
LAYER-035
  6
Continuous
 62
     5
100
AcDbLine
 10
266.2296567069295
 20
-153.8502666230861
 30
0.0
 11
274.2296567069295
 21
-153.8502666230861
 31
0.0
  0
MTEXT
  5
5FE
330
5F4
100
AcDbEntity
  8
LAYER-036
  6
Continuous
 62
     5
100
AcDbMText
 10
254.2692539449295
 20
-153.3502666230861
 30
0.0
 40
4.0
 41
0.0
 71
     9
 72
     1
  1
10
  7
STRING_H
 73
     1
 44
1.0
  0
ENDBLK
  5
5F6
330
5F4
100
AcDbEntity
  8
0
100
AcDbBlockEnd
  0
BLOCK
  5
604
330
603
100
AcDbEntity
  8
0
100
AcDbBlockBegin
  2
*D13
 70
     1
 71
     0
 10
0.0
 20
0.0
 30
0.0
  3
*D13
  1

  0
INSERT
  5
606
330
603
100
AcDbEntity
  8
LAYER-035
  6
Continuous
 62
     5
100
AcDbBlockReference
  2
_OPEN
 10
-217.9077717736808
 20
-153.8502666230861
 30
0.0
 41
4.0
 42
4.0
 43
4.0
 50
180.0
  0
INSERT
  5
607
330
603
100
AcDbEntity
  8
LAYER-035
  6
Continuous
 62
     5
100
AcDbBlockReference
  2
_OPEN
 10
-27.90777177368082
 20
-153.8502666230861
 30
0.0
 41
4.0
 42
4.0
 43
4.0
  0
LINE
  5
608
330
603
100
AcDbEntity
  8
LAYER-035
  6
Continuous
 62
     5
100
AcDbLine
 10
-217.9077717736808
 20
-114.9697362768469
 30
0.0
 11
-217.9077717736808
 21
-154.8502666230861
 31
0.0
  0
LINE
  5
609
330
603
100
AcDbEntity
  8
LAYER-035
  6
Continuous
 62
     5
100
AcDbLine
 10
-27.90777177368082
 20
-114.9697362768469
 30
0.0
 11
-27.90777177368082
 21
-154.8502666230861
 31
0.0
  0
LINE
  5
60A
330
603
100
AcDbEntity
  8
LAYER-035
  6
Continuous
 62
     5
100
AcDbLine
 10
-217.9077717736808
 20
-153.8502666230861
 30
0.0
 11
-27.90777177368082
 21
-153.8502666230861
 31
0.0
  0
MTEXT
  5
60B
330
603
100
AcDbEntity
  8
LAYER-036
  6
Continuous
 62
     5
100
AcDbMText
 10
-122.9077717736808
 20
-153.3502666230861
 30
0.0
 40
4.0
 41
0.0
 71
     8
 72
     1
  1
190
  7
STRING_H
 73
     1
 44
1.0
  0
ENDBLK
  5
605
330
603
100
AcDbEntity
  8
0
100
AcDbBlockEnd
  0
BLOCK
  5
60E
330
60D
100
AcDbEntity
  8
0
100
AcDbBlockBegin
  2
*D24
 70
     1
 71
     0
 10
0.0
 20
0.0
 30
0.0
  3
*D24
  1

  0
INSERT
  5
610
330
60D
100
AcDbEntity
  8
LAYER-035
  6
Continuous
 62
     5
100
AcDbBlockReference
  2
_OPEN
 10
-237.9077717736808
 20
-167.7997298688704
 30
0.0
 41
4.0
 42
4.0
 43
4.0
 50
180.0
  0
INSERT
  5
611
330
60D
100
AcDbEntity
  8
LAYER-035
  6
Continuous
 62
     5
100
AcDbBlockReference
  2
_OPEN
 10
-7.907771773680821
 20
-167.7997298688704
 30
0.0
 41
4.0
 42
4.0
 43
4.0
  0
LINE
  5
612
330
60D
100
AcDbEntity
  8
LAYER-035
  6
Continuous
 62
     5
100
AcDbLine
 10
-237.9077717736808
 20
-135.7573426573427
 30
0.0
 11
-237.9077717736808
 21
-168.7997298688704
 31
0.0
  0
LINE
  5
613
330
60D
100
AcDbEntity
  8
LAYER-035
  6
Continuous
 62
     5
100
AcDbLine
 10
-7.907771773680821
 20
-135.7573426573427
 30
0.0
 11
-7.907771773680821
 21
-168.7997298688704
 31
0.0
  0
LINE
  5
614
330
60D
100
AcDbEntity
  8
LAYER-035
  6
Continuous
 62
     5
100
AcDbLine
 10
-237.9077717736808
 20
-167.7997298688704
 30
0.0
 11
-7.907771773680821
 21
-167.7997298688704
 31
0.0
  0
MTEXT
  5
615
330
60D
100
AcDbEntity
  8
LAYER-036
  6
Continuous
 62
     5
100
AcDbMText
 10
-122.9077717736808
 20
-167.2997298688704
 30
0.0
 40
4.0
 41
0.0
 71
     8
 72
     1
  1
230
  7
STRING_H
 73
     1
 44
1.0
  0
ENDBLK
  5
60F
330
60D
100
AcDbEntity
  8
0
100
AcDbBlockEnd
  0
BLOCK
  5
618
330
617
100
AcDbEntity
  8
0
100
AcDbBlockBegin
  2
*D35
 70
     1
 71
     0
 10
0.0
 20
0.0
 30
0.0
  3
*D35
  1

  0
INSERT
  5
61A
330
617
100
AcDbEntity
  8
LAYER-035
  6
Continuous
 62
     5
100
AcDbBlockReference
  2
_OPEN
 10
16.33248447355268
 20
-104.7573426573427
 30
0.0
 41
4.0
 42
4.0
 43
4.0
 50
90.0
  0
INSERT
  5
61B
330
617
100
AcDbEntity
  8
LAYER-035
  6
Continuous
 62
     5
100
AcDbBlockReference
  2
_OPEN
 10
16.33248447355268
 20
-134.7573426573427
 30
0.0
 41
4.0
 42
4.0
 43
4.0
 50
-90.0
  0
LINE
  5
61C
330
617
100
AcDbEntity
  8
LAYER-035
  6
Continuous
 62
     5
100
AcDbLine
 10
-17.69537815417655
 20
-104.7573426573427
 30
0.0
 11
17.33248447355268
 21
-104.7573426573427
 31
0.0
  0
LINE
  5
61D
330
617
100
AcDbEntity
  8
LAYER-035
  6
Continuous
 62
     5
100
AcDbLine
 10
-6.907771773680821
 20
-134.7573426573427
 30
0.0
 11
17.33248447355268
 21
-134.7573426573427
 31
0.0
  0
LINE
  5
61E
330
617
100
AcDbEntity
  8
LAYER-035
  6
Continuous
 62
     5
100
AcDbLine
 10
16.33248447355268
 20
-104.7573426573427
 30
0.0
 11
16.33248447355268
 21
-134.7573426573427
 31
0.0
  0
MTEXT
  5
61F
330
617
100
AcDbEntity
  8
LAYER-036
  6
Continuous
 62
     5
100
AcDbMText
 10
15.83248447355268
 20
-119.7573426573427
 30
0.0
 40
4.0
 41
0.0
 71
     8
 72
     1
  1
30
  7
STRING_H
 11
6.123031769111886E-17
 21
1.0
 31
0.0
 73
     1
 44
1.0
  0
ENDBLK
  5
619
330
617
100
AcDbEntity
  8
0
100
AcDbBlockEnd
  0
BLOCK
  5
622
330
621
100
AcDbEntity
  8
0
100
AcDbBlockBegin
  2
*D46
 70
     1
 71
     0
 10
0.0
 20
0.0
 30
0.0
  3
*D46
  1

  0
INSERT
  5
624
330
621
100
AcDbEntity
  8
LAYER-035
  6
Continuous
 62
     5
100
AcDbBlockReference
  2
_OPEN
 10
16.33248447355268
 20
165.2426573426573
 30
0.0
 41
4.0
 42
4.0
 43
4.0
 50
90.0
  0
INSERT
  5
625
330
621
100
AcDbEntity
  8
LAYER-035
  6
Continuous
 62
     5
100
AcDbBlockReference
  2
_OPEN
 10
16.33248447355268
 20
-104.7573426573427
 30
0.0
 41
4.0
 42
4.0
 43
4.0
 50
-90.0
  0
LINE
  5
626
330
621
100
AcDbEntity
  8
LAYER-035
  6
Continuous
 62
     5
100
AcDbLine
 10
-17.69537815368082
 20
165.2426573426574
 30
0.0
 11
17.33248447355268
 21
165.2426573426573
 31
0.0
  0
LINE
  5
627
330
621
100
AcDbEntity
  8
LAYER-035
  6
Continuous
 62
     5
100
AcDbLine
 10
-17.69537815417655
 20
-104.7573426573427
 30
0.0
 11
17.33248447355268
 21
-104.7573426573427
 31
0.0
  0
LINE
  5
628
330
621
100
AcDbEntity
  8
LAYER-035
  6
Continuous
 62
     5
100
AcDbLine
 10
16.33248447355268
 20
165.2426573426573
 30
0.0
 11
16.33248447355268
 21
-104.7573426573427
 31
0.0
  0
MTEXT
  5
629
330
621
100
AcDbEntity
  8
LAYER-036
  6
Continuous
 62
     5
100
AcDbMText
 10
15.83248447355268
 20
30.24265734265731
 30
0.0
 40
4.0
 41
0.0
 71
     8
 72
     1
  1
270
  7
STRING_H
 11
6.123031769111886E-17
 21
1.0
 31
0.0
 73
     1
 44
1.0
  0
ENDBLK
  5
623
330
621
100
AcDbEntity
  8
0
100
AcDbBlockEnd
  0
BLOCK
  5
62C
330
62B
100
AcDbEntity
  8
0
100
AcDbBlockBegin
  2
*D57
 70
     1
 71
     0
 10
0.0
 20
0.0
 30
0.0
  3
*D57
  1

  0
INSERT
  5
62E
330
62B
100
AcDbEntity
  8
LAYER-035
  6
Continuous
 62
     5
100
AcDbBlockReference
  2
_OPEN
 10
16.33248447355268
 20
315.2426573426573
 30
0.0
 41
4.0
 42
4.0
 43
4.0
 50
90.0
  0
INSERT
  5
62F
330
62B
100
AcDbEntity
  8
LAYER-035
  6
Continuous
 62
     5
100
AcDbBlockReference
  2
_OPEN
 10
16.33248447355268
 20
165.2426573426573
 30
0.0
 41
4.0
 42
4.0
 43
4.0
 50
-90.0
  0
LINE
  5
630
330
62B
100
AcDbEntity
  8
LAYER-035
  6
Continuous
 62
     5
100
AcDbLine
 10
-6.907771773680821
 20
315.2426573426574
 30
0.0
 11
17.33248447355268
 21
315.2426573426573
 31
0.0
  0
LINE
  5
631
330
62B
100
AcDbEntity
  8
LAYER-035
  6
Continuous
 62
     5
100
AcDbLine
 10
-17.69537815368082
 20
165.2426573426574
 30
0.0
 11
17.33248447355268
 21
165.2426573426573
 31
0.0
  0
LINE
  5
632
330
62B
100
AcDbEntity
  8
LAYER-035
  6
Continuous
 62
     5
100
AcDbLine
 10
16.33248447355268
 20
315.2426573426573
 30
0.0
 11
16.33248447355268
 21
165.2426573426573
 31
0.0
  0
MTEXT
  5
633
330
62B
100
AcDbEntity
  8
LAYER-036
  6
Continuous
 62
     5
100
AcDbMText
 10
15.83248447355268
 20
240.2426573426573
 30
0.0
 40
4.0
 41
0.0
 71
     8
 72
     1
  1
150
  7
STRING_H
 11
6.123031769111886E-17
 21
1.0
 31
0.0
 73
     1
 44
1.0
  0
ENDBLK
  5
62D
330
62B
100
AcDbEntity
  8
0
100
AcDbBlockEnd
  0
BLOCK
  5
636
330
635
100
AcDbEntity
  8
0
100
AcDbBlockBegin
  2
*D68
 70
     1
 71
     0
 10
0.0
 20
0.0
 30
0.0
  3
*D68
  1

  0
INSERT
  5
638
330
635
100
AcDbEntity
  8
LAYER-035
  6
Continuous
 62
     5
100
AcDbBlockReference
  2
_OPEN
 10
37.13124602670057
 20
315.2426573426574
 30
0.0
 41
4.0
 42
4.0
 43
4.0
 50
90.0
  0
INSERT
  5
639
330
635
100
AcDbEntity
  8
LAYER-035
  6
Continuous
 62
     5
100
AcDbBlockReference
  2
_OPEN
 10
37.13124602670057
 20
-134.7573426573427
 30
0.0
 41
4.0
 42
4.0
 43
4.0
 50
-90.0
  0
LINE
  5
63A
330
635
100
AcDbEntity
  8
LAYER-035
  6
Continuous
 62
     5
100
AcDbLine
 10
-6.907771773680821
 20
315.2426573426574
 30
0.0
 11
38.13124602670057
 21
315.2426573426574
 31
0.0
  0
LINE
  5
63B
330
635
100
AcDbEntity
  8
LAYER-035
  6
Continuous
 62
     5
100
AcDbLine
 10
-6.907771773680821
 20
-134.7573426573427
 30
0.0
 11
38.13124602670057
 21
-134.7573426573427
 31
0.0
  0
LINE
  5
63C
330
635
100
AcDbEntity
  8
LAYER-035
  6
Continuous
 62
     5
100
AcDbLine
 10
37.13124602670057
 20
315.2426573426574
 30
0.0
 11
37.13124602670057
 21
-134.7573426573427
 31
0.0
  0
MTEXT
  5
63D
330
635
100
AcDbEntity
  8
LAYER-036
  6
Continuous
 62
     5
100
AcDbMText
 10
36.63124602670057
 20
90.24265734265738
 30
0.0
 40
4.0
 41
0.0
 71
     8
 72
     1
  1
450
  7
STRING_H
 11
6.123031769111886E-17
 21
1.0
 31
0.0
 73
     1
 44
1.0
  0
ENDBLK
  5
637
330
635
100
AcDbEntity
  8
0
100
AcDbBlockEnd
  0
BLOCK
  5
640
330
63F
100
AcDbEntity
  8
0
100
AcDbBlockBegin
  2
*D79
 70
     1
 71
     0
 10
0.0
 20
0.0
 30
0.0
  3
*D79
  1

  0
INSERT
  5
642
330
63F
100
AcDbEntity
  8
LAYER-035
  6
Continuous
 62
     5
100
AcDbBlockReference
  2
_OPEN
 10
256.2296567069295
 20
171.5028552391769
 30
0.0
 41
4.0
 42
4.0
 43
4.0
  0
INSERT
  5
643
330
63F
100
AcDbEntity
  8
LAYER-035
  6
Continuous
 62
     5
100
AcDbBlockReference
  2
_OPEN
 10
91.22965670692946
 20
171.5028552391769
 30
0.0
 41
4.0
 42
4.0
 43
4.0
 50
180.0
  0
LINE
  5
644
330
63F
100
AcDbEntity
  8
LAYER-035
  6
Continuous
 62
     5
100
AcDbLine
 10
256.2296567069295
 20
120.492658681873
 30
0.0
 11
256.2296567069295
 21
172.5028552391769
 31
0.0
  0
LINE
  5
645
330
63F
100
AcDbEntity
  8
LAYER-035
  6
Continuous
 62
     5
100
AcDbLine
 10
91.22965670692946
 20
119.0072927653253
 30
0.0
 11
91.22965670692946
 21
172.5028552391769
 31
0.0
  0
LINE
  5
646
330
63F
100
AcDbEntity
  8
LAYER-035
  6
Continuous
 62
     5
100
AcDbLine
 10
256.2296567069295
 20
171.5028552391769
 30
0.0
 11
91.22965670692946
 21
171.5028552391769
 31
0.0
  0
MTEXT
  5
647
330
63F
100
AcDbEntity
  8
LAYER-036
  6
Continuous
 62
     5
100
AcDbMText
 10
173.7296567069295
 20
172.0028552391769
 30
0.0
 40
4.0
 41
0.0
 71
     8
 72
     1
  1
165
  7
STRING_H
 73
     1
 44
1.0
  0
ENDBLK
  5
641
330
63F
100
AcDbEntity
  8
0
100
AcDbBlockEnd
  0
BLOCK
  5
64A
330
649
100
AcDbEntity
  8
0
100
AcDbBlockBegin
  2
*D810
 70
     1
 71
     0
 10
0.0
 20
0.0
 30
0.0
  3
*D810
  1

  0
INSERT
  5
64C
330
649
100
AcDbEntity
  8
LAYER-035
  6
Continuous
 62
     5
100
AcDbBlockReference
  2
_OPEN
 10
266.2296567069295
 20
-167.7997298688704
 30
0.0
 41
4.0
 42
4.0
 43
4.0
  0
INSERT
  5
64D
330
649
100
AcDbEntity
  8
LAYER-035
  6
Continuous
 62
     5
100
AcDbBlockReference
  2
_OPEN
 10
91.22965670692946
 20
-167.7997298688704
 30
0.0
 41
4.0
 42
4.0
 43
4.0
 50
180.0
  0
LINE
  5
64E
330
649
100
AcDbEntity
  8
LAYER-035
  6
Continuous
 62
     5
100
AcDbLine
 10
266.2296567069295
 20
-135.7573426573426
 30
0.0
 11
266.2296567069295
 21
-168.7997298688704
 31
0.0
  0
LINE
  5
64F
330
649
100
AcDbEntity
  8
LAYER-035
  6
Continuous
 62
     5
100
AcDbLine
 10
91.22965670692946
 20
-58.52197807961736
 30
0.0
 11
91.22965670692946
 21
-168.7997298688704
 31
0.0
  0
LINE
  5
650
330
649
100
AcDbEntity
  8
LAYER-035
  6
Continuous
 62
     5
100
AcDbLine
 10
266.2296567069295
 20
-167.7997298688704
 30
0.0
 11
91.22965670692946
 21
-167.7997298688704
 31
0.0
  0
MTEXT
  5
651
330
649
100
AcDbEntity
  8
LAYER-036
  6
Continuous
 62
     5
100
AcDbMText
 10
178.7296567069295
 20
-167.2997298688704
 30
0.0
 40
4.0
 41
0.0
 71
     8
 72
     1
  1
175
  7
STRING_H
 73
     1
 44
1.0
  0
ENDBLK
  5
64B
330
649
100
AcDbEntity
  8
0
100
AcDbBlockEnd
  0
ENDSEC
  0
SECTION
  2
ENTITIES
  0
LINE
  5
252
330
1F
100
AcDbEntity
  8
LAYER-033
  6
Continuous
 62
     1
100
AcDbLine
 10
-80.71560684896083
 20
-235.2017527596956
 30
0.0
 11
53.99385090940275
 21
-235.2017527596956
 31
0.0
  0
LINE
  5
253
330
1F
100
AcDbEntity
  8
LAYER-033
  6
Continuous
 62
     1
100
AcDbLine
 10
-80.71560684896083
 20
-243.287202861
 30
0.0
 11
-22.64859653968249
 21
-243.287202861
 31
0.0
  0
LINE
  5
254
330
1F
100
AcDbEntity
  8
LAYER-033
  6
Continuous
 62
     1
100
AcDbLine
 10
-80.71560684896083
 20
-227.1163026583913
 30
0.0
 11
-22.64859653968249
 21
-227.1163026583913
 31
0.0
  0
LINE
  5
255
330
1F
100
AcDbEntity
  8
LAYER-033
  6
Continuous
 62
     1
100
AcDbLine
 10
-237.9077717736808
 20
315.2426573426574
 30
0.0
 11
-7.907771773680821
 21
315.2426573426574
 31
0.0
  0
LINE
  5
256
330
1F
100
AcDbEntity
  8
LAYER-033
  6
Continuous
 62
     1
100
AcDbLine
 10
-237.9077717736808
 20
315.2426573426574
 30
0.0
 11
-237.9077717736808
 21
-134.7573426573426
 31
0.0
  0
LINE
  5
257
330
1F
100
AcDbEntity
  8
LAYER-033
  6
Continuous
 62
     1
100
AcDbLine
 10
-7.907771773680821
 20
315.2426573426574
 30
0.0
 11
-7.907771773680821
 21
-134.7573426573426
 31
0.0
  0
LINE
  5
258
330
1F
100
AcDbEntity
  8
LAYER-033
  6
Continuous
 62
     1
100
AcDbLine
 10
-237.9077717736808
 20
-134.7573426573427
 30
0.0
 11
-7.907771773680821
 21
-134.7573426573427
 31
0.0
  0
CIRCLE
  5
259
330
1F
100
AcDbEntity
  8
LAYER-033
  6
Continuous
 62
     1
100
AcDbCircle
 10
-27.90777177368082
 20
-104.7573426573427
 30
0.0
 40
4.75
  0
LINE
  5
25A
330
1F
100
AcDbEntity
  8
LAYER-033
  6
CENTER
 62
     4
100
AcDbLine
 10
-37.12016539368082
 20
-104.7573426573427
 30
0.0
 11
-18.69537815417655
 21
-104.7573426573427
 31
0.0
  0
LINE
  5
25B
330
1F
100
AcDbEntity
  8
LAYER-033
  6
CENTER
 62
     4
100
AcDbLine
 10
-27.90777177368082
 20
-95.54494903734266
 30
0.0
 11
-27.90777177368082
 21
-113.9697362768469
 31
0.0
  0
CIRCLE
  5
25C
330
1F
100
AcDbEntity
  8
LAYER-033
  6
Continuous
 62
     1
100
AcDbCircle
 10
-27.90777177368082
 20
165.2426573426574
 30
0.0
 40
4.75
  0
LINE
  5
25D
330
1F
100
AcDbEntity
  8
LAYER-033
  6
CENTER
 62
     4
100
AcDbLine
 10
-27.90777177368082
 20
174.4550509626574
 30
0.0
 11
-27.90777177368082
 21
156.0302637226573
 31
0.0
  0
LINE
  5
25E
330
1F
100
AcDbEntity
  8
LAYER-033
  6
CENTER
 62
     4
100
AcDbLine
 10
-37.12016539368082
 20
165.2426573426574
 30
0.0
 11
-18.69537815368082
 21
165.2426573426574
 31
0.0
  0
CIRCLE
  5
25F
330
1F
100
AcDbEntity
  8
LAYER-033
  6
Continuous
 62
     1
100
AcDbCircle
 10
-217.9077717736808
 20
165.2426573426574
 30
0.0
 40
4.75
  0
LINE
  5
260
330
1F
100
AcDbEntity
  8
LAYER-033
  6
CENTER
 62
     4
100
AcDbLine
 10
-217.9077717736808
 20
174.4550509626574
 30
0.0
 11
-217.9077717736808
 21
156.0302637231531
 31
0.0
  0
LINE
  5
261
330
1F
100
AcDbEntity
  8
LAYER-033
  6
CENTER
 62
     4
100
AcDbLine
 10
-227.1201653936808
 20
165.2426573426574
 30
0.0
 11
-208.6953781536808
 21
165.2426573426574
 31
0.0
  0
CIRCLE
  5
262
330
1F
100
AcDbEntity
  8
LAYER-033
  6
Continuous
 62
     1
100
AcDbCircle
 10
-217.9077717736808
 20
-104.7573426573427
 30
0.0
 40
4.75
  0
LINE
  5
263
330
1F
100
AcDbEntity
  8
LAYER-033
  6
CENTER
 62
     4
100
AcDbLine
 10
-217.9077717736808
 20
-95.54494903734266
 30
0.0
 11
-217.9077717736808
 21
-113.9697362768469
 31
0.0
  0
LINE
  5
264
330
1F
100
AcDbEntity
  8
LAYER-033
  6
CENTER
 62
     4
100
AcDbLine
 10
-227.1201653936808
 20
-104.7573426573427
 30
0.0
 11
-208.6953781541766
 21
-104.7573426573427
 31
0.0
  0
LINE
  5
265
330
1F
100
AcDbEntity
  8
LAYER-033
  6
Continuous
 62
     1
100
AcDbLine
 10
-218.629703855
 20
282.9910949190669
 30
0.0
 11
-218.629703855
 21
207.9910949190669
 31
0.0
  0
LINE
  5
266
330
1F
100
AcDbEntity
  8
LAYER-033
  6
Continuous
 62
     1
100
AcDbLine
 10
-218.629703855
 20
282.9910949190669
 30
0.0
 11
-118.629703855
 21
282.9910949190669
 31
0.0
  0
LINE
  5
267
330
1F
100
AcDbEntity
  8
LAYER-033
  6
Continuous
 62
     1
100
AcDbLine
 10
-118.629703855
 20
282.9910949190669
 30
0.0
 11
-118.629703855
 21
207.9910949190669
 31
0.0
  0
LINE
  5
268
330
1F
100
AcDbEntity
  8
LAYER-033
  6
Continuous
 62
     1
100
AcDbLine
 10
-218.629703855
 20
207.9910949190669
 30
0.0
 11
-118.629703855
 21
207.9910949190669
 31
0.0
  0
LINE
  5
269
330
1F
100
AcDbEntity
  8
LAYER-002
  6
Continuous
 62
     1
100
AcDbLine
 10
-178.1297038550771
 20
246.0465878527068
 30
0.0
 11
-178.1297038550771
 21
218.2465878527067
 31
0.0
  0
LINE
  5
26A
330
1F
100
AcDbEntity
  8
LAYER-002
  6
Continuous
 62
     1
100
AcDbLine
 10
-199.1297038550771
 20
246.0465878527068
 30
0.0
 11
-178.1297038550771
 21
246.0465878527068
 31
0.0
  0
LINE
  5
26B
330
1F
100
AcDbEntity
  8
LAYER-002
  6
Continuous
 62
     1
100
AcDbLine
 10
-199.1297038550771
 20
218.2465878527067
 30
0.0
 11
-199.1297038550771
 21
246.0465878527068
 31
0.0
  0
LINE
  5
26C
330
1F
100
AcDbEntity
  8
LAYER-002
  6
Continuous
 62
     1
100
AcDbLine
 10
-178.1297038550771
 20
218.2465878527067
 30
0.0
 11
-199.1297038550771
 21
218.2465878527067
 31
0.0
  0
LINE
  5
26D
330
1F
100
AcDbEntity
  8
LAYER-003
  6
CENTER
 62
     4
100
AcDbLine
 10
-188.629703855
 20
249.1465878527067
 30
0.0
 11
-188.629703855
 21
215.1465878527067
 31
0.0
  0
LINE
  5
26E
330
1F
100
AcDbEntity
  8
LAYER-003
  6
CENTER
 62
     4
100
AcDbLine
 10
-202.129703855077
 20
232.1465878527067
 30
0.0
 11
-175.1297038550771
 21
232.1465878527067
 31
0.0
  0
LINE
  5
26F
330
1F
100
AcDbEntity
  8
LAYER-131
  6
CENTER
 62
     4
100
AcDbLine
 10
-164.129703855077
 20
232.1465878527067
 30
0.0
 11
-133.129703855077
 21
232.1465878527067
 31
0.0
  0
LINE
  5
270
330
1F
100
AcDbEntity
  8
LAYER-129
  6
Continuous
 62
     1
100
AcDbLine
 10
-159.129703855077
 20
246.0465878527068
 30
0.0
 11
-138.129703855077
 21
246.0465878527068
 31
0.0
  0
LINE
  5
271
330
1F
100
AcDbEntity
  8
LAYER-129
  6
Continuous
 62
     1
100
AcDbLine
 10
-159.129703855077
 20
218.2465878527067
 30
0.0
 11
-159.129703855077
 21
246.0465878527068
 31
0.0
  0
LINE
  5
272
330
1F
100
AcDbEntity
  8
LAYER-131
  6
CENTER
 62
     4
100
AcDbLine
 10
-148.629703855
 20
251.0465878527068
 30
0.0
 11
-148.629703855
 21
213.2465878527067
 31
0.0
  0
CIRCLE
  5
273
330
1F
100
AcDbEntity
  8
LAYER-129
  6
Continuous
 62
     1
100
AcDbCircle
 10
-148.629703855
 20
232.1465878527067
 30
0.0
 40
5.25
  0
CIRCLE
  5
274
330
1F
100
AcDbEntity
  8
LAYER-129
  6
Continuous
 62
     1
100
AcDbCircle
 10
-148.629703855
 20
232.1465878527067
 30
0.0
 40
9.25
  0
LINE
  5
275
330
1F
100
AcDbEntity
  8
LAYER-129
  6
Continuous
 62
     1
100
AcDbLine
 10
-138.129703855077
 20
246.0465878527068
 30
0.0
 11
-138.129703855077
 21
218.2465878527067
 31
0.0
  0
LINE
  5
276
330
1F
100
AcDbEntity
  8
LAYER-129
  6
Continuous
 62
     1
100
AcDbLine
 10
-138.129703855077
 20
218.2465878527067
 30
0.0
 11
-159.129703855077
 21
218.2465878527067
 31
0.0
  0
CIRCLE
  5
277
330
1F
100
AcDbEntity
  8
LAYER-033
  6
Continuous
 62
     1
100
AcDbCircle
 10
-123.629703855
 20
277.9910949190669
 30
0.0
 40
2.5
  0
LINE
  5
278
330
1F
100
AcDbEntity
  8
LAYER-033
  6
CENTER
 62
     4
100
AcDbLine
 10
-127.6079271947659
 20
277.9910949190669
 30
0.0
 11
-119.6514805153882
 21
277.9910949190669
 31
0.0
  0
LINE
  5
279
330
1F
100
AcDbEntity
  8
LAYER-033
  6
CENTER
 62
     4
100
AcDbLine
 10
-123.629703855
 20
281.9693182587558
 30
0.0
 11
-123.629703855
 21
274.0128715793781
 31
0.0
  0
CIRCLE
  5
27A
330
1F
100
AcDbEntity
  8
LAYER-033
  6
Continuous
 62
     1
100
AcDbCircle
 10
-123.629703855
 20
212.9910949190669
 30
0.0
 40
2.5
  0
LINE
  5
27B
330
1F
100
AcDbEntity
  8
LAYER-033
  6
CENTER
 62
     4
100
AcDbLine
 10
-127.6079271947659
 20
212.9910949190669
 30
0.0
 11
-119.6514805153882
 21
212.9910949190669
 31
0.0
  0
LINE
  5
27C
330
1F
100
AcDbEntity
  8
LAYER-033
  6
CENTER
 62
     4
100
AcDbLine
 10
-123.629703855
 20
216.9693182587558
 30
0.0
 11
-123.629703855
 21
209.0128715793781
 31
0.0
  0
CIRCLE
  5
27D
330
1F
100
AcDbEntity
  8
LAYER-033
  6
Continuous
 62
     1
100
AcDbCircle
 10
-213.629703855
 20
212.9910949190669
 30
0.0
 40
2.5
  0
LINE
  5
27E
330
1F
100
AcDbEntity
  8
LAYER-033
  6
CENTER
 62
     4
100
AcDbLine
 10
-217.6079271947659
 20
212.9910949190669
 30
0.0
 11
-209.6514805153882
 21
212.9910949190669
 31
0.0
  0
LINE
  5
27F
330
1F
100
AcDbEntity
  8
LAYER-033
  6
CENTER
 62
     4
100
AcDbLine
 10
-213.629703855
 20
216.9693182587558
 30
0.0
 11
-213.629703855
 21
209.0128715793781
 31
0.0
  0
CIRCLE
  5
280
330
1F
100
AcDbEntity
  8
LAYER-033
  6
Continuous
 62
     1
100
AcDbCircle
 10
-213.629703855
 20
277.9910949190669
 30
0.0
 40
2.5
  0
LINE
  5
281
330
1F
100
AcDbEntity
  8
LAYER-033
  6
CENTER
 62
     4
100
AcDbLine
 10
-217.6079271947659
 20
277.9910949190669
 30
0.0
 11
-209.6514805153882
 21
277.9910949190669
 31
0.0
  0
LINE
  5
282
330
1F
100
AcDbEntity
  8
LAYER-033
  6
CENTER
 62
     4
100
AcDbLine
 10
-213.629703855
 20
281.9693182587558
 30
0.0
 11
-213.629703855
 21
274.0128715793781
 31
0.0
  0
LINE
  5
283
330
1F
100
AcDbEntity
  8
LAYER-033
  6
Continuous
 62
     1
100
AcDbLine
 10
-207.8797038548741
 20
282.9910949190669
 30
0.0
 11
-129.379703855077
 21
282.9910949190669
 31
0.0
  0
LINE
  5
284
330
1F
100
AcDbEntity
  8
LAYER-033
  6
Continuous
 62
     1
100
AcDbLine
 10
-207.8797038548741
 20
282.9910949190669
 30
0.0
 11
-207.8797038548741
 21
267.9910949190669
 31
0.0
  0
LINE
  5
285
330
1F
100
AcDbEntity
  8
LAYER-033
  6
Continuous
 62
     1
100
AcDbLine
 10
-129.379703855077
 20
282.9910949190669
 30
0.0
 11
-129.379703855077
 21
267.9910949190669
 31
0.0
  0
LINE
  5
286
330
1F
100
AcDbEntity
  8
LAYER-033
  6
Continuous
 62
     1
100
AcDbLine
 10
-207.8797038548741
 20
267.9910949190669
 30
0.0
 11
-129.379703855077
 21
267.9910949190669
 31
0.0
  0
LINE
  5
287
330
1F
100
AcDbEntity
  8
LAYER-033
  6
Continuous
 62
     1
100
AcDbLine
 10
-131.279703855077
 20
282.9910949190669
 30
0.0
 11
-131.279703855077
 21
267.9910949190669
 31
0.0
  0
LINE
  5
288
330
1F
100
AcDbEntity
  8
LAYER-033
  6
Continuous
 62
     1
100
AcDbLine
 10
-139.479703855077
 20
282.9910949190669
 30
0.0
 11
-139.479703855077
 21
267.9910949190669
 31
0.0
  0
LINE
  5
289
330
1F
100
AcDbEntity
  8
LAYER-033
  6
Continuous
 62
     1
100
AcDbLine
 10
-140.779703855077
 20
282.9910949190669
 30
0.0
 11
-140.779703855077
 21
267.9910949190669
 31
0.0
  0
LINE
  5
28A
330
1F
100
AcDbEntity
  8
LAYER-033
  6
Continuous
 62
     1
100
AcDbLine
 10
-148.979703855077
 20
282.9910949190669
 30
0.0
 11
-148.979703855077
 21
267.9910949190669
 31
0.0
  0
LINE
  5
28B
330
1F
100
AcDbEntity
  8
LAYER-033
  6
Continuous
 62
     1
100
AcDbLine
 10
-150.279703855077
 20
282.9910949190669
 30
0.0
 11
-150.279703855077
 21
267.9910949190669
 31
0.0
  0
LINE
  5
28C
330
1F
100
AcDbEntity
  8
LAYER-033
  6
Continuous
 62
     1
100
AcDbLine
 10
-158.479703855077
 20
282.9910949190669
 30
0.0
 11
-158.479703855077
 21
267.9910949190669
 31
0.0
  0
LINE
  5
28D
330
1F
100
AcDbEntity
  8
LAYER-033
  6
Continuous
 62
     1
100
AcDbLine
 10
-159.779703855077
 20
282.9910949190669
 30
0.0
 11
-159.779703855077
 21
267.9910949190669
 31
0.0
  0
LINE
  5
28E
330
1F
100
AcDbEntity
  8
LAYER-033
  6
Continuous
 62
     1
100
AcDbLine
 10
-169.279703855077
 20
282.9910949190669
 30
0.0
 11
-169.279703855077
 21
267.9910949190669
 31
0.0
  0
LINE
  5
28F
330
1F
100
AcDbEntity
  8
LAYER-033
  6
Continuous
 62
     1
100
AcDbLine
 10
-167.979703855077
 20
282.9910949190669
 30
0.0
 11
-167.979703855077
 21
267.9910949190669
 31
0.0
  0
LINE
  5
290
330
1F
100
AcDbEntity
  8
LAYER-033
  6
Continuous
 62
     1
100
AcDbLine
 10
-177.479703855077
 20
282.9910949190669
 30
0.0
 11
-177.479703855077
 21
267.9910949190669
 31
0.0
  0
LINE
  5
291
330
1F
100
AcDbEntity
  8
LAYER-033
  6
Continuous
 62
     1
100
AcDbLine
 10
-178.779703855077
 20
282.9910949190669
 30
0.0
 11
-178.779703855077
 21
267.9910949190669
 31
0.0
  0
LINE
  5
292
330
1F
100
AcDbEntity
  8
LAYER-033
  6
Continuous
 62
     1
100
AcDbLine
 10
-186.979703855077
 20
282.9910949190669
 30
0.0
 11
-186.979703855077
 21
267.9910949190669
 31
0.0
  0
LINE
  5
293
330
1F
100
AcDbEntity
  8
LAYER-033
  6
Continuous
 62
     1
100
AcDbLine
 10
-188.279703855077
 20
282.9910949190669
 30
0.0
 11
-188.279703855077
 21
267.9910949190669
 31
0.0
  0
LINE
  5
294
330
1F
100
AcDbEntity
  8
LAYER-033
  6
Continuous
 62
     1
100
AcDbLine
 10
-196.479703855077
 20
282.9910949190669
 30
0.0
 11
-196.479703855077
 21
267.9910949190669
 31
0.0
  0
LINE
  5
295
330
1F
100
AcDbEntity
  8
LAYER-033
  6
Continuous
 62
     1
100
AcDbLine
 10
-197.779703855077
 20
282.9910949190669
 30
0.0
 11
-197.779703855077
 21
267.9910949190669
 31
0.0
  0
LINE
  5
296
330
1F
100
AcDbEntity
  8
LAYER-033
  6
Continuous
 62
     1
100
AcDbLine
 10
-205.979703855077
 20
282.9910949190669
 30
0.0
 11
-205.979703855077
 21
267.9910949190669
 31
0.0
  0
CIRCLE
  5
297
330
1F
100
AcDbEntity
  8
LAYER-033
  6
Continuous
 62
     1
100
AcDbCircle
 10
-135.379703855077
 20
275.4910949187801
 30
0.0
 40
2.779786057168341
  0
ARC
  5
298
330
1F
100
AcDbEntity
  8
LAYER-033
  6
Continuous
 62
     1
100
AcDbCircle
 10
-135.379703855077
 20
275.4910949187801
 30
0.0
 40
2.051187003369524
100
AcDbArc
 50
75.89135806941557
 51
104.1086419195895
  0
ARC
  5
299
330
1F
100
AcDbEntity
  8
LAYER-033
  6
Continuous
 62
     1
100
AcDbCircle
 10
-135.379703855077
 20
275.4910949187801
 30
0.0
 40
2.051187003369524
100
AcDbArc
 50
165.8913580606376
 51
194.1086419238185
  0
ARC
  5
29A
330
1F
100
AcDbEntity
  8
LAYER-033
  6
Continuous
 62
     1
100
AcDbCircle
 10
-135.379703855077
 20
275.4910949187801
 30
0.0
 40
2.051187003369524
100
AcDbArc
 50
255.8913580765037
 51
284.1086419344913
  0
ARC
  5
29B
330
1F
100
AcDbEntity
  8
LAYER-033
  6
Continuous
 62
     1
100
AcDbCircle
 10
-135.379703855077
 20
275.4910949187801
 30
0.0
 40
2.051187003369524
100
AcDbArc
 50
345.8913580779228
 51
14.10864193762109
  0
LINE
  5
29C
330
1F
100
AcDbEntity
  8
LAYER-033
  6
Continuous
 62
     1
100
AcDbLine
 10
-134.8797038548741
 20
276.4910949187801
 30
0.0
 11
-134.8797038548741
 21
277.480408399339
 31
0.0
  0
LINE
  5
29D
330
1F
100
AcDbEntity
  8
LAYER-033
  6
Continuous
 62
     1
100
AcDbLine
 10
-134.8797038548741
 20
274.4910949187801
 30
0.0
 11
-134.8797038548741
 21
273.5017814387949
 31
0.0
  0
LINE
  5
29E
330
1F
100
AcDbEntity
  8
LAYER-033
  6
Continuous
 62
     1
100
AcDbLine
 10
-134.379703855077
 20
275.9910949190669
 30
0.0
 11
-133.3903903752175
 21
275.9910949190669
 31
0.0
  0
LINE
  5
29F
330
1F
100
AcDbEntity
  8
LAYER-033
  6
Continuous
 62
     1
100
AcDbLine
 10
-135.8797038548741
 20
276.4910949187801
 30
0.0
 11
-135.8797038548741
 21
277.480408399339
 31
0.0
  0
LINE
  5
2A0
330
1F
100
AcDbEntity
  8
LAYER-033
  6
Continuous
 62
     1
100
AcDbLine
 10
-135.8797038548741
 20
274.4910949187801
 30
0.0
 11
-135.8797038548741
 21
273.5017814387949
 31
0.0
  0
LINE
  5
2A1
330
1F
100
AcDbEntity
  8
LAYER-033
  6
Continuous
 62
     1
100
AcDbLine
 10
-136.379703855077
 20
274.9910949190669
 30
0.0
 11
-137.3690173346808
 21
274.9910949190669
 31
0.0
  0
LINE
  5
2A2
330
1F
100
AcDbEntity
  8
LAYER-033
  6
Continuous
 62
     1
100
AcDbLine
 10
-134.379703855077
 20
274.9910949190669
 30
0.0
 11
-133.3903903752175
 21
274.9910949190669
 31
0.0
  0
LINE
  5
2A3
330
1F
100
AcDbEntity
  8
LAYER-033
  6
Continuous
 62
     1
100
AcDbLine
 10
-136.379703855077
 20
275.9910949190669
 30
0.0
 11
-137.3690173346808
 21
275.9910949190669
 31
0.0
  0
ARC
  5
2A4
330
1F
100
AcDbEntity
  8
LAYER-033
  6
Continuous
 62
     1
100
AcDbCircle
 10
-134.379703855077
 20
276.4910949187801
 30
0.0
 40
0.5
100
AcDbArc
 50
180.0
 51
270.0
  0
ARC
  5
2A5
330
1F
100
AcDbEntity
  8
LAYER-033
  6
Continuous
 62
     1
100
AcDbCircle
 10
-136.379703855077
 20
276.4910949187801
 30
0.0
 40
0.5
100
AcDbArc
 50
270.0
 51
0.0
  0
ARC
  5
2A6
330
1F
100
AcDbEntity
  8
LAYER-033
  6
Continuous
 62
     1
100
AcDbCircle
 10
-136.379703855077
 20
274.4910949187801
 30
0.0
 40
0.5
100
AcDbArc
 50
0.0
 51
90.0
  0
ARC
  5
2A7
330
1F
100
AcDbEntity
  8
LAYER-033
  6
Continuous
 62
     1
100
AcDbCircle
 10
-134.379703855077
 20
274.4910949187801
 30
0.0
 40
0.5
100
AcDbArc
 50
90.0
 51
180.0
  0
CIRCLE
  5
2A8
330
1F
100
AcDbEntity
  8
LAYER-033
  6
Continuous
 62
     1
100
AcDbCircle
 10
-144.8797038548741
 20
275.4910949187801
 30
0.0
 40
2.779786057168341
  0
ARC
  5
2A9
330
1F
100
AcDbEntity
  8
LAYER-033
  6
Continuous
 62
     1
100
AcDbCircle
 10
-144.8797038548741
 20
275.4910949187801
 30
0.0
 40
2.051187003369524
100
AcDbArc
 50
255.8913580655087
 51
284.1086419234963
  0
LINE
  5
2AA
330
1F
100
AcDbEntity
  8
LAYER-033
  6
Continuous
 62
     1
100
AcDbLine
 10
-144.379703855077
 20
274.4910949187801
 30
0.0
 11
-144.379703855077
 21
273.5017814387949
 31
0.0
  0
ARC
  5
2AB
330
1F
100
AcDbEntity
  8
LAYER-033
  6
Continuous
 62
     1
100
AcDbCircle
 10
-143.8797038548741
 20
274.4910949187801
 30
0.0
 40
0.5
100
AcDbArc
 50
90.0
 51
180.0
  0
LINE
  5
2AC
330
1F
100
AcDbEntity
  8
LAYER-033
  6
Continuous
 62
     1
100
AcDbLine
 10
-143.8797038548741
 20
274.9910949190669
 30
0.0
 11
-142.8903903753279
 21
274.9910949190669
 31
0.0
  0
ARC
  5
2AD
330
1F
100
AcDbEntity
  8
LAYER-033
  6
Continuous
 62
     1
100
AcDbCircle
 10
-144.8797038548741
 20
275.4910949187801
 30
0.0
 40
2.051187003369524
100
AcDbArc
 50
345.8913580757895
 51
14.10864193975429
  0
LINE
  5
2AE
330
1F
100
AcDbEntity
  8
LAYER-033
  6
Continuous
 62
     1
100
AcDbLine
 10
-143.8797038548741
 20
275.9910949190669
 30
0.0
 11
-142.8903903753279
 21
275.9910949190669
 31
0.0
  0
ARC
  5
2AF
330
1F
100
AcDbEntity
  8
LAYER-033
  6
Continuous
 62
     1
100
AcDbCircle
 10
-143.8797038548741
 20
276.4910949187801
 30
0.0
 40
0.5
100
AcDbArc
 50
180.0
 51
270.0
  0
LINE
  5
2B0
330
1F
100
AcDbEntity
  8
LAYER-033
  6
Continuous
 62
     1
100
AcDbLine
 10
-144.379703855077
 20
276.4910949187801
 30
0.0
 11
-144.379703855077
 21
277.480408399339
 31
0.0
  0
ARC
  5
2B1
330
1F
100
AcDbEntity
  8
LAYER-033
  6
Continuous
 62
     1
100
AcDbCircle
 10
-144.8797038548741
 20
275.4910949187801
 30
0.0
 40
2.051187003369524
100
AcDbArc
 50
75.89135808041054
 51
104.1086419305844
  0
LINE
  5
2B2
330
1F
100
AcDbEntity
  8
LAYER-033
  6
Continuous
 62
     1
100
AcDbLine
 10
-145.379703855077
 20
276.4910949187801
 30
0.0
 11
-145.379703855077
 21
277.480408399339
 31
0.0
  0
ARC
  5
2B3
330
1F
100
AcDbEntity
  8
LAYER-033
  6
Continuous
 62
     1
100
AcDbCircle
 10
-145.8797038548741
 20
276.4910949187801
 30
0.0
 40
0.5
100
AcDbArc
 50
270.0
 51
0.0
  0
LINE
  5
2B4
330
1F
100
AcDbEntity
  8
LAYER-033
  6
Continuous
 62
     1
100
AcDbLine
 10
-145.379703855077
 20
274.4910949187801
 30
0.0
 11
-145.379703855077
 21
273.5017814387949
 31
0.0
  0
ARC
  5
2B5
330
1F
100
AcDbEntity
  8
LAYER-033
  6
Continuous
 62
     1
100
AcDbCircle
 10
-145.8797038548741
 20
274.4910949187801
 30
0.0
 40
0.5
100
AcDbArc
 50
0.0
 51
90.0
  0
LINE
  5
2B6
330
1F
100
AcDbEntity
  8
LAYER-033
  6
Continuous
 62
     1
100
AcDbLine
 10
-145.8797038548741
 20
274.9910949190669
 30
0.0
 11
-146.8690173349365
 21
274.9910949190669
 31
0.0
  0
LINE
  5
2B7
330
1F
100
AcDbEntity
  8
LAYER-033
  6
Continuous
 62
     1
100
AcDbLine
 10
-145.8797038548741
 20
275.9910949190669
 30
0.0
 11
-146.8690173349365
 21
275.9910949190669
 31
0.0
  0
ARC
  5
2B8
330
1F
100
AcDbEntity
  8
LAYER-033
  6
Continuous
 62
     1
100
AcDbCircle
 10
-144.8797038548741
 20
275.4910949187801
 30
0.0
 40
2.051187003369524
100
AcDbArc
 50
165.8913580637607
 51
194.1086419206955
  0
CIRCLE
  5
2B9
330
1F
100
AcDbEntity
  8
LAYER-033
  6
Continuous
 62
     1
100
AcDbCircle
 10
-154.379703855077
 20
275.4910949187801
 30
0.0
 40
2.779786057168341
  0
ARC
  5
2BA
330
1F
100
AcDbEntity
  8
LAYER-033
  6
Continuous
 62
     1
100
AcDbCircle
 10
-154.379703855077
 20
275.4910949187801
 30
0.0
 40
2.051187003369524
100
AcDbArc
 50
255.8913580765037
 51
284.1086419344913
  0
LINE
  5
2BB
330
1F
100
AcDbEntity
  8
LAYER-033
  6
Continuous
 62
     1
100
AcDbLine
 10
-153.8797038548741
 20
274.4910949187801
 30
0.0
 11
-153.8797038548741
 21
273.5017814387949
 31
0.0
  0
ARC
  5
2BC
330
1F
100
AcDbEntity
  8
LAYER-033
  6
Continuous
 62
     1
100
AcDbCircle
 10
-153.379703855077
 20
274.4910949187801
 30
0.0
 40
0.5
100
AcDbArc
 50
90.0
 51
180.0
  0
LINE
  5
2BD
330
1F
100
AcDbEntity
  8
LAYER-033
  6
Continuous
 62
     1
100
AcDbLine
 10
-153.379703855077
 20
274.9910949190669
 30
0.0
 11
-152.3903903752175
 21
274.9910949190669
 31
0.0
  0
ARC
  5
2BE
330
1F
100
AcDbEntity
  8
LAYER-033
  6
Continuous
 62
     1
100
AcDbCircle
 10
-154.379703855077
 20
275.4910949187801
 30
0.0
 40
2.051187003369524
100
AcDbArc
 50
345.8913580779228
 51
14.10864193762109
  0
LINE
  5
2BF
330
1F
100
AcDbEntity
  8
LAYER-033
  6
Continuous
 62
     1
100
AcDbLine
 10
-153.379703855077
 20
275.9910949190669
 30
0.0
 11
-152.3903903752175
 21
275.9910949190669
 31
0.0
  0
ARC
  5
2C0
330
1F
100
AcDbEntity
  8
LAYER-033
  6
Continuous
 62
     1
100
AcDbCircle
 10
-153.379703855077
 20
276.4910949187801
 30
0.0
 40
0.5
100
AcDbArc
 50
180.0
 51
270.0
  0
LINE
  5
2C1
330
1F
100
AcDbEntity
  8
LAYER-033
  6
Continuous
 62
     1
100
AcDbLine
 10
-153.8797038548741
 20
276.4910949187801
 30
0.0
 11
-153.8797038548741
 21
277.480408399339
 31
0.0
  0
ARC
  5
2C2
330
1F
100
AcDbEntity
  8
LAYER-033
  6
Continuous
 62
     1
100
AcDbCircle
 10
-154.379703855077
 20
275.4910949187801
 30
0.0
 40
2.051187003369524
100
AcDbArc
 50
75.89135806941557
 51
104.1086419195895
  0
LINE
  5
2C3
330
1F
100
AcDbEntity
  8
LAYER-033
  6
Continuous
 62
     1
100
AcDbLine
 10
-154.8797038548741
 20
276.4910949187801
 30
0.0
 11
-154.8797038548741
 21
277.480408399339
 31
0.0
  0
ARC
  5
2C4
330
1F
100
AcDbEntity
  8
LAYER-033
  6
Continuous
 62
     1
100
AcDbCircle
 10
-155.379703855077
 20
276.4910949187801
 30
0.0
 40
0.5
100
AcDbArc
 50
270.0
 51
0.0
  0
LINE
  5
2C5
330
1F
100
AcDbEntity
  8
LAYER-033
  6
Continuous
 62
     1
100
AcDbLine
 10
-154.8797038548741
 20
274.4910949187801
 30
0.0
 11
-154.8797038548741
 21
273.5017814387949
 31
0.0
  0
ARC
  5
2C6
330
1F
100
AcDbEntity
  8
LAYER-033
  6
Continuous
 62
     1
100
AcDbCircle
 10
-155.379703855077
 20
274.4910949187801
 30
0.0
 40
0.5
100
AcDbArc
 50
0.0
 51
90.0
  0
LINE
  5
2C7
330
1F
100
AcDbEntity
  8
LAYER-033
  6
Continuous
 62
     1
100
AcDbLine
 10
-155.379703855077
 20
274.9910949190669
 30
0.0
 11
-156.3690173346808
 21
274.9910949190669
 31
0.0
  0
LINE
  5
2C8
330
1F
100
AcDbEntity
  8
LAYER-033
  6
Continuous
 62
     1
100
AcDbLine
 10
-155.379703855077
 20
275.9910949190669
 30
0.0
 11
-156.3690173346808
 21
275.9910949190669
 31
0.0
  0
ARC
  5
2C9
330
1F
100
AcDbEntity
  8
LAYER-033
  6
Continuous
 62
     1
100
AcDbCircle
 10
-154.379703855077
 20
275.4910949187801
 30
0.0
 40
2.051187003369524
100
AcDbArc
 50
165.8913580606376
 51
194.1086419238185
  0
CIRCLE
  5
2CA
330
1F
100
AcDbEntity
  8
LAYER-033
  6
Continuous
 62
     1
100
AcDbCircle
 10
-163.8797038548741
 20
275.4910949187801
 30
0.0
 40
2.779786057168341
  0
ARC
  5
2CB
330
1F
100
AcDbEntity
  8
LAYER-033
  6
Continuous
 62
     1
100
AcDbCircle
 10
-163.8797038548741
 20
275.4910949187801
 30
0.0
 40
2.051187003369524
100
AcDbArc
 50
255.8913580655087
 51
284.1086419234963
  0
LINE
  5
2CC
330
1F
100
AcDbEntity
  8
LAYER-033
  6
Continuous
 62
     1
100
AcDbLine
 10
-163.379703855077
 20
274.4910949187801
 30
0.0
 11
-163.379703855077
 21
273.5017814387949
 31
0.0
  0
ARC
  5
2CD
330
1F
100
AcDbEntity
  8
LAYER-033
  6
Continuous
 62
     1
100
AcDbCircle
 10
-162.8797038548741
 20
274.4910949187801
 30
0.0
 40
0.5
100
AcDbArc
 50
90.0
 51
180.0
  0
LINE
  5
2CE
330
1F
100
AcDbEntity
  8
LAYER-033
  6
Continuous
 62
     1
100
AcDbLine
 10
-162.8797038548741
 20
274.9910949190669
 30
0.0
 11
-161.8903903753279
 21
274.9910949190669
 31
0.0
  0
ARC
  5
2CF
330
1F
100
AcDbEntity
  8
LAYER-033
  6
Continuous
 62
     1
100
AcDbCircle
 10
-163.8797038548741
 20
275.4910949187801
 30
0.0
 40
2.051187003369524
100
AcDbArc
 50
345.8913580757895
 51
14.10864193975429
  0
LINE
  5
2D0
330
1F
100
AcDbEntity
  8
LAYER-033
  6
Continuous
 62
     1
100
AcDbLine
 10
-162.8797038548741
 20
275.9910949190669
 30
0.0
 11
-161.8903903753279
 21
275.9910949190669
 31
0.0
  0
ARC
  5
2D1
330
1F
100
AcDbEntity
  8
LAYER-033
  6
Continuous
 62
     1
100
AcDbCircle
 10
-162.8797038548741
 20
276.4910949187801
 30
0.0
 40
0.5
100
AcDbArc
 50
180.0
 51
270.0
  0
LINE
  5
2D2
330
1F
100
AcDbEntity
  8
LAYER-033
  6
Continuous
 62
     1
100
AcDbLine
 10
-163.379703855077
 20
276.4910949187801
 30
0.0
 11
-163.379703855077
 21
277.480408399339
 31
0.0
  0
ARC
  5
2D3
330
1F
100
AcDbEntity
  8
LAYER-033
  6
Continuous
 62
     1
100
AcDbCircle
 10
-163.8797038548741
 20
275.4910949187801
 30
0.0
 40
2.051187003369524
100
AcDbArc
 50
75.89135808041054
 51
104.1086419305844
  0
LINE
  5
2D4
330
1F
100
AcDbEntity
  8
LAYER-033
  6
Continuous
 62
     1
100
AcDbLine
 10
-164.379703855077
 20
276.4910949187801
 30
0.0
 11
-164.379703855077
 21
277.480408399339
 31
0.0
  0
ARC
  5
2D5
330
1F
100
AcDbEntity
  8
LAYER-033
  6
Continuous
 62
     1
100
AcDbCircle
 10
-164.8797038548741
 20
276.4910949187801
 30
0.0
 40
0.5
100
AcDbArc
 50
270.0
 51
0.0
  0
LINE
  5
2D6
330
1F
100
AcDbEntity
  8
LAYER-033
  6
Continuous
 62
     1
100
AcDbLine
 10
-164.379703855077
 20
274.4910949187801
 30
0.0
 11
-164.379703855077
 21
273.5017814387949
 31
0.0
  0
ARC
  5
2D7
330
1F
100
AcDbEntity
  8
LAYER-033
  6
Continuous
 62
     1
100
AcDbCircle
 10
-164.8797038548741
 20
274.4910949187801
 30
0.0
 40
0.5
100
AcDbArc
 50
0.0
 51
90.0
  0
LINE
  5
2D8
330
1F
100
AcDbEntity
  8
LAYER-033
  6
Continuous
 62
     1
100
AcDbLine
 10
-164.8797038548741
 20
274.9910949190669
 30
0.0
 11
-165.8690173349365
 21
274.9910949190669
 31
0.0
  0
LINE
  5
2D9
330
1F
100
AcDbEntity
  8
LAYER-033
  6
Continuous
 62
     1
100
AcDbLine
 10
-164.8797038548741
 20
275.9910949190669
 30
0.0
 11
-165.8690173349365
 21
275.9910949190669
 31
0.0
  0
ARC
  5
2DA
330
1F
100
AcDbEntity
  8
LAYER-033
  6
Continuous
 62
     1
100
AcDbCircle
 10
-163.8797038548741
 20
275.4910949187801
 30
0.0
 40
2.051187003369524
100
AcDbArc
 50
165.8913580637607
 51
194.1086419206955
  0
CIRCLE
  5
2DB
330
1F
100
AcDbEntity
  8
LAYER-033
  6
Continuous
 62
     1
100
AcDbCircle
 10
-173.379703855077
 20
275.4910949187801
 30
0.0
 40
2.779786057168341
  0
ARC
  5
2DC
330
1F
100
AcDbEntity
  8
LAYER-033
  6
Continuous
 62
     1
100
AcDbCircle
 10
-173.379703855077
 20
275.4910949187801
 30
0.0
 40
2.051187003369524
100
AcDbArc
 50
255.8913580765037
 51
284.1086419344913
  0
LINE
  5
2DD
330
1F
100
AcDbEntity
  8
LAYER-033
  6
Continuous
 62
     1
100
AcDbLine
 10
-172.8797038548741
 20
274.4910949187801
 30
0.0
 11
-172.8797038548741
 21
273.5017814387949
 31
0.0
  0
ARC
  5
2DE
330
1F
100
AcDbEntity
  8
LAYER-033
  6
Continuous
 62
     1
100
AcDbCircle
 10
-172.379703855077
 20
274.4910949187801
 30
0.0
 40
0.5
100
AcDbArc
 50
90.0
 51
180.0
  0
LINE
  5
2DF
330
1F
100
AcDbEntity
  8
LAYER-033
  6
Continuous
 62
     1
100
AcDbLine
 10
-172.379703855077
 20
274.9910949190669
 30
0.0
 11
-171.3903903752175
 21
274.9910949190669
 31
0.0
  0
ARC
  5
2E0
330
1F
100
AcDbEntity
  8
LAYER-033
  6
Continuous
 62
     1
100
AcDbCircle
 10
-173.379703855077
 20
275.4910949187801
 30
0.0
 40
2.051187003369524
100
AcDbArc
 50
345.8913580779228
 51
14.10864193762109
  0
LINE
  5
2E1
330
1F
100
AcDbEntity
  8
LAYER-033
  6
Continuous
 62
     1
100
AcDbLine
 10
-172.379703855077
 20
275.9910949190669
 30
0.0
 11
-171.3903903752175
 21
275.9910949190669
 31
0.0
  0
ARC
  5
2E2
330
1F
100
AcDbEntity
  8
LAYER-033
  6
Continuous
 62
     1
100
AcDbCircle
 10
-172.379703855077
 20
276.4910949187801
 30
0.0
 40
0.5
100
AcDbArc
 50
180.0
 51
270.0
  0
LINE
  5
2E3
330
1F
100
AcDbEntity
  8
LAYER-033
  6
Continuous
 62
     1
100
AcDbLine
 10
-172.8797038548741
 20
276.4910949187801
 30
0.0
 11
-172.8797038548741
 21
277.480408399339
 31
0.0
  0
ARC
  5
2E4
330
1F
100
AcDbEntity
  8
LAYER-033
  6
Continuous
 62
     1
100
AcDbCircle
 10
-173.379703855077
 20
275.4910949187801
 30
0.0
 40
2.051187003369524
100
AcDbArc
 50
75.89135806941557
 51
104.1086419195895
  0
LINE
  5
2E5
330
1F
100
AcDbEntity
  8
LAYER-033
  6
Continuous
 62
     1
100
AcDbLine
 10
-173.8797038548741
 20
276.4910949187801
 30
0.0
 11
-173.8797038548741
 21
277.480408399339
 31
0.0
  0
ARC
  5
2E6
330
1F
100
AcDbEntity
  8
LAYER-033
  6
Continuous
 62
     1
100
AcDbCircle
 10
-174.379703855077
 20
276.4910949187801
 30
0.0
 40
0.5
100
AcDbArc
 50
270.0
 51
0.0
  0
LINE
  5
2E7
330
1F
100
AcDbEntity
  8
LAYER-033
  6
Continuous
 62
     1
100
AcDbLine
 10
-173.8797038548741
 20
274.4910949187801
 30
0.0
 11
-173.8797038548741
 21
273.5017814387949
 31
0.0
  0
ARC
  5
2E8
330
1F
100
AcDbEntity
  8
LAYER-033
  6
Continuous
 62
     1
100
AcDbCircle
 10
-174.379703855077
 20
274.4910949187801
 30
0.0
 40
0.5
100
AcDbArc
 50
0.0
 51
90.0
  0
LINE
  5
2E9
330
1F
100
AcDbEntity
  8
LAYER-033
  6
Continuous
 62
     1
100
AcDbLine
 10
-174.379703855077
 20
274.9910949190669
 30
0.0
 11
-175.3690173346808
 21
274.9910949190669
 31
0.0
  0
LINE
  5
2EA
330
1F
100
AcDbEntity
  8
LAYER-033
  6
Continuous
 62
     1
100
AcDbLine
 10
-174.379703855077
 20
275.9910949190669
 30
0.0
 11
-175.3690173346808
 21
275.9910949190669
 31
0.0
  0
ARC
  5
2EB
330
1F
100
AcDbEntity
  8
LAYER-033
  6
Continuous
 62
     1
100
AcDbCircle
 10
-173.379703855077
 20
275.4910949187801
 30
0.0
 40
2.051187003369524
100
AcDbArc
 50
165.8913580606376
 51
194.1086419238185
  0
CIRCLE
  5
2EC
330
1F
100
AcDbEntity
  8
LAYER-033
  6
Continuous
 62
     1
100
AcDbCircle
 10
-182.8797038548741
 20
275.4910949187801
 30
0.0
 40
2.779786057168341
  0
ARC
  5
2ED
330
1F
100
AcDbEntity
  8
LAYER-033
  6
Continuous
 62
     1
100
AcDbCircle
 10
-182.8797038548741
 20
275.4910949187801
 30
0.0
 40
2.051187003369524
100
AcDbArc
 50
255.8913580655087
 51
284.1086419234963
  0
LINE
  5
2EE
330
1F
100
AcDbEntity
  8
LAYER-033
  6
Continuous
 62
     1
100
AcDbLine
 10
-182.379703855077
 20
274.4910949187801
 30
0.0
 11
-182.379703855077
 21
273.5017814387949
 31
0.0
  0
ARC
  5
2EF
330
1F
100
AcDbEntity
  8
LAYER-033
  6
Continuous
 62
     1
100
AcDbCircle
 10
-181.8797038548741
 20
274.4910949187801
 30
0.0
 40
0.5
100
AcDbArc
 50
90.0
 51
180.0
  0
LINE
  5
2F0
330
1F
100
AcDbEntity
  8
LAYER-033
  6
Continuous
 62
     1
100
AcDbLine
 10
-181.8797038548741
 20
274.9910949190669
 30
0.0
 11
-180.8903903753279
 21
274.9910949190669
 31
0.0
  0
ARC
  5
2F1
330
1F
100
AcDbEntity
  8
LAYER-033
  6
Continuous
 62
     1
100
AcDbCircle
 10
-182.8797038548741
 20
275.4910949187801
 30
0.0
 40
2.051187003369524
100
AcDbArc
 50
345.8913580757895
 51
14.10864193975429
  0
LINE
  5
2F2
330
1F
100
AcDbEntity
  8
LAYER-033
  6
Continuous
 62
     1
100
AcDbLine
 10
-181.8797038548741
 20
275.9910949190669
 30
0.0
 11
-180.8903903753279
 21
275.9910949190669
 31
0.0
  0
ARC
  5
2F3
330
1F
100
AcDbEntity
  8
LAYER-033
  6
Continuous
 62
     1
100
AcDbCircle
 10
-181.8797038548741
 20
276.4910949187801
 30
0.0
 40
0.5
100
AcDbArc
 50
180.0
 51
270.0
  0
LINE
  5
2F4
330
1F
100
AcDbEntity
  8
LAYER-033
  6
Continuous
 62
     1
100
AcDbLine
 10
-182.379703855077
 20
276.4910949187801
 30
0.0
 11
-182.379703855077
 21
277.480408399339
 31
0.0
  0
ARC
  5
2F5
330
1F
100
AcDbEntity
  8
LAYER-033
  6
Continuous
 62
     1
100
AcDbCircle
 10
-182.8797038548741
 20
275.4910949187801
 30
0.0
 40
2.051187003369524
100
AcDbArc
 50
75.89135808041054
 51
104.1086419305844
  0
LINE
  5
2F6
330
1F
100
AcDbEntity
  8
LAYER-033
  6
Continuous
 62
     1
100
AcDbLine
 10
-183.379703855077
 20
276.4910949187801
 30
0.0
 11
-183.379703855077
 21
277.480408399339
 31
0.0
  0
ARC
  5
2F7
330
1F
100
AcDbEntity
  8
LAYER-033
  6
Continuous
 62
     1
100
AcDbCircle
 10
-183.8797038548741
 20
276.4910949187801
 30
0.0
 40
0.5
100
AcDbArc
 50
270.0
 51
0.0
  0
LINE
  5
2F8
330
1F
100
AcDbEntity
  8
LAYER-033
  6
Continuous
 62
     1
100
AcDbLine
 10
-183.379703855077
 20
274.4910949187801
 30
0.0
 11
-183.379703855077
 21
273.5017814387949
 31
0.0
  0
ARC
  5
2F9
330
1F
100
AcDbEntity
  8
LAYER-033
  6
Continuous
 62
     1
100
AcDbCircle
 10
-183.8797038548741
 20
274.4910949187801
 30
0.0
 40
0.5
100
AcDbArc
 50
0.0
 51
90.0
  0
LINE
  5
2FA
330
1F
100
AcDbEntity
  8
LAYER-033
  6
Continuous
 62
     1
100
AcDbLine
 10
-183.8797038548741
 20
274.9910949190669
 30
0.0
 11
-184.8690173349365
 21
274.9910949190669
 31
0.0
  0
LINE
  5
2FB
330
1F
100
AcDbEntity
  8
LAYER-033
  6
Continuous
 62
     1
100
AcDbLine
 10
-183.8797038548741
 20
275.9910949190669
 30
0.0
 11
-184.8690173349365
 21
275.9910949190669
 31
0.0
  0
ARC
  5
2FC
330
1F
100
AcDbEntity
  8
LAYER-033
  6
Continuous
 62
     1
100
AcDbCircle
 10
-182.8797038548741
 20
275.4910949187801
 30
0.0
 40
2.051187003369524
100
AcDbArc
 50
165.8913580637607
 51
194.1086419206955
  0
CIRCLE
  5
2FD
330
1F
100
AcDbEntity
  8
LAYER-033
  6
Continuous
 62
     1
100
AcDbCircle
 10
-192.379703855077
 20
275.4910949187801
 30
0.0
 40
2.779786057168341
  0
ARC
  5
2FE
330
1F
100
AcDbEntity
  8
LAYER-033
  6
Continuous
 62
     1
100
AcDbCircle
 10
-192.379703855077
 20
275.4910949187801
 30
0.0
 40
2.051187003369524
100
AcDbArc
 50
255.8913580765037
 51
284.1086419344913
  0
LINE
  5
2FF
330
1F
100
AcDbEntity
  8
LAYER-033
  6
Continuous
 62
     1
100
AcDbLine
 10
-191.8797038548741
 20
274.4910949187801
 30
0.0
 11
-191.8797038548741
 21
273.5017814387949
 31
0.0
  0
ARC
  5
300
330
1F
100
AcDbEntity
  8
LAYER-033
  6
Continuous
 62
     1
100
AcDbCircle
 10
-191.379703855077
 20
274.4910949187801
 30
0.0
 40
0.5
100
AcDbArc
 50
90.0
 51
180.0
  0
LINE
  5
301
330
1F
100
AcDbEntity
  8
LAYER-033
  6
Continuous
 62
     1
100
AcDbLine
 10
-191.379703855077
 20
274.9910949190669
 30
0.0
 11
-190.3903903752175
 21
274.9910949190669
 31
0.0
  0
ARC
  5
302
330
1F
100
AcDbEntity
  8
LAYER-033
  6
Continuous
 62
     1
100
AcDbCircle
 10
-192.379703855077
 20
275.4910949187801
 30
0.0
 40
2.051187003369524
100
AcDbArc
 50
345.8913580779228
 51
14.10864193762109
  0
LINE
  5
303
330
1F
100
AcDbEntity
  8
LAYER-033
  6
Continuous
 62
     1
100
AcDbLine
 10
-191.379703855077
 20
275.9910949190669
 30
0.0
 11
-190.3903903752175
 21
275.9910949190669
 31
0.0
  0
ARC
  5
304
330
1F
100
AcDbEntity
  8
LAYER-033
  6
Continuous
 62
     1
100
AcDbCircle
 10
-191.379703855077
 20
276.4910949187801
 30
0.0
 40
0.5
100
AcDbArc
 50
180.0
 51
270.0
  0
LINE
  5
305
330
1F
100
AcDbEntity
  8
LAYER-033
  6
Continuous
 62
     1
100
AcDbLine
 10
-191.8797038548741
 20
276.4910949187801
 30
0.0
 11
-191.8797038548741
 21
277.480408399339
 31
0.0
  0
ARC
  5
306
330
1F
100
AcDbEntity
  8
LAYER-033
  6
Continuous
 62
     1
100
AcDbCircle
 10
-192.379703855077
 20
275.4910949187801
 30
0.0
 40
2.051187003369524
100
AcDbArc
 50
75.89135806941557
 51
104.1086419195895
  0
LINE
  5
307
330
1F
100
AcDbEntity
  8
LAYER-033
  6
Continuous
 62
     1
100
AcDbLine
 10
-192.8797038548741
 20
276.4910949187801
 30
0.0
 11
-192.8797038548741
 21
277.480408399339
 31
0.0
  0
ARC
  5
308
330
1F
100
AcDbEntity
  8
LAYER-033
  6
Continuous
 62
     1
100
AcDbCircle
 10
-193.379703855077
 20
276.4910949187801
 30
0.0
 40
0.5
100
AcDbArc
 50
270.0
 51
0.0
  0
LINE
  5
309
330
1F
100
AcDbEntity
  8
LAYER-033
  6
Continuous
 62
     1
100
AcDbLine
 10
-192.8797038548741
 20
274.4910949187801
 30
0.0
 11
-192.8797038548741
 21
273.5017814387949
 31
0.0
  0
ARC
  5
30A
330
1F
100
AcDbEntity
  8
LAYER-033
  6
Continuous
 62
     1
100
AcDbCircle
 10
-193.379703855077
 20
274.4910949187801
 30
0.0
 40
0.5
100
AcDbArc
 50
0.0
 51
90.0
  0
LINE
  5
30B
330
1F
100
AcDbEntity
  8
LAYER-033
  6
Continuous
 62
     1
100
AcDbLine
 10
-193.379703855077
 20
274.9910949190669
 30
0.0
 11
-194.3690173346808
 21
274.9910949190669
 31
0.0
  0
LINE
  5
30C
330
1F
100
AcDbEntity
  8
LAYER-033
  6
Continuous
 62
     1
100
AcDbLine
 10
-193.379703855077
 20
275.9910949190669
 30
0.0
 11
-194.3690173346808
 21
275.9910949190669
 31
0.0
  0
ARC
  5
30D
330
1F
100
AcDbEntity
  8
LAYER-033
  6
Continuous
 62
     1
100
AcDbCircle
 10
-192.379703855077
 20
275.4910949187801
 30
0.0
 40
2.051187003369524
100
AcDbArc
 50
165.8913580606378
 51
194.1086419238184
  0
CIRCLE
  5
30E
330
1F
100
AcDbEntity
  8
LAYER-033
  6
Continuous
 62
     1
100
AcDbCircle
 10
-201.8797038548741
 20
275.4910949187801
 30
0.0
 40
2.779786057168341
  0
ARC
  5
30F
330
1F
100
AcDbEntity
  8
LAYER-033
  6
Continuous
 62
     1
100
AcDbCircle
 10
-201.8797038548741
 20
275.4910949187801
 30
0.0
 40
2.051187003369524
100
AcDbArc
 50
255.8913580655087
 51
284.1086419234963
  0
LINE
  5
310
330
1F
100
AcDbEntity
  8
LAYER-033
  6
Continuous
 62
     1
100
AcDbLine
 10
-201.379703855077
 20
274.4910949187801
 30
0.0
 11
-201.379703855077
 21
273.5017814387949
 31
0.0
  0
ARC
  5
311
330
1F
100
AcDbEntity
  8
LAYER-033
  6
Continuous
 62
     1
100
AcDbCircle
 10
-200.8797038548741
 20
274.4910949187801
 30
0.0
 40
0.5
100
AcDbArc
 50
90.0
 51
180.0
  0
LINE
  5
312
330
1F
100
AcDbEntity
  8
LAYER-033
  6
Continuous
 62
     1
100
AcDbLine
 10
-200.8797038548741
 20
274.9910949190669
 30
0.0
 11
-199.8903903753279
 21
274.9910949190669
 31
0.0
  0
ARC
  5
313
330
1F
100
AcDbEntity
  8
LAYER-033
  6
Continuous
 62
     1
100
AcDbCircle
 10
-201.8797038548741
 20
275.4910949187801
 30
0.0
 40
2.051187003369524
100
AcDbArc
 50
345.8913580757895
 51
14.10864193975429
  0
LINE
  5
314
330
1F
100
AcDbEntity
  8
LAYER-033
  6
Continuous
 62
     1
100
AcDbLine
 10
-200.8797038548741
 20
275.9910949190669
 30
0.0
 11
-199.8903903753279
 21
275.9910949190669
 31
0.0
  0
ARC
  5
315
330
1F
100
AcDbEntity
  8
LAYER-033
  6
Continuous
 62
     1
100
AcDbCircle
 10
-200.8797038548741
 20
276.4910949187801
 30
0.0
 40
0.5
100
AcDbArc
 50
180.0
 51
270.0
  0
LINE
  5
316
330
1F
100
AcDbEntity
  8
LAYER-033
  6
Continuous
 62
     1
100
AcDbLine
 10
-201.379703855077
 20
276.4910949187801
 30
0.0
 11
-201.379703855077
 21
277.480408399339
 31
0.0
  0
ARC
  5
317
330
1F
100
AcDbEntity
  8
LAYER-033
  6
Continuous
 62
     1
100
AcDbCircle
 10
-201.8797038548741
 20
275.4910949187801
 30
0.0
 40
2.051187003369524
100
AcDbArc
 50
75.89135808041054
 51
104.1086419305844
  0
LINE
  5
318
330
1F
100
AcDbEntity
  8
LAYER-033
  6
Continuous
 62
     1
100
AcDbLine
 10
-202.379703855077
 20
276.4910949187801
 30
0.0
 11
-202.379703855077
 21
277.480408399339
 31
0.0
  0
ARC
  5
319
330
1F
100
AcDbEntity
  8
LAYER-033
  6
Continuous
 62
     1
100
AcDbCircle
 10
-202.8797038548741
 20
276.4910949187801
 30
0.0
 40
0.5
100
AcDbArc
 50
270.0
 51
0.0
  0
LINE
  5
31A
330
1F
100
AcDbEntity
  8
LAYER-033
  6
Continuous
 62
     1
100
AcDbLine
 10
-202.379703855077
 20
274.4910949187801
 30
0.0
 11
-202.379703855077
 21
273.5017814387949
 31
0.0
  0
ARC
  5
31B
330
1F
100
AcDbEntity
  8
LAYER-033
  6
Continuous
 62
     1
100
AcDbCircle
 10
-202.8797038548741
 20
274.4910949187801
 30
0.0
 40
0.5
100
AcDbArc
 50
0.0
 51
90.0
  0
LINE
  5
31C
330
1F
100
AcDbEntity
  8
LAYER-033
  6
Continuous
 62
     1
100
AcDbLine
 10
-202.8797038548741
 20
274.9910949190669
 30
0.0
 11
-203.8690173349365
 21
274.9910949190669
 31
0.0
  0
LINE
  5
31D
330
1F
100
AcDbEntity
  8
LAYER-033
  6
Continuous
 62
     1
100
AcDbLine
 10
-202.8797038548741
 20
275.9910949190669
 30
0.0
 11
-203.8690173349365
 21
275.9910949190669
 31
0.0
  0
ARC
  5
31E
330
1F
100
AcDbEntity
  8
LAYER-033
  6
Continuous
 62
     1
100
AcDbCircle
 10
-201.8797038548741
 20
275.4910949187801
 30
0.0
 40
2.051187003369524
100
AcDbArc
 50
165.8913580637607
 51
194.1086419206955
  0
LINE
  5
31F
330
1F
100
AcDbEntity
  8
LAYER-033
  6
Continuous
 62
     1
100
AcDbLine
 10
256.2296567069295
 20
315.2426573426574
 30
0.0
 11
266.2296567069295
 21
315.2426573426574
 31
0.0
  0
LINE
  5
320
330
1F
100
AcDbEntity
  8
LAYER-033
  6
Continuous
 62
     1
100
AcDbLine
 10
256.2296567069295
 20
-134.7573426573426
 30
0.0
 11
266.2296567069295
 21
-134.7573426573426
 31
0.0
  0
LINE
  5
321
330
1F
100
AcDbEntity
  8
LAYER-033
  6
Continuous
 62
     1
100
AcDbLine
 10
266.2296567069295
 20
315.2426573426574
 30
0.0
 11
266.2296567069295
 21
-134.7573426573426
 31
0.0
  0
LINE
  5
322
330
1F
100
AcDbEntity
  8
LAYER-033
  6
Continuous
 62
     1
100
AcDbLine
 10
256.2296567069295
 20
315.2426573426574
 30
0.0
 11
256.2296567069295
 21
-134.7573426573426
 31
0.0
  0
LINE
  5
323
330
1F
100
AcDbEntity
  8
LAYER-033
  6
HIDDEN
 62
     4
100
AcDbLine
 10
-10.20777177368083
 20
312.9426573426573
 30
0.0
 11
-10.20777177368083
 21
-132.4573426573427
 31
0.0
  0
LINE
  5
324
330
1F
100
AcDbEntity
  8
LAYER-033
  6
HIDDEN
 62
     4
100
AcDbLine
 10
-235.6077717736808
 20
312.9426573426573
 30
0.0
 11
-10.20777177368083
 21
312.9426573426573
 31
0.0
  0
LINE
  5
325
330
1F
100
AcDbEntity
  8
LAYER-033
  6
HIDDEN
 62
     4
100
AcDbLine
 10
-235.6077717736808
 20
312.9426573426573
 30
0.0
 11
-235.6077717736808
 21
-132.4573426573427
 31
0.0
  0
LINE
  5
326
330
1F
100
AcDbEntity
  8
LAYER-033
  6
HIDDEN
 62
     4
100
AcDbLine
 10
-235.6077717736808
 20
-132.4573426573427
 30
0.0
 11
-10.20777177368083
 21
-132.4573426573427
 31
0.0
  0
LINE
  5
327
330
1F
100
AcDbEntity
  8
LAYER-033
  6
HIDDEN
 62
     4
100
AcDbLine
 10
258.5296567069295
 20
312.9426573426573
 30
0.0
 11
266.2296567069295
 21
312.9426573426573
 31
0.0
  0
LINE
  5
328
330
1F
100
AcDbEntity
  8
LAYER-033
  6
HIDDEN
 62
     4
100
AcDbLine
 10
258.5296567069295
 20
312.9426573426573
 30
0.0
 11
258.5296567069295
 21
-132.4573426573427
 31
0.0
  0
LINE
  5
329
330
1F
100
AcDbEntity
  8
LAYER-033
  6
HIDDEN
 62
     4
100
AcDbLine
 10
258.5296567069295
 20
-132.4573426573427
 30
0.0
 11
266.2296567069295
 21
-132.4573426573427
 31
0.0
  0
LINE
  5
32A
330
1F
100
AcDbEntity
  8
LAYER-003
  6
Continuous
 62
     4
100
AcDbLine
 10
-59.95124067934512
 20
227.4910949190669
 30
0.0
 11
-59.95124067934512
 21
213.7910949190668
 31
0.0
  0
LINE
  5
32B
330
1F
100
AcDbEntity
  8
LAYER-003
  6
Continuous
 62
     4
100
AcDbLine
 10
-49.60124067934513
 20
227.4910949190669
 30
0.0
 11
-92.60124067934513
 21
227.4910949190669
 31
0.0
  0
LINE
  5
32C
330
1F
100
AcDbEntity
  8
LAYER-005
  6
CENTER
 62
     4
100
AcDbLine
 10
-90.97224067934519
 20
223.9910949190669
 30
0.0
 11
-50.96724067934534
 21
223.9910949190669
 31
0.0
  0
CIRCLE
  5
32D
330
1F
100
AcDbEntity
  8
LAYER-004
  6
Continuous
 62
     4
100
AcDbCircle
 10
-86.10124067934521
 20
223.9910949190669
 30
0.0
 40
3.0
  0
CIRCLE
  5
32E
330
1F
100
AcDbEntity
  8
LAYER-004
  6
Continuous
 62
     4
100
AcDbCircle
 10
-76.10124067934521
 20
223.9910949190669
 30
0.0
 40
3.0
  0
CIRCLE
  5
32F
330
1F
100
AcDbEntity
  8
LAYER-004
  6
Continuous
 62
     4
100
AcDbCircle
 10
-66.10124067934521
 20
223.9910949190669
 30
0.0
 40
3.0
  0
CIRCLE
  5
330
330
1F
100
AcDbEntity
  8
LAYER-004
  6
Continuous
 62
     4
100
AcDbCircle
 10
-56.10124067934524
 20
223.9910949190669
 30
0.0
 40
3.0
  0
LINE
  5
331
330
1F
100
AcDbEntity
  8
LAYER-004
  6
Continuous
 62
     4
100
AcDbLine
 10
-87.33824067934521
 20
222.7536949190668
 30
0.0
 11
-84.86424067934536
 21
225.2284949190669
 31
0.0
  0
LINE
  5
332
330
1F
100
AcDbEntity
  8
LAYER-004
  6
Continuous
 62
     4
100
AcDbLine
 10
-77.33724067934531
 20
222.7536949190668
 30
0.0
 11
-74.86324067934504
 21
225.2284949190669
 31
0.0
  0
LINE
  5
333
330
1F
100
AcDbEntity
  8
LAYER-004
  6
Continuous
 62
     4
100
AcDbLine
 10
-67.33724067934531
 20
222.7536949190668
 30
0.0
 11
-64.86324067934504
 21
225.2284949190669
 31
0.0
  0
LINE
  5
334
330
1F
100
AcDbEntity
  8
LAYER-004
  6
Continuous
 62
     4
100
AcDbLine
 10
-57.33724067934534
 20
222.7536949190668
 30
0.0
 11
-54.86324067934507
 21
225.2284949190669
 31
0.0
  0
LINE
  5
335
330
1F
100
AcDbEntity
  8
LAYER-004
  6
Continuous
 62
     4
100
AcDbLine
 10
-83.98024067900001
 20
221.8698949190669
 30
0.0
 11
-88.22224067934513
 21
226.1123949190669
 31
0.0
  0
LINE
  5
336
330
1F
100
AcDbEntity
  8
LAYER-004
  6
Continuous
 62
     4
100
AcDbLine
 10
-73.97924067934525
 20
221.8698949190669
 30
0.0
 11
-78.2212406793451
 21
226.1123949190669
 31
0.0
  0
LINE
  5
337
330
1F
100
AcDbEntity
  8
LAYER-004
  6
Continuous
 62
     4
100
AcDbLine
 10
-63.97924067934525
 20
221.8698949190669
 30
0.0
 11
-68.2212406793451
 21
226.1123949190669
 31
0.0
  0
LINE
  5
338
330
1F
100
AcDbEntity
  8
LAYER-004
  6
Continuous
 62
     4
100
AcDbLine
 10
-53.97924067934528
 20
221.8698949190669
 30
0.0
 11
-58.22124067934513
 21
226.1123949190669
 31
0.0
  0
LINE
  5
339
330
1F
100
AcDbEntity
  8
LAYER-005
  6
CENTER
 62
     4
100
AcDbLine
 10
-76.10124067934521
 20
220.0118949190669
 30
0.0
 11
-76.10124067934521
 21
228.174694919067
 31
0.0
  0
LINE
  5
33A
330
1F
100
AcDbEntity
  8
LAYER-005
  6
CENTER
 62
     4
100
AcDbLine
 10
-66.10124067934521
 20
220.0118949190669
 30
0.0
 11
-66.10124067934521
 21
228.1010949190669
 31
0.0
  0
LINE
  5
33B
330
1F
100
AcDbEntity
  8
LAYER-005
  6
CENTER
 62
     4
100
AcDbLine
 10
-86.10124067934521
 20
219.8646949190668
 30
0.0
 11
-86.10124067934521
 21
228.174694919067
 31
0.0
  0
LINE
  5
33C
330
1F
100
AcDbEntity
  8
LAYER-005
  6
CENTER
 62
     4
100
AcDbLine
 10
-56.10124067934524
 20
219.7910949190667
 30
0.0
 11
-56.10124067934524
 21
228.2481949190667
 31
0.0
  0
ARC
  5
33D
330
1F
100
AcDbEntity
  8
LAYER-003
  6
Continuous
 62
     4
100
AcDbCircle
 10
-54.10124067934535
 20
219.4910949190669
 30
0.0
 40
2.25002
100
AcDbArc
 50
185.1000000000063
 51
325.3080000000006
  0
ARC
  5
33E
330
1F
100
AcDbEntity
  8
LAYER-002
  6
Continuous
 62
     1
100
AcDbCircle
 10
-54.10124067934535
 20
219.3910949190668
 30
0.0
 40
4.5
100
AcDbArc
 50
270.0
 51
306.8700000000007
  0
LINE
  5
33F
330
1F
100
AcDbEntity
  8
LAYER-003
  6
Continuous
 62
     4
100
AcDbLine
 10
-89.95124067934512
 20
219.2910949190669
 30
0.0
 11
-82.2512406793453
 21
219.2910949190669
 31
0.0
  0
LINE
  5
340
330
1F
100
AcDbEntity
  8
LAYER-003
  6
Continuous
 62
     4
100
AcDbLine
 10
-79.95124067934512
 20
219.2910949190669
 30
0.0
 11
-72.2512406793453
 21
219.2910949190669
 31
0.0
  0
LINE
  5
341
330
1F
100
AcDbEntity
  8
LAYER-003
  6
Continuous
 62
     4
100
AcDbLine
 10
-62.2512406793453
 20
219.2910949190669
 30
0.0
 11
-69.95124067934512
 21
219.2910949190669
 31
0.0
  0
LINE
  5
342
330
1F
100
AcDbEntity
  8
LAYER-003
  6
Continuous
 62
     4
100
AcDbLine
 10
-52.25124067934533
 20
219.2910949190669
 30
0.0
 11
-59.95124067934512
 21
219.2910949190669
 31
0.0
  0
LINE
  5
343
330
1F
100
AcDbEntity
  8
LAYER-003
  6
Continuous
 62
     4
100
AcDbLine
 10
-89.95124067934512
 20
215.791094919067
 30
0.0
 11
-89.95124067934512
 21
227.4910949190669
 31
0.0
  0
LINE
  5
344
330
1F
100
AcDbEntity
  8
LAYER-003
  6
Continuous
 62
     4
100
AcDbLine
 10
-89.95124067934512
 20
215.791094919067
 30
0.0
 11
-92.60124067934513
 21
215.791094919067
 31
0.0
  0
LINE
  5
345
330
1F
100
AcDbEntity
  8
LAYER-003
  6
Continuous
 62
     4
100
AcDbLine
 10
-52.25124067934533
 20
215.791094919067
 30
0.0
 11
-52.25124067934533
 21
227.4910949190669
 31
0.0
  0
LINE
  5
346
330
1F
100
AcDbEntity
  8
LAYER-003
  6
Continuous
 62
     4
100
AcDbLine
 10
-51.40124067934519
 20
215.791094919067
 30
0.0
 11
-52.25124067934533
 21
215.791094919067
 31
0.0
  0
LINE
  5
347
330
1F
100
AcDbEntity
  8
LAYER-002
  6
Continuous
 62
     1
100
AcDbLine
 10
-49.60124067934513
 20
215.791094919067
 30
0.0
 11
-51.40124067934519
 21
215.791094919067
 31
0.0
  0
ARC
  5
348
330
1F
100
AcDbEntity
  8
LAYER-003
  6
Continuous
 62
     4
100
AcDbCircle
 10
-88.60124067934515
 20
215.4910949190669
 30
0.0
 40
2.25
100
AcDbArc
 50
172.3380000010801
 51
233.1300000111728
  0
ARC
  5
349
330
1F
100
AcDbEntity
  8
LAYER-003
  6
Continuous
 62
     4
100
AcDbCircle
 10
-88.60124067934515
 20
215.4910949190669
 30
0.0
 40
2.25
100
AcDbArc
 50
233.1300000111728
 51
126.8699999888315
  0
ARC
  5
34A
330
1F
100
AcDbEntity
  8
LAYER-002
  6
Continuous
 62
     1
100
AcDbCircle
 10
-88.60124067934521
 20
215.4910949190669
 30
0.0
 40
4.5
100
AcDbArc
 50
228.1900000000019
 51
359.3630000037783
  0
LINE
  5
34B
330
1F
100
AcDbEntity
  8
LAYER-002
  6
Continuous
 62
     1
100
AcDbLine
 10
-84.10124067934521
 20
215.4410949190667
 30
0.0
 11
-82.2512406793453
 21
215.4410949190667
 31
0.0
  0
LINE
  5
34C
330
1F
100
AcDbEntity
  8
LAYER-003
  6
Continuous
 62
     4
100
AcDbLine
 10
-82.2512406793453
 20
215.4410949190667
 30
0.0
 11
-82.2512406793453
 21
227.4910949190669
 31
0.0
  0
LINE
  5
34D
330
1F
100
AcDbEntity
  8
LAYER-002
  6
Continuous
 62
     1
100
AcDbLine
 10
-58.60124067934524
 20
214.8910949190669
 30
0.0
 11
-54.10124067934535
 21
214.8910949190669
 31
0.0
  0
ARC
  5
34E
330
1F
100
AcDbEntity
  8
LAYER-002
  6
Continuous
 62
     1
100
AcDbCircle
 10
-89.60124067934515
 20
214.3730949190668
 30
0.0
 40
3.0
100
AcDbArc
 50
180.0
 51
228.1899999999988
  0
LINE
  5
34F
330
1F
100
AcDbEntity
  8
LAYER-003
  6
Continuous
 62
     4
100
AcDbLine
 10
-82.2512406793453
 20
213.7910949190668
 30
0.0
 11
-59.95124067934512
 21
213.7910949190668
 31
0.0
  0
LINE
  5
350
330
1F
100
AcDbEntity
  8
LAYER-003
  6
Continuous
 62
     4
100
AcDbLine
 10
-69.95124067934512
 20
213.7910949190668
 30
0.0
 11
-69.95124067934512
 21
227.4910949190669
 31
0.0
  0
LINE
  5
351
330
1F
100
AcDbEntity
  8
LAYER-003
  6
Continuous
 62
     4
100
AcDbLine
 10
-62.2512406793453
 20
213.7910949190668
 30
0.0
 11
-62.2512406793453
 21
227.4910949190669
 31
0.0
  0
LINE
  5
352
330
1F
100
AcDbEntity
  8
LAYER-002
  6
Continuous
 62
     1
100
AcDbLine
 10
-82.2512406793453
 20
212.1910949190668
 30
0.0
 11
-82.2512406793453
 21
215.4410949190667
 31
0.0
  0
LINE
  5
353
330
1F
100
AcDbEntity
  8
LAYER-002
  6
Continuous
 62
     1
100
AcDbLine
 10
-79.60124067934515
 20
212.1910949190668
 30
0.0
 11
-82.2512406793453
 21
212.1910949190668
 31
0.0
  0
LINE
  5
354
330
1F
100
AcDbEntity
  8
LAYER-002
  6
Continuous
 62
     1
100
AcDbLine
 10
-79.60124067934515
 20
212.1910949190668
 30
0.0
 11
-79.60124067934515
 21
210.791094919067
 31
0.0
  0
LINE
  5
355
330
1F
100
AcDbEntity
  8
LAYER-002
  6
Continuous
 62
     1
100
AcDbLine
 10
-79.60124067934515
 20
210.791094919067
 30
0.0
 11
-78.60124067934521
 21
210.791094919067
 31
0.0
  0
LINE
  5
356
330
1F
100
AcDbEntity
  8
LAYER-002
  6
Continuous
 62
     1
100
AcDbLine
 10
-78.60124067934521
 20
210.791094919067
 30
0.0
 11
-78.60124067934521
 21
209.9910949190669
 31
0.0
  0
LINE
  5
357
330
1F
100
AcDbEntity
  8
LAYER-002
  6
Continuous
 62
     1
100
AcDbLine
 10
-63.60124067934521
 20
210.791094919067
 30
0.0
 11
-58.60124067934524
 21
210.791094919067
 31
0.0
  0
LINE
  5
358
330
1F
100
AcDbEntity
  8
LAYER-002
  6
Continuous
 62
     1
100
AcDbLine
 10
-63.60124067934521
 20
210.791094919067
 30
0.0
 11
-63.60124067934521
 21
209.9910949190669
 31
0.0
  0
LINE
  5
359
330
1F
100
AcDbEntity
  8
LAYER-002
  6
Continuous
 62
     1
100
AcDbLine
 10
-58.60124067934524
 20
210.791094919067
 30
0.0
 11
-58.60124067934524
 21
214.8910949190669
 31
0.0
  0
LINE
  5
35A
330
1F
100
AcDbEntity
  8
LAYER-002
  6
Continuous
 62
     1
100
AcDbLine
 10
-78.60124067934521
 20
209.9910949190669
 30
0.0
 11
-63.60124067934521
 21
209.9910949190669
 31
0.0
  0
LINE
  5
35B
330
1F
100
AcDbEntity
  8
LAYER-005
  6
CENTER
 62
     4
100
AcDbLine
 10
-71.10124067934521
 20
291.9902949190667
 30
0.0
 11
-71.10124067934521
 21
207.3566949190668
 31
0.0
  0
LINE
  5
35C
330
1F
100
AcDbEntity
  8
LAYER-002
  6
Continuous
 62
     1
100
AcDbLine
 10
-74.7512406793453
 20
289.9910949190668
 30
0.0
 11
-72.70124067941825
 21
289.9910949190668
 31
0.0
  0
LINE
  5
35D
330
1F
100
AcDbEntity
  8
LAYER-002
  6
Continuous
 62
     1
100
AcDbLine
 10
-74.7512406793453
 20
289.9910949190668
 30
0.0
 11
-74.7512406793453
 21
288.0910949190669
 31
0.0
  0
LINE
  5
35E
330
1F
100
AcDbEntity
  8
LAYER-002
  6
Continuous
 62
     1
100
AcDbLine
 10
-67.45124067934512
 20
289.9910949190668
 30
0.0
 11
-69.50124067934524
 21
289.9910949190668
 31
0.0
  0
LINE
  5
35F
330
1F
100
AcDbEntity
  8
LAYER-002
  6
Continuous
 62
     1
100
AcDbLine
 10
-67.45124067934512
 20
289.9910949190668
 30
0.0
 11
-67.45124067934512
 21
288.0910949190669
 31
0.0
  0
LINE
  5
360
330
1F
100
AcDbEntity
  8
LAYER-002
  6
Continuous
 62
     1
100
AcDbLine
 10
-85.05124067934503
 20
289.0910949190668
 30
0.0
 11
-82.45124067934512
 21
289.0910949190668
 31
0.0
  0
LINE
  5
361
330
1F
100
AcDbEntity
  8
LAYER-002
  6
Continuous
 62
     1
100
AcDbLine
 10
-82.45124067934512
 20
289.0910949190668
 30
0.0
 11
-82.45124067934512
 21
288.0910949190669
 31
0.0
  0
LINE
  5
362
330
1F
100
AcDbEntity
  8
LAYER-002
  6
Continuous
 62
     1
100
AcDbLine
 10
-59.7512406793453
 20
289.0910949190668
 30
0.0
 11
-59.7512406793453
 21
288.0910949190669
 31
0.0
  0
LINE
  5
363
330
1F
100
AcDbEntity
  8
LAYER-002
  6
Continuous
 62
     1
100
AcDbLine
 10
-57.15124067934542
 20
289.0910949190668
 30
0.0
 11
-59.7512406793453
 21
289.0910949190668
 31
0.0
  0
LINE
  5
364
330
1F
100
AcDbEntity
  8
LAYER-003
  6
Continuous
 62
     4
100
AcDbLine
 10
-82.45124067934512
 20
288.0910949190669
 30
0.0
 11
-82.45124067934512
 21
279.5910949190669
 31
0.0
  0
LINE
  5
365
330
1F
100
AcDbEntity
  8
LAYER-002
  6
Continuous
 62
     1
100
AcDbLine
 10
-82.45124067934512
 20
288.0910949190669
 30
0.0
 11
-74.7512406793453
 21
288.0910949190669
 31
0.0
  0
LINE
  5
366
330
1F
100
AcDbEntity
  8
LAYER-003
  6
Continuous
 62
     4
100
AcDbLine
 10
-74.7512406793453
 20
288.0910949190669
 30
0.0
 11
-74.7512406793453
 21
279.5910949190669
 31
0.0
  0
LINE
  5
367
330
1F
100
AcDbEntity
  8
LAYER-003
  6
Continuous
 62
     4
100
AcDbLine
 10
-67.45124067934512
 20
288.0910949190669
 30
0.0
 11
-67.45124067934512
 21
279.5910949190669
 31
0.0
  0
LINE
  5
368
330
1F
100
AcDbEntity
  8
LAYER-003
  6
Continuous
 62
     4
100
AcDbLine
 10
-59.7512406793453
 20
288.0910949190669
 30
0.0
 11
-59.7512406793453
 21
279.5910949190669
 31
0.0
  0
LINE
  5
369
330
1F
100
AcDbEntity
  8
LAYER-002
  6
Continuous
 62
     1
100
AcDbLine
 10
-59.7512406793453
 20
288.0910949190669
 30
0.0
 11
-67.45124067934512
 21
288.0910949190669
 31
0.0
  0
CIRCLE
  5
36A
330
1F
100
AcDbEntity
  8
LAYER-004
  6
Continuous
 62
     4
100
AcDbCircle
 10
-78.60124067934521
 20
283.9910949190669
 30
0.0
 40
3.0
  0
LINE
  5
36B
330
1F
100
AcDbEntity
  8
LAYER-005
  6
CENTER
 62
     4
100
AcDbLine
 10
-73.83724067934509
 20
283.9910949190669
 30
0.0
 11
-83.25024067934521
 21
283.9910949190669
 31
0.0
  0
LINE
  5
36C
330
1F
100
AcDbEntity
  8
LAYER-005
  6
CENTER
 62
     4
100
AcDbLine
 10
-68.32124067934501
 20
283.9910949190669
 30
0.0
 11
-58.83524067934502
 21
283.9910949190669
 31
0.0
  0
CIRCLE
  5
36D
330
1F
100
AcDbEntity
  8
LAYER-004
  6
Continuous
 62
     4
100
AcDbCircle
 10
-63.60124067934521
 20
283.9910949190669
 30
0.0
 40
3.0
  0
LINE
  5
36E
330
1F
100
AcDbEntity
  8
LAYER-004
  6
Continuous
 62
     4
100
AcDbLine
 10
-79.83724067934531
 20
282.7536949190668
 30
0.0
 11
-77.36324067934504
 21
285.2284949190669
 31
0.0
  0
LINE
  5
36F
330
1F
100
AcDbEntity
  8
LAYER-004
  6
Continuous
 62
     4
100
AcDbLine
 10
-64.83724067934531
 20
282.7536949190668
 30
0.0
 11
-62.36324067934504
 21
285.2284949190669
 31
0.0
  0
LINE
  5
370
330
1F
100
AcDbEntity
  8
LAYER-004
  6
Continuous
 62
     4
100
AcDbLine
 10
-76.47924067934525
 20
281.8698949190669
 30
0.0
 11
-80.7212406793451
 21
286.1124949190669
 31
0.0
  0
LINE
  5
371
330
1F
100
AcDbEntity
  8
LAYER-004
  6
Continuous
 62
     4
100
AcDbLine
 10
-61.47924067934525
 20
281.8698949190669
 30
0.0
 11
-65.7212406793451
 21
286.1124949190669
 31
0.0
  0
LINE
  5
372
330
1F
100
AcDbEntity
  8
LAYER-005
  6
CENTER
 62
     4
100
AcDbLine
 10
-78.60124067934521
 20
279.8862949190668
 30
0.0
 11
-78.60124067934521
 21
287.9018949190669
 31
0.0
  0
LINE
  5
373
330
1F
100
AcDbEntity
  8
LAYER-005
  6
CENTER
 62
     4
100
AcDbLine
 10
-63.60124067934521
 20
279.8862949190668
 30
0.0
 11
-63.60124067934521
 21
287.9018949190669
 31
0.0
  0
LINE
  5
374
330
1F
100
AcDbEntity
  8
LAYER-003
  6
Continuous
 62
     4
100
AcDbLine
 10
-72.70124067941825
 20
279.5910949190669
 30
0.0
 11
-85.05124067934503
 21
279.5910949190669
 31
0.0
  0
LINE
  5
375
330
1F
100
AcDbEntity
  8
LAYER-002
  6
Continuous
 62
     1
100
AcDbLine
 10
-72.70124067941825
 20
279.5910949190669
 30
0.0
 11
-72.70124067941825
 21
289.9910949190668
 31
0.0
  0
LINE
  5
376
330
1F
100
AcDbEntity
  8
LAYER-002
  6
Continuous
 62
     1
100
AcDbLine
 10
-69.50124067934524
 20
279.5910949190669
 30
0.0
 11
-72.70124067941825
 21
279.5910949190669
 31
0.0
  0
LINE
  5
377
330
1F
100
AcDbEntity
  8
LAYER-002
  6
Continuous
 62
     1
100
AcDbLine
 10
-69.50124067934524
 20
279.5910949190669
 30
0.0
 11
-69.50124067934524
 21
289.9910949190668
 31
0.0
  0
LINE
  5
378
330
1F
100
AcDbEntity
  8
LAYER-003
  6
Continuous
 62
     4
100
AcDbLine
 10
-57.15124067934542
 20
279.5910949190669
 30
0.0
 11
-69.50124067934524
 21
279.5910949190669
 31
0.0
  0
LINE
  5
379
330
1F
100
AcDbEntity
  8
LAYER-002
  6
Continuous
 62
     1
100
AcDbLine
 10
-57.15124067934542
 20
278.2564949190668
 30
0.0
 11
-57.15124067934542
 21
289.0910949190668
 31
0.0
  0
LINE
  5
37A
330
1F
100
AcDbEntity
  8
LAYER-003
  6
Continuous
 62
     4
100
AcDbLine
 10
-82.2512406793453
 20
277.1910949190668
 30
0.0
 11
-82.2512406793453
 21
263.4910949190668
 31
0.0
  0
LINE
  5
37B
330
1F
100
AcDbEntity
  8
LAYER-003
  6
Continuous
 62
     4
100
AcDbLine
 10
-79.95124067934512
 20
277.1910949190668
 30
0.0
 11
-79.95124067934512
 21
263.4910949190668
 31
0.0
  0
LINE
  5
37C
330
1F
100
AcDbEntity
  8
LAYER-003
  6
Continuous
 62
     4
100
AcDbLine
 10
-79.95124067934512
 20
277.1910949190668
 30
0.0
 11
-82.2512406793453
 21
277.1910949190668
 31
0.0
  0
LINE
  5
37D
330
1F
100
AcDbEntity
  8
LAYER-003
  6
Continuous
 62
     4
100
AcDbLine
 10
-72.2512406793453
 20
277.1910949190668
 30
0.0
 11
-72.2512406793453
 21
263.4910949190668
 31
0.0
  0
LINE
  5
37E
330
1F
100
AcDbEntity
  8
LAYER-003
  6
Continuous
 62
     4
100
AcDbLine
 10
-69.95124067934512
 20
277.1910949190668
 30
0.0
 11
-69.95124067934512
 21
263.4910949190668
 31
0.0
  0
LINE
  5
37F
330
1F
100
AcDbEntity
  8
LAYER-003
  6
Continuous
 62
     4
100
AcDbLine
 10
-69.95124067934512
 20
277.1910949190668
 30
0.0
 11
-72.2512406793453
 21
277.1910949190668
 31
0.0
  0
LINE
  5
380
330
1F
100
AcDbEntity
  8
LAYER-003
  6
Continuous
 62
     4
100
AcDbLine
 10
-62.2512406793453
 20
277.1910949190668
 30
0.0
 11
-62.2512406793453
 21
263.4910949190668
 31
0.0
  0
LINE
  5
381
330
1F
100
AcDbEntity
  8
LAYER-003
  6
Continuous
 62
     4
100
AcDbLine
 10
-62.2512406793453
 20
277.1910949190668
 30
0.0
 11
-59.95124067934512
 21
277.1910949190668
 31
0.0
  0
ARC
  5
382
330
1F
100
AcDbEntity
  8
LAYER-002
  6
Continuous
 62
     1
100
AcDbCircle
 10
-52.60124067934513
 20
276.6090949190668
 30
0.0
 40
3.0
100
AcDbArc
 50
0.0
 51
48.18969999999852
  0
LINE
  5
383
330
1F
100
AcDbEntity
  8
LAYER-002
  6
Continuous
 62
     1
100
AcDbLine
 10
-85.05124067934503
 20
276.091094919067
 30
0.0
 11
-85.05124067934503
 21
289.0910949190668
 31
0.0
  0
LINE
  5
384
330
1F
100
AcDbEntity
  8
LAYER-002
  6
Continuous
 62
     1
100
AcDbLine
 10
-85.05124067934503
 20
276.091094919067
 30
0.0
 11
-88.10124067934521
 21
276.091094919067
 31
0.0
  0
LINE
  5
385
330
1F
100
AcDbEntity
  8
LAYER-003
  6
Continuous
 62
     4
100
AcDbLine
 10
-82.2512406793453
 20
276.091094919067
 30
0.0
 11
-85.05124067934503
 21
276.091094919067
 31
0.0
  0
LINE
  5
386
330
1F
100
AcDbEntity
  8
LAYER-003
  6
Continuous
 62
     4
100
AcDbLine
 10
-79.95124067934512
 20
276.091094919067
 30
0.0
 11
-72.2512406793453
 21
276.091094919067
 31
0.0
  0
LINE
  5
387
330
1F
100
AcDbEntity
  8
LAYER-003
  6
Continuous
 62
     4
100
AcDbLine
 10
-62.2512406793453
 20
276.091094919067
 30
0.0
 11
-69.95124067934512
 21
276.091094919067
 31
0.0
  0
LINE
  5
388
330
1F
100
AcDbEntity
  8
LAYER-003
  6
Continuous
 62
     4
100
AcDbLine
 10
-59.95124067934512
 20
276.091094919067
 30
0.0
 11
-57.15124067934542
 21
276.091094919067
 31
0.0
  0
ARC
  5
389
330
1F
100
AcDbEntity
  8
LAYER-002
  6
Continuous
 62
     1
100
AcDbCircle
 10
-53.60124067934524
 20
275.4910949190669
 30
0.0
 40
4.5
100
AcDbArc
 50
48.18960000326332
 51
142.0820000036022
  0
ARC
  5
38A
330
1F
100
AcDbEntity
  8
LAYER-003
  6
Continuous
 62
     4
100
AcDbCircle
 10
-53.60124067934524
 20
275.4910949190669
 30
0.0
 40
2.25
100
AcDbArc
 50
352.3379999999943
 51
306.8700000000007
  0
LINE
  5
38B
330
1F
100
AcDbEntity
  8
LAYER-002
  6
Continuous
 62
     1
100
AcDbLine
 10
-92.60124067934513
 20
275.1910949190669
 30
0.0
 11
-92.60124067934513
 21
214.3730949190668
 31
0.0
  0
LINE
  5
38C
330
1F
100
AcDbEntity
  8
LAYER-002
  6
Continuous
 62
     1
100
AcDbLine
 10
-92.60124067934513
 20
275.1910949190669
 30
0.0
 11
-90.8012406793452
 21
275.1910949190669
 31
0.0
  0
LINE
  5
38D
330
1F
100
AcDbEntity
  8
LAYER-003
  6
Continuous
 62
     4
100
AcDbLine
 10
-90.8012406793452
 20
275.1910949190669
 30
0.0
 11
-89.95124067934512
 21
275.1910949190669
 31
0.0
  0
LINE
  5
38E
330
1F
100
AcDbEntity
  8
LAYER-003
  6
Continuous
 62
     4
100
AcDbLine
 10
-89.95124067934512
 20
275.1910949190669
 30
0.0
 11
-89.95124067934512
 21
263.4910949190668
 31
0.0
  0
LINE
  5
38F
330
1F
100
AcDbEntity
  8
LAYER-003
  6
Continuous
 62
     4
100
AcDbLine
 10
-52.25124067934533
 20
275.1910949190669
 30
0.0
 11
-52.25124067934533
 21
263.4910949190668
 31
0.0
  0
LINE
  5
390
330
1F
100
AcDbEntity
  8
LAYER-003
  6
Continuous
 62
     4
100
AcDbLine
 10
-52.25124067934533
 20
275.1910949190669
 30
0.0
 11
-49.60124067934513
 21
275.1910949190669
 31
0.0
  0
LINE
  5
391
330
1F
100
AcDbEntity
  8
LAYER-003
  6
Continuous
 62
     4
100
AcDbLine
 10
-89.95124067934512
 20
271.6910949190667
 30
0.0
 11
-82.2512406793453
 21
271.6910949190667
 31
0.0
  0
LINE
  5
392
330
1F
100
AcDbEntity
  8
LAYER-003
  6
Continuous
 62
     4
100
AcDbLine
 10
-85.05124067934503
 20
271.6910949190667
 30
0.0
 11
-85.05124067934503
 21
276.091094919067
 31
0.0
  0
LINE
  5
393
330
1F
100
AcDbEntity
  8
LAYER-003
  6
Continuous
 62
     4
100
AcDbLine
 10
-79.95124067934512
 20
271.6910949190667
 30
0.0
 11
-72.2512406793453
 21
271.6910949190667
 31
0.0
  0
LINE
  5
394
330
1F
100
AcDbEntity
  8
LAYER-003
  6
Continuous
 62
     4
100
AcDbLine
 10
-62.2512406793453
 20
271.6910949190667
 30
0.0
 11
-69.95124067934512
 21
271.6910949190667
 31
0.0
  0
LINE
  5
395
330
1F
100
AcDbEntity
  8
LAYER-003
  6
Continuous
 62
     4
100
AcDbLine
 10
-57.15124067934542
 20
271.6910949190667
 30
0.0
 11
-57.15124067934542
 21
278.2564949190668
 31
0.0
  0
LINE
  5
396
330
1F
100
AcDbEntity
  8
LAYER-003
  6
Continuous
 62
     4
100
AcDbLine
 10
-52.25124067934533
 20
271.6910949190667
 30
0.0
 11
-59.95124067934512
 21
271.6910949190667
 31
0.0
  0
ARC
  5
397
330
1F
100
AcDbEntity
  8
LAYER-002
  6
Continuous
 62
     1
100
AcDbCircle
 10
-88.10124067934521
 20
271.5910949190668
 30
0.0
 40
4.5
100
AcDbArc
 50
90.00019999999879
 51
126.8699999999996
  0
ARC
  5
398
330
1F
100
AcDbEntity
  8
LAYER-003
  6
Continuous
 62
     4
100
AcDbCircle
 10
-88.10124067934521
 20
271.4910949190669
 30
0.0
 40
2.25002
100
AcDbArc
 50
5.099680000001099
 51
145.3079999982439
  0
LINE
  5
399
330
1F
100
AcDbEntity
  8
LAYER-005
  6
CENTER
 62
     4
100
AcDbLine
 10
-56.10124067934524
 20
271.1910949190669
 30
0.0
 11
-56.10124067934524
 21
262.7339949190669
 31
0.0
  0
LINE
  5
39A
330
1F
100
AcDbEntity
  8
LAYER-005
  6
CENTER
 62
     4
100
AcDbLine
 10
-86.10124067934521
 20
271.1174949190668
 30
0.0
 11
-86.10124067934521
 21
262.8074949190669
 31
0.0
  0
LINE
  5
39B
330
1F
100
AcDbEntity
  8
LAYER-005
  6
CENTER
 62
     4
100
AcDbLine
 10
-76.10124067934521
 20
270.9702949190667
 30
0.0
 11
-76.10124067934521
 21
262.8074949190669
 31
0.0
  0
LINE
  5
39C
330
1F
100
AcDbEntity
  8
LAYER-005
  6
CENTER
 62
     4
100
AcDbLine
 10
-66.10124067934521
 20
270.9702949190667
 30
0.0
 11
-66.10124067934521
 21
262.8810949190667
 31
0.0
  0
LINE
  5
39D
330
1F
100
AcDbEntity
  8
LAYER-005
  6
CENTER
 62
     4
100
AcDbLine
 10
-90.97224067934519
 20
266.9910949190668
 30
0.0
 11
-50.96724067934534
 21
266.9910949190668
 31
0.0
  0
CIRCLE
  5
39E
330
1F
100
AcDbEntity
  8
LAYER-004
  6
Continuous
 62
     4
100
AcDbCircle
 10
-86.10124067934521
 20
266.9910949190668
 30
0.0
 40
3.0
  0
CIRCLE
  5
39F
330
1F
100
AcDbEntity
  8
LAYER-004
  6
Continuous
 62
     4
100
AcDbCircle
 10
-76.10124067934521
 20
266.9910949190668
 30
0.0
 40
3.0
  0
CIRCLE
  5
3A0
330
1F
100
AcDbEntity
  8
LAYER-004
  6
Continuous
 62
     4
100
AcDbCircle
 10
-66.10124067934521
 20
266.9910949190668
 30
0.0
 40
3.0
  0
CIRCLE
  5
3A1
330
1F
100
AcDbEntity
  8
LAYER-004
  6
Continuous
 62
     4
100
AcDbCircle
 10
-56.10124067934524
 20
266.9910949190668
 30
0.0
 40
3.0
  0
LINE
  5
3A2
330
1F
100
AcDbEntity
  8
LAYER-004
  6
Continuous
 62
     4
100
AcDbLine
 10
-87.33824067934521
 20
265.7536949190667
 30
0.0
 11
-84.86424067934536
 21
268.2284949190667
 31
0.0
  0
LINE
  5
3A3
330
1F
100
AcDbEntity
  8
LAYER-004
  6
Continuous
 62
     4
100
AcDbLine
 10
-77.33724067934531
 20
265.7536949190667
 30
0.0
 11
-74.86324067934504
 21
268.2284949190667
 31
0.0
  0
LINE
  5
3A4
330
1F
100
AcDbEntity
  8
LAYER-004
  6
Continuous
 62
     4
100
AcDbLine
 10
-67.33724067934531
 20
265.7536949190667
 30
0.0
 11
-64.86324067934504
 21
268.2284949190667
 31
0.0
  0
LINE
  5
3A5
330
1F
100
AcDbEntity
  8
LAYER-004
  6
Continuous
 62
     4
100
AcDbLine
 10
-57.33724067934534
 20
265.7536949190667
 30
0.0
 11
-54.86324067934507
 21
268.2284949190667
 31
0.0
  0
LINE
  5
3A6
330
1F
100
AcDbEntity
  8
LAYER-004
  6
Continuous
 62
     4
100
AcDbLine
 10
-83.98024067900001
 20
264.8697949190667
 30
0.0
 11
-88.22224067934513
 21
269.1122949190667
 31
0.0
  0
LINE
  5
3A7
330
1F
100
AcDbEntity
  8
LAYER-004
  6
Continuous
 62
     4
100
AcDbLine
 10
-73.97924067934525
 20
264.8697949190667
 30
0.0
 11
-78.2212406793451
 21
269.1122949190667
 31
0.0
  0
LINE
  5
3A8
330
1F
100
AcDbEntity
  8
LAYER-004
  6
Continuous
 62
     4
100
AcDbLine
 10
-63.97924067934525
 20
264.8697949190667
 30
0.0
 11
-68.2212406793451
 21
269.1122949190667
 31
0.0
  0
LINE
  5
3A9
330
1F
100
AcDbEntity
  8
LAYER-004
  6
Continuous
 62
     4
100
AcDbLine
 10
-53.97924067934528
 20
264.8697949190667
 30
0.0
 11
-58.22124067934513
 21
269.1122949190667
 31
0.0
  0
LINE
  5
3AA
330
1F
100
AcDbEntity
  8
LAYER-003
  6
Continuous
 62
     4
100
AcDbLine
 10
-59.95124067934512
 20
263.4910949190668
 30
0.0
 11
-59.95124067934512
 21
277.1910949190668
 31
0.0
  0
LINE
  5
3AB
330
1F
100
AcDbEntity
  8
LAYER-003
  6
Continuous
 62
     4
100
AcDbLine
 10
-49.60124067934513
 20
263.4910949190668
 30
0.0
 11
-92.60124067934513
 21
263.4910949190668
 31
0.0
  0
LINE
  5
3AC
330
1F
100
AcDbEntity
  8
LAYER-002
  6
Continuous
 62
     1
100
AcDbLine
 10
-49.60124067934513
 20
215.791094919067
 30
0.0
 11
-49.60124067934513
 21
276.6090949190668
 31
0.0
  0
LINE
  5
3AD
330
1F
100
AcDbEntity
  8
LAYER-003
  6
Continuous
 62
     4
100
AcDbLine
 10
-81.10124067934521
 20
257.9910949190669
 30
0.0
 11
-81.10124067934521
 21
232.9910949190669
 31
0.0
  0
LINE
  5
3AE
330
1F
100
AcDbEntity
  8
LAYER-003
  6
Continuous
 62
     4
100
AcDbLine
 10
-76.10124067934521
 20
257.9910949190669
 30
0.0
 11
-76.10124067934521
 21
250.1910949190669
 31
0.0
  0
LINE
  5
3AF
330
1F
100
AcDbEntity
  8
LAYER-003
  6
Continuous
 62
     4
100
AcDbLine
 10
-66.10124067934521
 20
257.9910949190669
 30
0.0
 11
-66.10124067934521
 21
250.1910949190669
 31
0.0
  0
LINE
  5
3B0
330
1F
100
AcDbEntity
  8
LAYER-003
  6
Continuous
 62
     4
100
AcDbLine
 10
-61.10124067934521
 20
257.9910949190669
 30
0.0
 11
-81.10124067934521
 21
257.9910949190669
 31
0.0
  0
LINE
  5
3B1
330
1F
100
AcDbEntity
  8
LAYER-003
  6
Continuous
 62
     4
100
AcDbLine
 10
-61.10124067934521
 20
257.9910949190669
 30
0.0
 11
-61.10124067934521
 21
232.9910949190669
 31
0.0
  0
LINE
  5
3B2
330
1F
100
AcDbEntity
  8
LAYER-003
  6
Continuous
 62
     4
100
AcDbLine
 10
-73.35124067913537
 20
250.1910949190669
 30
0.0
 11
-73.35124067913537
 21
240.791094919067
 31
0.0
  0
LINE
  5
3B3
330
1F
100
AcDbEntity
  8
LAYER-003
  6
Continuous
 62
     4
100
AcDbLine
 10
-68.85124067934498
 20
250.1910949190669
 30
0.0
 11
-68.85124067934498
 21
240.791094919067
 31
0.0
  0
LINE
  5
3B4
330
1F
100
AcDbEntity
  8
LAYER-003
  6
Continuous
 62
     4
100
AcDbLine
 10
-61.10124067934521
 20
250.1910949190669
 30
0.0
 11
-81.10124067934521
 21
250.1910949190669
 31
0.0
  0
LINE
  5
3B5
330
1F
100
AcDbEntity
  8
LAYER-005
  6
CENTER
 62
     4
100
AcDbLine
 10
-95.38224067934522
 20
245.4910949190669
 30
0.0
 11
-46.89924067934501
 21
245.4910949190669
 31
0.0
  0
LINE
  5
3B6
330
1F
100
AcDbEntity
  8
LAYER-003
  6
Continuous
 62
     4
100
AcDbLine
 10
-77.85124067934532
 20
240.791094919067
 30
0.0
 11
-77.85124067934532
 21
250.1910949190669
 31
0.0
  0
LINE
  5
3B7
330
1F
100
AcDbEntity
  8
LAYER-003
  6
Continuous
 62
     4
100
AcDbLine
 10
-64.35124067913537
 20
240.791094919067
 30
0.0
 11
-64.35124067913537
 21
250.1910949190669
 31
0.0
  0
LINE
  5
3B8
330
1F
100
AcDbEntity
  8
LAYER-003
  6
Continuous
 62
     4
100
AcDbLine
 10
-61.10124067934521
 20
240.791094919067
 30
0.0
 11
-81.10124067934521
 21
240.791094919067
 31
0.0
  0
LINE
  5
3B9
330
1F
100
AcDbEntity
  8
LAYER-003
  6
Continuous
 62
     4
100
AcDbLine
 10
-81.10124067934521
 20
232.9910949190669
 30
0.0
 11
-61.10124067934521
 21
232.9910949190669
 31
0.0
  0
LINE
  5
3BA
330
1F
100
AcDbEntity
  8
LAYER-003
  6
Continuous
 62
     4
100
AcDbLine
 10
-79.95124067934512
 20
227.4910949190669
 30
0.0
 11
-79.95124067934512
 21
213.7910949190668
 31
0.0
  0
LINE
  5
3BB
330
1F
100
AcDbEntity
  8
LAYER-003
  6
Continuous
 62
     4
100
AcDbLine
 10
-72.2512406793453
 20
227.4910949190669
 30
0.0
 11
-72.2512406793453
 21
213.7910949190668
 31
0.0
  0
LINE
  5
3BC
330
1F
100
AcDbEntity
  8
LAYER-008
  6
Continuous
 62
     4
100
AcDbLine
 10
224.7796567069294
 20
229.6410949190671
 30
0.0
 11
251.2296567069295
 21
229.6410949190671
 31
0.0
  0
LINE
  5
3BD
330
1F
100
AcDbEntity
  8
LAYER-007
  6
Continuous
 62
     1
100
AcDbLine
 10
253.2296567069295
 20
229.491094919067
 30
0.0
 11
256.2296557069295
 21
227.791094919067
 31
0.0
  0
LINE
  5
3BE
330
1F
100
AcDbEntity
  8
LAYER-007
  6
Continuous
 62
     1
100
AcDbLine
 10
253.2296567069295
 20
229.491094919067
 30
0.0
 11
252.2296567069295
 21
229.491094919067
 31
0.0
  0
LINE
  5
3BF
330
1F
100
AcDbEntity
  8
LAYER-008
  6
Continuous
 62
     4
100
AcDbLine
 10
218.7796567069294
 20
228.566094919067
 30
0.0
 11
218.7796567069294
 21
232.566094919067
 31
0.0
  0
LINE
  5
3C0
330
1F
100
AcDbEntity
  8
LAYER-008
  6
Continuous
 62
     4
100
AcDbLine
 10
220.7796567069296
 20
228.566094919067
 30
0.0
 11
218.7796567069294
 21
228.566094919067
 31
0.0
  0
LINE
  5
3C1
330
1F
100
AcDbEntity
  8
LAYER-009
  6
Continuous
 62
     2
100
AcDbLine
 10
251.2296567069295
 20
227.9910949190671
 30
0.0
 11
251.2296567069295
 21
233.9910949190671
 31
0.0
  0
LINE
  5
3C2
330
1F
100
AcDbEntity
  8
LAYER-007
  6
Continuous
 62
     1
100
AcDbLine
 10
251.2296567069295
 20
227.7910949190671
 30
0.0
 11
251.2296567069295
 21
263.191094919067
 31
0.0
  0
LINE
  5
3C3
330
1F
100
AcDbEntity
  8
LAYER-007
  6
Continuous
 62
     1
100
AcDbLine
 10
252.2296567069295
 20
227.7910949190671
 30
0.0
 11
251.2296567069295
 21
227.7910949190671
 31
0.0
  0
LINE
  5
3C4
330
1F
100
AcDbEntity
  8
LAYER-007
  6
Continuous
 62
     1
100
AcDbLine
 10
252.2296567069295
 20
227.7910949190671
 30
0.0
 11
252.2296567069295
 21
229.491094919067
 31
0.0
  0
LINE
  5
3C5
330
1F
100
AcDbEntity
  8
LAYER-007
  6
Continuous
 62
     1
100
AcDbLine
 10
183.3230567069294
 20
227.4910949190671
 30
0.0
 11
183.7796567069294
 21
227.4910949190671
 31
0.0
  0
LINE
  5
3C6
330
1F
100
AcDbEntity
  8
LAYER-007
  6
Continuous
 62
     1
100
AcDbLine
 10
183.7796567069294
 20
227.4910949190671
 30
0.0
 11
183.7796567069294
 21
217.7910949190671
 31
0.0
  0
LINE
  5
3C7
330
1F
100
AcDbEntity
  8
LAYER-008
  6
Continuous
 62
     4
100
AcDbLine
 10
222.2296567069295
 20
226.4910949190672
 30
0.0
 11
222.2296567069295
 21
221.4910949190672
 31
0.0
  0
LINE
  5
3C8
330
1F
100
AcDbEntity
  8
LAYER-008
  6
Continuous
 62
     4
100
AcDbLine
 10
247.7296567069295
 20
226.4910949190672
 30
0.0
 11
222.2296567069295
 21
226.4910949190672
 31
0.0
  0
LINE
  5
3C9
330
1F
100
AcDbEntity
  8
LAYER-008
  6
Continuous
 62
     4
100
AcDbLine
 10
205.9796567069294
 20
221.4910949190672
 30
0.0
 11
205.9796567069294
 21
218.291094919067
 31
0.0
  0
LINE
  5
3CA
330
1F
100
AcDbEntity
  8
LAYER-008
  6
Continuous
 62
     4
100
AcDbLine
 10
222.2296567069295
 20
221.4910949190672
 30
0.0
 11
205.9796567069294
 21
221.4910949190672
 31
0.0
  0
ARC
  5
3CB
330
1F
100
AcDbEntity
  8
LAYER-008
  6
Continuous
 62
     4
100
AcDbCircle
 10
203.4796567069294
 20
218.291094919067
 30
0.0
 40
2.5
100
AcDbArc
 50
270.0
 51
0.0
  0
LINE
  5
3CC
330
1F
100
AcDbEntity
  8
LAYER-008
  6
Continuous
 62
     4
100
AcDbLine
 10
184.9342567069296
 20
215.791094919067
 30
0.0
 11
203.4796567069294
 21
215.791094919067
 31
0.0
  0
ARC
  5
3CD
330
1F
100
AcDbEntity
  8
LAYER-007
  6
Continuous
 62
     1
100
AcDbCircle
 10
187.2436567069295
 20
215.791094919067
 30
0.0
 40
2.0
100
AcDbArc
 50
209.9999999999975
 51
270.0
  0
LINE
  5
3CE
330
1F
100
AcDbEntity
  8
LAYER-007
  6
Continuous
 62
     1
100
AcDbLine
 10
226.2796567069295
 20
215.441094919067
 30
0.0
 11
226.2796567069295
 21
210.791094919067
 31
0.0
  0
LINE
  5
3CF
330
1F
100
AcDbEntity
  8
LAYER-008
  6
Continuous
 62
     4
100
AcDbLine
 10
247.7296567069295
 20
215.441094919067
 30
0.0
 11
247.7296567069295
 21
226.4910949190672
 31
0.0
  0
LINE
  5
3D0
330
1F
100
AcDbEntity
  8
LAYER-007
  6
Continuous
 62
     1
100
AcDbLine
 10
247.7296567069295
 20
215.441094919067
 30
0.0
 11
226.2796567069295
 21
215.441094919067
 31
0.0
  0
LINE
  5
3D1
330
1F
100
AcDbEntity
  8
LAYER-007
  6
Continuous
 62
     1
100
AcDbLine
 10
185.5116567069296
 20
214.791094919067
 30
0.0
 11
183.7796567069294
 21
217.7910949190671
 31
0.0
  0
LINE
  5
3D2
330
1F
100
AcDbEntity
  8
LAYER-007
  6
Continuous
 62
     1
100
AcDbLine
 10
207.1796567069295
 20
213.7910949190671
 30
0.0
 11
187.2436567069295
 21
213.7910949190671
 31
0.0
  0
LINE
  5
3D3
330
1F
100
AcDbEntity
  8
LAYER-007
  6
Continuous
 62
     1
100
AcDbLine
 10
207.1796567069295
 20
212.9910949190671
 30
0.0
 11
207.1796567069295
 21
213.791094919067
 31
0.0
  0
ARC
  5
3D4
330
1F
100
AcDbEntity
  8
LAYER-007
  6
Continuous
 62
     1
100
AcDbCircle
 10
207.9796567069296
 20
212.9910949190671
 30
0.0
 40
0.8000000000000002
100
AcDbArc
 50
179.9204959927482
 51
270.0
  0
LINE
  5
3D5
330
1F
100
AcDbEntity
  8
LAYER-007
  6
Continuous
 62
     1
100
AcDbLine
 10
208.7796567069294
 20
212.1910949190671
 30
0.0
 11
207.9796567069296
 21
212.1910949190671
 31
0.0
  0
LINE
  5
3D6
330
1F
100
AcDbEntity
  8
LAYER-007
  6
Continuous
 62
     1
100
AcDbLine
 10
208.7796567069294
 20
212.1910949190671
 30
0.0
 11
208.7796567069294
 21
210.791094919067
 31
0.0
  0
LINE
  5
3D7
330
1F
100
AcDbEntity
  8
LAYER-007
  6
Continuous
 62
     1
100
AcDbLine
 10
226.2796567069295
 20
210.791094919067
 30
0.0
 11
208.7796567069294
 21
210.791094919067
 31
0.0
  0
LINE
  5
3D8
330
1F
100
AcDbEntity
  8
LAYER-007
  6
Continuous
 62
     1
100
AcDbLine
 10
247.7296567069295
 20
209.9910949190671
 30
0.0
 11
256.2296567069295
 21
209.9910949190671
 31
0.0
  0
LINE
  5
3D9
330
1F
100
AcDbEntity
  8
LAYER-007
  6
Continuous
 62
     1
100
AcDbLine
 10
247.7296567069295
 20
209.9910949190671
 30
0.0
 11
247.7296567069295
 21
215.441094919067
 31
0.0
  0
LINE
  5
3DA
330
1F
100
AcDbEntity
  8
LAYER-007
  6
Continuous
 62
     1
100
AcDbLine
 10
256.2296567069295
 20
209.9910949190671
 30
0.0
 11
256.2296567069295
 21
227.791094919067
 31
0.0
  0
LINE
  5
3DB
330
1F
100
AcDbEntity
  8
LAYER-007
  6
Continuous
 62
     1
100
AcDbLine
 10
205.4796567069296
 20
289.9910949190671
 30
0.0
 11
205.4796567069296
 21
279.5910949190672
 31
0.0
  0
LINE
  5
3DC
330
1F
100
AcDbEntity
  8
LAYER-007
  6
Continuous
 62
     1
100
AcDbLine
 10
222.5296567069294
 20
289.9910949190671
 30
0.0
 11
205.4796567069296
 21
289.9910949190671
 31
0.0
  0
LINE
  5
3DD
330
1F
100
AcDbEntity
  8
LAYER-007
  6
Continuous
 62
     1
100
AcDbLine
 10
222.5296567069294
 20
289.9910949190671
 30
0.0
 11
222.5296567069294
 21
287.891094919067
 31
0.0
  0
LINE
  5
3DE
330
1F
100
AcDbEntity
  8
LAYER-007
  6
Continuous
 62
     1
100
AcDbLine
 10
227.7296567069295
 20
287.891094919067
 30
0.0
 11
222.5296567069294
 21
287.891094919067
 31
0.0
  0
LINE
  5
3DF
330
1F
100
AcDbEntity
  8
LAYER-007
  6
Continuous
 62
     1
100
AcDbLine
 10
227.7296567069295
 20
287.891094919067
 30
0.0
 11
227.7296567069295
 21
276.091094919067
 31
0.0
  0
LINE
  5
3E0
330
1F
100
AcDbEntity
  8
LAYER-009
  6
HIDDEN
 62
     4
100
AcDbLine
 10
218.6900567069294
 20
287.8468949190669
 30
0.0
 11
217.6970567067249
 21
279.405094919067
 31
0.0
  0
LINE
  5
3E1
330
1F
100
AcDbEntity
  8
LAYER-009
  6
HIDDEN
 62
     4
100
AcDbLine
 10
218.6900567069294
 20
287.8468949190669
 30
0.0
 11
217.6970567067249
 21
287.9636949190671
 31
0.0
  0
LINE
  5
3E2
330
1F
100
AcDbEntity
  8
LAYER-010
  6
CENTER
 62
     4
100
AcDbLine
 10
220.6948567069294
 20
283.5834949190671
 30
0.0
 11
214.2014567069294
 21
284.3474949190671
 31
0.0
  0
LINE
  5
3E3
330
1F
100
AcDbEntity
  8
LAYER-007
  6
Continuous
 62
     1
100
AcDbLine
 10
247.7296567069295
 20
279.9910949190671
 30
0.0
 11
247.7296567069295
 21
276.091094919067
 31
0.0
  0
LINE
  5
3E4
330
1F
100
AcDbEntity
  8
LAYER-007
  6
Continuous
 62
     1
100
AcDbLine
 10
256.2296567069295
 20
279.9910949190671
 30
0.0
 11
256.2296567069295
 21
260.691094919067
 31
0.0
  0
LINE
  5
3E5
330
1F
100
AcDbEntity
  8
LAYER-007
  6
Continuous
 62
     1
100
AcDbLine
 10
256.2296567069295
 20
279.9910949190671
 30
0.0
 11
247.7296567069295
 21
279.9910949190671
 31
0.0
  0
LINE
  5
3E6
330
1F
100
AcDbEntity
  8
LAYER-009
  6
HIDDEN
 62
     4
100
AcDbLine
 10
216.7240567069295
 20
279.6940949190671
 30
0.0
 11
217.6970567067249
 21
287.9636949190671
 31
0.0
  0
LINE
  5
3E7
330
1F
100
AcDbEntity
  8
LAYER-007
  6
Continuous
 62
     1
100
AcDbLine
 10
205.4796567069296
 20
279.5910949190672
 30
0.0
 11
203.0796567069295
 21
277.1910949190671
 31
0.0
  0
LINE
  5
3E8
330
1F
100
AcDbEntity
  8
LAYER-007
  6
Continuous
 62
     1
100
AcDbLine
 10
203.0796567069295
 20
277.1910949190671
 30
0.0
 11
187.2436567069295
 21
277.1910949190671
 31
0.0
  0
LINE
  5
3E9
330
1F
100
AcDbEntity
  8
LAYER-007
  6
Continuous
 62
     1
100
AcDbLine
 10
185.5116567069296
 20
276.1910949190672
 30
0.0
 11
183.7796567069294
 21
273.191094919067
 31
0.0
  0
LINE
  5
3EA
330
1F
100
AcDbEntity
  8
LAYER-007
  6
Continuous
 62
     1
100
AcDbLine
 10
227.7296567069295
 20
276.091094919067
 30
0.0
 11
247.7296567069295
 21
276.091094919067
 31
0.0
  0
LINE
  5
3EB
330
1F
100
AcDbEntity
  8
LAYER-008
  6
Continuous
 62
     4
100
AcDbLine
 10
247.7296567069295
 20
276.091094919067
 30
0.0
 11
247.7296567069295
 21
264.4910949190669
 31
0.0
  0
LINE
  5
3EC
330
1F
100
AcDbEntity
  8
LAYER-008
  6
Continuous
 62
     4
100
AcDbLine
 10
184.9342567069296
 20
275.1910949190669
 30
0.0
 11
203.4796567069294
 21
275.1910949190669
 31
0.0
  0
ARC
  5
3ED
330
1F
100
AcDbEntity
  8
LAYER-007
  6
Continuous
 62
     1
100
AcDbCircle
 10
187.2436567069295
 20
275.1910949190669
 30
0.0
 40
2.0
100
AcDbArc
 50
89.99980000000267
 51
149.9998999999975
  0
LINE
  5
3EE
330
1F
100
AcDbEntity
  8
LAYER-007
  6
Continuous
 62
     1
100
AcDbLine
 10
183.7796567069294
 20
273.191094919067
 30
0.0
 11
183.7796567069294
 21
263.4910949190669
 31
0.0
  0
ARC
  5
3EF
330
1F
100
AcDbEntity
  8
LAYER-008
  6
Continuous
 62
     4
100
AcDbCircle
 10
203.4796567069294
 20
272.6910949190669
 30
0.0
 40
2.5
100
AcDbArc
 50
0.0
 51
89.99979999999941
  0
LINE
  5
3F0
330
1F
100
AcDbEntity
  8
LAYER-008
  6
Continuous
 62
     4
100
AcDbLine
 10
205.9796567069294
 20
272.6910949190669
 30
0.0
 11
205.9796567069294
 21
269.4910949190669
 31
0.0
  0
LINE
  5
3F1
330
1F
100
AcDbEntity
  8
LAYER-009
  6
HIDDEN
 62
     4
100
AcDbLine
 10
199.2296567069296
 20
271.691094919067
 30
0.0
 11
196.7296567069296
 21
271.691094919067
 31
0.0
  0
LINE
  5
3F2
330
1F
100
AcDbEntity
  8
LAYER-009
  6
HIDDEN
 62
     4
100
AcDbLine
 10
199.2296567069296
 20
271.691094919067
 30
0.0
 11
199.2296567069296
 21
270.691094919067
 31
0.0
  0
LINE
  5
3F3
330
1F
100
AcDbEntity
  8
LAYER-009
  6
HIDDEN
 62
     4
100
AcDbLine
 10
199.2296567069296
 20
270.691094919067
 30
0.0
 11
196.7296567069296
 21
270.691094919067
 31
0.0
  0
LINE
  5
3F4
330
1F
100
AcDbEntity
  8
LAYER-009
  6
HIDDEN
 62
     4
100
AcDbLine
 10
195.2296567069295
 20
270.1910949190669
 30
0.0
 11
195.2296567069295
 21
262.1372949190671
 31
0.0
  0
LINE
  5
3F5
330
1F
100
AcDbEntity
  8
LAYER-009
  6
HIDDEN
 62
     4
100
AcDbLine
 10
196.2296567069295
 20
270.1910949190669
 30
0.0
 11
196.2296567069295
 21
262.0655949190671
 31
0.0
  0
ARC
  5
3F6
330
1F
100
AcDbEntity
  8
LAYER-009
  6
HIDDEN
 62
     4
100
AcDbCircle
 10
196.7296567069296
 20
270.1910949190669
 30
0.0
 40
1.5
100
AcDbArc
 50
89.99980000000159
 51
180.0
  0
ARC
  5
3F7
330
1F
100
AcDbEntity
  8
LAYER-009
  6
HIDDEN
 62
     4
100
AcDbCircle
 10
196.7296567069296
 20
270.1910949190669
 30
0.0
 40
0.5
100
AcDbArc
 50
89.99980000001244
 51
180.0
  0
LINE
  5
3F8
330
1F
100
AcDbEntity
  8
LAYER-008
  6
Continuous
 62
     4
100
AcDbLine
 10
222.2296567069295
 20
269.4910949190669
 30
0.0
 11
205.9796567069294
 21
269.4910949190669
 31
0.0
  0
LINE
  5
3F9
330
1F
100
AcDbEntity
  8
LAYER-010
  6
CENTER
 62
     4
100
AcDbLine
 10
199.6994567069295
 20
266.9910949190671
 30
0.0
 11
192.0206567069296
 21
266.9910949190671
 31
0.0
  0
LINE
  5
3FA
330
1F
100
AcDbEntity
  8
LAYER-008
  6
Continuous
 62
     4
100
AcDbLine
 10
222.2296567069295
 20
264.4910949190669
 30
0.0
 11
222.2296567069295
 21
269.4910949190669
 31
0.0
  0
LINE
  5
3FB
330
1F
100
AcDbEntity
  8
LAYER-008
  6
Continuous
 62
     4
100
AcDbLine
 10
247.7296567069294
 20
264.4910949190669
 30
0.0
 11
222.2296567069295
 21
264.4910949190669
 31
0.0
  0
LINE
  5
3FC
330
1F
100
AcDbEntity
  8
LAYER-007
  6
Continuous
 62
     1
100
AcDbLine
 10
183.7796567069294
 20
263.4910949190669
 30
0.0
 11
183.3230567069294
 21
263.4910949190669
 31
0.0
  0
LINE
  5
3FD
330
1F
100
AcDbEntity
  8
LAYER-007
  6
Continuous
 62
     1
100
AcDbLine
 10
251.2296567069295
 20
263.191094919067
 30
0.0
 11
252.2296567069295
 21
263.191094919067
 31
0.0
  0
LINE
  5
3FE
330
1F
100
AcDbEntity
  8
LAYER-009
  6
Continuous
 62
     2
100
AcDbLine
 10
251.2296567069295
 20
262.9910949190671
 30
0.0
 11
251.2296567069295
 21
256.9910949190671
 31
0.0
  0
LINE
  5
3FF
330
1F
100
AcDbEntity
  8
LAYER-008
  6
Continuous
 62
     4
100
AcDbLine
 10
218.7796567069294
 20
262.4160949190672
 30
0.0
 11
218.7796567069294
 21
258.4160949190671
 31
0.0
  0
LINE
  5
400
330
1F
100
AcDbEntity
  8
LAYER-008
  6
Continuous
 62
     4
100
AcDbLine
 10
220.7796567069296
 20
262.4160949190672
 30
0.0
 11
218.7796567069294
 21
262.4160949190672
 31
0.0
  0
LINE
  5
401
330
1F
100
AcDbEntity
  8
LAYER-007
  6
Continuous
 62
     1
100
AcDbLine
 10
252.2296567069295
 20
261.9910949190671
 30
0.0
 11
252.2296567069295
 21
263.191094919067
 31
0.0
  0
LINE
  5
402
330
1F
100
AcDbEntity
  8
LAYER-007
  6
Continuous
 62
     1
100
AcDbLine
 10
252.2296567069295
 20
261.9910949190671
 30
0.0
 11
252.9802167069296
 21
260.691094919067
 31
0.0
  0
LINE
  5
403
330
1F
100
AcDbEntity
  8
LAYER-008
  6
Continuous
 62
     4
100
AcDbLine
 10
224.7796567069294
 20
261.341094919067
 30
0.0
 11
251.2296567069295
 21
261.341094919067
 31
0.0
  0
LINE
  5
404
330
1F
100
AcDbEntity
  8
LAYER-007
  6
Continuous
 62
     1
100
AcDbLine
 10
181.8796567069295
 20
260.9910949190671
 30
0.0
 11
183.3230567069294
 21
263.4910949190669
 31
0.0
  0
LINE
  5
405
330
1F
100
AcDbEntity
  8
LAYER-007
  6
Continuous
 62
     1
100
AcDbLine
 10
256.2296567069295
 20
260.691094919067
 30
0.0
 11
252.9802167069296
 21
260.691094919067
 31
0.0
  0
ARC
  5
406
330
1F
100
AcDbEntity
  8
LAYER-008
  6
Continuous
 62
     4
100
AcDbCircle
 10
220.7796567069296
 20
260.416094919067
 30
0.0
 40
2.0
100
AcDbArc
 50
270.0
 51
89.9998000000043
  0
LINE
  5
407
330
1F
100
AcDbEntity
  8
LAYER-008
  6
Continuous
 62
     4
100
AcDbLine
 10
224.7796567069294
 20
258.841094919067
 30
0.0
 11
251.2296567069295
 21
258.841094919067
 31
0.0
  0
LINE
  5
408
330
1F
100
AcDbEntity
  8
LAYER-008
  6
Continuous
 62
     4
100
AcDbLine
 10
224.7796567069294
 20
258.841094919067
 30
0.0
 11
224.7796567069294
 21
261.341094919067
 31
0.0
  0
LINE
  5
409
330
1F
100
AcDbEntity
  8
LAYER-008
  6
Continuous
 62
     4
100
AcDbLine
 10
220.7796567069296
 20
258.4160949190671
 30
0.0
 11
218.7796567069294
 21
258.4160949190671
 31
0.0
  0
LINE
  5
40A
330
1F
100
AcDbEntity
  8
LAYER-007
  6
Continuous
 62
     1
100
AcDbLine
 10
176.2296567069295
 20
257.9910949190671
 30
0.0
 11
181.8796567069295
 21
257.9910949190671
 31
0.0
  0
LINE
  5
40B
330
1F
100
AcDbEntity
  8
LAYER-007
  6
Continuous
 62
     1
100
AcDbLine
 10
181.8796567069295
 20
257.9910949190671
 30
0.0
 11
181.8796567069295
 21
260.9910949190671
 31
0.0
  0
LINE
  5
40C
330
1F
100
AcDbEntity
  8
LAYER-008
  6
Continuous
 62
     4
100
AcDbLine
 10
181.8796567069295
 20
250.1910949190669
 30
0.0
 11
176.2296567069295
 21
250.1910949190669
 31
0.0
  0
LINE
  5
40D
330
1F
100
AcDbEntity
  8
LAYER-008
  6
Continuous
 62
     4
100
AcDbLine
 10
216.2796567069295
 20
247.9910949190671
 30
0.0
 11
201.4796567069295
 21
247.9910949190671
 31
0.0
  0
LINE
  5
40E
330
1F
100
AcDbEntity
  8
LAYER-006
  6
Continuous
 62
     4
100
AcDbLine
 10
256.2296567069295
 20
247.9910949190671
 30
0.0
 11
256.2296567069295
 21
242.9910949190671
 31
0.0
  0
LINE
  5
40F
330
1F
100
AcDbEntity
  8
LAYER-006
  6
Continuous
 62
     4
100
AcDbLine
 10
258.7296567069295
 20
245.4910949190669
 30
0.0
 11
253.7296567069295
 21
245.4910949190669
 31
0.0
  0
LINE
  5
410
330
1F
100
AcDbEntity
  8
LAYER-010
  6
CENTER
 62
     4
100
AcDbLine
 10
269.1460567069295
 20
245.4910949190669
 30
0.0
 11
171.0480243532691
 21
245.4910949190669
 31
0.0
  0
LINE
  5
411
330
1F
100
AcDbEntity
  8
LAYER-008
  6
Continuous
 62
     4
100
AcDbLine
 10
201.4796567069295
 20
242.9910949190671
 30
0.0
 11
201.4796567069295
 21
247.9910949190671
 31
0.0
  0
LINE
  5
412
330
1F
100
AcDbEntity
  8
LAYER-008
  6
Continuous
 62
     4
100
AcDbLine
 10
216.2796567069295
 20
242.9910949190671
 30
0.0
 11
201.4796567069295
 21
242.9910949190671
 31
0.0
  0
LINE
  5
413
330
1F
100
AcDbEntity
  8
LAYER-008
  6
Continuous
 62
     4
100
AcDbLine
 10
216.2796567069295
 20
242.9910949190671
 30
0.0
 11
216.2796567069295
 21
247.9910949190671
 31
0.0
  0
LINE
  5
414
330
1F
100
AcDbEntity
  8
LAYER-008
  6
Continuous
 62
     4
100
AcDbLine
 10
181.8796567069295
 20
240.791094919067
 30
0.0
 11
176.2296567069295
 21
240.791094919067
 31
0.0
  0
LINE
  5
415
330
1F
100
AcDbEntity
  8
LAYER-007
  6
Continuous
 62
     1
100
AcDbLine
 10
176.2296567069295
 20
232.9910949190671
 30
0.0
 11
176.2296567069295
 21
257.9910949190671
 31
0.0
  0
LINE
  5
416
330
1F
100
AcDbEntity
  8
LAYER-007
  6
Continuous
 62
     1
100
AcDbLine
 10
181.8796567069295
 20
232.9910949190671
 30
0.0
 11
176.2296567069295
 21
232.9910949190671
 31
0.0
  0
LINE
  5
417
330
1F
100
AcDbEntity
  8
LAYER-008
  6
Continuous
 62
     4
100
AcDbLine
 10
181.8796567069295
 20
232.9910949190671
 30
0.0
 11
181.8796567069295
 21
257.9910949190671
 31
0.0
  0
LINE
  5
418
330
1F
100
AcDbEntity
  8
LAYER-008
  6
Continuous
 62
     4
100
AcDbLine
 10
220.7796567069296
 20
232.566094919067
 30
0.0
 11
218.7796567069294
 21
232.566094919067
 31
0.0
  0
LINE
  5
419
330
1F
100
AcDbEntity
  8
LAYER-008
  6
Continuous
 62
     4
100
AcDbLine
 10
224.7796567069294
 20
232.1410949190671
 30
0.0
 11
251.2296567069295
 21
232.1410949190671
 31
0.0
  0
LINE
  5
41A
330
1F
100
AcDbEntity
  8
LAYER-008
  6
Continuous
 62
     4
100
AcDbLine
 10
224.7796567069294
 20
232.1410949190671
 30
0.0
 11
224.7796567069294
 21
229.6410949190671
 31
0.0
  0
ARC
  5
41B
330
1F
100
AcDbEntity
  8
LAYER-008
  6
Continuous
 62
     4
100
AcDbCircle
 10
220.7796567069296
 20
230.5660949190672
 30
0.0
 40
2.0
100
AcDbArc
 50
270.0
 51
89.9998000000043
  0
LINE
  5
41C
330
1F
100
AcDbEntity
  8
LAYER-007
  6
Continuous
 62
     1
100
AcDbLine
 10
181.8796567069295
 20
229.9910949190671
 30
0.0
 11
183.3230567069294
 21
227.4910949190671
 31
0.0
  0
LINE
  5
41D
330
1F
100
AcDbEntity
  8
LAYER-007
  6
Continuous
 62
     1
100
AcDbLine
 10
181.8796567069295
 20
229.9910949190671
 30
0.0
 11
181.8796567069295
 21
232.9910949190671
 31
0.0
  0
LINE
  5
41E
330
1F
100
AcDbEntity
  8
LAYER-006
  6
Continuous
 62
     4
100
AcDbLine
 10
-209.6777766971998
 20
135.2426604932051
 30
0.0
 11
-214.4027734763004
 21
130.5176574130091
 31
0.0
  0
LINE
  5
41F
330
1F
100
AcDbEntity
  8
LAYER-006
  6
Continuous
 62
     4
100
AcDbLine
 10
-174.7177759915735
 20
135.2426604932051
 30
0.0
 11
-179.4427727706741
 21
130.5176574130091
 31
0.0
  0
LINE
  5
420
330
1F
100
AcDbEntity
  8
LAYER-006
  6
Continuous
 62
     4
100
AcDbLine
 10
-139.7577752859472
 20
135.2426604932051
 30
0.0
 11
-144.4827720650477
 21
130.5176574130091
 31
0.0
  0
LINE
  5
421
330
1F
100
AcDbEntity
  8
LAYER-006
  6
Continuous
 62
     4
100
AcDbLine
 10
-104.7977745803209
 20
135.2426604932051
 30
0.0
 11
-109.5227713594212
 21
130.5176574130091
 31
0.0
  0
LINE
  5
422
330
1F
100
AcDbEntity
  8
LAYER-006
  6
Continuous
 62
     4
100
AcDbLine
 10
-69.8377738741998
 20
135.2426604932051
 30
0.0
 11
-74.56277065379499
 21
130.5176574130091
 31
0.0
  0
LINE
  5
423
330
1F
100
AcDbEntity
  8
LAYER-006
  6
Continuous
 62
     4
100
AcDbLine
 10
-34.87777316906823
 20
135.2426604932051
 30
0.0
 11
-39.60276994816877
 21
130.5176574130091
 31
0.0
  0
LINE
  5
424
330
1F
100
AcDbEntity
  8
LAYER-006
  6
Continuous
 62
     4
100
AcDbLine
 10
-212.5127703546602
 20
134.6126573526586
 30
0.0
 11
-214.087770331
 21
133.037657376246
 31
0.0
  0
LINE
  5
425
330
1F
100
AcDbEntity
  8
LAYER-006
  6
Continuous
 62
     4
100
AcDbLine
 10
-208.1027767220737
 20
134.6126573526586
 30
0.0
 11
-212.1977735093869
 21
130.5176574130091
 31
0.0
  0
LINE
  5
426
330
1F
100
AcDbEntity
  8
LAYER-006
  6
Continuous
 62
     4
100
AcDbLine
 10
-177.5527696490339
 20
134.6126573526586
 30
0.0
 11
-179.1277696254007
 21
133.037657376246
 31
0.0
  0
LINE
  5
427
330
1F
100
AcDbEntity
  8
LAYER-006
  6
Continuous
 62
     4
100
AcDbLine
 10
-173.1427760152068
 20
134.6126573526586
 30
0.0
 11
-177.2377728037606
 21
130.5176574130091
 31
0.0
  0
LINE
  5
428
330
1F
100
AcDbEntity
  8
LAYER-006
  6
Continuous
 62
     4
100
AcDbLine
 10
-142.5927689434076
 20
134.6126573526586
 30
0.0
 11
-144.1677689197745
 21
133.037657376246
 31
0.0
  0
LINE
  5
429
330
1F
100
AcDbEntity
  8
LAYER-006
  6
Continuous
 62
     4
100
AcDbLine
 10
-138.1827753095805
 20
134.6126573526586
 30
0.0
 11
-142.2777720981342
 21
130.5176574130091
 31
0.0
  0
LINE
  5
42A
330
1F
100
AcDbEntity
  8
LAYER-006
  6
Continuous
 62
     4
100
AcDbLine
 10
-107.632768237781
 20
134.6126573526586
 30
0.0
 11
-109.2077682141479
 21
133.037657376246
 31
0.0
  0
LINE
  5
42B
330
1F
100
AcDbEntity
  8
LAYER-006
  6
Continuous
 62
     4
100
AcDbLine
 10
-103.2227746051948
 20
134.6126573526586
 30
0.0
 11
-107.3177713925077
 21
130.5176574130091
 31
0.0
  0
LINE
  5
42C
330
1F
100
AcDbEntity
  8
LAYER-006
  6
Continuous
 62
     4
100
AcDbLine
 10
-72.67276753215475
 20
134.6126573526586
 30
0.0
 11
-74.24776750852163
 21
133.037657376246
 31
0.0
  0
LINE
  5
42D
330
1F
100
AcDbEntity
  8
LAYER-006
  6
Continuous
 62
     4
100
AcDbLine
 10
-68.26277389832774
 20
134.6126573526586
 30
0.0
 11
-72.35777068688145
 21
130.5176574130091
 31
0.0
  0
LINE
  5
42E
330
1F
100
AcDbEntity
  8
LAYER-006
  6
Continuous
 62
     4
100
AcDbLine
 10
-33.30277319270158
 20
134.6126573526586
 30
0.0
 11
-37.39776998125529
 21
130.5176574130091
 31
0.0
  0
LINE
  5
42F
330
1F
100
AcDbEntity
  8
LAYER-006
  6
Continuous
 62
     4
100
AcDbLine
 10
-206.8427735897398
 20
133.6676605168385
 30
0.0
 11
-209.9927735424733
 21
130.5176574130091
 31
0.0
  0
LINE
  5
430
330
1F
100
AcDbEntity
  8
LAYER-006
  6
Continuous
 62
     4
100
AcDbLine
 10
-171.8827728841134
 20
133.6676605168385
 30
0.0
 11
-175.0327728366809
 21
130.5176574130091
 31
0.0
  0
LINE
  5
431
330
1F
100
AcDbEntity
  8
LAYER-006
  6
Continuous
 62
     4
100
AcDbLine
 10
-136.9227721784871
 20
133.6676605168385
 30
0.0
 11
-140.0727721312207
 21
130.5176574130091
 31
0.0
  0
LINE
  5
432
330
1F
100
AcDbEntity
  8
LAYER-006
  6
Continuous
 62
     4
100
AcDbLine
 10
-101.9627714728605
 20
133.6676605168385
 30
0.0
 11
-105.1127714255942
 21
130.5176574130091
 31
0.0
  0
LINE
  5
433
330
1F
100
AcDbEntity
  8
LAYER-006
  6
Continuous
 62
     4
100
AcDbLine
 10
-67.00277076723432
 20
133.6676605168385
 30
0.0
 11
-70.15277071996798
 21
130.5176574130091
 31
0.0
  0
LINE
  5
434
330
1F
100
AcDbEntity
  8
LAYER-006
  6
Continuous
 62
     4
100
AcDbLine
 10
-32.04277006160817
 20
133.6676605168385
 30
0.0
 11
-35.19277001434182
 21
130.5176574130091
 31
0.0
  0
LINE
  5
435
330
1F
100
AcDbEntity
  8
LAYER-006
  6
Continuous
 62
     4
100
AcDbLine
 10
-205.8977736039196
 20
132.4076605362052
 30
0.0
 11
-207.7877704259028
 21
130.5176574130091
 31
0.0
  0
LINE
  5
436
330
1F
100
AcDbEntity
  8
LAYER-006
  6
Continuous
 62
     4
100
AcDbLine
 10
-170.9377728982933
 20
132.4076605362052
 30
0.0
 11
-172.8277697199335
 21
130.5176574130091
 31
0.0
  0
LINE
  5
437
330
1F
100
AcDbEntity
  8
LAYER-006
  6
Continuous
 62
     4
100
AcDbLine
 10
-135.977772192667
 20
132.4076605362052
 30
0.0
 11
-137.8677690143072
 21
130.5176574130091
 31
0.0
  0
LINE
  5
438
330
1F
100
AcDbEntity
  8
LAYER-006
  6
Continuous
 62
     4
100
AcDbLine
 10
-101.0177714870405
 20
132.4076605362052
 30
0.0
 11
-102.9077683086809
 21
130.5176574130091
 31
0.0
  0
LINE
  5
439
330
1F
100
AcDbEntity
  8
LAYER-006
  6
Continuous
 62
     4
100
AcDbLine
 10
-66.05777078141421
 20
132.4076605362052
 30
0.0
 11
-67.94776760305444
 21
130.5176574130091
 31
0.0
  0
LINE
  5
43A
330
1F
100
AcDbEntity
  8
LAYER-006
  6
Continuous
 62
     4
100
AcDbLine
 10
-31.09777007578805
 20
132.4076605362052
 30
0.0
 11
-32.98776689742829
 21
130.5176574130091
 31
0.0
  0
LINE
  5
43B
330
1F
100
AcDbEntity
  8
LAYER-006
  6
Continuous
 62
     4
100
AcDbLine
 10
-205.5827736086464
 20
130.8326605593784
 30
0.0
 11
-209.9927735424733
 21
135.2426604932051
 31
0.0
  0
LINE
  5
43C
330
1F
100
AcDbEntity
  8
LAYER-006
  6
Continuous
 62
     4
100
AcDbLine
 10
-170.62277290302
 20
130.8326605593784
 30
0.0
 11
-175.0327728366809
 21
135.2426604932051
 31
0.0
  0
LINE
  5
43D
330
1F
100
AcDbEntity
  8
LAYER-006
  6
Continuous
 62
     4
100
AcDbLine
 10
-135.6627721973937
 20
130.8326605593784
 30
0.0
 11
-140.0727721312207
 21
135.2426604932051
 31
0.0
  0
LINE
  5
43E
330
1F
100
AcDbEntity
  8
LAYER-006
  6
Continuous
 62
     4
100
AcDbLine
 10
-100.7027714917672
 20
130.8326605593784
 30
0.0
 11
-105.1127714255942
 21
135.2426604932051
 31
0.0
  0
LINE
  5
43F
330
1F
100
AcDbEntity
  8
LAYER-006
  6
Continuous
 62
     4
100
AcDbLine
 10
-65.74277078614097
 20
130.8326605593784
 30
0.0
 11
-70.15277071996798
 21
135.2426604932051
 31
0.0
  0
LINE
  5
440
330
1F
100
AcDbEntity
  8
LAYER-006
  6
Continuous
 62
     4
100
AcDbLine
 10
-30.78277008051475
 20
130.8326605593784
 30
0.0
 11
-35.19277001434182
 21
135.2426604932051
 31
0.0
  0
LINE
  5
441
330
1F
100
AcDbEntity
  8
LAYER-006
  6
Continuous
 62
     4
100
AcDbLine
 10
-214.087770331
 20
130.5176574130091
 30
0.0
 11
-215.032773466847
 21
131.462657399925
 31
0.0
  0
LINE
  5
442
330
1F
100
AcDbEntity
  8
LAYER-006
  6
Continuous
 62
     4
100
AcDbLine
 10
-211.8827735141134
 20
130.5176574130091
 30
0.0
 11
-214.4027734763004
 21
132.7226605310184
 31
0.0
  0
ARC
  5
443
330
1F
100
AcDbEntity
  8
LAYER-006
  6
Continuous
 62
     1
100
AcDbCircle
 10
-210.3077735377466
 20
130.5176574130091
 30
0.0
 40
4.724999929100349
100
AcDbArc
 50
0.023339013287638
 51
179.9893829867113
  0
LINE
  5
444
330
1F
100
AcDbEntity
  8
LAYER-006
  6
Continuous
 62
     4
100
AcDbLine
 10
-209.6777766971998
 20
130.5176574130091
 30
0.0
 11
-213.4577734904802
 21
133.9826605121117
 31
0.0
  0
LINE
  5
445
330
1F
100
AcDbEntity
  8
LAYER-006
  6
Continuous
 62
     4
100
AcDbLine
 10
-207.4727735802866
 20
130.5176574130091
 30
0.0
 11
-211.8827735141134
 21
134.9276573479319
 31
0.0
  0
LINE
  5
446
330
1F
100
AcDbEntity
  8
LAYER-006
  6
Continuous
 62
     1
100
AcDbLine
 10
-205.5827736086464
 20
130.5176574130091
 30
0.0
 11
-215.032773466847
 21
130.5176574130091
 31
0.0
  0
LINE
  5
447
330
1F
100
AcDbEntity
  8
LAYER-006
  6
Continuous
 62
     4
100
AcDbLine
 10
-179.1277696254007
 20
130.5176574130091
 30
0.0
 11
-180.0727727612206
 21
131.462657399925
 31
0.0
  0
LINE
  5
448
330
1F
100
AcDbEntity
  8
LAYER-006
  6
Continuous
 62
     4
100
AcDbLine
 10
-176.922772808487
 20
130.5176574130091
 30
0.0
 11
-179.4427727706741
 21
132.7226605310184
 31
0.0
  0
ARC
  5
449
330
1F
100
AcDbEntity
  8
LAYER-006
  6
Continuous
 62
     1
100
AcDbCircle
 10
-175.3477728321203
 20
130.5176574130091
 30
0.0
 40
4.724999929100349
100
AcDbArc
 50
0.0233390132908068
 51
179.9893829867113
  0
LINE
  5
44A
330
1F
100
AcDbEntity
  8
LAYER-006
  6
Continuous
 62
     4
100
AcDbLine
 10
-174.7177759915735
 20
130.5176574130091
 30
0.0
 11
-178.4977727848539
 21
133.9826605121117
 31
0.0
  0
LINE
  5
44B
330
1F
100
AcDbEntity
  8
LAYER-006
  6
Continuous
 62
     4
100
AcDbLine
 10
-172.5127728751203
 20
130.5176574130091
 30
0.0
 11
-176.922772808487
 21
134.9276573479319
 31
0.0
  0
LINE
  5
44C
330
1F
100
AcDbEntity
  8
LAYER-006
  6
Continuous
 62
     1
100
AcDbLine
 10
-170.62277290302
 20
130.5176574130091
 30
0.0
 11
-180.0727727612206
 21
130.5176574130091
 31
0.0
  0
LINE
  5
44D
330
1F
100
AcDbEntity
  8
LAYER-006
  6
Continuous
 62
     4
100
AcDbLine
 10
-144.1677689197745
 20
130.5176574130091
 30
0.0
 11
-145.1127720555944
 21
131.462657399925
 31
0.0
  0
LINE
  5
44E
330
1F
100
AcDbEntity
  8
LAYER-006
  6
Continuous
 62
     4
100
AcDbLine
 10
-141.9627721028607
 20
130.5176574130091
 30
0.0
 11
-144.4827720650477
 21
132.7226605310184
 31
0.0
  0
ARC
  5
44F
330
1F
100
AcDbEntity
  8
LAYER-006
  6
Continuous
 62
     1
100
AcDbCircle
 10
-140.387772126494
 20
130.5176574130091
 30
0.0
 40
4.724999929100349
100
AcDbArc
 50
0.0233390132908068
 51
179.9893829867113
  0
LINE
  5
450
330
1F
100
AcDbEntity
  8
LAYER-006
  6
Continuous
 62
     4
100
AcDbLine
 10
-139.7577752859472
 20
130.5176574130091
 30
0.0
 11
-143.5377720787818
 21
133.9826605121117
 31
0.0
  0
LINE
  5
451
330
1F
100
AcDbEntity
  8
LAYER-006
  6
Continuous
 62
     4
100
AcDbLine
 10
-137.5527721691998
 20
130.5176574130091
 30
0.0
 11
-141.9627721028607
 21
134.9276573479319
 31
0.0
  0
LINE
  5
452
330
1F
100
AcDbEntity
  8
LAYER-006
  6
Continuous
 62
     1
100
AcDbLine
 10
-135.6627721973937
 20
130.5176574130091
 30
0.0
 11
-145.1127720555944
 21
130.5176574130091
 31
0.0
  0
LINE
  5
453
330
1F
100
AcDbEntity
  8
LAYER-006
  6
Continuous
 62
     4
100
AcDbLine
 10
-109.2077682141479
 20
130.5176574130091
 30
0.0
 11
-110.1527713499678
 21
131.462657399925
 31
0.0
  0
LINE
  5
454
330
1F
100
AcDbEntity
  8
LAYER-006
  6
Continuous
 62
     4
100
AcDbLine
 10
-107.0027713972342
 20
130.5176574130091
 30
0.0
 11
-109.5227713594212
 21
132.7226605310184
 31
0.0
  0
ARC
  5
455
330
1F
100
AcDbEntity
  8
LAYER-006
  6
Continuous
 62
     1
100
AcDbCircle
 10
-105.4277714208677
 20
130.5176574130091
 30
0.0
 40
4.724999929100349
100
AcDbArc
 50
0.0233390111480861
 51
179.9893829867113
  0
LINE
  5
456
330
1F
100
AcDbEntity
  8
LAYER-006
  6
Continuous
 62
     4
100
AcDbLine
 10
-104.7977745803209
 20
130.5176574130091
 30
0.0
 11
-108.5777713736013
 21
133.9826605121117
 31
0.0
  0
LINE
  5
457
330
1F
100
AcDbEntity
  8
LAYER-006
  6
Continuous
 62
     4
100
AcDbLine
 10
-102.5927714638677
 20
130.5176574130091
 30
0.0
 11
-107.0027713972342
 21
134.9276573479319
 31
0.0
  0
LINE
  5
458
330
1F
100
AcDbEntity
  8
LAYER-006
  6
Continuous
 62
     1
100
AcDbLine
 10
-100.7027714917672
 20
130.5176574130091
 30
0.0
 11
-110.1527713499678
 21
130.5176574130091
 31
0.0
  0
LINE
  5
459
330
1F
100
AcDbEntity
  8
LAYER-006
  6
Continuous
 62
     4
100
AcDbLine
 10
-74.24776750852163
 20
130.5176574130091
 30
0.0
 11
-75.19277064434152
 21
131.462657399925
 31
0.0
  0
LINE
  5
45A
330
1F
100
AcDbEntity
  8
LAYER-006
  6
Continuous
 62
     4
100
AcDbLine
 10
-72.04277069160793
 20
130.5176574130091
 30
0.0
 11
-74.56277065379499
 21
132.7226605310184
 31
0.0
  0
ARC
  5
45B
330
1F
100
AcDbEntity
  8
LAYER-006
  6
Continuous
 62
     1
100
AcDbCircle
 10
-70.46777071524139
 20
130.5176574130091
 30
0.0
 40
4.724999929100349
100
AcDbArc
 50
0.0233390132908065
 51
179.9893829867088
  0
LINE
  5
45C
330
1F
100
AcDbEntity
  8
LAYER-006
  6
Continuous
 62
     4
100
AcDbLine
 10
-69.8377738741998
 20
130.5176574130091
 30
0.0
 11
-73.61777066797492
 21
133.9826605121117
 31
0.0
  0
LINE
  5
45D
330
1F
100
AcDbEntity
  8
LAYER-006
  6
Continuous
 62
     4
100
AcDbLine
 10
-67.63277075824135
 20
130.5176574130091
 30
0.0
 11
-72.04277069160793
 21
134.9276573479319
 31
0.0
  0
LINE
  5
45E
330
1F
100
AcDbEntity
  8
LAYER-006
  6
Continuous
 62
     1
100
AcDbLine
 10
-65.74277078614097
 20
130.5176574130091
 30
0.0
 11
-75.19277064434152
 21
130.5176574130091
 31
0.0
  0
LINE
  5
45F
330
1F
100
AcDbEntity
  8
LAYER-006
  6
Continuous
 62
     4
100
AcDbLine
 10
-39.28776680289553
 20
130.5176574130091
 30
0.0
 11
-40.23276993871536
 21
131.462657399925
 31
0.0
  0
LINE
  5
460
330
1F
100
AcDbEntity
  8
LAYER-006
  6
Continuous
 62
     4
100
AcDbLine
 10
-37.08276998598177
 20
130.5176574130091
 30
0.0
 11
-39.60276994816877
 21
132.7226605310184
 31
0.0
  0
ARC
  5
461
330
1F
100
AcDbEntity
  8
LAYER-006
  6
Continuous
 62
     1
100
AcDbCircle
 10
-35.50777001
 20
130.5176574130091
 30
0.0
 40
4.724999929100349
100
AcDbArc
 50
0.0233390132889054
 51
179.989382986708
  0
LINE
  5
462
330
1F
100
AcDbEntity
  8
LAYER-006
  6
Continuous
 62
     4
100
AcDbLine
 10
-34.87777316906823
 20
130.5176574130091
 30
0.0
 11
-38.65776996190283
 21
133.9826605121117
 31
0.0
  0
LINE
  5
463
330
1F
100
AcDbEntity
  8
LAYER-006
  6
Continuous
 62
     4
100
AcDbLine
 10
-32.67277005215499
 20
130.5176574130091
 30
0.0
 11
-37.08276998598177
 21
134.9276573479319
 31
0.0
  0
LINE
  5
464
330
1F
100
AcDbEntity
  8
LAYER-006
  6
Continuous
 62
     1
100
AcDbLine
 10
-30.78277008051475
 20
130.5176574130091
 30
0.0
 11
-40.23276993871536
 21
130.5176574130091
 31
0.0
  0
LINE
  5
465
330
1F
100
AcDbEntity
  8
LAYER-007
  6
CENTER
 62
     4
100
AcDbLine
 10
-122.9077701986809
 20
129.887660573558
 30
0.0
 11
-122.9077701986809
 21
45.99265868132511
 31
0.0
  0
LINE
  5
466
330
1F
100
AcDbEntity
  8
LAYER-006
  6
Continuous
 62
     1
100
AcDbLine
 10
-222.9077701986809
 20
124.217657507542
 30
0.0
 11
-215.032770316847
 21
124.217657507542
 31
0.0
  0
LINE
  5
467
330
1F
100
AcDbEntity
  8
LAYER-006
  6
Continuous
 62
     1
100
AcDbLine
 10
-205.5827736086464
 20
124.217657507542
 30
0.0
 11
-180.0727727612209
 21
124.217657507542
 31
0.0
  0
LINE
  5
468
330
1F
100
AcDbEntity
  8
LAYER-006
  6
Continuous
 62
     1
100
AcDbLine
 10
-170.62277290302
 20
124.217657507542
 30
0.0
 11
-145.1127720555944
 21
124.217657507542
 31
0.0
  0
LINE
  5
469
330
1F
100
AcDbEntity
  8
LAYER-006
  6
Continuous
 62
     1
100
AcDbLine
 10
-135.6627721973937
 20
124.217657507542
 30
0.0
 11
-110.1527713499678
 21
124.217657507542
 31
0.0
  0
LINE
  5
46A
330
1F
100
AcDbEntity
  8
LAYER-006
  6
Continuous
 62
     1
100
AcDbLine
 10
-100.7027714917672
 20
124.217657507542
 30
0.0
 11
-75.19277064434152
 21
124.217657507542
 31
0.0
  0
LINE
  5
46B
330
1F
100
AcDbEntity
  8
LAYER-006
  6
Continuous
 62
     1
100
AcDbLine
 10
-65.74276763614108
 20
124.217657507542
 30
0.0
 11
-40.23276993871536
 21
124.217657507542
 31
0.0
  0
LINE
  5
46C
330
1F
100
AcDbEntity
  8
LAYER-006
  6
Continuous
 62
     1
100
AcDbLine
 10
-30.78277008051475
 20
124.217657507542
 30
0.0
 11
-22.90777019868085
 21
124.217657507542
 31
0.0
  0
LINE
  5
46D
330
1F
100
AcDbEntity
  8
LAYER-006
  6
Continuous
 62
     1
100
AcDbLine
 10
-22.90777019868085
 20
124.217657507542
 30
0.0
 11
-22.90777019868085
 21
97.44265476040263
 31
0.0
  0
LINE
  5
46E
330
1F
100
AcDbEntity
  8
LAYER-007
  6
HIDDEN
 62
     4
100
AcDbLine
 10
-213.7727734857535
 20
122.9576606775445
 30
0.0
 11
-213.7727734857535
 21
130.5176574130091
 31
0.0
  0
LINE
  5
46F
330
1F
100
AcDbEntity
  8
LAYER-007
  6
HIDDEN
 62
     4
100
AcDbLine
 10
-206.8427735897398
 20
122.9576606775445
 30
0.0
 11
-206.8427735897398
 21
130.5176574130091
 31
0.0
  0
LINE
  5
470
330
1F
100
AcDbEntity
  8
LAYER-007
  6
HIDDEN
 62
     4
100
AcDbLine
 10
-205.5827736086464
 20
122.9576606775445
 30
0.0
 11
-215.032773466847
 21
122.9576606775445
 31
0.0
  0
LINE
  5
471
330
1F
100
AcDbEntity
  8
LAYER-007
  6
HIDDEN
 62
     4
100
AcDbLine
 10
-178.8127727801272
 20
122.9576606775445
 30
0.0
 11
-178.8127727801272
 21
130.5176574130091
 31
0.0
  0
LINE
  5
472
330
1F
100
AcDbEntity
  8
LAYER-007
  6
HIDDEN
 62
     4
100
AcDbLine
 10
-171.8827728841134
 20
122.9576606775445
 30
0.0
 11
-171.8827728841134
 21
130.5176574130091
 31
0.0
  0
LINE
  5
473
330
1F
100
AcDbEntity
  8
LAYER-007
  6
HIDDEN
 62
     4
100
AcDbLine
 10
-170.62277290302
 20
122.9576606775445
 30
0.0
 11
-180.0727727612206
 21
122.9576606775445
 31
0.0
  0
LINE
  5
474
330
1F
100
AcDbEntity
  8
LAYER-007
  6
HIDDEN
 62
     4
100
AcDbLine
 10
-143.8527720745009
 20
122.9576606775445
 30
0.0
 11
-143.8527720745009
 21
130.5176574130091
 31
0.0
  0
LINE
  5
475
330
1F
100
AcDbEntity
  8
LAYER-007
  6
HIDDEN
 62
     4
100
AcDbLine
 10
-136.9227721784871
 20
122.9576606775445
 30
0.0
 11
-136.9227721784871
 21
130.5176574130091
 31
0.0
  0
LINE
  5
476
330
1F
100
AcDbEntity
  8
LAYER-007
  6
HIDDEN
 62
     4
100
AcDbLine
 10
-135.6627721973937
 20
122.9576606775445
 30
0.0
 11
-145.1127720555944
 21
122.9576606775445
 31
0.0
  0
LINE
  5
477
330
1F
100
AcDbEntity
  8
LAYER-007
  6
HIDDEN
 62
     4
100
AcDbLine
 10
-108.8927713688744
 20
122.9576606775445
 30
0.0
 11
-108.8927713688744
 21
130.5176574130091
 31
0.0
  0
LINE
  5
478
330
1F
100
AcDbEntity
  8
LAYER-007
  6
HIDDEN
 62
     4
100
AcDbLine
 10
-101.9627714728605
 20
122.9576606775445
 30
0.0
 11
-101.9627714728605
 21
130.5176574130091
 31
0.0
  0
LINE
  5
479
330
1F
100
AcDbEntity
  8
LAYER-007
  6
HIDDEN
 62
     4
100
AcDbLine
 10
-100.7027714917672
 20
122.9576606775445
 30
0.0
 11
-110.1527713499678
 21
122.9576606775445
 31
0.0
  0
LINE
  5
47A
330
1F
100
AcDbEntity
  8
LAYER-007
  6
HIDDEN
 62
     4
100
AcDbLine
 10
-73.93277066324816
 20
122.9576606775445
 30
0.0
 11
-73.93277066324816
 21
130.5176574130091
 31
0.0
  0
LINE
  5
47B
330
1F
100
AcDbEntity
  8
LAYER-007
  6
HIDDEN
 62
     4
100
AcDbLine
 10
-67.00277076723432
 20
122.9576606775445
 30
0.0
 11
-67.00277076723432
 21
130.5176574130091
 31
0.0
  0
LINE
  5
47C
330
1F
100
AcDbEntity
  8
LAYER-007
  6
HIDDEN
 62
     4
100
AcDbLine
 10
-65.74277078614097
 20
122.9576606775445
 30
0.0
 11
-75.19277064434152
 21
122.9576606775445
 31
0.0
  0
LINE
  5
47D
330
1F
100
AcDbEntity
  8
LAYER-007
  6
HIDDEN
 62
     4
100
AcDbLine
 10
-38.97276995762195
 20
122.9576606775445
 30
0.0
 11
-38.97276995762195
 21
130.5176574130091
 31
0.0
  0
LINE
  5
47E
330
1F
100
AcDbEntity
  8
LAYER-007
  6
HIDDEN
 62
     4
100
AcDbLine
 10
-32.04277006160817
 20
122.9576606775445
 30
0.0
 11
-32.04277006160817
 21
130.5176574130091
 31
0.0
  0
LINE
  5
47F
330
1F
100
AcDbEntity
  8
LAYER-007
  6
HIDDEN
 62
     4
100
AcDbLine
 10
-30.78277008051475
 20
122.9576606775445
 30
0.0
 11
-40.23276993871536
 21
122.9576606775445
 31
0.0
  0
LINE
  5
480
330
1F
100
AcDbEntity
  8
LAYER-006
  6
Continuous
 62
     1
100
AcDbLine
 10
-215.032773466847
 20
116.3426576257081
 30
0.0
 11
-215.032773466847
 21
130.5176574130091
 31
0.0
  0
ARC
  5
481
330
1F
100
AcDbEntity
  8
LAYER-006
  6
Continuous
 62
     1
100
AcDbCircle
 10
-210.3077735377466
 20
116.3426576257081
 30
0.0
 40
4.724999929100349
100
AcDbArc
 50
180.0
 51
0.0233390132869487
  0
CIRCLE
  5
482
330
1F
100
AcDbEntity
  8
LAYER-006
  6
Continuous
 62
     1
100
AcDbCircle
 10
-210.3077735377466
 20
116.3426576257081
 30
0.0
 40
1.574999976366783
  0
LINE
  5
483
330
1F
100
AcDbEntity
  8
LAYER-006
  6
Continuous
 62
     1
100
AcDbLine
 10
-205.5827736086464
 20
116.3426576257081
 30
0.0
 11
-205.5827736086464
 21
130.5176574130091
 31
0.0
  0
LINE
  5
484
330
1F
100
AcDbEntity
  8
LAYER-006
  6
Continuous
 62
     1
100
AcDbLine
 10
-180.0727727612206
 20
116.3426576257081
 30
0.0
 11
-180.0727727612206
 21
130.5176574130091
 31
0.0
  0
ARC
  5
485
330
1F
100
AcDbEntity
  8
LAYER-006
  6
Continuous
 62
     1
100
AcDbCircle
 10
-175.3477728321203
 20
116.3426576257081
 30
0.0
 40
4.724999929100349
100
AcDbArc
 50
180.0
 51
0.0233390132901175
  0
CIRCLE
  5
486
330
1F
100
AcDbEntity
  8
LAYER-006
  6
Continuous
 62
     1
100
AcDbCircle
 10
-175.3477728321203
 20
116.3426576257081
 30
0.0
 40
1.574999976366783
  0
LINE
  5
487
330
1F
100
AcDbEntity
  8
LAYER-006
  6
Continuous
 62
     1
100
AcDbLine
 10
-170.62277290302
 20
116.3426576257081
 30
0.0
 11
-170.62277290302
 21
130.5176574130091
 31
0.0
  0
LINE
  5
488
330
1F
100
AcDbEntity
  8
LAYER-006
  6
Continuous
 62
     1
100
AcDbLine
 10
-145.1127720555944
 20
116.3426576257081
 30
0.0
 11
-145.1127720555944
 21
130.5176574130091
 31
0.0
  0
ARC
  5
489
330
1F
100
AcDbEntity
  8
LAYER-006
  6
Continuous
 62
     1
100
AcDbCircle
 10
-140.387772126494
 20
116.3426576257081
 30
0.0
 40
4.724999929100349
100
AcDbArc
 50
180.0
 51
0.0233390132901175
  0
CIRCLE
  5
48A
330
1F
100
AcDbEntity
  8
LAYER-006
  6
Continuous
 62
     1
100
AcDbCircle
 10
-140.387772126494
 20
116.3426576257081
 30
0.0
 40
1.574999976366783
  0
LINE
  5
48B
330
1F
100
AcDbEntity
  8
LAYER-006
  6
Continuous
 62
     1
100
AcDbLine
 10
-135.6627721973937
 20
116.3426576257081
 30
0.0
 11
-135.6627721973937
 21
130.5176574130091
 31
0.0
  0
LINE
  5
48C
330
1F
100
AcDbEntity
  8
LAYER-006
  6
Continuous
 62
     1
100
AcDbLine
 10
-110.1527713499678
 20
116.3426576257081
 30
0.0
 11
-110.1527713499678
 21
130.5176574130091
 31
0.0
  0
ARC
  5
48D
330
1F
100
AcDbEntity
  8
LAYER-006
  6
Continuous
 62
     1
100
AcDbCircle
 10
-105.4277714208677
 20
116.3426576257081
 30
0.0
 40
4.724999929100349
100
AcDbArc
 50
180.0
 51
0.0233390132869481
  0
CIRCLE
  5
48E
330
1F
100
AcDbEntity
  8
LAYER-006
  6
Continuous
 62
     1
100
AcDbCircle
 10
-105.4277714208677
 20
116.3426576257081
 30
0.0
 40
1.574999976366783
  0
LINE
  5
48F
330
1F
100
AcDbEntity
  8
LAYER-006
  6
Continuous
 62
     1
100
AcDbLine
 10
-100.7027714917672
 20
116.3426576257081
 30
0.0
 11
-100.7027714917672
 21
130.5176574130091
 31
0.0
  0
LINE
  5
490
330
1F
100
AcDbEntity
  8
LAYER-006
  6
Continuous
 62
     1
100
AcDbLine
 10
-75.19277064434152
 20
116.3426576257081
 30
0.0
 11
-75.19277064434152
 21
130.5176574130091
 31
0.0
  0
ARC
  5
491
330
1F
100
AcDbEntity
  8
LAYER-006
  6
Continuous
 62
     1
100
AcDbCircle
 10
-70.46777071524139
 20
116.3426576257081
 30
0.0
 40
4.724999929100349
100
AcDbArc
 50
180.0
 51
0.0233390132901172
  0
CIRCLE
  5
492
330
1F
100
AcDbEntity
  8
LAYER-006
  6
Continuous
 62
     1
100
AcDbCircle
 10
-70.46777071524139
 20
116.3426576257081
 30
0.0
 40
1.574999976366783
  0
LINE
  5
493
330
1F
100
AcDbEntity
  8
LAYER-006
  6
Continuous
 62
     1
100
AcDbLine
 10
-65.74277078614097
 20
116.3426576257081
 30
0.0
 11
-65.74277078614097
 21
130.5176574130091
 31
0.0
  0
LINE
  5
494
330
1F
100
AcDbEntity
  8
LAYER-006
  6
Continuous
 62
     1
100
AcDbLine
 10
-40.23276993871536
 20
116.3426576257081
 30
0.0
 11
-40.23276993871536
 21
130.5176574130091
 31
0.0
  0
ARC
  5
495
330
1F
100
AcDbEntity
  8
LAYER-006
  6
Continuous
 62
     1
100
AcDbCircle
 10
-35.50777001
 20
116.3426576257081
 30
0.0
 40
4.724999929100349
100
AcDbArc
 50
180.0
 51
0.0233390132882161
  0
CIRCLE
  5
496
330
1F
100
AcDbEntity
  8
LAYER-006
  6
Continuous
 62
     1
100
AcDbCircle
 10
-35.50777001
 20
116.3426576257081
 30
0.0
 40
1.574999976366783
  0
LINE
  5
497
330
1F
100
AcDbEntity
  8
LAYER-006
  6
Continuous
 62
     1
100
AcDbLine
 10
-30.78277008051475
 20
116.3426576257081
 30
0.0
 11
-30.78277008051475
 21
130.5176574130091
 31
0.0
  0
LINE
  5
498
330
1F
100
AcDbEntity
  8
LAYER-007
  6
Continuous
 62
     4
100
AcDbLine
 10
-211.6622703674221
 20
108.5136634947148
 30
0.0
 11
-212.7332735008641
 21
105.4896666912051
 31
0.0
  0
LINE
  5
499
330
1F
100
AcDbEntity
  8
LAYER-007
  6
Continuous
 62
     4
100
AcDbLine
 10
-207.7405172765637
 20
108.5136634947148
 30
0.0
 11
-208.9847735575985
 21
105.66291668701
 31
0.0
  0
LINE
  5
49A
330
1F
100
AcDbEntity
  8
LAYER-007
  6
Continuous
 62
     4
100
AcDbLine
 10
-176.7337728113232
 20
108.497916644516
 30
0.0
 11
-176.1825259695949
 21
108.3246634970699
 31
0.0
  0
LINE
  5
49B
330
1F
100
AcDbEntity
  8
LAYER-007
  6
Continuous
 62
     4
100
AcDbLine
 10
-173.0955260159158
 20
108.497916644516
 30
0.0
 11
-178.3717759367446
 21
102.1349135888983
 31
0.0
  0
LINE
  5
49C
330
1F
100
AcDbEntity
  8
LAYER-007
  6
Continuous
 62
     4
100
AcDbLine
 10
-73.08227067590281
 20
108.497916644516
 30
0.0
 11
-72.94051752813732
 21
107.7734135053872
 31
0.0
  0
LINE
  5
49D
330
1F
100
AcDbEntity
  8
LAYER-007
  6
Continuous
 62
     4
100
AcDbLine
 10
-68.1840175992304
 20
108.497916644516
 30
0.0
 11
-67.88476760399993
 21
108.1356666499517
 31
0.0
  0
LINE
  5
49E
330
1F
100
AcDbEntity
  8
LAYER-007
  6
Continuous
 62
     4
100
AcDbLine
 10
-34.4682668752132
 20
108.4821634947523
 30
0.0
 11
-33.64926688750239
 21
108.3404134971492
 31
0.0
  0
LINE
  5
49F
330
1F
100
AcDbEntity
  8
LAYER-007
  6
Continuous
 62
     4
100
AcDbLine
 10
-142.3880220953759
 20
108.4664134949887
 30
0.0
 11
-142.0257721021998
 21
108.2931634975884
 31
0.0
  0
LINE
  5
4A0
330
1F
100
AcDbEntity
  8
LAYER-007
  6
Continuous
 62
     4
100
AcDbLine
 10
-106.5775182536154
 20
108.4664134949887
 30
0.0
 11
-107.5382650891992
 21
106.1669135294933
 31
0.0
  0
LINE
  5
4A1
330
1F
100
AcDbEntity
  8
LAYER-007
  6
Continuous
 62
     4
100
AcDbLine
 10
-138.6710190022934
 20
108.3876634961702
 30
0.0
 11
-138.3245221574535
 21
107.7576666556236
 31
0.0
  0
LINE
  5
4A2
330
1F
100
AcDbEntity
  8
LAYER-007
  6
Continuous
 62
     4
100
AcDbLine
 10
-33.64926688750239
 20
108.3404134971492
 30
0.0
 11
-33.23977004368607
 21
107.8049166549147
 31
0.0
  0
LINE
  5
4A3
330
1F
100
AcDbEntity
  8
LAYER-007
  6
Continuous
 62
     4
100
AcDbLine
 10
-177.0960228058875
 20
108.3246634970699
 30
0.0
 11
-176.7337728113232
 21
108.497916644516
 31
0.0
  0
LINE
  5
4A4
330
1F
100
AcDbEntity
  8
LAYER-007
  6
Continuous
 62
     4
100
AcDbLine
 10
-176.1825259695949
 20
108.3246634970699
 30
0.0
 11
-176.009275971806
 21
106.1354166799657
 31
0.0
  0
LINE
  5
4A5
330
1F
100
AcDbEntity
  8
LAYER-007
  6
Continuous
 62
     4
100
AcDbLine
 10
-142.0257721021998
 20
108.2931634975884
 30
0.0
 11
-141.8525189545152
 21
107.7576666556236
 31
0.0
  0
LINE
  5
4A6
330
1F
100
AcDbEntity
  8
LAYER-007
  6
Continuous
 62
     4
100
AcDbLine
 10
-35.55501685890607
 20
108.21441664877
 30
0.0
 11
-34.4682668752132
 21
108.4821634947523
 31
0.0
  0
LINE
  5
4A7
330
1F
100
AcDbEntity
  8
LAYER-007
  6
Continuous
 62
     4
100
AcDbLine
 10
-103.3172714525362
 20
108.1986634990064
 30
0.0
 11
-104.8135182801998
 21
105.2061666939094
 31
0.0
  0
LINE
  5
4A8
330
1F
100
AcDbEntity
  8
LAYER-007
  6
Continuous
 62
     4
100
AcDbLine
 10
-70.71977071146
 20
108.1356666499517
 30
0.0
 11
-71.27101755318859
 21
103.9776635623435
 31
0.0
  0
LINE
  5
4A9
330
1F
100
AcDbEntity
  8
LAYER-007
  6
Continuous
 62
     4
100
AcDbLine
 10
-67.88476760399993
 20
108.1356666499517
 30
0.0
 11
-67.45951761038089
 21
107.9624135025512
 31
0.0
  0
LINE
  5
4AA
330
1F
100
AcDbEntity
  8
LAYER-007
  6
Continuous
 62
     4
100
AcDbLine
 10
-33.23977004368607
 20
107.8049166549147
 30
0.0
 11
-33.52327003834296
 21
106.844163518235
 31
0.0
  0
LINE
  5
4AB
330
1F
100
AcDbEntity
  8
LAYER-007
  6
Continuous
 62
     4
100
AcDbLine
 10
-72.94051752813732
 20
107.7734135053872
 30
0.0
 11
-73.25551752198595
 21
103.7886635651795
 31
0.0
  0
LINE
  5
4AC
330
1F
100
AcDbEntity
  8
LAYER-007
  6
Continuous
 62
     4
100
AcDbLine
 10
-141.8525189545152
 20
107.7576666556236
 30
0.0
 11
-142.3880220953759
 21
106.1669135294933
 31
0.0
  0
LINE
  5
4AD
330
1F
100
AcDbEntity
  8
LAYER-007
  6
Continuous
 62
     4
100
AcDbLine
 10
-138.3245221574535
 20
107.7576666556236
 30
0.0
 11
-137.9622690128892
 21
107.5844135082232
 31
0.0
  0
LINE
  5
4AE
330
1F
100
AcDbEntity
  8
LAYER-007
  6
Continuous
 62
     4
100
AcDbLine
 10
-137.9622690128892
 20
107.5844135082232
 30
0.0
 11
-137.4267721709244
 21
107.3954135110591
 31
0.0
  0
LINE
  5
4AF
330
1F
100
AcDbEntity
  8
LAYER-007
  6
Continuous
 62
     4
100
AcDbLine
 10
-36.24801684850763
 20
107.5214166591686
 30
0.0
 11
-35.55501685890607
 21
108.21441664877
 31
0.0
  0
LINE
  5
4B0
330
1F
100
AcDbEntity
  8
LAYER-007
  6
Continuous
 62
     4
100
AcDbLine
 10
-33.52327003834296
 20
106.844163518235
 30
0.0
 11
-34.61001687308601
 21
105.8834135347881
 31
0.0
  0
LINE
  5
4B1
330
1F
100
AcDbEntity
  8
LAYER-007
  6
Continuous
 62
     4
100
AcDbLine
 10
-104.6875182819754
 20
106.4346635254755
 30
0.0
 11
-103.3172714525362
 21
108.1986634990064
 31
0.0
  0
LINE
  5
4B2
330
1F
100
AcDbEntity
  8
LAYER-007
  6
Continuous
 62
     4
100
AcDbLine
 10
-142.3880220953759
 20
106.1669135294933
 30
0.0
 11
-142.9235189384446
 21
104.3871635561988
 31
0.0
  0
LINE
  5
4B3
330
1F
100
AcDbEntity
  8
LAYER-007
  6
Continuous
 62
     4
100
AcDbLine
 10
-139.2065189942192
 20
106.1669135294933
 30
0.0
 11
-138.6710190022934
 21
108.3876634961702
 31
0.0
  0
LINE
  5
4B4
330
1F
100
AcDbEntity
  8
LAYER-007
  6
Continuous
 62
     4
100
AcDbLine
 10
-107.5382650891992
 20
106.1669135294933
 30
0.0
 11
-107.6642682373085
 21
105.4739166896573
 31
0.0
  0
LINE
  5
4B5
330
1F
100
AcDbEntity
  8
LAYER-007
  6
Continuous
 62
     4
100
AcDbLine
 10
-176.009275971806
 20
106.1354166799657
 30
0.0
 11
-175.6312759779028
 21
103.7729167154157
 31
0.0
  0
LINE
  5
4B6
330
1F
100
AcDbEntity
  8
LAYER-007
  6
Continuous
 62
     4
100
AcDbLine
 10
-34.61001687308601
 20
105.8834135347881
 30
0.0
 11
-35.83852000486417
 21
105.4896666912051
 31
0.0
  0
LINE
  5
4B7
330
1F
100
AcDbEntity
  8
LAYER-007
  6
Continuous
 62
     4
100
AcDbLine
 10
-34.4682668752132
 20
105.8834135347881
 30
0.0
 11
-33.93276688324841
 21
105.7574166849164
 31
0.0
  0
LINE
  5
4B8
330
1F
100
AcDbEntity
  8
LAYER-007
  6
Continuous
 62
     4
100
AcDbLine
 10
-68.73526444123803
 20
105.7889135344438
 30
0.0
 11
-68.1840175992304
 21
108.497916644516
 31
0.0
  0
LINE
  5
4B9
330
1F
100
AcDbEntity
  8
LAYER-007
  6
Continuous
 62
     4
100
AcDbLine
 10
-33.93276688324841
 20
105.7574166849164
 30
0.0
 11
-33.79101688541448
 21
105.2061666939094
 31
0.0
  0
LINE
  5
4BA
330
1F
100
AcDbEntity
  8
LAYER-007
  6
Continuous
 62
     4
100
AcDbLine
 10
-208.9847735575985
 20
105.66291668701
 30
0.0
 11
-209.7092703967273
 21
102.6389135817102
 31
0.0
  0
LINE
  5
4BB
330
1F
100
AcDbEntity
  8
LAYER-007
  6
Continuous
 62
     4
100
AcDbLine
 10
-105.4907714199222
 20
105.6156666877647
 30
0.0
 11
-104.6875182819754
 21
106.4346635254755
 31
0.0
  0
LINE
  5
4BC
330
1F
100
AcDbEntity
  8
LAYER-007
  6
Continuous
 62
     4
100
AcDbLine
 10
-103.8685214442646
 20
105.6156666877647
 30
0.0
 11
-103.191268304427
 21
106.0251635316202
 31
0.0
  0
LINE
  5
4BD
330
1F
100
AcDbEntity
  8
LAYER-007
  6
Continuous
 62
     4
100
AcDbLine
 10
-212.7332735008641
 20
105.4896666912051
 30
0.0
 11
-213.2687703433163
 21
103.3634135715601
 31
0.0
  0
LINE
  5
4BE
330
1F
100
AcDbEntity
  8
LAYER-007
  6
Continuous
 62
     4
100
AcDbLine
 10
-35.83852000486417
 20
105.4896666912051
 30
0.0
 11
-34.4682668752132
 21
105.8834135347881
 31
0.0
  0
LINE
  5
4BF
330
1F
100
AcDbEntity
  8
LAYER-007
  6
Continuous
 62
     4
100
AcDbLine
 10
-107.6642682373085
 20
105.4739166896573
 30
0.0
 11
-107.2547713934532
 21
104.9384135479271
 31
0.0
  0
LINE
  5
4C0
330
1F
100
AcDbEntity
  8
LAYER-007
  6
Continuous
 62
     4
100
AcDbLine
 10
-104.8135182801998
 20
105.2061666939094
 30
0.0
 11
-106.8610182489028
 21
102.2294167385763
 31
0.0
  0
LINE
  5
4C1
330
1F
100
AcDbEntity
  8
LAYER-007
  6
Continuous
 62
     4
100
AcDbLine
 10
-33.79101688541448
 20
105.2061666939094
 30
0.0
 11
-34.75176687095922
 21
103.4421667203786
 31
0.0
  0
LINE
  5
4C2
330
1F
100
AcDbEntity
  8
LAYER-007
  6
Continuous
 62
     4
100
AcDbLine
 10
-106.1680182597601
 20
105.0801635458001
 30
0.0
 11
-105.4907714199222
 21
105.6156666877647
 31
0.0
  0
LINE
  5
4C3
330
1F
100
AcDbEntity
  8
LAYER-007
  6
Continuous
 62
     4
100
AcDbLine
 10
-105.0812651256809
 20
105.0801635458001
 30
0.0
 11
-103.8685214442646
 21
105.6156666877647
 31
0.0
  0
LINE
  5
4C4
330
1F
100
AcDbEntity
  8
LAYER-007
  6
Continuous
 62
     4
100
AcDbLine
 10
-107.2547713934532
 20
104.9384135479271
 30
0.0
 11
-106.1680182597601
 21
105.0801635458001
 31
0.0
  0
LINE
  5
4C5
330
1F
100
AcDbEntity
  8
LAYER-007
  6
Continuous
 62
     4
100
AcDbLine
 10
-33.79101688541448
 20
104.9384135479271
 30
0.0
 11
-33.23977004368607
 21
105.4896666912051
 31
0.0
  0
LINE
  5
4C6
330
1F
100
AcDbEntity
  8
LAYER-007
  6
Continuous
 62
     4
100
AcDbLine
 10
-106.1680182597601
 20
104.6706635519448
 30
0.0
 11
-105.0812651256809
 21
105.0801635458001
 31
0.0
  0
LINE
  5
4C7
330
1F
100
AcDbEntity
  8
LAYER-007
  6
Continuous
 62
     4
100
AcDbLine
 10
-209.5202703995633
 20
104.60766670289
 30
0.0
 11
-207.7405172765637
 21
108.5136634947148
 31
0.0
  0
LINE
  5
4C8
330
1F
100
AcDbEntity
  8
LAYER-007
  6
Continuous
 62
     4
100
AcDbLine
 10
-142.9235189384446
 20
104.3871635561988
 30
0.0
 11
-143.2700220832453
 21
102.9854167272323
 31
0.0
  0
LINE
  5
4C9
330
1F
100
AcDbEntity
  8
LAYER-007
  6
Continuous
 62
     4
100
AcDbLine
 10
-140.0885189809845
 20
104.3871635561988
 30
0.0
 11
-139.2065189942192
 21
106.1669135294933
 31
0.0
  0
LINE
  5
4CA
330
1F
100
AcDbEntity
  8
LAYER-007
  6
Continuous
 62
     4
100
AcDbLine
 10
-71.44426755058885
 20
104.3399135566573
 30
0.0
 11
-70.71977071146
 21
108.1356666499517
 31
0.0
  0
LINE
  5
4CB
330
1F
100
AcDbEntity
  8
LAYER-007
  6
Continuous
 62
     4
100
AcDbLine
 10
-35.0195200169415
 20
104.2611635580895
 30
0.0
 11
-33.79101688541448
 21
104.9384135479271
 31
0.0
  0
LINE
  5
4CC
330
1F
100
AcDbEntity
  8
LAYER-007
  6
Continuous
 62
     4
100
AcDbLine
 10
-71.27101755318859
 20
103.9776635623435
 30
0.0
 11
-71.44426755058885
 21
102.5286635840858
 31
0.0
  0
LINE
  5
4CD
330
1F
100
AcDbEntity
  8
LAYER-007
  6
Continuous
 62
     4
100
AcDbLine
 10
-73.25551752198595
 20
103.7886635651795
 30
0.0
 11
-73.44451752057461
 21
102.5286635840858
 31
0.0
  0
LINE
  5
4CE
330
1F
100
AcDbEntity
  8
LAYER-007
  6
Continuous
 62
     4
100
AcDbLine
 10
-175.6312759779028
 20
103.7729167154157
 30
0.0
 11
-175.0957728359018
 21
102.6704135821095
 31
0.0
  0
LINE
  5
4CF
330
1F
100
AcDbEntity
  8
LAYER-007
  6
Continuous
 62
     4
100
AcDbLine
 10
-107.2547713934532
 20
103.5839167182516
 30
0.0
 11
-106.1680182597601
 21
104.6706635519448
 31
0.0
  0
LINE
  5
4D0
330
1F
100
AcDbEntity
  8
LAYER-007
  6
Continuous
 62
     4
100
AcDbLine
 10
-34.75176687095922
 20
103.4421667203786
 30
0.0
 11
-36.37401684633767
 21
102.4814167347948
 31
0.0
  0
LINE
  5
4D1
330
1F
100
AcDbEntity
  8
LAYER-007
  6
Continuous
 62
     4
100
AcDbLine
 10
-213.2687703433163
 20
103.3634135715601
 30
0.0
 11
-213.0797703461523
 21
102.5129167342764
 31
0.0
  0
LINE
  5
4D2
330
1F
100
AcDbEntity
  8
LAYER-007
  6
Continuous
 62
     4
100
AcDbLine
 10
-210.3550203870377
 20
103.3634135715601
 30
0.0
 11
-209.5202703995633
 21
104.60766670289
 31
0.0
  0
LINE
  5
4D3
330
1F
100
AcDbEntity
  8
LAYER-007
  6
Continuous
 62
     4
100
AcDbLine
 10
-37.19301998432752
 20
103.3004167225057
 30
0.0
 11
-35.0195200169415
 21
104.2611635580895
 31
0.0
  0
LINE
  5
4D4
330
1F
100
AcDbEntity
  8
LAYER-007
  6
Continuous
 62
     4
100
AcDbLine
 10
-143.2700220832453
 20
102.9854167272323
 30
0.0
 11
-143.0967720855437
 21
102.6231635826678
 31
0.0
  0
LINE
  5
4D5
330
1F
100
AcDbEntity
  8
LAYER-007
  6
Continuous
 62
     4
100
AcDbLine
 10
-107.6642682373085
 20
102.9066635784139
 30
0.0
 11
-107.2547713934532
 21
103.5839167182516
 31
0.0
  0
LINE
  5
4D6
330
1F
100
AcDbEntity
  8
LAYER-007
  6
Continuous
 62
     4
100
AcDbLine
 10
-141.3327721123142
 20
102.7964167300683
 30
0.0
 11
-140.0885189809845
 21
104.3871635561988
 31
0.0
  0
LINE
  5
4D7
330
1F
100
AcDbEntity
  8
LAYER-007
  6
Continuous
 62
     4
100
AcDbLine
 10
-175.0957728359018
 20
102.6704135821095
 30
0.0
 11
-173.9932728524449
 21
102.1349135888983
 31
0.0
  0
LINE
  5
4D8
330
1F
100
AcDbEntity
  8
LAYER-007
  6
Continuous
 62
     4
100
AcDbLine
 10
-209.7092703967273
 20
102.6389135817102
 30
0.0
 11
-209.3470204021629
 21
102.2924167376308
 31
0.0
  0
LINE
  5
4D9
330
1F
100
AcDbEntity
  8
LAYER-007
  6
Continuous
 62
     4
100
AcDbLine
 10
-143.0967720855437
 20
102.6231635826678
 30
0.0
 11
-142.6872689419895
 21
102.276666737867
 31
0.0
  0
LINE
  5
4DA
330
1F
100
AcDbEntity
  8
LAYER-007
  6
Continuous
 62
     4
100
AcDbLine
 10
-73.44451752057461
 20
102.5286635840858
 30
0.0
 11
-73.08227067590281
 21
102.1664135895215
 31
0.0
  0
LINE
  5
4DB
330
1F
100
AcDbEntity
  8
LAYER-007
  6
Continuous
 62
     4
100
AcDbLine
 10
-71.44426755058885
 20
102.5286635840858
 30
0.0
 11
-70.9560144079997
 21
102.1664135895215
 31
0.0
  0
LINE
  5
4DC
330
1F
100
AcDbEntity
  8
LAYER-007
  6
Continuous
 62
     4
100
AcDbLine
 10
-69.86926757422214
 20
102.5286635840858
 30
0.0
 11
-68.73526444123803
 21
105.7889135344438
 31
0.0
  0
LINE
  5
4DD
330
1F
100
AcDbEntity
  8
LAYER-007
  6
Continuous
 62
     4
100
AcDbLine
 10
-213.0797703461523
 20
102.5129167342764
 30
0.0
 11
-212.1977703593869
 21
102.2924167376308
 31
0.0
  0
LINE
  5
4DE
330
1F
100
AcDbEntity
  8
LAYER-007
  6
Continuous
 62
     4
100
AcDbLine
 10
-37.74426997605588
 20
102.4814167347948
 30
0.0
 11
-37.19301998432752
 21
103.3004167225057
 31
0.0
  0
LINE
  5
4DF
330
1F
100
AcDbEntity
  8
LAYER-007
  6
Continuous
 62
     4
100
AcDbLine
 10
-36.37401684633767
 20
102.4814167347948
 30
0.0
 11
-37.19301998432752
 21
102.2136635892477
 31
0.0
  0
LINE
  5
4E0
330
1F
100
AcDbEntity
  8
LAYER-007
  6
Continuous
 62
     4
100
AcDbLine
 10
-211.3000235228577
 20
102.465666735031
 30
0.0
 11
-210.3550203870377
 21
103.3634135715601
 31
0.0
  0
LINE
  5
4E1
330
1F
100
AcDbEntity
  8
LAYER-007
  6
Continuous
 62
     4
100
AcDbLine
 10
-208.4492704156464
 20
102.465666735031
 30
0.0
 11
-207.3940204314681
 21
103.0011635769958
 31
0.0
  0
LINE
  5
4E2
330
1F
100
AcDbEntity
  8
LAYER-007
  6
Continuous
 62
     4
100
AcDbLine
 10
-142.0257721021998
 20
102.4499135852675
 30
0.0
 11
-141.3327721123142
 21
102.7964167300683
 31
0.0
  0
LINE
  5
4E3
330
1F
100
AcDbEntity
  8
LAYER-007
  6
Continuous
 62
     4
100
AcDbLine
 10
-107.5382650891992
 20
102.3554135866856
 30
0.0
 11
-107.6642682373085
 21
102.9066635784139
 31
0.0
  0
LINE
  5
4E4
330
1F
100
AcDbEntity
  8
LAYER-007
  6
Continuous
 62
     4
100
AcDbLine
 10
-72.26326753829972
 20
102.339666738227
 30
0.0
 11
-71.44426755058885
 21
104.3399135566573
 31
0.0
  0
LINE
  5
4E5
330
1F
100
AcDbEntity
  8
LAYER-007
  6
Continuous
 62
     4
100
AcDbLine
 10
-173.0955260159158
 20
102.3081635873946
 30
0.0
 11
-172.3552760270235
 21
103.2216667236871
 31
0.0
  0
LINE
  5
4E6
330
1F
100
AcDbEntity
  8
LAYER-007
  6
Continuous
 62
     4
100
AcDbLine
 10
-212.1977703593869
 20
102.2924167376308
 30
0.0
 11
-211.3000235228577
 21
102.465666735031
 31
0.0
  0
LINE
  5
4E7
330
1F
100
AcDbEntity
  8
LAYER-007
  6
Continuous
 62
     4
100
AcDbLine
 10
-209.3470204021629
 20
102.2924167376308
 30
0.0
 11
-208.4492704156464
 21
102.465666735031
 31
0.0
  0
LINE
  5
4E8
330
1F
100
AcDbEntity
  8
LAYER-007
  6
Continuous
 62
     4
100
AcDbLine
 10
-142.6872689419895
 20
102.276666737867
 30
0.0
 11
-142.0257721021998
 21
102.4499135852675
 31
0.0
  0
LINE
  5
4E9
330
1F
100
AcDbEntity
  8
LAYER-007
  6
Continuous
 62
     4
100
AcDbLine
 10
-106.8610182489028
 20
102.2294167385763
 30
0.0
 11
-107.5382650891992
 21
102.3554135866856
 31
0.0
  0
LINE
  5
4EA
330
1F
100
AcDbEntity
  8
LAYER-007
  6
Continuous
 62
     4
100
AcDbLine
 10
-37.19301998432752
 20
102.2136635892477
 30
0.0
 11
-37.74426997605588
 21
102.4814167347948
 31
0.0
  0
LINE
  5
4EB
330
1F
100
AcDbEntity
  8
LAYER-007
  6
Continuous
 62
     4
100
AcDbLine
 10
-73.08227067590281
 20
102.1664135895215
 30
0.0
 11
-72.26326753829972
 21
102.339666738227
 31
0.0
  0
LINE
  5
4EC
330
1F
100
AcDbEntity
  8
LAYER-007
  6
Continuous
 62
     4
100
AcDbLine
 10
-70.9560144079997
 20
102.1664135895215
 30
0.0
 11
-69.86926757422214
 21
102.5286635840858
 31
0.0
  0
LINE
  5
4ED
330
1F
100
AcDbEntity
  8
LAYER-007
  6
Continuous
 62
     4
100
AcDbLine
 10
-173.9932728524449
 20
102.1349135888983
 30
0.0
 11
-173.0955260159158
 21
102.3081635873946
 31
0.0
  0
LINE
  5
4EE
330
1F
100
AcDbEntity
  8
LAYER-006
  6
Continuous
 62
     1
100
AcDbLine
 10
-222.9077701986809
 20
99.01765473676923
 30
0.0
 11
-22.90777019868085
 21
99.01765473676923
 31
0.0
  0
LINE
  5
4EF
330
1F
100
AcDbEntity
  8
LAYER-006
  6
Continuous
 62
     1
100
AcDbLine
 10
-222.9077701986809
 20
97.44265476040263
 30
0.0
 11
-222.9077701986809
 21
124.217657507542
 31
0.0
  0
LINE
  5
4F0
330
1F
100
AcDbEntity
  8
LAYER-006
  6
Continuous
 62
     1
100
AcDbLine
 10
-219.7577702459473
 20
97.44265476040263
 30
0.0
 11
-219.7577702459473
 21
-36.9573400739921
 31
0.0
  0
LINE
  5
4F1
330
1F
100
AcDbEntity
  8
LAYER-006
  6
Continuous
 62
     1
100
AcDbLine
 10
-208.73277041138
 20
97.44265476040263
 30
0.0
 11
-208.73277041138
 21
-36.9573400739921
 31
0.0
  0
LINE
  5
4F2
330
1F
100
AcDbEntity
  8
LAYER-006
  6
Continuous
 62
     1
100
AcDbLine
 10
-37.08276683598194
 20
97.44265476040263
 30
0.0
 11
-37.08276683598194
 21
-36.9573400739921
 31
0.0
  0
LINE
  5
4F3
330
1F
100
AcDbEntity
  8
LAYER-006
  6
Continuous
 62
     1
100
AcDbLine
 10
-26.05777015141445
 20
97.44265476040263
 30
0.0
 11
-26.05777015141445
 21
-36.9573400739921
 31
0.0
  0
LINE
  5
4F4
330
1F
100
AcDbEntity
  8
LAYER-006
  6
Continuous
 62
     1
100
AcDbLine
 10
-22.90777019868085
 20
97.44265476040263
 30
0.0
 11
-222.9077701986809
 21
97.44265476040263
 31
0.0
  0
LINE
  5
4F5
330
1F
100
AcDbEntity
  8
LAYER-006
  6
Continuous
 62
     1
100
AcDbLine
 10
-208.73277041138
 20
94.92265794813309
 30
0.0
 11
-177.232774034044
 21
94.92265794813309
 31
0.0
  0
LINE
  5
4F6
330
1F
100
AcDbEntity
  8
LAYER-006
  6
Continuous
 62
     1
100
AcDbLine
 10
-208.73277041138
 20
92.40265798602866
 30
0.0
 11
-180.3827739867777
 21
92.40265798602866
 31
0.0
  0
LINE
  5
4F7
330
1F
100
AcDbEntity
  8
LAYER-006
  6
Continuous
 62
     1
100
AcDbLine
 10
-208.73277041138
 20
89.88266117384188
 30
0.0
 11
-183.5327739396809
 21
89.88266117384188
 31
0.0
  0
LINE
  5
4F8
330
1F
100
AcDbEntity
  8
LAYER-006
  6
Continuous
 62
     1
100
AcDbLine
 10
-208.73277041138
 20
87.36265806165508
 30
0.0
 11
-186.6827707422449
 21
87.36265806165508
 31
0.0
  0
LINE
  5
4F9
330
1F
100
AcDbEntity
  8
LAYER-006
  6
Continuous
 62
     1
100
AcDbLine
 10
-208.73277041138
 20
84.84265809837243
 30
0.0
 11
-189.8327706949785
 21
84.84265809837243
 31
0.0
  0
LINE
  5
4FA
330
1F
100
AcDbEntity
  8
LAYER-006
  6
Continuous
 62
     1
100
AcDbLine
 10
-208.73277041138
 20
82.32266128728125
 30
0.0
 11
-192.9827706477122
 21
82.32266128728125
 31
0.0
  0
LINE
  5
4FB
330
1F
100
AcDbEntity
  8
LAYER-007
  6
CENTER
 62
     4
100
AcDbLine
 10
-201.65776901702
 20
30.24265891765728
 30
0.0
 11
-154.4077728760165
 21
30.24265891765728
 31
0.0
  0
LINE
  5
4FC
330
1F
100
AcDbEntity
  8
LAYER-007
  6
CENTER
 62
     4
100
AcDbLine
 10
-91.40777067134519
 20
30.24265891765728
 30
0.0
 11
-44.15777138034173
 21
30.24265891765728
 31
0.0
  0
LINE
  5
4FD
330
1F
100
AcDbEntity
  8
LAYER-007
  6
CENTER
 62
     4
100
AcDbLine
 10
-122.9077701986809
 20
14.4926560039896
 30
0.0
 11
-122.9077701986809
 21
-49.87234303019972
 31
0.0
  0
LINE
  5
4FE
330
1F
100
AcDbEntity
  8
LAYER-006
  6
Continuous
 62
     1
100
AcDbLine
 10
-37.08276683598194
 20
-21.83734030087118
 30
0.0
 11
-52.83276659964974
 21
-21.83734030087118
 31
0.0
  0
LINE
  5
4FF
330
1F
100
AcDbEntity
  8
LAYER-006
  6
Continuous
 62
     1
100
AcDbLine
 10
-37.08276683598194
 20
-24.35734341322754
 30
0.0
 11
-55.98276655238334
 21
-24.35734341322754
 31
0.0
  0
LINE
  5
500
330
1F
100
AcDbEntity
  8
LAYER-006
  6
Continuous
 62
     1
100
AcDbLine
 10
-37.08276683598194
 20
-26.87734022532732
 30
0.0
 11
-59.13276650511693
 21
-26.87734022532732
 31
0.0
  0
LINE
  5
501
330
1F
100
AcDbEntity
  8
LAYER-006
  6
Continuous
 62
     1
100
AcDbLine
 10
-37.08276683598194
 20
-29.39734018743158
 30
0.0
 11
-62.28276645768085
 21
-29.39734018743158
 31
0.0
  0
LINE
  5
502
330
1F
100
AcDbEntity
  8
LAYER-006
  6
Continuous
 62
     1
100
AcDbLine
 10
-37.08276683598194
 20
-31.91734329952215
 30
0.0
 11
-65.43276956058401
 21
-31.91734329952215
 31
0.0
  0
LINE
  5
503
330
1F
100
AcDbEntity
  8
LAYER-006
  6
Continuous
 62
     1
100
AcDbLine
 10
-37.08276683598194
 20
-34.43734011180536
 30
0.0
 11
-68.58276951331766
 21
-34.43734011180536
 31
0.0
  0
LINE
  5
504
330
1F
100
AcDbEntity
  8
LAYER-006
  6
Continuous
 62
     1
100
AcDbLine
 10
-222.9077701986809
 20
-36.9573400739921
 30
0.0
 11
-22.90777019868085
 21
-36.9573400739921
 31
0.0
  0
LINE
  5
505
330
1F
100
AcDbEntity
  8
LAYER-006
  6
Continuous
 62
     1
100
AcDbLine
 10
-22.90777019868085
 20
-36.9573400739921
 30
0.0
 11
-22.90777019868085
 21
-63.73233967222754
 31
0.0
  0
LINE
  5
506
330
1F
100
AcDbEntity
  8
LAYER-006
  6
Continuous
 62
     1
100
AcDbLine
 10
-222.9077701986809
 20
-38.53234005035887
 30
0.0
 11
-22.90777019868085
 21
-38.53234005035887
 31
0.0
  0
LINE
  5
507
330
1F
100
AcDbEntity
  8
LAYER-006
  6
Continuous
 62
     1
100
AcDbLine
 10
-215.032770316847
 20
-55.8573397903935
 30
0.0
 11
-215.032770316847
 21
-70.0323395776945
 31
0.0
  0
ARC
  5
508
330
1F
100
AcDbEntity
  8
LAYER-006
  6
Continuous
 62
     1
100
AcDbCircle
 10
-210.3077703877466
 20
-55.8573397903935
 30
0.0
 40
4.724999929100349
100
AcDbArc
 50
0.0
 51
180.0233389982519
  0
CIRCLE
  5
509
330
1F
100
AcDbEntity
  8
LAYER-006
  6
Continuous
 62
     1
100
AcDbCircle
 10
-210.3077703877466
 20
-55.8573397903935
 30
0.0
 40
1.574999976366783
  0
LINE
  5
50A
330
1F
100
AcDbEntity
  8
LAYER-006
  6
Continuous
 62
     1
100
AcDbLine
 10
-205.5827704586464
 20
-55.8573397903935
 30
0.0
 11
-205.5827704586464
 21
-70.0323395776945
 31
0.0
  0
LINE
  5
50B
330
1F
100
AcDbEntity
  8
LAYER-006
  6
Continuous
 62
     1
100
AcDbLine
 10
-180.0727727612208
 20
-55.8573397903935
 30
0.0
 11
-180.0727727612208
 21
-70.0323395776945
 31
0.0
  0
ARC
  5
50C
330
1F
100
AcDbEntity
  8
LAYER-006
  6
Continuous
 62
     1
100
AcDbCircle
 10
-175.3477728321203
 20
-55.8573397903935
 30
0.0
 40
4.724999929100349
100
AcDbArc
 50
0.0
 51
180.0233389982519
  0
CIRCLE
  5
50D
330
1F
100
AcDbEntity
  8
LAYER-006
  6
Continuous
 62
     1
100
AcDbCircle
 10
-175.3477728321203
 20
-55.8573397903935
 30
0.0
 40
1.574999976366783
  0
LINE
  5
50E
330
1F
100
AcDbEntity
  8
LAYER-006
  6
Continuous
 62
     1
100
AcDbLine
 10
-170.6227729030202
 20
-55.8573397903935
 30
0.0
 11
-170.6227729030202
 21
-70.0323395776945
 31
0.0
  0
LINE
  5
50F
330
1F
100
AcDbEntity
  8
LAYER-006
  6
Continuous
 62
     1
100
AcDbLine
 10
-145.1127720554004
 20
-55.8573397903935
 30
0.0
 11
-145.1127720554004
 21
-70.0323395776945
 31
0.0
  0
ARC
  5
510
330
1F
100
AcDbEntity
  8
LAYER-006
  6
Continuous
 62
     1
100
AcDbCircle
 10
-140.387772126494
 20
-55.8573397903935
 30
0.0
 40
4.724999929100349
100
AcDbArc
 50
0.0
 51
180.0233389982528
  0
CIRCLE
  5
511
330
1F
100
AcDbEntity
  8
LAYER-006
  6
Continuous
 62
     1
100
AcDbCircle
 10
-140.387772126494
 20
-55.8573397903935
 30
0.0
 40
1.574999976366783
  0
LINE
  5
512
330
1F
100
AcDbEntity
  8
LAYER-006
  6
Continuous
 62
     1
100
AcDbLine
 10
-135.6627721971997
 20
-55.8573397903935
 30
0.0
 11
-135.6627721971997
 21
-70.0323395776945
 31
0.0
  0
LINE
  5
513
330
1F
100
AcDbEntity
  8
LAYER-006
  6
Continuous
 62
     1
100
AcDbLine
 10
-110.152771349968
 20
-55.8573397903935
 30
0.0
 11
-110.152771349968
 21
-70.0323395776945
 31
0.0
  0
ARC
  5
514
330
1F
100
AcDbEntity
  8
LAYER-006
  6
Continuous
 62
     1
100
AcDbCircle
 10
-105.4277714208677
 20
-55.8573397903935
 30
0.0
 40
4.724999929100349
100
AcDbArc
 50
0.0
 51
180.0233389982519
  0
CIRCLE
  5
515
330
1F
100
AcDbEntity
  8
LAYER-006
  6
Continuous
 62
     1
100
AcDbCircle
 10
-105.4277714208677
 20
-55.8573397903935
 30
0.0
 40
1.574999976366783
  0
LINE
  5
516
330
1F
100
AcDbEntity
  8
LAYER-006
  6
Continuous
 62
     1
100
AcDbLine
 10
-100.7027714917674
 20
-55.8573397903935
 30
0.0
 11
-100.7027714917674
 21
-70.0323395776945
 31
0.0
  0
LINE
  5
517
330
1F
100
AcDbEntity
  8
LAYER-006
  6
Continuous
 62
     1
100
AcDbLine
 10
-75.19277064434164
 20
-55.8573397903935
 30
0.0
 11
-75.19277064434164
 21
-70.0323395776945
 31
0.0
  0
ARC
  5
518
330
1F
100
AcDbEntity
  8
LAYER-006
  6
Continuous
 62
     1
100
AcDbCircle
 10
-70.46777071524139
 20
-55.8573397903935
 30
0.0
 40
4.724999929100349
100
AcDbArc
 50
0.0
 51
180.0233389982525
  0
CIRCLE
  5
519
330
1F
100
AcDbEntity
  8
LAYER-006
  6
Continuous
 62
     1
100
AcDbCircle
 10
-70.46777071524139
 20
-55.8573397903935
 30
0.0
 40
1.574999976366783
  0
LINE
  5
51A
330
1F
100
AcDbEntity
  8
LAYER-006
  6
Continuous
 62
     1
100
AcDbLine
 10
-65.74277078614102
 20
-55.8573397903935
 30
0.0
 11
-65.74277078614102
 21
-70.0323395776945
 31
0.0
  0
LINE
  5
51B
330
1F
100
AcDbEntity
  8
LAYER-006
  6
Continuous
 62
     1
100
AcDbLine
 10
-40.23276678871548
 20
-55.8573397903935
 30
0.0
 11
-40.23276678871548
 21
-70.0323395776945
 31
0.0
  0
ARC
  5
51C
330
1F
100
AcDbEntity
  8
LAYER-006
  6
Continuous
 62
     1
100
AcDbCircle
 10
-35.50776685980912
 20
-55.8573397903935
 30
0.0
 40
4.724999929100349
100
AcDbArc
 50
0.0
 51
180.0233389982528
  0
CIRCLE
  5
51D
330
1F
100
AcDbEntity
  8
LAYER-006
  6
Continuous
 62
     1
100
AcDbCircle
 10
-35.50776685980912
 20
-55.8573397903935
 30
0.0
 40
1.574999976366783
  0
LINE
  5
51E
330
1F
100
AcDbEntity
  8
LAYER-006
  6
Continuous
 62
     1
100
AcDbLine
 10
-30.78276693051481
 20
-55.8573397903935
 30
0.0
 11
-30.78276693051481
 21
-70.0323395776945
 31
0.0
  0
LINE
  5
51F
330
1F
100
AcDbEntity
  8
LAYER-007
  6
HIDDEN
 62
     4
100
AcDbLine
 10
-215.032770316847
 20
-62.47234284113412
 30
0.0
 11
-205.5827704586464
 21
-62.47234284113412
 31
0.0
  0
LINE
  5
520
330
1F
100
AcDbEntity
  8
LAYER-007
  6
HIDDEN
 62
     4
100
AcDbLine
 10
-213.7727703357536
 20
-62.47234284113412
 30
0.0
 11
-213.7727703357536
 21
-70.0323395776945
 31
0.0
  0
LINE
  5
521
330
1F
100
AcDbEntity
  8
LAYER-007
  6
HIDDEN
 62
     4
100
AcDbLine
 10
-206.8427704397398
 20
-62.47234284113412
 30
0.0
 11
-206.8427704397398
 21
-70.0323395776945
 31
0.0
  0
LINE
  5
522
330
1F
100
AcDbEntity
  8
LAYER-007
  6
HIDDEN
 62
     4
100
AcDbLine
 10
-180.0727727612208
 20
-62.47234284113412
 30
0.0
 11
-170.6227729030202
 21
-62.47234284113412
 31
0.0
  0
LINE
  5
523
330
1F
100
AcDbEntity
  8
LAYER-007
  6
HIDDEN
 62
     4
100
AcDbLine
 10
-178.8127727801274
 20
-62.47234284113412
 30
0.0
 11
-178.8127727801274
 21
-70.0323395776945
 31
0.0
  0
LINE
  5
524
330
1F
100
AcDbEntity
  8
LAYER-007
  6
HIDDEN
 62
     4
100
AcDbLine
 10
-171.8827728841136
 20
-62.47234284113412
 30
0.0
 11
-171.8827728841136
 21
-70.0323395776945
 31
0.0
  0
LINE
  5
525
330
1F
100
AcDbEntity
  8
LAYER-007
  6
HIDDEN
 62
     4
100
AcDbLine
 10
-145.1127720554004
 20
-62.47234284113412
 30
0.0
 11
-135.6627721971997
 21
-62.47234284113412
 31
0.0
  0
LINE
  5
526
330
1F
100
AcDbEntity
  8
LAYER-007
  6
HIDDEN
 62
     4
100
AcDbLine
 10
-143.8527720743071
 20
-62.47234284113412
 30
0.0
 11
-143.8527720743071
 21
-70.0323395776945
 31
0.0
  0
LINE
  5
527
330
1F
100
AcDbEntity
  8
LAYER-007
  6
HIDDEN
 62
     4
100
AcDbLine
 10
-136.9227721782933
 20
-62.47234284113412
 30
0.0
 11
-136.9227721782933
 21
-70.0323395776945
 31
0.0
  0
LINE
  5
528
330
1F
100
AcDbEntity
  8
LAYER-007
  6
HIDDEN
 62
     4
100
AcDbLine
 10
-110.152771349968
 20
-62.47234284113412
 30
0.0
 11
-100.7027714917674
 21
-62.47234284113412
 31
0.0
  0
LINE
  5
529
330
1F
100
AcDbEntity
  8
LAYER-007
  6
HIDDEN
 62
     4
100
AcDbLine
 10
-108.8927713688746
 20
-62.47234284113412
 30
0.0
 11
-108.8927713688746
 21
-70.0323395776945
 31
0.0
  0
LINE
  5
52A
330
1F
100
AcDbEntity
  8
LAYER-007
  6
HIDDEN
 62
     4
100
AcDbLine
 10
-101.9627714728608
 20
-62.47234284113412
 30
0.0
 11
-101.9627714728608
 21
-70.0323395776945
 31
0.0
  0
LINE
  5
52B
330
1F
100
AcDbEntity
  8
LAYER-007
  6
HIDDEN
 62
     4
100
AcDbLine
 10
-75.19277064434164
 20
-62.47234284113412
 30
0.0
 11
-65.74277078614102
 21
-62.47234284113412
 31
0.0
  0
LINE
  5
52C
330
1F
100
AcDbEntity
  8
LAYER-007
  6
HIDDEN
 62
     4
100
AcDbLine
 10
-73.93277066324822
 20
-62.47234284113412
 30
0.0
 11
-73.93277066324822
 21
-70.0323395776945
 31
0.0
  0
LINE
  5
52D
330
1F
100
AcDbEntity
  8
LAYER-007
  6
HIDDEN
 62
     4
100
AcDbLine
 10
-67.00277076723444
 20
-62.47234284113412
 30
0.0
 11
-67.00277076723444
 21
-70.0323395776945
 31
0.0
  0
LINE
  5
52E
330
1F
100
AcDbEntity
  8
LAYER-007
  6
HIDDEN
 62
     4
100
AcDbLine
 10
-40.23276678871548
 20
-62.47234284113412
 30
0.0
 11
-30.78276693051481
 21
-62.47234284113412
 31
0.0
  0
LINE
  5
52F
330
1F
100
AcDbEntity
  8
LAYER-007
  6
HIDDEN
 62
     4
100
AcDbLine
 10
-38.97276680762195
 20
-62.47234284113412
 30
0.0
 11
-38.97276680762195
 21
-70.0323395776945
 31
0.0
  0
LINE
  5
530
330
1F
100
AcDbEntity
  8
LAYER-007
  6
HIDDEN
 62
     4
100
AcDbLine
 10
-32.04276691160817
 20
-62.47234284113412
 30
0.0
 11
-32.04276691160817
 21
-70.0323395776945
 31
0.0
  0
LINE
  5
531
330
1F
100
AcDbEntity
  8
LAYER-006
  6
Continuous
 62
     1
100
AcDbLine
 10
-222.9077701986809
 20
-63.73233967222754
 30
0.0
 11
-222.9077701986809
 21
-36.9573400739921
 31
0.0
  0
LINE
  5
532
330
1F
100
AcDbEntity
  8
LAYER-006
  6
Continuous
 62
     1
100
AcDbLine
 10
-222.9077701986809
 20
-63.73233967222754
 30
0.0
 11
-215.032770316847
 21
-63.73233967222754
 31
0.0
  0
LINE
  5
533
330
1F
100
AcDbEntity
  8
LAYER-006
  6
Continuous
 62
     1
100
AcDbLine
 10
-205.5827704586464
 20
-63.73233967222754
 30
0.0
 11
-180.0727727612208
 21
-63.73233967222754
 31
0.0
  0
LINE
  5
534
330
1F
100
AcDbEntity
  8
LAYER-006
  6
Continuous
 62
     1
100
AcDbLine
 10
-170.6227729030202
 20
-63.73233967222754
 30
0.0
 11
-145.1127720554004
 21
-63.73233967222754
 31
0.0
  0
LINE
  5
535
330
1F
100
AcDbEntity
  8
LAYER-006
  6
Continuous
 62
     1
100
AcDbLine
 10
-135.6627721971997
 20
-63.73233967222754
 30
0.0
 11
-110.152771349968
 21
-63.73233967222754
 31
0.0
  0
LINE
  5
536
330
1F
100
AcDbEntity
  8
LAYER-006
  6
Continuous
 62
     1
100
AcDbLine
 10
-100.7027714917674
 20
-63.73233967222754
 30
0.0
 11
-75.19277064434164
 21
-63.73233967222754
 31
0.0
  0
LINE
  5
537
330
1F
100
AcDbEntity
  8
LAYER-006
  6
Continuous
 62
     1
100
AcDbLine
 10
-65.74276763614091
 20
-63.73233967222754
 30
0.0
 11
-40.23276678871548
 21
-63.73233967222754
 31
0.0
  0
LINE
  5
538
330
1F
100
AcDbEntity
  8
LAYER-006
  6
Continuous
 62
     1
100
AcDbLine
 10
-30.78277008051475
 20
-63.73233967222754
 30
0.0
 11
-22.90777019868085
 21
-63.73233967222754
 31
0.0
  0
LINE
  5
539
330
1F
100
AcDbEntity
  8
LAYER-006
  6
Continuous
 62
     1
100
AcDbLine
 10
-215.032770316847
 20
-70.0323395776945
 30
0.0
 11
-205.5827704586464
 21
-70.0323395776945
 31
0.0
  0
LINE
  5
53A
330
1F
100
AcDbEntity
  8
LAYER-006
  6
Continuous
 62
     4
100
AcDbLine
 10
-213.1427703452068
 20
-70.0323395776945
 30
0.0
 11
-208.73277041138
 21
-74.44233951152157
 31
0.0
  0
LINE
  5
53B
330
1F
100
AcDbEntity
  8
LAYER-006
  6
Continuous
 62
     4
100
AcDbLine
 10
-210.9377672282935
 20
-70.0323395776945
 30
0.0
 11
-207.1577704346809
 21
-73.49734267570142
 31
0.0
  0
ARC
  5
53C
330
1F
100
AcDbEntity
  8
LAYER-006
  6
Continuous
 62
     1
100
AcDbCircle
 10
-210.3077703877466
 20
-70.0323395776945
 30
0.0
 40
4.724999929100349
100
AcDbArc
 50
180.0233390000012
 51
359.989382999999
  0
LINE
  5
53D
330
1F
100
AcDbEntity
  8
LAYER-006
  6
Continuous
 62
     4
100
AcDbLine
 10
-208.73277041138
 20
-70.0323395776945
 30
0.0
 11
-206.2127704491929
 21
-72.23734269460803
 31
0.0
  0
LINE
  5
53E
330
1F
100
AcDbEntity
  8
LAYER-006
  6
Continuous
 62
     4
100
AcDbLine
 10
-206.5277735944662
 20
-70.0323395776945
 30
0.0
 11
-205.5827704586464
 21
-70.97733956307951
 31
0.0
  0
LINE
  5
53F
330
1F
100
AcDbEntity
  8
LAYER-006
  6
Continuous
 62
     1
100
AcDbLine
 10
-180.0727727612208
 20
-70.0323395776945
 30
0.0
 11
-170.6227729030202
 21
-70.0323395776945
 31
0.0
  0
LINE
  5
540
330
1F
100
AcDbEntity
  8
LAYER-006
  6
Continuous
 62
     4
100
AcDbLine
 10
-178.1827727891203
 20
-70.0323395776945
 30
0.0
 11
-173.7727728557538
 21
-74.44233951152157
 31
0.0
  0
LINE
  5
541
330
1F
100
AcDbEntity
  8
LAYER-006
  6
Continuous
 62
     4
100
AcDbLine
 10
-175.9777696726673
 20
-70.0323395776945
 30
0.0
 11
-172.1977728793868
 21
-73.49734267570142
 31
0.0
  0
ARC
  5
542
330
1F
100
AcDbEntity
  8
LAYER-006
  6
Continuous
 62
     1
100
AcDbCircle
 10
-175.3477728321203
 20
-70.0323395776945
 30
0.0
 40
4.724999929100349
100
AcDbArc
 50
180.0233390000012
 51
359.989383000181
  0
LINE
  5
543
330
1F
100
AcDbEntity
  8
LAYER-006
  6
Continuous
 62
     4
100
AcDbLine
 10
-173.7727728557538
 20
-70.0323395776945
 30
0.0
 11
-171.2527728935668
 21
-72.23734269460803
 31
0.0
  0
LINE
  5
544
330
1F
100
AcDbEntity
  8
LAYER-006
  6
Continuous
 62
     4
100
AcDbLine
 10
-171.56777603884
 20
-70.0323395776945
 30
0.0
 11
-170.6227729030202
 21
-70.97733956307951
 31
0.0
  0
LINE
  5
545
330
1F
100
AcDbEntity
  8
LAYER-006
  6
Continuous
 62
     1
100
AcDbLine
 10
-145.1127720554004
 20
-70.0323395776945
 30
0.0
 11
-135.6627721971997
 21
-70.0323395776945
 31
0.0
  0
LINE
  5
546
330
1F
100
AcDbEntity
  8
LAYER-006
  6
Continuous
 62
     4
100
AcDbLine
 10
-143.222772083494
 20
-70.0323395776945
 30
0.0
 11
-138.8127721499333
 21
-74.44233951152157
 31
0.0
  0
LINE
  5
547
330
1F
100
AcDbEntity
  8
LAYER-006
  6
Continuous
 62
     4
100
AcDbLine
 10
-141.017768966847
 20
-70.0323395776945
 30
0.0
 11
-137.2377721737605
 21
-73.49734267570142
 31
0.0
  0
ARC
  5
548
330
1F
100
AcDbEntity
  8
LAYER-006
  6
Continuous
 62
     1
100
AcDbCircle
 10
-140.387772126494
 20
-70.0323395776945
 30
0.0
 40
4.724999929100349
100
AcDbArc
 50
180.0233390000022
 51
359.9893830001814
  0
LINE
  5
549
330
1F
100
AcDbEntity
  8
LAYER-006
  6
Continuous
 62
     4
100
AcDbLine
 10
-138.8127721499333
 20
-70.0323395776945
 30
0.0
 11
-136.2927721877465
 21
-72.23734269460803
 31
0.0
  0
LINE
  5
54A
330
1F
100
AcDbEntity
  8
LAYER-006
  6
Continuous
 62
     4
100
AcDbLine
 10
-136.6077753330197
 20
-70.0323395776945
 30
0.0
 11
-135.6627721971997
 21
-70.97733956307951
 31
0.0
  0
LINE
  5
54B
330
1F
100
AcDbEntity
  8
LAYER-006
  6
Continuous
 62
     1
100
AcDbLine
 10
-110.152771349968
 20
-70.0323395776945
 30
0.0
 11
-100.7027714917674
 21
-70.0323395776945
 31
0.0
  0
LINE
  5
54C
330
1F
100
AcDbEntity
  8
LAYER-006
  6
Continuous
 62
     4
100
AcDbLine
 10
-108.2627713778676
 20
-70.0323395776945
 30
0.0
 11
-103.852771444501
 21
-74.44233951152157
 31
0.0
  0
LINE
  5
54D
330
1F
100
AcDbEntity
  8
LAYER-006
  6
Continuous
 62
     4
100
AcDbLine
 10
-106.0577682614145
 20
-70.0323395776945
 30
0.0
 11
-102.2777714681341
 21
-73.49734267570142
 31
0.0
  0
ARC
  5
54E
330
1F
100
AcDbEntity
  8
LAYER-006
  6
Continuous
 62
     1
100
AcDbCircle
 10
-105.4277714208677
 20
-70.0323395776945
 30
0.0
 40
4.724999929100349
100
AcDbArc
 50
180.0233390000012
 51
359.9893829999995
  0
LINE
  5
54F
330
1F
100
AcDbEntity
  8
LAYER-006
  6
Continuous
 62
     4
100
AcDbLine
 10
-103.852771444501
 20
-70.0323395776945
 30
0.0
 11
-101.3327714823139
 21
-72.23734269460803
 31
0.0
  0
LINE
  5
550
330
1F
100
AcDbEntity
  8
LAYER-006
  6
Continuous
 62
     4
100
AcDbLine
 10
-101.6477746275872
 20
-70.0323395776945
 30
0.0
 11
-100.7027714917674
 21
-70.97733956307951
 31
0.0
  0
LINE
  5
551
330
1F
100
AcDbEntity
  8
LAYER-006
  6
Continuous
 62
     1
100
AcDbLine
 10
-75.19277064434164
 20
-70.0323395776945
 30
0.0
 11
-65.74277078614102
 21
-70.0323395776945
 31
0.0
  0
LINE
  5
552
330
1F
100
AcDbEntity
  8
LAYER-006
  6
Continuous
 62
     4
100
AcDbLine
 10
-73.30277067224137
 20
-70.0323395776945
 30
0.0
 11
-68.89277073887462
 21
-74.44233951152157
 31
0.0
  0
LINE
  5
553
330
1F
100
AcDbEntity
  8
LAYER-006
  6
Continuous
 62
     4
100
AcDbLine
 10
-71.0977675557881
 20
-70.0323395776945
 30
0.0
 11
-67.31777076250774
 21
-73.49734267570142
 31
0.0
  0
ARC
  5
554
330
1F
100
AcDbEntity
  8
LAYER-006
  6
Continuous
 62
     1
100
AcDbCircle
 10
-70.46777071524139
 20
-70.0323395776945
 30
0.0
 40
4.724999929100349
100
AcDbArc
 50
180.0233390000019
 51
359.9893829999995
  0
LINE
  5
555
330
1F
100
AcDbEntity
  8
LAYER-006
  6
Continuous
 62
     4
100
AcDbLine
 10
-68.89277073887462
 20
-70.0323395776945
 30
0.0
 11
-66.37277077668762
 21
-72.23734269460803
 31
0.0
  0
LINE
  5
556
330
1F
100
AcDbEntity
  8
LAYER-006
  6
Continuous
 62
     4
100
AcDbLine
 10
-66.68777392196091
 20
-70.0323395776945
 30
0.0
 11
-65.74277078614102
 21
-70.97733956307951
 31
0.0
  0
LINE
  5
557
330
1F
100
AcDbEntity
  8
LAYER-006
  6
Continuous
 62
     1
100
AcDbLine
 10
-40.23276678871548
 20
-70.0323395776945
 30
0.0
 11
-30.78276693051481
 21
-70.0323395776945
 31
0.0
  0
LINE
  5
558
330
1F
100
AcDbEntity
  8
LAYER-006
  6
Continuous
 62
     4
100
AcDbLine
 10
-38.34276681707519
 20
-70.0323395776945
 30
0.0
 11
-33.93276688324841
 21
-74.44233951152157
 31
0.0
  0
LINE
  5
559
330
1F
100
AcDbEntity
  8
LAYER-006
  6
Continuous
 62
     4
100
AcDbLine
 10
-36.13776370016188
 20
-70.0323395776945
 30
0.0
 11
-32.35776690707553
 21
-73.49734267570142
 31
0.0
  0
ARC
  5
55A
330
1F
100
AcDbEntity
  8
LAYER-006
  6
Continuous
 62
     1
100
AcDbCircle
 10
-35.50776685980912
 20
-70.0323395776945
 30
0.0
 40
4.724999929100349
100
AcDbArc
 50
180.0233390000022
 51
359.9893829999991
  0
LINE
  5
55B
330
1F
100
AcDbEntity
  8
LAYER-006
  6
Continuous
 62
     4
100
AcDbLine
 10
-33.93276688324841
 20
-70.0323395776945
 30
0.0
 11
-31.41276692106135
 21
-72.23734269460803
 31
0.0
  0
LINE
  5
55C
330
1F
100
AcDbEntity
  8
LAYER-006
  6
Continuous
 62
     4
100
AcDbLine
 10
-31.72777006633464
 20
-70.0323395776945
 30
0.0
 11
-30.78276693051481
 21
-70.97733956307951
 31
0.0
  0
LINE
  5
55D
330
1F
100
AcDbEntity
  8
LAYER-006
  6
Continuous
 62
     4
100
AcDbLine
 10
-215.032770316847
 20
-70.34734272296802
 30
0.0
 11
-210.6227703830199
 21
-74.75734265679481
 31
0.0
  0
LINE
  5
55E
330
1F
100
AcDbEntity
  8
LAYER-006
  6
Continuous
 62
     4
100
AcDbLine
 10
-180.0727727612208
 20
-70.34734272296802
 30
0.0
 11
-175.6627728273938
 21
-74.75734265679481
 31
0.0
  0
LINE
  5
55F
330
1F
100
AcDbEntity
  8
LAYER-006
  6
Continuous
 62
     4
100
AcDbLine
 10
-145.1127720554004
 20
-70.34734272296802
 30
0.0
 11
-140.7027721215735
 21
-74.75734265679481
 31
0.0
  0
LINE
  5
560
330
1F
100
AcDbEntity
  8
LAYER-006
  6
Continuous
 62
     4
100
AcDbLine
 10
-110.152771349968
 20
-70.34734272296802
 30
0.0
 11
-105.742771416141
 21
-74.75734265679481
 31
0.0
  0
LINE
  5
561
330
1F
100
AcDbEntity
  8
LAYER-006
  6
Continuous
 62
     4
100
AcDbLine
 10
-75.19277064434164
 20
-70.34734272296802
 30
0.0
 11
-70.78277071068085
 21
-74.75734265679481
 31
0.0
  0
LINE
  5
562
330
1F
100
AcDbEntity
  8
LAYER-006
  6
Continuous
 62
     4
100
AcDbLine
 10
-40.23276678871548
 20
-70.34734272296802
 30
0.0
 11
-35.82276685488836
 21
-74.75734265679481
 31
0.0
  0
LINE
  5
563
330
1F
100
AcDbEntity
  8
LAYER-006
  6
Continuous
 62
     4
100
AcDbLine
 10
-214.7177703211998
 20
-71.92234269933474
 30
0.0
 11
-212.8277734999334
 21
-70.0323395776945
 31
0.0
  0
LINE
  5
564
330
1F
100
AcDbEntity
  8
LAYER-006
  6
Continuous
 62
     4
100
AcDbLine
 10
-179.7577727661998
 20
-71.92234269933474
 30
0.0
 11
-177.8677759443073
 21
-70.0323395776945
 31
0.0
  0
LINE
  5
565
330
1F
100
AcDbEntity
  8
LAYER-006
  6
Continuous
 62
     4
100
AcDbLine
 10
-144.7977720601272
 20
-71.92234269933474
 30
0.0
 11
-142.9077752386808
 21
-70.0323395776945
 31
0.0
  0
LINE
  5
566
330
1F
100
AcDbEntity
  8
LAYER-006
  6
Continuous
 62
     4
100
AcDbLine
 10
-109.8377713546947
 20
-71.92234269933474
 30
0.0
 11
-107.9477745330544
 21
-70.0323395776945
 31
0.0
  0
LINE
  5
567
330
1F
100
AcDbEntity
  8
LAYER-006
  6
Continuous
 62
     4
100
AcDbLine
 10
-74.87777064899956
 20
-71.92234269933474
 30
0.0
 11
-72.9877738274281
 21
-70.0323395776945
 31
0.0
  0
LINE
  5
568
330
1F
100
AcDbEntity
  8
LAYER-006
  6
Continuous
 62
     4
100
AcDbLine
 10
-39.91776679344207
 20
-71.92234269933474
 30
0.0
 11
-38.02776997180183
 21
-70.0323395776945
 31
0.0
  0
LINE
  5
569
330
1F
100
AcDbEntity
  8
LAYER-006
  6
Continuous
 62
     4
100
AcDbLine
 10
-213.7727703357536
 20
-73.18234268042815
 30
0.0
 11
-210.6227703830199
 21
-70.0323395776945
 31
0.0
  0
LINE
  5
56A
330
1F
100
AcDbEntity
  8
LAYER-006
  6
Continuous
 62
     4
100
AcDbLine
 10
-178.8127727801274
 20
-73.18234268042815
 30
0.0
 11
-175.6627728273938
 21
-70.0323395776945
 31
0.0
  0
LINE
  5
56B
330
1F
100
AcDbEntity
  8
LAYER-006
  6
Continuous
 62
     4
100
AcDbLine
 10
-143.8527720743071
 20
-73.18234268042815
 30
0.0
 11
-140.7027721215735
 21
-70.0323395776945
 31
0.0
  0
LINE
  5
56C
330
1F
100
AcDbEntity
  8
LAYER-006
  6
Continuous
 62
     4
100
AcDbLine
 10
-108.8927713688746
 20
-73.18234268042815
 30
0.0
 11
-105.742771416141
 21
-70.0323395776945
 31
0.0
  0
LINE
  5
56D
330
1F
100
AcDbEntity
  8
LAYER-006
  6
Continuous
 62
     4
100
AcDbLine
 10
-73.93277066324822
 20
-73.18234268042815
 30
0.0
 11
-70.78277071068085
 21
-70.0323395776945
 31
0.0
  0
LINE
  5
56E
330
1F
100
AcDbEntity
  8
LAYER-006
  6
Continuous
 62
     4
100
AcDbLine
 10
-38.97276680762195
 20
-73.18234268042815
 30
0.0
 11
-35.82276685488836
 21
-70.0323395776945
 31
0.0
  0
LINE
  5
56F
330
1F
100
AcDbEntity
  8
LAYER-006
  6
Continuous
 62
     4
100
AcDbLine
 10
-212.5127672046602
 20
-74.12733951534266
 30
0.0
 11
-208.4177704161065
 21
-70.0323395776945
 31
0.0
  0
LINE
  5
570
330
1F
100
AcDbEntity
  8
LAYER-006
  6
Continuous
 62
     4
100
AcDbLine
 10
-208.1027735708332
 20
-74.12733951534266
 30
0.0
 11
-206.5277735944662
 21
-72.55233953884053
 31
0.0
  0
LINE
  5
571
330
1F
100
AcDbEntity
  8
LAYER-006
  6
Continuous
 62
     4
100
AcDbLine
 10
-177.552769649034
 20
-74.12733951534266
 30
0.0
 11
-173.4577728600202
 21
-70.0323395776945
 31
0.0
  0
LINE
  5
572
330
1F
100
AcDbEntity
  8
LAYER-006
  6
Continuous
 62
     4
100
AcDbLine
 10
-173.142776015207
 20
-74.12733951534266
 30
0.0
 11
-171.56777603884
 21
-72.55233953884053
 31
0.0
  0
LINE
  5
573
330
1F
100
AcDbEntity
  8
LAYER-006
  6
Continuous
 62
     4
100
AcDbLine
 10
-142.5927689432137
 20
-74.12733951534266
 30
0.0
 11
-138.4977721541997
 21
-70.0323395776945
 31
0.0
  0
LINE
  5
574
330
1F
100
AcDbEntity
  8
LAYER-006
  6
Continuous
 62
     4
100
AcDbLine
 10
-138.1827753093866
 20
-74.12733951534266
 30
0.0
 11
-136.6077753330197
 21
-72.55233953884053
 31
0.0
  0
LINE
  5
575
330
1F
100
AcDbEntity
  8
LAYER-006
  6
Continuous
 62
     4
100
AcDbLine
 10
-107.6327682377812
 20
-74.12733951534266
 30
0.0
 11
-103.5377714492275
 21
-70.0323395776945
 31
0.0
  0
LINE
  5
576
330
1F
100
AcDbEntity
  8
LAYER-006
  6
Continuous
 62
     4
100
AcDbLine
 10
-103.2227746039541
 20
-74.12733951534266
 30
0.0
 11
-101.6477746275872
 21
-72.55233953884053
 31
0.0
  0
LINE
  5
577
330
1F
100
AcDbEntity
  8
LAYER-006
  6
Continuous
 62
     4
100
AcDbLine
 10
-72.67276753215487
 20
-74.12733951534266
 30
0.0
 11
-68.57777074360115
 21
-70.0323395776945
 31
0.0
  0
LINE
  5
578
330
1F
100
AcDbEntity
  8
LAYER-006
  6
Continuous
 62
     4
100
AcDbLine
 10
-68.26277389832785
 20
-74.12733951534266
 30
0.0
 11
-66.68777392196091
 21
-72.55233953884053
 31
0.0
  0
LINE
  5
579
330
1F
100
AcDbEntity
  8
LAYER-006
  6
Continuous
 62
     4
100
AcDbLine
 10
-37.7127636765286
 20
-74.12733951534266
 30
0.0
 11
-33.61776688797488
 21
-70.0323395776945
 31
0.0
  0
LINE
  5
57A
330
1F
100
AcDbEntity
  8
LAYER-006
  6
Continuous
 62
     4
100
AcDbLine
 10
-33.30277004319981
 20
-74.12733951534266
 30
0.0
 11
-31.72777006633464
 21
-72.55233953884053
 31
0.0
  0
LINE
  5
57B
330
1F
100
AcDbEntity
  8
LAYER-006
  6
Continuous
 62
     4
100
AcDbLine
 10
-210.9377672282935
 20
-74.75734265679481
 30
0.0
 11
-206.2127704491929
 21
-70.0323395776945
 31
0.0
  0
LINE
  5
57C
330
1F
100
AcDbEntity
  8
LAYER-006
  6
Continuous
 62
     4
100
AcDbLine
 10
-175.9777696726673
 20
-74.75734265679481
 30
0.0
 11
-171.2527728935668
 21
-70.0323395776945
 31
0.0
  0
LINE
  5
57D
330
1F
100
AcDbEntity
  8
LAYER-006
  6
Continuous
 62
     4
100
AcDbLine
 10
-141.017768966847
 20
-74.75734265679481
 30
0.0
 11
-136.2927721877465
 21
-70.0323395776945
 31
0.0
  0
LINE
  5
57E
330
1F
100
AcDbEntity
  8
LAYER-006
  6
Continuous
 62
     4
100
AcDbLine
 10
-106.0577682614145
 20
-74.75734265679481
 30
0.0
 11
-101.3327714823139
 21
-70.0323395776945
 31
0.0
  0
LINE
  5
57F
330
1F
100
AcDbEntity
  8
LAYER-006
  6
Continuous
 62
     4
100
AcDbLine
 10
-71.0977675557881
 20
-74.75734265679481
 30
0.0
 11
-66.37277077668762
 21
-70.0323395776945
 31
0.0
  0
LINE
  5
580
330
1F
100
AcDbEntity
  8
LAYER-006
  6
Continuous
 62
     4
100
AcDbLine
 10
-36.13776370016188
 20
-74.75734265679481
 30
0.0
 11
-31.41276692106135
 21
-70.0323395776945
 31
0.0
  0
LINE
  5
581
330
1F
100
AcDbEntity
  8
LAYER-006
  6
Continuous
 62
     1
100
AcDbLine
 10
111.2052662755553
 20
135.2426589182052
 30
0.0
 11
229.5955072861598
 21
135.2426589182052
 31
0.0
  0
LINE
  5
582
330
1F
100
AcDbEntity
  8
LAYER-006
  6
Continuous
 62
     1
100
AcDbLine
 10
96.22355909892946
 20
131.3243624818076
 30
0.0
 11
96.22355909892946
 21
123.0011918282136
 31
0.0
  0
LINE
  5
583
330
1F
100
AcDbEntity
  8
LAYER-006
  6
Continuous
 62
     1
100
AcDbLine
 10
96.22355909892946
 20
131.3243624818076
 30
0.0
 11
109.5406321448367
 21
131.3243624818076
 31
0.0
  0
LINE
  5
584
330
1F
100
AcDbEntity
  8
LAYER-007
  6
HIDDEN
 62
     4
100
AcDbLine
 10
104.5467297526801
 20
131.3243624818076
 30
0.0
 11
104.5467297526801
 21
121.3365576974946
 31
0.0
  0
LINE
  5
585
330
1F
100
AcDbEntity
  8
LAYER-007
  6
HIDDEN
 62
     4
100
AcDbLine
 10
107.8759980141177
 20
131.3243624818076
 30
0.0
 11
107.8759980141177
 21
122.335338175926
 31
0.0
  0
LINE
  5
586
330
1F
100
AcDbEntity
  8
LAYER-006
  6
Continuous
 62
     1
100
AcDbLine
 10
109.5406321448367
 20
131.3243624818076
 30
0.0
 11
109.5406321448367
 21
123.0011918282136
 31
0.0
  0
ARC
  5
587
330
1F
100
AcDbEntity
  8
LAYER-006
  6
Continuous
 62
     1
100
AcDbCircle
 10
111.2052662755553
 20
130.2487565260486
 30
0.0
 40
4.993902392156484
100
AcDbArc
 50
90.01166999975827
 51
180.0233389999999
  0
ARC
  5
588
330
1F
100
AcDbEntity
  8
LAYER-006
  6
Continuous
 62
     1
100
AcDbCircle
 10
229.5955072861598
 20
125.2548541338922
 30
0.0
 40
9.987804784312965
100
AcDbArc
 50
269.9777129971632
 51
90.00105199999858
  0
LINE
  5
589
330
1F
100
AcDbEntity
  8
LAYER-006
  6
Continuous
 62
     1
100
AcDbLine
 10
96.22355909892946
 20
123.0011918282136
 30
0.0
 11
101.2174614909295
 21
121.3365576974946
 31
0.0
  0
LINE
  5
58A
330
1F
100
AcDbEntity
  8
LAYER-006
  6
Continuous
 62
     1
100
AcDbLine
 10
104.5467297526801
 20
121.3365576974946
 30
0.0
 11
109.5406321448367
 21
123.0011918282136
 31
0.0
  0
LINE
  5
58B
330
1F
100
AcDbEntity
  8
LAYER-006
  6
Continuous
 62
     1
100
AcDbLine
 10
111.2052662755553
 20
121.3365576974946
 30
0.0
 11
127.8516075827436
 21
121.3365576974946
 31
0.0
  0
LINE
  5
58C
330
1F
100
AcDbEntity
  8
LAYER-006
  6
Continuous
 62
     1
100
AcDbLine
 10
111.2052662755553
 20
121.3365576974946
 30
0.0
 11
111.2052662755553
 21
99.01765522464095
 31
0.0
  0
LINE
  5
58D
330
1F
100
AcDbEntity
  8
LAYER-006
  6
Continuous
 62
     1
100
AcDbLine
 10
127.8516075827436
 20
121.3365576974946
 30
0.0
 11
127.8516075827436
 21
99.01765522464095
 31
0.0
  0
LINE
  5
58E
330
1F
100
AcDbEntity
  8
LAYER-006
  6
Continuous
 62
     1
100
AcDbLine
 10
97.88819322980476
 20
119.6719235667759
 30
0.0
 11
101.2174614909295
 21
119.6719235667759
 31
0.0
  0
LINE
  5
58F
330
1F
100
AcDbEntity
  8
LAYER-006
  6
Continuous
 62
     1
100
AcDbLine
 10
97.88819322980476
 20
119.6719235667759
 30
0.0
 11
97.88819322980476
 21
113.0133903731689
 31
0.0
  0
LINE
  5
590
330
1F
100
AcDbEntity
  8
LAYER-006
  6
Continuous
 62
     1
100
AcDbLine
 10
104.5467297526801
 20
119.6719235667759
 30
0.0
 11
111.2052662755553
 21
119.6719235667759
 31
0.0
  0
LINE
  5
591
330
1F
100
AcDbEntity
  8
LAYER-006
  6
Continuous
 62
     1
100
AcDbLine
 10
107.8759980141177
 20
119.6719235667759
 30
0.0
 11
107.8759980141177
 21
113.0133903731689
 31
0.0
  0
LINE
  5
592
330
1F
100
AcDbEntity
  8
LAYER-006
  6
Continuous
 62
     1
100
AcDbLine
 10
127.8516075827436
 20
119.6719235667759
 30
0.0
 11
131.1808758441812
 21
119.6719235667759
 31
0.0
  0
LINE
  5
593
330
1F
100
AcDbEntity
  8
LAYER-006
  6
Continuous
 62
     1
100
AcDbLine
 10
131.1808758441812
 20
119.6719235667759
 30
0.0
 11
131.1808758441812
 21
113.0133903731689
 31
0.0
  0
LINE
  5
594
330
1F
100
AcDbEntity
  8
LAYER-006
  6
Continuous
 62
     1
100
AcDbLine
 10
91.22965670692946
 20
118.0072927653253
 30
0.0
 11
101.2174614909295
 21
118.0072927653253
 31
0.0
  0
LINE
  5
595
330
1F
100
AcDbEntity
  8
LAYER-006
  6
Continuous
 62
     1
100
AcDbLine
 10
91.22965670692946
 20
118.0072927653253
 30
0.0
 11
91.22965670692946
 21
114.6780245038876
 31
0.0
  0
LINE
  5
596
330
1F
100
AcDbEntity
  8
LAYER-006
  6
Continuous
 62
     1
100
AcDbLine
 10
104.5467297526801
 20
118.0072927653253
 30
0.0
 11
111.2052662755553
 21
118.0072927653253
 31
0.0
  0
LINE
  5
597
330
1F
100
AcDbEntity
  8
LAYER-006
  6
Continuous
 62
     1
100
AcDbLine
 10
127.8516075827436
 20
118.0072927653253
 30
0.0
 11
131.1808758441812
 21
118.0072927653253
 31
0.0
  0
LINE
  5
598
330
1F
100
AcDbEntity
  8
LAYER-007
  6
CENTER
 62
     4
100
AcDbLine
 10
91.22965670692946
 20
116.3426586346066
 30
0.0
 11
132.8455099749001
 21
116.3426586346066
 31
0.0
  0
LINE
  5
599
330
1F
100
AcDbEntity
  8
LAYER-006
  6
Continuous
 62
     1
100
AcDbLine
 10
229.5955072861598
 20
115.2670526788475
 30
0.0
 11
229.5955072861598
 21
-54.78173133521692
 31
0.0
  0
LINE
  5
59A
330
1F
100
AcDbEntity
  8
LAYER-006
  6
Continuous
 62
     1
100
AcDbLine
 10
229.5955072861598
 20
115.2670526788475
 30
0.0
 11
134.5101441059931
 21
115.2670526788475
 31
0.0
  0
LINE
  5
59B
330
1F
100
AcDbEntity
  8
LAYER-006
  6
Continuous
 62
     1
100
AcDbLine
 10
254.2296567069295
 20
115.2426573426573
 30
0.0
 11
256.2296567069295
 21
115.2426573426573
 31
0.0
  0
LINE
  5
59C
330
1F
100
AcDbEntity
  8
LAYER-006
  6
Continuous
 62
     1
100
AcDbLine
 10
254.2296567069295
 20
115.2426573426573
 30
0.0
 11
254.2296567069295
 21
82.24265734265734
 31
0.0
  0
LINE
  5
59D
330
1F
100
AcDbEntity
  8
LAYER-006
  6
Continuous
 62
     1
100
AcDbLine
 10
256.2296567069295
 20
115.2426573426573
 30
0.0
 11
256.2296567069295
 21
-54.75734265706657
 31
0.0
  0
LINE
  5
59E
330
1F
100
AcDbEntity
  8
LAYER-006
  6
Continuous
 62
     1
100
AcDbLine
 10
91.22965670692946
 20
114.6780245038876
 30
0.0
 11
101.2174614909295
 21
114.6780245038876
 31
0.0
  0
LINE
  5
59F
330
1F
100
AcDbEntity
  8
LAYER-006
  6
Continuous
 62
     1
100
AcDbLine
 10
104.5467297526801
 20
114.6780245038876
 30
0.0
 11
111.2052662755553
 21
114.6780245038876
 31
0.0
  0
LINE
  5
5A0
330
1F
100
AcDbEntity
  8
LAYER-006
  6
Continuous
 62
     1
100
AcDbLine
 10
127.8516075827436
 20
114.6780245038876
 30
0.0
 11
131.1808758441812
 21
114.6780245038876
 31
0.0
  0
LINE
  5
5A1
330
1F
100
AcDbEntity
  8
LAYER-006
  6
Continuous
 62
     1
100
AcDbLine
 10
97.88819322980476
 20
113.0133903731689
 30
0.0
 11
101.2174614909295
 21
113.0133903731689
 31
0.0
  0
LINE
  5
5A2
330
1F
100
AcDbEntity
  8
LAYER-006
  6
Continuous
 62
     1
100
AcDbLine
 10
104.5467297526801
 20
113.0133903731689
 30
0.0
 11
111.2052662755553
 21
113.0133903731689
 31
0.0
  0
LINE
  5
5A3
330
1F
100
AcDbEntity
  8
LAYER-006
  6
Continuous
 62
     1
100
AcDbLine
 10
127.8516075827436
 20
113.0133903731689
 30
0.0
 11
131.1808758441812
 21
113.0133903731689
 31
0.0
  0
LINE
  5
5A4
330
1F
100
AcDbEntity
  8
LAYER-006
  6
Continuous
 62
     1
100
AcDbLine
 10
101.2174614909295
 20
111.34875624245
 30
0.0
 11
101.2174614909295
 21
121.3365576974946
 31
0.0
  0
LINE
  5
5A5
330
1F
100
AcDbEntity
  8
LAYER-006
  6
Continuous
 62
     1
100
AcDbLine
 10
101.2174614909295
 20
111.34875624245
 30
0.0
 11
104.5467297526801
 21
111.34875624245
 31
0.0
  0
LINE
  5
5A6
330
1F
100
AcDbEntity
  8
LAYER-006
  6
Continuous
 62
     1
100
AcDbLine
 10
102.8820956219612
 20
111.34875624245
 30
0.0
 11
102.8820956219612
 21
131.3243624818076
 31
0.0
  0
LINE
  5
5A7
330
1F
100
AcDbEntity
  8
LAYER-006
  6
Continuous
 62
     1
100
AcDbLine
 10
104.5467297526801
 20
111.34875624245
 30
0.0
 11
104.5467297526801
 21
121.3365576974946
 31
0.0
  0
LINE
  5
5A8
330
1F
100
AcDbEntity
  8
LAYER-006
  6
Continuous
 62
     1
100
AcDbLine
 10
107.8759980141177
 20
99.01765522464095
 30
0.0
 11
134.5101441059931
 21
99.01765522464095
 31
0.0
  0
LINE
  5
5A9
330
1F
100
AcDbEntity
  8
LAYER-006
  6
Continuous
 62
     1
100
AcDbLine
 10
107.8759980141177
 20
99.01765522464095
 30
0.0
 11
107.8759980141177
 21
-38.5323436893265
 31
0.0
  0
LINE
  5
5AA
330
1F
100
AcDbEntity
  8
LAYER-006
  6
Continuous
 62
     1
100
AcDbLine
 10
107.8759980141177
 20
97.35302109392214
 30
0.0
 11
134.5101441059931
 21
97.35302109392214
 31
0.0
  0
LINE
  5
5AB
330
1F
100
AcDbEntity
  8
LAYER-006
  6
Continuous
 62
     1
100
AcDbLine
 10
229.5955072861598
 20
82.24265734265734
 30
0.0
 11
254.1296566754185
 21
82.24265734265734
 31
0.0
  0
LINE
  5
5AC
330
1F
100
AcDbEntity
  8
LAYER-006
  6
Continuous
 62
     1
100
AcDbLine
 10
229.5955072861598
 20
80.24265734265734
 30
0.0
 11
256.2296567069295
 21
80.24265734265734
 31
0.0
  0
LINE
  5
5AD
330
1F
100
AcDbEntity
  8
LAYER-006
  6
Continuous
 62
     1
100
AcDbLine
 10
237.9186779397541
 20
77.57924606277548
 30
0.0
 11
256.2296567069295
 21
77.57924606277548
 31
0.0
  0
LINE
  5
5AE
330
1F
100
AcDbEntity
  8
LAYER-006
  6
Continuous
 62
     1
100
AcDbLine
 10
239.916242225885
 20
74.91583145362534
 30
0.0
 11
256.2296567069295
 21
74.91583145362534
 31
0.0
  0
LINE
  5
5AF
330
1F
100
AcDbEntity
  8
LAYER-006
  6
Continuous
 62
     1
100
AcDbLine
 10
240.9150193750479
 20
73.25119732290648
 30
0.0
 11
256.2296567069295
 21
73.25119732290648
 31
0.0
  0
LINE
  5
5B0
330
1F
100
AcDbEntity
  8
LAYER-006
  6
Continuous
 62
     1
100
AcDbLine
 10
242.5796535057668
 20
70.58777938448807
 30
0.0
 11
256.2296567069295
 21
70.58777938448807
 31
0.0
  0
LINE
  5
5B1
330
1F
100
AcDbEntity
  8
LAYER-006
  6
Continuous
 62
     1
100
AcDbLine
 10
244.5772177904045
 20
67.92436810460626
 30
0.0
 11
256.2296567069295
 21
67.92436810460626
 31
0.0
  0
LINE
  5
5B2
330
1F
100
AcDbEntity
  8
LAYER-006
  6
Continuous
 62
     1
100
AcDbLine
 10
246.2418519229118
 20
65.26095349565289
 30
0.0
 11
256.2296567069295
 21
65.26095349565289
 31
0.0
  0
LINE
  5
5B3
330
1F
100
AcDbEntity
  8
LAYER-007
  6
CENTER
 62
     4
100
AcDbLine
 10
99.88575418666741
 20
30.24265734265734
 30
0.0
 11
256.2296567069295
 21
30.24265734265734
 31
0.0
  0
LINE
  5
5B4
330
1F
100
AcDbEntity
  8
LAYER-006
  6
Continuous
 62
     1
100
AcDbLine
 10
229.5955072861598
 20
-19.75734265734266
 30
0.0
 11
256.2296567069295
 21
-19.75734265734266
 31
0.0
  0
LINE
  5
5B5
330
1F
100
AcDbEntity
  8
LAYER-006
  6
Continuous
 62
     1
100
AcDbLine
 10
229.5955072861598
 20
-21.75734265734266
 30
0.0
 11
254.2296567069295
 21
-21.75734265734266
 31
0.0
  0
LINE
  5
5B6
330
1F
100
AcDbEntity
  8
LAYER-006
  6
Continuous
 62
     1
100
AcDbLine
 10
117.8638027984306
 20
-21.88600571140648
 30
0.0
 11
107.8759980141177
 21
-21.88600571140648
 31
0.0
  0
LINE
  5
5B7
330
1F
100
AcDbEntity
  8
LAYER-006
  6
Continuous
 62
     1
100
AcDbLine
 10
119.5284369291494
 20
-24.54941699137564
 30
0.0
 11
107.8759980141177
 21
-24.54941699137564
 31
0.0
  0
LINE
  5
5B8
330
1F
100
AcDbEntity
  8
LAYER-006
  6
Continuous
 62
     1
100
AcDbLine
 10
121.5259978860121
 20
-27.21283160043853
 30
0.0
 11
107.8759980141177
 21
-27.21283160043853
 31
0.0
  0
LINE
  5
5B9
330
1F
100
AcDbEntity
  8
LAYER-006
  6
Continuous
 62
     1
100
AcDbLine
 10
123.190632016731
 20
-29.87624953885685
 30
0.0
 11
107.8759980141177
 21
-29.87624953885685
 31
0.0
  0
LINE
  5
5BA
330
1F
100
AcDbEntity
  8
LAYER-006
  6
Continuous
 62
     1
100
AcDbLine
 10
124.1894124951623
 20
-31.54088366771811
 30
0.0
 11
107.8759980141177
 21
-31.54088366771811
 31
0.0
  0
LINE
  5
5BB
330
1F
100
AcDbEntity
  8
LAYER-006
  6
Continuous
 62
     1
100
AcDbLine
 10
126.1869734522216
 20
-34.20429494899801
 30
0.0
 11
107.8759980141177
 21
-34.20429494899801
 31
0.0
  0
LINE
  5
5BC
330
1F
100
AcDbEntity
  8
LAYER-006
  6
Continuous
 62
     1
100
AcDbLine
 10
107.8759980141177
 20
-36.86770955860766
 30
0.0
 11
134.5101441059931
 21
-36.86770955860766
 31
0.0
  0
LINE
  5
5BD
330
1F
100
AcDbEntity
  8
LAYER-006
  6
Continuous
 62
     1
100
AcDbLine
 10
107.8759980141177
 20
-38.5323436893265
 30
0.0
 11
134.5101441059931
 21
-38.5323436893265
 31
0.0
  0
LINE
  5
5BE
330
1F
100
AcDbEntity
  8
LAYER-006
  6
Continuous
 62
     1
100
AcDbLine
 10
101.2174614909295
 20
-50.86344155674206
 30
0.0
 11
101.2174614909295
 21
-60.85124634105503
 31
0.0
  0
LINE
  5
5BF
330
1F
100
AcDbEntity
  8
LAYER-006
  6
Continuous
 62
     1
100
AcDbLine
 10
101.2174614909295
 20
-50.86344155674206
 30
0.0
 11
104.5467297526801
 21
-50.86344155674206
 31
0.0
  0
LINE
  5
5C0
330
1F
100
AcDbEntity
  8
LAYER-006
  6
Continuous
 62
     1
100
AcDbLine
 10
102.8820956219612
 20
-50.86344155674206
 30
0.0
 11
102.8820956219612
 21
-70.839051125368
 31
0.0
  0
LINE
  5
5C1
330
1F
100
AcDbEntity
  8
LAYER-006
  6
Continuous
 62
     1
100
AcDbLine
 10
104.5467297526801
 20
-50.86344155674206
 30
0.0
 11
104.5467297526801
 21
-60.85124634105503
 31
0.0
  0
LINE
  5
5C2
330
1F
100
AcDbEntity
  8
LAYER-006
  6
Continuous
 62
     1
100
AcDbLine
 10
97.88819322980476
 20
-52.52807568746087
 30
0.0
 11
101.2174614909295
 21
-52.52807568746087
 31
0.0
  0
LINE
  5
5C3
330
1F
100
AcDbEntity
  8
LAYER-006
  6
Continuous
 62
     1
100
AcDbLine
 10
104.5467297526801
 20
-52.52807568746087
 30
0.0
 11
111.2052662755553
 21
-52.52807568746087
 31
0.0
  0
LINE
  5
5C4
330
1F
100
AcDbEntity
  8
LAYER-006
  6
Continuous
 62
     1
100
AcDbLine
 10
127.8516075827436
 20
-52.52807568746087
 30
0.0
 11
131.1808758437877
 21
-52.52807568746087
 31
0.0
  0
LINE
  5
5C5
330
1F
100
AcDbEntity
  8
LAYER-006
  6
Continuous
 62
     1
100
AcDbLine
 10
91.22965670692946
 20
-54.19270981779479
 30
0.0
 11
101.2174614909295
 21
-54.19270981779479
 31
0.0
  0
LINE
  5
5C6
330
1F
100
AcDbEntity
  8
LAYER-006
  6
Continuous
 62
     1
100
AcDbLine
 10
104.5467297526801
 20
-54.19270981779479
 30
0.0
 11
111.2052662755553
 21
-54.19270981779479
 31
0.0
  0
LINE
  5
5C7
330
1F
100
AcDbEntity
  8
LAYER-006
  6
Continuous
 62
     1
100
AcDbLine
 10
127.8516075827436
 20
-54.19270981779479
 30
0.0
 11
131.1808758437877
 21
-54.19270981779479
 31
0.0
  0
LINE
  5
5C8
330
1F
100
AcDbEntity
  8
LAYER-006
  6
Continuous
 62
     1
100
AcDbLine
 10
254.1296566754185
 20
-54.75734265733652
 30
0.0
 11
256.2296567069295
 21
-54.75734265733652
 31
0.0
  0
LINE
  5
5C9
330
1F
100
AcDbEntity
  8
LAYER-006
  6
Continuous
 62
     1
100
AcDbLine
 10
254.2296567069295
 20
-54.75734265733652
 30
0.0
 11
254.2296567069295
 21
-21.75734265734266
 31
0.0
  0
LINE
  5
5CA
330
1F
100
AcDbEntity
  8
LAYER-006
  6
Continuous
 62
     1
100
AcDbLine
 10
134.5101441059931
 20
-54.7817313352169
 30
0.0
 11
134.5101441059931
 21
115.2670526788475
 31
0.0
  0
LINE
  5
5CB
330
1F
100
AcDbEntity
  8
LAYER-006
  6
Continuous
 62
     1
100
AcDbLine
 10
229.5955072861598
 20
-54.7817313352169
 30
0.0
 11
134.5101441059931
 21
-54.7817313352169
 31
0.0
  0
LINE
  5
5CC
330
1F
100
AcDbEntity
  8
LAYER-007
  6
CENTER
 62
     4
100
AcDbLine
 10
91.22965670692946
 20
-55.8573439492919
 30
0.0
 11
132.5125831487564
 21
-55.8573439492919
 31
0.0
  0
LINE
  5
5CD
330
1F
100
AcDbEntity
  8
LAYER-006
  6
Continuous
 62
     1
100
AcDbLine
 10
91.22965670692946
 20
-57.52197807961736
 30
0.0
 11
101.2174614909295
 21
-57.52197807961736
 31
0.0
  0
LINE
  5
5CE
330
1F
100
AcDbEntity
  8
LAYER-006
  6
Continuous
 62
     1
100
AcDbLine
 10
91.22965670692946
 20
-57.52197807961736
 30
0.0
 11
91.22965670692946
 21
-54.19270981779479
 31
0.0
  0
LINE
  5
5CF
330
1F
100
AcDbEntity
  8
LAYER-006
  6
Continuous
 62
     1
100
AcDbLine
 10
104.5467297526801
 20
-57.52197807961736
 30
0.0
 11
111.2052662755553
 21
-57.52197807961736
 31
0.0
  0
LINE
  5
5D0
330
1F
100
AcDbEntity
  8
LAYER-006
  6
Continuous
 62
     1
100
AcDbLine
 10
127.8516075827436
 20
-57.52197807961736
 30
0.0
 11
131.1808758437877
 21
-57.52197807961736
 31
0.0
  0
LINE
  5
5D1
330
1F
100
AcDbEntity
  8
LAYER-006
  6
Continuous
 62
     1
100
AcDbLine
 10
97.88819322980476
 20
-59.18661221033617
 30
0.0
 11
101.2174614909295
 21
-59.18661221033617
 31
0.0
  0
LINE
  5
5D2
330
1F
100
AcDbEntity
  8
LAYER-006
  6
Continuous
 62
     1
100
AcDbLine
 10
97.88819322980476
 20
-59.18661221033617
 30
0.0
 11
97.88819322980476
 21
-52.52807568746087
 31
0.0
  0
LINE
  5
5D3
330
1F
100
AcDbEntity
  8
LAYER-006
  6
Continuous
 62
     1
100
AcDbLine
 10
104.5467297526801
 20
-59.18661221033617
 30
0.0
 11
111.2052662755553
 21
-59.18661221033617
 31
0.0
  0
LINE
  5
5D4
330
1F
100
AcDbEntity
  8
LAYER-006
  6
Continuous
 62
     1
100
AcDbLine
 10
107.8759980141177
 20
-59.18661221033617
 30
0.0
 11
107.8759980141177
 21
-52.52807568746087
 31
0.0
  0
LINE
  5
5D5
330
1F
100
AcDbEntity
  8
LAYER-006
  6
Continuous
 62
     1
100
AcDbLine
 10
127.8516075827436
 20
-59.18661221033617
 30
0.0
 11
131.1808758437877
 21
-59.18661221033617
 31
0.0
  0
LINE
  5
5D6
330
1F
100
AcDbEntity
  8
LAYER-006
  6
Continuous
 62
     1
100
AcDbLine
 10
131.1808758437877
 20
-59.18661221033617
 30
0.0
 11
131.1808758437877
 21
-52.52807568746087
 31
0.0
  0
LINE
  5
5D7
330
1F
100
AcDbEntity
  8
LAYER-006
  6
Continuous
 62
     1
100
AcDbLine
 10
104.5467297526801
 20
-60.85124634105503
 30
0.0
 11
109.5406321448367
 21
-62.51588047177378
 31
0.0
  0
LINE
  5
5D8
330
1F
100
AcDbEntity
  8
LAYER-006
  6
Continuous
 62
     1
100
AcDbLine
 10
111.2052662755553
 20
-60.85124634105503
 30
0.0
 11
127.8516075827436
 21
-60.85124634105503
 31
0.0
  0
LINE
  5
5D9
330
1F
100
AcDbEntity
  8
LAYER-006
  6
Continuous
 62
     1
100
AcDbLine
 10
111.2052662755553
 20
-60.85124634105503
 30
0.0
 11
111.2052662755553
 21
-38.5323436893265
 31
0.0
  0
LINE
  5
5DA
330
1F
100
AcDbEntity
  8
LAYER-006
  6
Continuous
 62
     1
100
AcDbLine
 10
127.8516075827436
 20
-60.85124634105503
 30
0.0
 11
127.8516075827436
 21
-38.5323436893265
 31
0.0
  0
LINE
  5
5DB
330
1F
100
AcDbEntity
  8
LAYER-006
  6
Continuous
 62
     1
100
AcDbLine
 10
96.22355909892946
 20
-62.51588047177378
 30
0.0
 11
101.2174614909295
 21
-60.85124634105503
 31
0.0
  0
ARC
  5
5DC
330
1F
100
AcDbEntity
  8
LAYER-006
  6
Continuous
 62
     1
100
AcDbCircle
 10
229.5955072861598
 20
-64.76953611930927
 30
0.0
 40
9.987804784312965
100
AcDbArc
 50
269.9777129971619
 51
90.00105199999862
  0
ARC
  5
5DD
330
1F
100
AcDbEntity
  8
LAYER-006
  6
Continuous
 62
     1
100
AcDbCircle
 10
111.2052662755553
 20
-69.76343851146575
 30
0.0
 40
4.993902392156484
100
AcDbArc
 50
192.4381265097272
 51
269.9777130000007
  0
LINE
  5
5DE
330
1F
100
AcDbEntity
  8
LAYER-006
  6
Continuous
 62
     1
100
AcDbLine
 10
96.22355909892946
 20
-70.839051125368
 30
0.0
 11
96.22355909892946
 21
-62.51588047177378
 31
0.0
  0
LINE
  5
5DF
330
1F
100
AcDbEntity
  8
LAYER-006
  6
Continuous
 62
     1
100
AcDbLine
 10
96.22355909892946
 20
-70.839051125368
 30
0.0
 11
109.5406321448367
 21
-70.839051125368
 31
0.0
  0
LINE
  5
5E0
330
1F
100
AcDbEntity
  8
LAYER-007
  6
HIDDEN
 62
     4
100
AcDbLine
 10
104.5467297526801
 20
-70.839051125368
 30
0.0
 11
104.5467297526801
 21
-60.85124634105503
 31
0.0
  0
LINE
  5
5E1
330
1F
100
AcDbEntity
  8
LAYER-007
  6
HIDDEN
 62
     4
100
AcDbLine
 10
107.8759980141177
 20
-70.839051125368
 30
0.0
 11
107.8759980141177
 21
-61.8500301487546
 31
0.0
  0
LINE
  5
5E2
330
1F
100
AcDbEntity
  8
LAYER-006
  6
Continuous
 62
     1
100
AcDbLine
 10
109.5406321448367
 20
-70.839051125368
 30
0.0
 11
109.5406321448367
 21
-62.51588047177378
 31
0.0
  0
LINE
  5
5E3
330
1F
100
AcDbEntity
  8
LAYER-006
  6
Continuous
 62
     1
100
AcDbLine
 10
111.2052662755553
 20
-74.75734423289049
 30
0.0
 11
229.5955072861598
 21
-74.75734423289049
 31
0.0
  0
TEXT
  5
5E4
330
1F
100
AcDbEntity
  8
LAYER-033
  6
Continuous
 62
     7
100
AcDbText
 10
-78.59006319201528
 20
-233.7017527596956
 30
0.0
 40
4.0
  1
４００／４４０Ｖ　５０／６０Ｈｚ　１１～１５ｋＷ
  7
STRING_H
 11
-78.59006319201528
 21
-231.7017527596956
 31
0.0
100
AcDbText
 73
     2
  0
TEXT
  5
5E5
330
1F
100
AcDbEntity
  8
LAYER-033
  6
Continuous
 62
     7
100
AcDbText
 10
-78.59006319201528
 20
-241.7872028606628
 30
0.0
 40
4.0
  1
質　　量　　２３㎏
  7
STRING_H
 11
-78.59006319201528
 21
-239.7872028606628
 31
0.0
100
AcDbText
 73
     2
  0
TEXT
  5
5E6
330
1F
100
AcDbEntity
  8
LAYER-033
  6
Continuous
 62
     7
100
AcDbText
 10
-78.59006319201528
 20
-225.6163026583913
 30
0.0
 40
4.0
  1
ＫＲ－１Ｕ(低　圧)
  7
STRING_H
 11
-78.59006319201528
 21
-223.6163026583913
 31
0.0
100
AcDbText
 73
     2
  0
TEXT
  5
5E7
330
1F
100
AcDbEntity
  8
LAYER-007
  6
Continuous
 62
     4
100
AcDbText
 10
-155.5327717736808
 20
22.74265734265734
 30
0.0
 40
15.0
  1
ＲＲＳ
  7
STRING_H
 72
     1
 11
-122.9077717736808
 21
30.24265734265734
 31
0.0
100
AcDbText
 73
     2
  0
TEXT
  5
5E8
330
1F
100
AcDbEntity
  8
LAYER-007
  6
Continuous
 62
     4
100
AcDbText
 10
-212.962650359
 20
-49.79138453738781
 30
0.0
 40
8.662499870017305
  1
R
 41
1.272727272727273
  7
STRING_H
 11
-212.962650359
 21
-49.79138453738781
 31
0.0
100
AcDbText
 73
     1
  0
TEXT
  5
5E9
330
1F
100
AcDbEntity
  8
LAYER-007
  6
Continuous
 62
     4
100
AcDbText
 10
-178.0036151493512
 20
-49.79138463538894
 30
0.0
 40
8.662499870017305
  1
U
 41
1.272727272727273
  7
STRING_H
 11
-178.0036151493512
 21
-49.79138463538894
 31
0.0
100
AcDbText
 73
     1
  0
TEXT
  5
5EA
330
1F
100
AcDbEntity
  8
LAYER-007
  6
Continuous
 62
     4
100
AcDbText
 10
-143.0426520971998
 20
-49.79138453738781
 30
0.0
 40
8.662499870017305
  1
S
 41
1.272727272727273
  7
STRING_H
 11
-143.0426520971998
 21
-49.79138453738781
 31
0.0
100
AcDbText
 73
     1
  0
TEXT
  5
5EB
330
1F
100
AcDbEntity
  8
LAYER-007
  6
Continuous
 62
     4
100
AcDbText
 10
-108.0836137380984
 20
-49.79138463538894
 30
0.0
 40
8.662499870017305
  1
V
 41
1.272727272727273
  7
STRING_H
 11
-108.0836137380984
 21
-49.79138463538894
 31
0.0
100
AcDbText
 73
     1
  0
TEXT
  5
5EC
330
1F
100
AcDbEntity
  8
LAYER-007
  6
Continuous
 62
     4
100
AcDbText
 10
-73.12265068608713
 20
-49.79138453738781
 30
0.0
 40
8.662499870017305
  1
T
 41
1.272727272727273
  7
STRING_H
 11
-73.12265068608713
 21
-49.79138453738781
 31
0.0
100
AcDbText
 73
     1
  0
TEXT
  5
5ED
330
1F
100
AcDbEntity
  8
LAYER-007
  6
Continuous
 62
     4
100
AcDbText
 10
-38.16360917684585
 20
-49.79138463538894
 30
0.0
 40
8.662499870017305
  1
W
 41
1.272727272727273
  7
STRING_H
 11
-38.16360917684585
 21
-49.79138463538894
 31
0.0
100
AcDbText
 73
     1
  0
DIMENSION
  5
5FF
330
1F
100
AcDbEntity
  8
LAYER-035
  6
Continuous
 62
     5
100
AcDbDimension
  2
*D02
 10
256.2296567069295
 20
-153.8502666230861
 30
0.0
 11
250.2692539449295
 21
-153.8502666230861
 31
0.0
 70
   129
  1
<>
 71
     0
 42
0.0
  3
DIO_DIMSTYLE
100
AcDbAlignedDimension
 13
266.2296567069295
 23
-134.7573426573426
 33
0.0
 14
256.2296567069295
 24
-134.7573426573426
 34
0.0
1001
ACAD
1000
DSTYLE
1002
{
1070
    41
1040
4.0
1070
    44
1040
1.0
1070
    42
1040
1.0
1070
     6
1000
_OPEN
1070
     7
1000
_OPEN
1070
   173
1070
     1
1070
   140
1040
4.0
1070
   178
1070
     5
1070
   147
1040
0.5
1002
}
  0
LEADER
  5
600
330
1F
100
AcDbEntity
  8
LAYER-035
  6
Continuous
 62
     5
100
AcDbLeader
  3
DIO_DIMSTYLE
 76
     3
 10
-221.2383820193087
 20
162.1939144467632
 30
0.0
 10
-242.851002175069
 20
143.4844820731199
 30
0.0
 10
-268.351002175069
 20
143.4844820731199
 30
0.0
1001
ACAD
1000
DSTYLE
1002
{
1070
    41
1040
2.0
1070
     6
1000
_OPEN
1070
   341
1005
5EE
1002
}
  0
TEXT
  5
601
330
1F
100
AcDbEntity
  8
LAYER-036
  6
Continuous
 62
     5
100
AcDbText
 10
-277.151002175069
 20
147.9844820731199
 30
0.0
 40
4.0
  1
４－φ９．５
  7
STRING_H
 72
     2
 11
-242.351002175069
 21
147.9844820731199
 31
0.0
100
AcDbText
 73
     1
  0
TEXT
  5
602
330
1F
100
AcDbEntity
  8
LAYER-036
  6
Continuous
 62
     5
100
AcDbText
 10
-261.751002175069
 20
143.9844820731199
 30
0.0
 40
4.0
  1
取付穴
  7
STRING_H
 72
     2
 11
-244.351002175069
 21
143.9844820731199
 31
0.0
100
AcDbText
 73
     1
  0
DIMENSION
  5
60C
330
1F
100
AcDbEntity
  8
LAYER-035
  6
Continuous
 62
     5
100
AcDbDimension
  2
*D13
 10
-27.90777177368082
 20
-153.8502666230861
 30
0.0
 11
-122.9077717736808
 21
-153.8502666230861
 31
0.0
 70
   128
  1
<>
 71
     0
 42
0.0
  3
DIO_DIMSTYLE
100
AcDbAlignedDimension
 13
-217.9077717736808
 23
-113.9697362768469
 33
0.0
 14
-27.90777177368082
 24
-113.9697362768469
 34
0.0
 50
180.0
100
AcDbRotatedDimension
1001
ACAD
1000
DSTYLE
1002
{
1070
    41
1040
4.0
1070
    44
1040
1.0
1070
    42
1040
1.0
1070
     6
1000
_OPEN
1070
     7
1000
_OPEN
1070
   173
1070
     1
1070
   140
1040
4.0
1070
   178
1070
     5
1070
   147
1040
0.5
1002
}
  0
DIMENSION
  5
616
330
1F
100
AcDbEntity
  8
LAYER-035
  6
Continuous
 62
     5
100
AcDbDimension
  2
*D24
 10
-7.907771773680821
 20
-167.7997298688704
 30
0.0
 11
-122.9077717736808
 21
-167.7997298688704
 31
0.0
 70
   128
  1
<>
 71
     0
 42
0.0
  3
DIO_DIMSTYLE
100
AcDbAlignedDimension
 13
-237.9077717736808
 23
-134.7573426573427
 33
0.0
 14
-7.907771773680821
 24
-134.7573426573427
 34
0.0
 50
180.0
100
AcDbRotatedDimension
1001
ACAD
1000
DSTYLE
1002
{
1070
    41
1040
4.0
1070
    44
1040
1.0
1070
    42
1040
1.0
1070
     6
1000
_OPEN
1070
     7
1000
_OPEN
1070
   173
1070
     1
1070
   140
1040
4.0
1070
   178
1070
     5
1070
   147
1040
0.5
1002
}
  0
DIMENSION
  5
620
330
1F
100
AcDbEntity
  8
LAYER-035
  6
Continuous
 62
     5
100
AcDbDimension
  2
*D35
 10
16.33248447355268
 20
-134.7573426573427
 30
0.0
 11
16.33248447355268
 21
-119.7573426573427
 31
0.0
 70
   128
  1
<>
 71
     0
 42
0.0
  3
DIO_DIMSTYLE
100
AcDbAlignedDimension
 13
-18.69537815417655
 23
-104.7573426573427
 33
0.0
 14
-7.907771773680821
 24
-134.7573426573427
 34
0.0
 50
90.0
100
AcDbRotatedDimension
1001
ACAD
1000
DSTYLE
1002
{
1070
    41
1040
4.0
1070
    44
1040
1.0
1070
    42
1040
1.0
1070
     6
1000
_OPEN
1070
     7
1000
_OPEN
1070
   173
1070
     1
1070
   140
1040
4.0
1070
   178
1070
     5
1070
   147
1040
0.5
1002
}
  0
DIMENSION
  5
62A
330
1F
100
AcDbEntity
  8
LAYER-035
  6
Continuous
 62
     5
100
AcDbDimension
  2
*D46
 10
16.33248447355268
 20
-104.7573426573427
 30
0.0
 11
16.33248447355268
 21
30.24265734265731
 31
0.0
 70
   128
  1
<>
 71
     0
 42
0.0
  3
DIO_DIMSTYLE
100
AcDbAlignedDimension
 13
-18.69537815368082
 23
165.2426573426574
 33
0.0
 14
-18.69537815417655
 24
-104.7573426573427
 34
0.0
 50
90.0
100
AcDbRotatedDimension
1001
ACAD
1000
DSTYLE
1002
{
1070
    41
1040
4.0
1070
    44
1040
1.0
1070
    42
1040
1.0
1070
     6
1000
_OPEN
1070
     7
1000
_OPEN
1070
   173
1070
     1
1070
   140
1040
4.0
1070
   178
1070
     5
1070
   147
1040
0.5
1002
}
  0
DIMENSION
  5
634
330
1F
100
AcDbEntity
  8
LAYER-035
  6
Continuous
 62
     5
100
AcDbDimension
  2
*D57
 10
16.33248447355268
 20
165.2426573426573
 30
0.0
 11
16.33248447355268
 21
240.2426573426573
 31
0.0
 70
   128
  1
<>
 71
     0
 42
0.0
  3
DIO_DIMSTYLE
100
AcDbAlignedDimension
 13
-7.907771773680821
 23
315.2426573426574
 33
0.0
 14
-18.69537815368082
 24
165.2426573426574
 34
0.0
 50
90.0
100
AcDbRotatedDimension
1001
ACAD
1000
DSTYLE
1002
{
1070
    41
1040
4.0
1070
    44
1040
1.0
1070
    42
1040
1.0
1070
     6
1000
_OPEN
1070
     7
1000
_OPEN
1070
   173
1070
     1
1070
   140
1040
4.0
1070
   178
1070
     5
1070
   147
1040
0.5
1002
}
  0
DIMENSION
  5
63E
330
1F
100
AcDbEntity
  8
LAYER-035
  6
Continuous
 62
     5
100
AcDbDimension
  2
*D68
 10
37.13124602670057
 20
-134.7573426573427
 30
0.0
 11
37.13124602670057
 21
90.24265734265734
 31
0.0
 70
   128
  1
<>
 71
     0
 42
0.0
  3
DIO_DIMSTYLE
100
AcDbAlignedDimension
 13
-7.907771773680821
 23
315.2426573426574
 33
0.0
 14
-7.907771773680821
 24
-134.7573426573427
 34
0.0
 50
90.0
100
AcDbRotatedDimension
1001
ACAD
1000
DSTYLE
1002
{
1070
    41
1040
4.0
1070
    44
1040
1.0
1070
    42
1040
1.0
1070
     6
1000
_OPEN
1070
     7
1000
_OPEN
1070
   173
1070
     1
1070
   140
1040
4.0
1070
   178
1070
     5
1070
   147
1040
0.5
1002
}
  0
DIMENSION
  5
648
330
1F
100
AcDbEntity
  8
LAYER-035
  6
Continuous
 62
     5
100
AcDbDimension
  2
*D79
 10
91.22965670692946
 20
171.5028552391769
 30
0.0
 11
173.7296567069295
 21
171.5028552391769
 31
0.0
 70
   128
  1
<>
 71
     0
 42
0.0
  3
DIO_DIMSTYLE
100
AcDbAlignedDimension
 13
256.2296567069295
 23
119.492658681873
 33
0.0
 14
91.22965670692946
 24
118.0072927653253
 34
0.0
100
AcDbRotatedDimension
1001
ACAD
1000
DSTYLE
1002
{
1070
    41
1040
4.0
1070
    44
1040
1.0
1070
    42
1040
1.0
1070
     6
1000
_OPEN
1070
     7
1000
_OPEN
1070
   173
1070
     1
1070
   140
1040
4.0
1070
   178
1070
     5
1070
   147
1040
0.5
1002
}
  0
DIMENSION
  5
652
330
1F
100
AcDbEntity
  8
LAYER-035
  6
Continuous
 62
     5
100
AcDbDimension
  2
*D810
 10
91.22965670692946
 20
-167.7997298688704
 30
0.0
 11
178.7296567069295
 21
-167.7997298688704
 31
0.0
 70
   128
  1
<>
 71
     0
 42
0.0
  3
DIO_DIMSTYLE
100
AcDbAlignedDimension
 13
266.2296567069295
 23
-134.7573426573426
 33
0.0
 14
91.22965670692946
 24
-57.52197807961736
 34
0.0
100
AcDbRotatedDimension
1001
ACAD
1000
DSTYLE
1002
{
1070
    41
1040
4.0
1070
    44
1040
1.0
1070
    42
1040
1.0
1070
     6
1000
_OPEN
1070
     7
1000
_OPEN
1070
   173
1070
     1
1070
   140
1040
4.0
1070
   178
1070
     5
1070
   147
1040
0.5
1002
}
  0
ENDSEC
  0
SECTION
  2
OBJECTS
  0
DICTIONARY
  5
C
330
0
100
AcDbDictionary
281
     1
  3
ACAD_GROUP
350
D
  3
ACAD_LAYOUT
350
1A
  3
ACAD_MLINESTYLE
350
17
  3
ACAD_PLOTSETTINGS
350
19
  3
ACAD_PLOTSTYLENAME
350
E
  0
DICTIONARY
  5
D
102
{ACAD_REACTORS
330
C
102
}
330
C
100
AcDbDictionary
281
     1
  0
DICTIONARY
  5
1A
102
{ACAD_REACTORS
330
C
102
}
330
C
100
AcDbDictionary
281
     1
  3
Model
350
22
  3
ﾚｲｱｳﾄ1
350
1E
  3
ﾚｲｱｳﾄ2
350
26
  0
DICTIONARY
  5
17
102
{ACAD_REACTORS
330
C
102
}
330
C
100
AcDbDictionary
281
     1
  3
Standard
350
18
  0
DICTIONARY
  5
19
102
{ACAD_REACTORS
330
C
102
}
330
C
100
AcDbDictionary
281
     1
  0
ACDBDICTIONARYWDFLT
  5
E
102
{ACAD_REACTORS
330
C
102
}
330
C
100
AcDbDictionary
281
     1
  3
Normal
350
F
100
AcDbDictionaryWithDefault
340
F
  0
LAYOUT
  5
22
102
{ACAD_REACTORS
330
1A
102
}
330
1A
100
AcDbPlotSettings
  1

  2
DWF ePlot.pc3
  4
ANSI_A_(8.50_x_11.00_Inches)
  6

 40
5.793749809265137
 41
17.79375076293945
 42
5.793746948242188
 43
17.79376220703125
 44
215.8999938964844
 45
279.3999938964844
 46
0.0
 47
0.0
 48
0.0
 49
0.0
140
0.0
141
0.0
142
1.0
143
39.26051453979704
 70
 11952
 72
     0
 73
     1
 74
     0
  7
acad.ctb
 75
     0
147
0.0254708837039396
148
-1793.922354682663
149
1.490346453088415
100
AcDbLayout
  1
Model
 70
     1
 71
     0
 10
-594.5
 20
-420.5
 11
594.5
 21
420.5
 12
0.0
 22
0.0
 32
0.0
 14
-594.5
 24
-420.5
 34
0.0
 15
594.5
 25
420.5
 35
0.0
146
0.0
 13
0.0
 23
0.0
 33
0.0
 16
1.0
 26
0.0
 36
0.0
 17
0.0
 27
1.0
 37
0.0
 76
     0
330
1F
  0
LAYOUT
  5
1E
102
{ACAD_REACTORS
330
1A
102
}
330
1A
100
AcDbPlotSettings
  1

  2
RICOH IPSiO NX700
  4

  6

 40
0.0
 41
0.0
 42
0.0
 43
0.0
 44
0.0
 45
0.0
 46
0.0
 47
0.0
 48
0.0
 49
0.0
140
0.0
141
0.0
142
1.0
143
1.0
 70
   688
 72
     0
 73
     0
 74
     5
  7
acad.ctb
 75
    16
147
1.0
148
0.0
149
0.0
100
AcDbLayout
  1
ﾚｲｱｳﾄ1
 70
     1
 71
     1
 10
-594.5
 20
-420.5
 11
594.5
 21
420.5
 12
0.0
 22
0.0
 32
0.0
 14
-594.5
 24
-420.5
 34
0.0
 15
594.5
 25
420.5
 35
0.0
146
0.0
 13
0.0
 23
0.0
 33
0.0
 16
1.0
 26
0.0
 36
0.0
 17
0.0
 27
1.0
 37
0.0
 76
     0
330
1B
  0
LAYOUT
  5
26
102
{ACAD_REACTORS
330
1A
102
}
330
1A
100
AcDbPlotSettings
  1

  2
RICOH IPSiO NX700
  4

  6

 40
0.0
 41
0.0
 42
0.0
 43
0.0
 44
0.0
 45
0.0
 46
0.0
 47
0.0
 48
0.0
 49
0.0
140
0.0
141
0.0
142
1.0
143
1.0
 70
   688
 72
     0
 73
     0
 74
     5
  7
acad.ctb
 75
    16
147
1.0
148
0.0
149
0.0
100
AcDbLayout
  1
ﾚｲｱｳﾄ2
 70
     1
 71
     2
 10
0.0
 20
0.0
 11
12.0
 21
9.0
 12
0.0
 22
0.0
 32
0.0
 14
0.0
 24
0.0
 34
0.0
 15
0.0
 25
0.0
 35
0.0
146
0.0
 13
0.0
 23
0.0
 33
0.0
 16
1.0
 26
0.0
 36
0.0
 17
0.0
 27
1.0
 37
0.0
 76
     0
330
23
  0
MLINESTYLE
  5
18
102
{ACAD_REACTORS
330
17
102
}
330
17
100
AcDbMlineStyle
  2
STANDARD
 70
     0
  3

 62
   256
 51
90.0
 52
90.0
 71
     2
 49
0.5
 62
   256
  6
BYLAYER
 49
-0.5
 62
   256
  6
BYLAYER
  0
ACDBPLACEHOLDER
  5
F
102
{ACAD_REACTORS
330
E
102
}
330
E
  0
ENDSEC
  0
EOF
