  0
SECTION
  2
HEADER
  9
$ACADVER
  1
AC1015
  9
$ACADMAINTVER
 70
     6
  9
$DWGCODEPAGE
  3
ANSI_932
  9
$INSBASE
 10
0.0
 20
0.0
 30
0.0
  9
$EXTMIN
 10
-1000.0
 20
-750.0
 30
0.0
  9
$EXTMAX
 10
1000.0
 20
750.0
 30
0.0
  9
$LIMMIN
 10
-1000.0
 20
-750.0
  9
$LIMMAX
 10
1000.0
 20
750.0
  9
$ORTHOMODE
 70
     0
  9
$REGENMODE
 70
     1
  9
$FILLMODE
 70
     1
  9
$QTEXTMODE
 70
     0
  9
$MIRRTEXT
 70
     1
  9
$LTSCALE
 40
4.0
  9
$ATTMODE
 70
     1
  9
$TEXTSIZE
 40
2.5
  9
$TRACEWID
 40
1.0
  9
$TEXTSTYLE
  7
Standard
  9
$CLAYER
  8
0
  9
$CELTYPE
  6
ByLayer
  9
$CECOLOR
 62
   256
  9
$CELTSCALE
 40
1.0
  9
$DISPSILH
 70
     0
  9
$DIMSCALE
 40
1.0
  9
$DIMASZ
 40
4.0
  9
$DIMEXO
 40
1.0
  9
$DIMDLI
 40
3.75
  9
$DIMRND
 40
0.1
  9
$DIMDLE
 40
0.0
  9
$DIMEXE
 40
1.0
  9
$DIMTP
 40
0.0
  9
$DIMTM
 40
0.0
  9
$DIMTXT
 40
2.5
  9
$DIMCEN
 40
2.5
  9
$DIMTSZ
 40
0.0
  9
$DIMTOL
 70
     0
  9
$DIMLIM
 70
     0
  9
$DIMTIH
 70
     0
  9
$DIMTOH
 70
     0
  9
$DIMSE1
 70
     0
  9
$DIMSE2
 70
     0
  9
$DIMTAD
 70
     1
  9
$DIMZIN
 70
     8
  9
$DIMBLK
  1

  9
$DIMASO
 70
     1
  9
$DIMSHO
 70
     1
  9
$DIMPOST
  1

  9
$DIMAPOST
  1

  9
$DIMALT
 70
     0
  9
$DIMALTD
 70
     3
  9
$DIMALTF
 40
0.03937007874016
  9
$DIMLFAC
 40
1.0
  9
$DIMTOFL
 70
     1
  9
$DIMTVP
 40
0.0
  9
$DIMTIX
 70
     0
  9
$DIMSOXD
 70
     0
  9
$DIMSAH
 70
     1
  9
$DIMBLK1
  1

  9
$DIMBLK2
  1

  9
$DIMSTYLE
  2
ISO-25
  9
$DIMCLRD
 70
     0
  9
$DIMCLRE
 70
     0
  9
$DIMCLRT
 70
     0
  9
$DIMTFAC
 40
1.0
  9
$DIMGAP
 40
0.5
  9
$DIMJUST
 70
     0
  9
$DIMSD1
 70
     0
  9
$DIMSD2
 70
     0
  9
$DIMTOLJ
 70
     0
  9
$DIMTZIN
 70
     8
  9
$DIMALTZ
 70
     0
  9
$DIMALTTZ
 70
     0
  9
$DIMUPT
 70
     1
  9
$DIMDEC
 70
     1
  9
$DIMTDEC
 70
     2
  9
$DIMALTU
 70
     2
  9
$DIMALTTD
 70
     3
  9
$DIMTXSTY
  7
Standard
  9
$DIMAUNIT
 70
     0
  9
$DIMADEC
 70
     1
  9
$DIMALTRND
 40
0.0
  9
$DIMAZIN
 70
     2
  9
$DIMDSEP
 70
    46
  9
$DIMATFIT
 70
     0
  9
$DIMFRAC
 70
     0
  9
$DIMLDRBLK
  1

  9
$DIMLUNIT
 70
     2
  9
$DIMLWD
 70
    -2
  9
$DIMLWE
 70
    -2
  9
$DIMTMOVE
 70
     0
  9
$LUNITS
 70
     2
  9
$LUPREC
 70
     4
  9
$SKETCHINC
 40
1.0
  9
$FILLETRAD
 40
10.0
  9
$AUNITS
 70
     0
  9
$AUPREC
 70
     0
  9
$MENU
  1
.
  9
$ELEVATION
 40
0.0
  9
$PELEVATION
 40
0.0
  9
$THICKNESS
 40
0.0
  9
$LIMCHECK
 70
     0
  9
$CHAMFERA
 40
10.0
  9
$CHAMFERB
 40
10.0
  9
$CHAMFERC
 40
20.0
  9
$CHAMFERD
 40
0.0
  9
$SKPOLY
 70
     0
  9
$TDCREATE
 40
2455091.0
  9
$TDUCREATE
 40
2451562.87528772
  9
$TDUPDATE
 40
2455505.0
  9
$TDUUPDATE
 40
2452026.917654526
  9
$TDINDWG
 40
0.0010008681
  9
$TDUSRTIMER
 40
0.0009680671
  9
$USRTIMER
 70
     1
  9
$ANGBASE
 50
0.0
  9
$ANGDIR
 70
     0
  9
$PDMODE
 70
     0
  9
$PDSIZE
 40
0.0
  9
$PLINEWID
 40
0.0
  9
$SPLFRAME
 70
     0
  9
$SPLINETYPE
 70
     6
  9
$SPLINESEGS
 70
     8
  9
$HANDSEED
  5
3CD
  9
$SURFTAB1
 70
     6
  9
$SURFTAB2
 70
     6
  9
$SURFTYPE
 70
     6
  9
$SURFU
 70
     6
  9
$SURFV
 70
     6
  9
$UCSBASE
  2

  9
$UCSNAME
  2

  9
$UCSORG
 10
0.0
 20
0.0
 30
0.0
  9
$UCSXDIR
 10
1.0
 20
0.0
 30
0.0
  9
$UCSYDIR
 10
0.0
 20
1.0
 30
0.0
  9
$UCSORTHOREF
  2

  9
$UCSORTHOVIEW
 70
     0
  9
$UCSORGTOP
 10
0.0
 20
0.0
 30
0.0
  9
$UCSORGBOTTOM
 10
0.0
 20
0.0
 30
0.0
  9
$UCSORGLEFT
 10
0.0
 20
0.0
 30
0.0
  9
$UCSORGRIGHT
 10
0.0
 20
0.0
 30
0.0
  9
$UCSORGFRONT
 10
0.0
 20
0.0
 30
0.0
  9
$UCSORGBACK
 10
0.0
 20
0.0
 30
0.0
  9
$PUCSBASE
  2

  9
$PUCSNAME
  2

  9
$PUCSORG
 10
0.0
 20
0.0
 30
0.0
  9
$PUCSXDIR
 10
1.0
 20
0.0
 30
0.0
  9
$PUCSYDIR
 10
0.0
 20
1.0
 30
0.0
  9
$PUCSORTHOREF
  2

  9
$PUCSORTHOVIEW
 70
     0
  9
$PUCSORGTOP
 10
0.0
 20
0.0
 30
0.0
  9
$PUCSORGBOTTOM
 10
0.0
 20
0.0
 30
0.0
  9
$PUCSORGLEFT
 10
0.0
 20
0.0
 30
0.0
  9
$PUCSORGRIGHT
 10
0.0
 20
0.0
 30
0.0
  9
$PUCSORGFRONT
 10
0.0
 20
0.0
 30
0.0
  9
$PUCSORGBACK
 10
0.0
 20
0.0
 30
0.0
  9
$USERI1
 70
     0
  9
$USERI2
 70
     0
  9
$USERI3
 70
     0
  9
$USERI4
 70
     0
  9
$USERI5
 70
     0
  9
$USERR1
 40
0.0
  9
$USERR2
 40
0.0
  9
$USERR3
 40
0.0
  9
$USERR4
 40
0.0
  9
$USERR5
 40
0.0
  9
$WORLDVIEW
 70
     1
  9
$SHADEDGE
 70
     3
  9
$SHADEDIF
 70
    70
  9
$TILEMODE
 70
     1
  9
$MAXACTVP
 70
    64
  9
$PINSBASE
 10
0.0
 20
0.0
 30
0.0
  9
$PLIMCHECK
 70
     0
  9
$PEXTMIN
 10
-1000.0
 20
-750.0
 30
0.0
  9
$PEXTMAX
 10
1000.0
 20
750.0
 30
0.0
  9
$PLIMMIN
 10
-1000.0
 20
-750.0
  9
$PLIMMAX
 10
1000.0
 20
750.0
  9
$UNITMODE
 70
     0
  9
$VISRETAIN
 70
     1
  9
$PLINEGEN
 70
     0
  9
$PSLTSCALE
 70
     1
  9
$TREEDEPTH
 70
  3020
  9
$CMLSTYLE
  2
Standard
  9
$CMLJUST
 70
     0
  9
$CMLSCALE
 40
20.0
  9
$PROXYGRAPHICS
 70
     1
  9
$MEASUREMENT
 70
     1
  9
$CELWEIGHT
370
    -1
  9
$ENDCAPS
280
     0
  9
$JOINSTYLE
280
     0
  9
$LWDISPLAY
290
     0
  9
$INSUNITS
 70
     4
  9
$HYPERLINKBASE
  1

  9
$STYLESHEET
  1

  9
$XEDIT
290
     1
  9
$CEPSNTYPE
380
     0
  9
$PSTYLEMODE
290
     1
  9
$FINGERPRINTGUID
  2
{B6423330-CE35-11D3-AA43-00E0292263AD}
  9
$VERSIONGUID
  2
{EAA0F794-BAE8-4B09-85E0-65C527BE2B8E}
  9
$EXTNAMES
290
     1
  9
$PSVPSCALE
 40
0.0
  9
$OLESTARTUP
290
     0
  0
ENDSEC
  0
SECTION
  2
CLASSES
  0
CLASS
  1
ACDBDICTIONARYWDFLT
  2
AcDbDictionaryWithDefault
  3
ObjectDBX Classes
 90
        0
280
     0
281
     0
  0
CLASS
  1
ACDBPLACEHOLDER
  2
AcDbPlaceHolder
  3
ObjectDBX Classes
 90
        0
280
     0
281
     0
  0
CLASS
  1
LAYOUT
  2
AcDbLayout
  3
ObjectDBX Classes
 90
        0
280
     0
281
     0
  0
ENDSEC
  0
SECTION
  2
TABLES
  0
TABLE
  2
VPORT
  5
8
330
0
100
AcDbSymbolTable
 70
     3
  0
VPORT
  5
30
330
8
100
AcDbSymbolTableRecord
100
AcDbViewportTableRecord
  2
*Active
 70
     0
 10
0.0
 20
0.0
 11
1.0
 21
1.0
 12
259.0560661764706
 22
148.5
 13
0.0
 23
0.0
 14
10.0
 24
10.0
 15
10.0
 25
10.0
 16
0.0
 26
0.0
 36
1.0
 17
0.0
 27
0.0
 37
0.0
 40
297.1173501144164
 41
1.268382352941176
 42
50.0
 43
0.0
 44
0.0
 50
0.0
 51
0.0
 71
     0
 72
   100
 73
     1
 74
     3
 75
     0
 76
     0
 77
     0
 78
     0
281
     0
 65
     1
110
0.0
120
0.0
130
0.0
111
1.0
121
0.0
131
0.0
112
0.0
122
1.0
132
0.0
 79
     0
146
0.0
  0
ENDTAB
  0
TABLE
  2
LTYPE
  5
5
330
0
100
AcDbSymbolTable
 70
    26
  0
LTYPE
  5
14
330
5
100
AcDbSymbolTableRecord
100
AcDbLinetypeTableRecord
  2
ByBlock
 70
     0
  3

 72
    65
 73
     0
 40
0.0
  0
LTYPE
  5
15
330
5
100
AcDbSymbolTableRecord
100
AcDbLinetypeTableRecord
  2
ByLayer
 70
     0
  3

 72
    65
 73
     0
 40
0.0
  0
LTYPE
  5
16
330
5
100
AcDbSymbolTableRecord
100
AcDbLinetypeTableRecord
  2
Continuous
 70
     0
  3
Solid line
 72
    65
 73
     0
 40
0.0
  0
LTYPE
  5
37
330
5
100
AcDbSymbolTableRecord
100
AcDbLinetypeTableRecord
  2
BORDER
 70
     0
  3
 __ __ . __ __ . __ __ . __ __ . __ __ . __ __
 72
    65
 73
     6
 40
1.75
 49
0.5
 74
     0
 49
-0.25
 74
     0
 49
0.5
 74
     0
 49
-0.25
 74
     0
 49
0.0
 74
     0
 49
-0.25
 74
     0
  0
LTYPE
  5
38
330
5
100
AcDbSymbolTableRecord
100
AcDbLinetypeTableRecord
  2
BORDER2
 70
     0
  3
__.__.__.__.__.__.__.__.__.__.__.__.__.__.__
 72
    65
 73
     6
 40
0.875
 49
0.25
 74
     0
 49
-0.125
 74
     0
 49
0.25
 74
     0
 49
-0.125
 74
     0
 49
0.0
 74
     0
 49
-0.125
 74
     0
  0
LTYPE
  5
39
330
5
100
AcDbSymbolTableRecord
100
AcDbLinetypeTableRecord
  2
BORDERX2
 70
     0
  3
____  ____  .  ____  ____  .  ____  ____  .
 72
    65
 73
     6
 40
3.5
 49
1.0
 74
     0
 49
-0.5
 74
     0
 49
1.0
 74
     0
 49
-0.5
 74
     0
 49
0.0
 74
     0
 49
-0.5
 74
     0
  0
LTYPE
  5
3A
330
5
100
AcDbSymbolTableRecord
100
AcDbLinetypeTableRecord
  2
CENTER
 70
     0
  3
____ _ ____ _ ____ _ ____ _ ____ _ ____ _ ____
 72
    65
 73
     4
 40
2.0
 49
1.25
 74
     0
 49
-0.25
 74
     0
 49
0.25
 74
     0
 49
-0.25
 74
     0
  0
LTYPE
  5
3B
330
5
100
AcDbSymbolTableRecord
100
AcDbLinetypeTableRecord
  2
CENTER2
 70
     0
  3
___ _ ___ _ ___ _ ___ _ ___ _ ___ _ ___ _ ___ 
 72
    65
 73
     4
 40
1.125
 49
0.75
 74
     0
 49
-0.125
 74
     0
 49
0.125
 74
     0
 49
-0.125
 74
     0
  0
LTYPE
  5
3C
330
5
100
AcDbSymbolTableRecord
100
AcDbLinetypeTableRecord
  2
CENTERX2
 70
     0
  3
________  __  ________  __  ________  __
 72
    65
 73
     4
 40
4.0
 49
2.5
 74
     0
 49
-0.5
 74
     0
 49
0.5
 74
     0
 49
-0.5
 74
     0
  0
LTYPE
  5
3D
330
5
100
AcDbSymbolTableRecord
100
AcDbLinetypeTableRecord
  2
DASHDOT
 70
     0
  3
__ . __ . __ . __ . __ . __ . __ . __ . __ .
 72
    65
 73
     4
 40
1.0
 49
0.5
 74
     0
 49
-0.25
 74
     0
 49
0.0
 74
     0
 49
-0.25
 74
     0
  0
LTYPE
  5
3E
330
5
100
AcDbSymbolTableRecord
100
AcDbLinetypeTableRecord
  2
DASHDOT2
 70
     0
  3
_._._._._._._._._._._._._._._._._._._._._._._.
 72
    65
 73
     4
 40
0.5
 49
0.25
 74
     0
 49
-0.125
 74
     0
 49
0.0
 74
     0
 49
-0.125
 74
     0
  0
LTYPE
  5
3F
330
5
100
AcDbSymbolTableRecord
100
AcDbLinetypeTableRecord
  2
DASHDOTX2
 70
     0
  3
____  .  ____  .  ____  .  ____  .  ____  .
 72
    65
 73
     4
 40
2.0
 49
1.0
 74
     0
 49
-0.5
 74
     0
 49
0.0
 74
     0
 49
-0.5
 74
     0
  0
LTYPE
  5
40
330
5
100
AcDbSymbolTableRecord
100
AcDbLinetypeTableRecord
  2
DASHED
 70
     0
  3
__ __ __ __ __ __ __ __ __ __ __ __ __ __ __
 72
    65
 73
     2
 40
0.75
 49
0.5
 74
     0
 49
-0.25
 74
     0
  0
LTYPE
  5
41
330
5
100
AcDbSymbolTableRecord
100
AcDbLinetypeTableRecord
  2
DASHED2
 70
     0
  3
_ _ _ _ _ _ _ _ _ _ _ _ _ _ _ _ _ _ _ _ _ _ _
 72
    65
 73
     2
 40
0.375
 49
0.25
 74
     0
 49
-0.125
 74
     0
  0
LTYPE
  5
42
330
5
100
AcDbSymbolTableRecord
100
AcDbLinetypeTableRecord
  2
DASHEDX2
 70
     0
  3
____  ____  ____  ____  ____  ____  ____  ____
 72
    65
 73
     2
 40
1.5
 49
1.0
 74
     0
 49
-0.5
 74
     0
  0
LTYPE
  5
43
330
5
100
AcDbSymbolTableRecord
100
AcDbLinetypeTableRecord
  2
DIVIDE
 70
     0
  3
____ . . ____ . . ____ . . ____ . . ____ . .
 72
    65
 73
     6
 40
1.25
 49
0.5
 74
     0
 49
-0.25
 74
     0
 49
0.0
 74
     0
 49
-0.25
 74
     0
 49
0.0
 74
     0
 49
-0.25
 74
     0
  0
LTYPE
  5
44
330
5
100
AcDbSymbolTableRecord
100
AcDbLinetypeTableRecord
  2
DIVIDE2
 70
     0
  3
__..__..__..__..__..__..__..__..__..__..__..__
 72
    65
 73
     6
 40
0.625
 49
0.25
 74
     0
 49
-0.125
 74
     0
 49
0.0
 74
     0
 49
-0.125
 74
     0
 49
0.0
 74
     0
 49
-0.125
 74
     0
  0
LTYPE
  5
45
330
5
100
AcDbSymbolTableRecord
100
AcDbLinetypeTableRecord
  2
DIVIDEX2
 70
     0
  3
________  .  .  ________  .  .  ________  .  .
 72
    65
 73
     6
 40
2.5
 49
1.0
 74
     0
 49
-0.5
 74
     0
 49
0.0
 74
     0
 49
-0.5
 74
     0
 49
0.0
 74
     0
 49
-0.5
 74
     0
  0
LTYPE
  5
46
330
5
100
AcDbSymbolTableRecord
100
AcDbLinetypeTableRecord
  2
DOT
 70
     0
  3
. . . . . . . . . . . . . . . . . . . . . . .
 72
    65
 73
     2
 40
0.25
 49
0.0
 74
     0
 49
-0.25
 74
     0
  0
LTYPE
  5
47
330
5
100
AcDbSymbolTableRecord
100
AcDbLinetypeTableRecord
  2
DOT2
 70
     0
  3
..............................................
 72
    65
 73
     2
 40
0.125
 49
0.0
 74
     0
 49
-0.125
 74
     0
  0
LTYPE
  5
48
330
5
100
AcDbSymbolTableRecord
100
AcDbLinetypeTableRecord
  2
DOTX2
 70
     0
  3
.  .  .  .  .  .  .  .  .  .  .  .  .  .  .  .
 72
    65
 73
     2
 40
0.5
 49
0.0
 74
     0
 49
-0.5
 74
     0
  0
LTYPE
  5
49
330
5
100
AcDbSymbolTableRecord
100
AcDbLinetypeTableRecord
  2
HIDDEN
 70
     0
  3
__ __ __ __ __ __ __ __ __ __ __ __ __ __ __
 72
    65
 73
     2
 40
0.375
 49
0.25
 74
     0
 49
-0.125
 74
     0
  0
LTYPE
  5
4A
330
5
100
AcDbSymbolTableRecord
100
AcDbLinetypeTableRecord
  2
HIDDEN2
 70
     0
  3
_ _ _ _ _ _ _ _ _ _ _ _ _ _ _ _ _ _ _ _ _ _ _
 72
    65
 73
     2
 40
0.1875
 49
0.125
 74
     0
 49
-0.0625
 74
     0
  0
LTYPE
  5
4B
330
5
100
AcDbSymbolTableRecord
100
AcDbLinetypeTableRecord
  2
HIDDENX2
 70
     0
  3
____ ____ ____ ____ ____ ____ ____ ____ ____
 72
    65
 73
     2
 40
0.75
 49
0.5
 74
     0
 49
-0.25
 74
     0
  0
LTYPE
  5
4C
330
5
100
AcDbSymbolTableRecord
100
AcDbLinetypeTableRecord
  2
PHANTOM
 70
     0
  3
______  __  __  ______  __  __  ______  __
 72
    65
 73
     6
 40
2.5
 49
1.25
 74
     0
 49
-0.25
 74
     0
 49
0.25
 74
     0
 49
-0.25
 74
     0
 49
0.25
 74
     0
 49
-0.25
 74
     0
  0
LTYPE
  5
4D
330
5
100
AcDbSymbolTableRecord
100
AcDbLinetypeTableRecord
  2
PHANTOM2
 70
     0
  3
___ _ _ ___ _ _ ___ _ _ ___ _ _ ___ _ _ ___ _
 72
    65
 73
     6
 40
1.25
 49
0.625
 74
     0
 49
-0.125
 74
     0
 49
0.125
 74
     0
 49
-0.125
 74
     0
 49
0.125
 74
     0
 49
-0.125
 74
     0
  0
LTYPE
  5
4E
330
5
100
AcDbSymbolTableRecord
100
AcDbLinetypeTableRecord
  2
PHANTOMX2
 70
     0
  3
____________    ____    ____    ____________
 72
    65
 73
     6
 40
5.0
 49
2.5
 74
     0
 49
-0.5
 74
     0
 49
0.5
 74
     0
 49
-0.5
 74
     0
 49
0.5
 74
     0
 49
-0.5
 74
     0
  0
LTYPE
  5
4F
330
5
100
AcDbSymbolTableRecord
100
AcDbLinetypeTableRecord
  2
CONTINUOUS2
 70
     0
  3
Solid line
 72
    65
 73
     0
 40
0.0
  0
ENDTAB
  0
TABLE
  2
LAYER
  5
2
330
0
100
AcDbSymbolTable
 70
   258
  0
LAYER
  5
10
330
2
100
AcDbSymbolTableRecord
100
AcDbLayerTableRecord
  2
0
 70
     0
 62
     7
  6
Continuous
370
    -3
390
F
  0
LAYER
  5
50
330
2
100
AcDbSymbolTableRecord
100
AcDbLayerTableRecord
  2
LAYER-001
 70
     0
 62
     7
  6
Continuous
370
    -3
390
F
  0
LAYER
  5
51
330
2
100
AcDbSymbolTableRecord
100
AcDbLayerTableRecord
  2
LAYER-002
 70
     0
 62
     7
  6
Continuous
370
    -3
390
F
  0
LAYER
  5
52
330
2
100
AcDbSymbolTableRecord
100
AcDbLayerTableRecord
  2
LAYER-003
 70
     0
 62
     7
  6
Continuous
370
    -3
390
F
  0
LAYER
  5
53
330
2
100
AcDbSymbolTableRecord
100
AcDbLayerTableRecord
  2
LAYER-004
 70
     0
 62
     7
  6
Continuous
370
    -3
390
F
  0
LAYER
  5
54
330
2
100
AcDbSymbolTableRecord
100
AcDbLayerTableRecord
  2
LAYER-005
 70
     0
 62
     7
  6
Continuous
370
    -3
390
F
  0
LAYER
  5
55
330
2
100
AcDbSymbolTableRecord
100
AcDbLayerTableRecord
  2
LAYER-006
 70
     0
 62
     7
  6
Continuous
370
    -3
390
F
  0
LAYER
  5
56
330
2
100
AcDbSymbolTableRecord
100
AcDbLayerTableRecord
  2
LAYER-007
 70
     0
 62
     7
  6
Continuous
370
    -3
390
F
  0
LAYER
  5
57
330
2
100
AcDbSymbolTableRecord
100
AcDbLayerTableRecord
  2
LAYER-008
 70
     0
 62
     7
  6
Continuous
370
    -3
390
F
  0
LAYER
  5
58
330
2
100
AcDbSymbolTableRecord
100
AcDbLayerTableRecord
  2
LAYER-009
 70
     0
 62
     7
  6
Continuous
370
    -3
390
F
  0
LAYER
  5
59
330
2
100
AcDbSymbolTableRecord
100
AcDbLayerTableRecord
  2
LAYER-010
 70
     0
 62
     7
  6
Continuous
370
    -3
390
F
  0
LAYER
  5
5A
330
2
100
AcDbSymbolTableRecord
100
AcDbLayerTableRecord
  2
LAYER-011
 70
     0
 62
     7
  6
Continuous
370
    -3
390
F
  0
LAYER
  5
5B
330
2
100
AcDbSymbolTableRecord
100
AcDbLayerTableRecord
  2
LAYER-012
 70
     0
 62
     7
  6
Continuous
370
    -3
390
F
  0
LAYER
  5
5C
330
2
100
AcDbSymbolTableRecord
100
AcDbLayerTableRecord
  2
LAYER-013
 70
     0
 62
     7
  6
Continuous
370
    -3
390
F
  0
LAYER
  5
5D
330
2
100
AcDbSymbolTableRecord
100
AcDbLayerTableRecord
  2
LAYER-014
 70
     0
 62
     7
  6
Continuous
370
    -3
390
F
  0
LAYER
  5
5E
330
2
100
AcDbSymbolTableRecord
100
AcDbLayerTableRecord
  2
LAYER-015
 70
     0
 62
    -7
  6
Continuous
370
    -3
390
F
  0
LAYER
  5
5F
330
2
100
AcDbSymbolTableRecord
100
AcDbLayerTableRecord
  2
LAYER-016
 70
     0
 62
     4
  6
Continuous
370
    -3
390
F
  0
LAYER
  5
60
330
2
100
AcDbSymbolTableRecord
100
AcDbLayerTableRecord
  2
LAYER-017
 70
     0
 62
     7
  6
Continuous
370
    -3
390
F
  0
LAYER
  5
61
330
2
100
AcDbSymbolTableRecord
100
AcDbLayerTableRecord
  2
LAYER-018
 70
     0
 62
     2
  6
Continuous
370
    -3
390
F
  0
LAYER
  5
62
330
2
100
AcDbSymbolTableRecord
100
AcDbLayerTableRecord
  2
LAYER-019
 70
     0
 62
     3
  6
Continuous
370
    -3
390
F
  0
LAYER
  5
63
330
2
100
AcDbSymbolTableRecord
100
AcDbLayerTableRecord
  2
LAYER-020
 70
     0
 62
     2
  6
Continuous
370
    -3
390
F
  0
LAYER
  5
64
330
2
100
AcDbSymbolTableRecord
100
AcDbLayerTableRecord
  2
LAYER-021
 70
     0
 62
     7
  6
Continuous
370
    -3
390
F
  0
LAYER
  5
65
330
2
100
AcDbSymbolTableRecord
100
AcDbLayerTableRecord
  2
LAYER-022
 70
     0
 62
     4
  6
Continuous
370
    -3
390
F
  0
LAYER
  5
66
330
2
100
AcDbSymbolTableRecord
100
AcDbLayerTableRecord
  2
LAYER-023
 70
     0
 62
     4
  6
Continuous
370
    -3
390
F
  0
LAYER
  5
67
330
2
100
AcDbSymbolTableRecord
100
AcDbLayerTableRecord
  2
LAYER-024
 70
     0
 62
     7
  6
Continuous
370
    -3
390
F
  0
LAYER
  5
68
330
2
100
AcDbSymbolTableRecord
100
AcDbLayerTableRecord
  2
LAYER-025
 70
     0
 62
     7
  6
Continuous
370
    -3
390
F
  0
LAYER
  5
69
330
2
100
AcDbSymbolTableRecord
100
AcDbLayerTableRecord
  2
LAYER-026
 70
     0
 62
    -7
  6
Continuous
370
    -3
390
F
  0
LAYER
  5
6A
330
2
100
AcDbSymbolTableRecord
100
AcDbLayerTableRecord
  2
LAYER-027
 70
     0
 62
     7
  6
Continuous
370
    -3
390
F
  0
LAYER
  5
6B
330
2
100
AcDbSymbolTableRecord
100
AcDbLayerTableRecord
  2
LAYER-028
 70
     0
 62
     7
  6
Continuous
370
    -3
390
F
  0
LAYER
  5
6C
330
2
100
AcDbSymbolTableRecord
100
AcDbLayerTableRecord
  2
LAYER-029
 70
     0
 62
     7
  6
Continuous
370
    -3
390
F
  0
LAYER
  5
6D
330
2
100
AcDbSymbolTableRecord
100
AcDbLayerTableRecord
  2
LAYER-030
 70
     0
 62
     2
  6
Continuous
370
    -3
390
F
  0
LAYER
  5
6E
330
2
100
AcDbSymbolTableRecord
100
AcDbLayerTableRecord
  2
LAYER-031
 70
     0
 62
     7
  6
Continuous
370
    -3
390
F
  0
LAYER
  5
6F
330
2
100
AcDbSymbolTableRecord
100
AcDbLayerTableRecord
  2
LAYER-032
 70
     0
 62
     2
  6
Continuous
370
    -3
390
F
  0
LAYER
  5
70
330
2
100
AcDbSymbolTableRecord
100
AcDbLayerTableRecord
  2
LAYER-033
 70
     0
 62
     7
  6
Continuous
370
    -3
390
F
  0
LAYER
  5
71
330
2
100
AcDbSymbolTableRecord
100
AcDbLayerTableRecord
  2
LAYER-034
 70
     0
 62
     7
  6
Continuous
370
    -3
390
F
  0
LAYER
  5
72
330
2
100
AcDbSymbolTableRecord
100
AcDbLayerTableRecord
  2
LAYER-035
 70
     0
 62
     3
  6
Continuous
370
    -3
390
F
  0
LAYER
  5
73
330
2
100
AcDbSymbolTableRecord
100
AcDbLayerTableRecord
  2
LAYER-036
 70
     0
 62
     2
  6
Continuous
370
    -3
390
F
  0
LAYER
  5
74
330
2
100
AcDbSymbolTableRecord
100
AcDbLayerTableRecord
  2
LAYER-037
 70
     0
 62
     7
  6
Continuous
370
    -3
390
F
  0
LAYER
  5
75
330
2
100
AcDbSymbolTableRecord
100
AcDbLayerTableRecord
  2
LAYER-038
 70
     0
 62
     7
  6
Continuous
370
    -3
390
F
  0
LAYER
  5
76
330
2
100
AcDbSymbolTableRecord
100
AcDbLayerTableRecord
  2
LAYER-039
 70
     0
 62
     7
  6
Continuous
370
    -3
390
F
  0
LAYER
  5
77
330
2
100
AcDbSymbolTableRecord
100
AcDbLayerTableRecord
  2
LAYER-040
 70
     0
 62
     7
  6
Continuous
370
    -3
390
F
  0
LAYER
  5
78
330
2
100
AcDbSymbolTableRecord
100
AcDbLayerTableRecord
  2
LAYER-041
 70
     0
 62
     7
  6
Continuous
370
    -3
390
F
  0
LAYER
  5
79
330
2
100
AcDbSymbolTableRecord
100
AcDbLayerTableRecord
  2
LAYER-042
 70
     0
 62
     7
  6
Continuous
370
    -3
390
F
  0
LAYER
  5
7A
330
2
100
AcDbSymbolTableRecord
100
AcDbLayerTableRecord
  2
LAYER-043
 70
     0
 62
     7
  6
Continuous
370
    -3
390
F
  0
LAYER
  5
7B
330
2
100
AcDbSymbolTableRecord
100
AcDbLayerTableRecord
  2
LAYER-044
 70
     0
 62
     7
  6
Continuous
370
    -3
390
F
  0
LAYER
  5
7C
330
2
100
AcDbSymbolTableRecord
100
AcDbLayerTableRecord
  2
LAYER-045
 70
     0
 62
     7
  6
Continuous
370
    -3
390
F
  0
LAYER
  5
7D
330
2
100
AcDbSymbolTableRecord
100
AcDbLayerTableRecord
  2
LAYER-046
 70
     0
 62
     7
  6
Continuous
370
    -3
390
F
  0
LAYER
  5
7E
330
2
100
AcDbSymbolTableRecord
100
AcDbLayerTableRecord
  2
LAYER-047
 70
     0
 62
     7
  6
Continuous
370
    -3
390
F
  0
LAYER
  5
7F
330
2
100
AcDbSymbolTableRecord
100
AcDbLayerTableRecord
  2
LAYER-048
 70
     0
 62
     2
  6
Continuous
370
    -3
390
F
  0
LAYER
  5
80
330
2
100
AcDbSymbolTableRecord
100
AcDbLayerTableRecord
  2
LAYER-049
 70
     0
 62
     3
  6
Continuous
370
    -3
390
F
  0
LAYER
  5
81
330
2
100
AcDbSymbolTableRecord
100
AcDbLayerTableRecord
  2
LAYER-050
 70
     0
 62
     7
  6
Continuous
370
    -3
390
F
  0
LAYER
  5
82
330
2
100
AcDbSymbolTableRecord
100
AcDbLayerTableRecord
  2
LAYER-051
 70
     0
 62
     2
  6
Continuous
370
    -3
390
F
  0
LAYER
  5
83
330
2
100
AcDbSymbolTableRecord
100
AcDbLayerTableRecord
  2
LAYER-052
 70
     0
 62
     7
  6
Continuous
370
    -3
390
F
  0
LAYER
  5
84
330
2
100
AcDbSymbolTableRecord
100
AcDbLayerTableRecord
  2
LAYER-053
 70
     0
 62
     7
  6
Continuous
370
    -3
390
F
  0
LAYER
  5
85
330
2
100
AcDbSymbolTableRecord
100
AcDbLayerTableRecord
  2
LAYER-054
 70
     0
 62
     7
  6
Continuous
370
    -3
390
F
  0
LAYER
  5
86
330
2
100
AcDbSymbolTableRecord
100
AcDbLayerTableRecord
  2
LAYER-055
 70
     0
 62
     7
  6
Continuous
370
    -3
390
F
  0
LAYER
  5
87
330
2
100
AcDbSymbolTableRecord
100
AcDbLayerTableRecord
  2
LAYER-056
 70
     0
 62
     7
  6
Continuous
370
    -3
390
F
  0
LAYER
  5
88
330
2
100
AcDbSymbolTableRecord
100
AcDbLayerTableRecord
  2
LAYER-057
 70
     0
 62
     7
  6
Continuous
370
    -3
390
F
  0
LAYER
  5
89
330
2
100
AcDbSymbolTableRecord
100
AcDbLayerTableRecord
  2
LAYER-058
 70
     0
 62
     7
  6
Continuous
370
    -3
390
F
  0
LAYER
  5
8A
330
2
100
AcDbSymbolTableRecord
100
AcDbLayerTableRecord
  2
LAYER-059
 70
     0
 62
     7
  6
Continuous
370
    -3
390
F
  0
LAYER
  5
8B
330
2
100
AcDbSymbolTableRecord
100
AcDbLayerTableRecord
  2
LAYER-060
 70
     0
 62
     7
  6
Continuous
370
    -3
390
F
  0
LAYER
  5
8C
330
2
100
AcDbSymbolTableRecord
100
AcDbLayerTableRecord
  2
LAYER-061
 70
     0
 62
     7
  6
Continuous
370
    -3
390
F
  0
LAYER
  5
8D
330
2
100
AcDbSymbolTableRecord
100
AcDbLayerTableRecord
  2
LAYER-062
 70
     0
 62
     7
  6
Continuous
370
    -3
390
F
  0
LAYER
  5
8E
330
2
100
AcDbSymbolTableRecord
100
AcDbLayerTableRecord
  2
LAYER-063
 70
     0
 62
     7
  6
Continuous
370
    -3
390
F
  0
LAYER
  5
8F
330
2
100
AcDbSymbolTableRecord
100
AcDbLayerTableRecord
  2
LAYER-064
 70
     0
 62
     2
  6
Continuous
370
    -3
390
F
  0
LAYER
  5
90
330
2
100
AcDbSymbolTableRecord
100
AcDbLayerTableRecord
  2
LAYER-065
 70
     0
 62
     7
  6
Continuous
370
    -3
390
F
  0
LAYER
  5
91
330
2
100
AcDbSymbolTableRecord
100
AcDbLayerTableRecord
  2
LAYER-066
 70
     0
 62
     2
  6
Continuous
370
    -3
390
F
  0
LAYER
  5
92
330
2
100
AcDbSymbolTableRecord
100
AcDbLayerTableRecord
  2
LAYER-067
 70
     0
 62
     2
  6
Continuous
370
    -3
390
F
  0
LAYER
  5
93
330
2
100
AcDbSymbolTableRecord
100
AcDbLayerTableRecord
  2
LAYER-068
 70
     0
 62
     7
  6
Continuous
370
    -3
390
F
  0
LAYER
  5
94
330
2
100
AcDbSymbolTableRecord
100
AcDbLayerTableRecord
  2
LAYER-069
 70
     0
 62
     7
  6
Continuous
370
    -3
390
F
  0
LAYER
  5
95
330
2
100
AcDbSymbolTableRecord
100
AcDbLayerTableRecord
  2
LAYER-070
 70
     0
 62
     7
  6
Continuous
370
    -3
390
F
  0
LAYER
  5
96
330
2
100
AcDbSymbolTableRecord
100
AcDbLayerTableRecord
  2
LAYER-071
 70
     0
 62
     7
  6
Continuous
370
    -3
390
F
  0
LAYER
  5
97
330
2
100
AcDbSymbolTableRecord
100
AcDbLayerTableRecord
  2
LAYER-072
 70
     0
 62
     7
  6
Continuous
370
    -3
390
F
  0
LAYER
  5
98
330
2
100
AcDbSymbolTableRecord
100
AcDbLayerTableRecord
  2
LAYER-073
 70
     0
 62
     7
  6
Continuous
370
    -3
390
F
  0
LAYER
  5
99
330
2
100
AcDbSymbolTableRecord
100
AcDbLayerTableRecord
  2
LAYER-074
 70
     0
 62
     7
  6
Continuous
370
    -3
390
F
  0
LAYER
  5
9A
330
2
100
AcDbSymbolTableRecord
100
AcDbLayerTableRecord
  2
LAYER-075
 70
     0
 62
     7
  6
Continuous
370
    -3
390
F
  0
LAYER
  5
9B
330
2
100
AcDbSymbolTableRecord
100
AcDbLayerTableRecord
  2
LAYER-076
 70
     0
 62
     7
  6
Continuous
370
    -3
390
F
  0
LAYER
  5
9C
330
2
100
AcDbSymbolTableRecord
100
AcDbLayerTableRecord
  2
LAYER-077
 70
     0
 62
     7
  6
Continuous
370
    -3
390
F
  0
LAYER
  5
9D
330
2
100
AcDbSymbolTableRecord
100
AcDbLayerTableRecord
  2
LAYER-078
 70
     0
 62
     7
  6
Continuous
370
    -3
390
F
  0
LAYER
  5
9E
330
2
100
AcDbSymbolTableRecord
100
AcDbLayerTableRecord
  2
LAYER-079
 70
     0
 62
     7
  6
Continuous
370
    -3
390
F
  0
LAYER
  5
9F
330
2
100
AcDbSymbolTableRecord
100
AcDbLayerTableRecord
  2
LAYER-080
 70
     0
 62
     2
  6
Continuous
370
    -3
390
F
  0
LAYER
  5
A0
330
2
100
AcDbSymbolTableRecord
100
AcDbLayerTableRecord
  2
LAYER-081
 70
     0
 62
     7
  6
Continuous
370
    -3
390
F
  0
LAYER
  5
A1
330
2
100
AcDbSymbolTableRecord
100
AcDbLayerTableRecord
  2
LAYER-082
 70
     0
 62
     7
  6
Continuous
370
    -3
390
F
  0
LAYER
  5
A2
330
2
100
AcDbSymbolTableRecord
100
AcDbLayerTableRecord
  2
LAYER-083
 70
     0
 62
     7
  6
Continuous
370
    -3
390
F
  0
LAYER
  5
A3
330
2
100
AcDbSymbolTableRecord
100
AcDbLayerTableRecord
  2
LAYER-084
 70
     0
 62
     7
  6
Continuous
370
    -3
390
F
  0
LAYER
  5
A4
330
2
100
AcDbSymbolTableRecord
100
AcDbLayerTableRecord
  2
LAYER-085
 70
     0
 62
     7
  6
Continuous
370
    -3
390
F
  0
LAYER
  5
A5
330
2
100
AcDbSymbolTableRecord
100
AcDbLayerTableRecord
  2
LAYER-086
 70
     0
 62
     7
  6
Continuous
370
    -3
390
F
  0
LAYER
  5
A6
330
2
100
AcDbSymbolTableRecord
100
AcDbLayerTableRecord
  2
LAYER-087
 70
     0
 62
     7
  6
Continuous
370
    -3
390
F
  0
LAYER
  5
A7
330
2
100
AcDbSymbolTableRecord
100
AcDbLayerTableRecord
  2
LAYER-088
 70
     0
 62
     7
  6
Continuous
370
    -3
390
F
  0
LAYER
  5
A8
330
2
100
AcDbSymbolTableRecord
100
AcDbLayerTableRecord
  2
LAYER-089
 70
     0
 62
     7
  6
Continuous
370
    -3
390
F
  0
LAYER
  5
A9
330
2
100
AcDbSymbolTableRecord
100
AcDbLayerTableRecord
  2
LAYER-090
 70
     0
 62
     7
  6
Continuous
370
    -3
390
F
  0
LAYER
  5
AA
330
2
100
AcDbSymbolTableRecord
100
AcDbLayerTableRecord
  2
LAYER-091
 70
     0
 62
     7
  6
Continuous
370
    -3
390
F
  0
LAYER
  5
AB
330
2
100
AcDbSymbolTableRecord
100
AcDbLayerTableRecord
  2
LAYER-092
 70
     0
 62
     7
  6
Continuous
370
    -3
390
F
  0
LAYER
  5
AC
330
2
100
AcDbSymbolTableRecord
100
AcDbLayerTableRecord
  2
LAYER-093
 70
     0
 62
     7
  6
Continuous
370
    -3
390
F
  0
LAYER
  5
AD
330
2
100
AcDbSymbolTableRecord
100
AcDbLayerTableRecord
  2
LAYER-094
 70
     0
 62
     7
  6
Continuous
370
    -3
390
F
  0
LAYER
  5
AE
330
2
100
AcDbSymbolTableRecord
100
AcDbLayerTableRecord
  2
LAYER-095
 70
     0
 62
     7
  6
Continuous
370
    -3
390
F
  0
LAYER
  5
AF
330
2
100
AcDbSymbolTableRecord
100
AcDbLayerTableRecord
  2
LAYER-096
 70
     0
 62
     7
  6
Continuous
370
    -3
390
F
  0
LAYER
  5
B0
330
2
100
AcDbSymbolTableRecord
100
AcDbLayerTableRecord
  2
LAYER-097
 70
     0
 62
     7
  6
Continuous
370
    -3
390
F
  0
LAYER
  5
B1
330
2
100
AcDbSymbolTableRecord
100
AcDbLayerTableRecord
  2
LAYER-098
 70
     0
 62
     7
  6
Continuous
370
    -3
390
F
  0
LAYER
  5
B2
330
2
100
AcDbSymbolTableRecord
100
AcDbLayerTableRecord
  2
LAYER-099
 70
     0
 62
     7
  6
Continuous
370
    -3
390
F
  0
LAYER
  5
B3
330
2
100
AcDbSymbolTableRecord
100
AcDbLayerTableRecord
  2
LAYER-100
 70
     0
 62
     7
  6
Continuous
370
    -3
390
F
  0
LAYER
  5
B4
330
2
100
AcDbSymbolTableRecord
100
AcDbLayerTableRecord
  2
LAYER-101
 70
     0
 62
     7
  6
Continuous
370
    -3
390
F
  0
LAYER
  5
B5
330
2
100
AcDbSymbolTableRecord
100
AcDbLayerTableRecord
  2
LAYER-102
 70
     0
 62
     7
  6
Continuous
370
    -3
390
F
  0
LAYER
  5
B6
330
2
100
AcDbSymbolTableRecord
100
AcDbLayerTableRecord
  2
LAYER-103
 70
     0
 62
     7
  6
Continuous
370
    -3
390
F
  0
LAYER
  5
B7
330
2
100
AcDbSymbolTableRecord
100
AcDbLayerTableRecord
  2
LAYER-104
 70
     0
 62
     7
  6
Continuous
370
    -3
390
F
  0
LAYER
  5
B8
330
2
100
AcDbSymbolTableRecord
100
AcDbLayerTableRecord
  2
LAYER-105
 70
     0
 62
     7
  6
Continuous
370
    -3
390
F
  0
LAYER
  5
B9
330
2
100
AcDbSymbolTableRecord
100
AcDbLayerTableRecord
  2
LAYER-106
 70
     0
 62
     7
  6
Continuous
370
    -3
390
F
  0
LAYER
  5
BA
330
2
100
AcDbSymbolTableRecord
100
AcDbLayerTableRecord
  2
LAYER-107
 70
     0
 62
     7
  6
Continuous
370
    -3
390
F
  0
LAYER
  5
BB
330
2
100
AcDbSymbolTableRecord
100
AcDbLayerTableRecord
  2
LAYER-108
 70
     0
 62
     7
  6
Continuous
370
    -3
390
F
  0
LAYER
  5
BC
330
2
100
AcDbSymbolTableRecord
100
AcDbLayerTableRecord
  2
LAYER-109
 70
     0
 62
     7
  6
Continuous
370
    -3
390
F
  0
LAYER
  5
BD
330
2
100
AcDbSymbolTableRecord
100
AcDbLayerTableRecord
  2
LAYER-110
 70
     0
 62
     7
  6
Continuous
370
    -3
390
F
  0
LAYER
  5
BE
330
2
100
AcDbSymbolTableRecord
100
AcDbLayerTableRecord
  2
LAYER-111
 70
     0
 62
     7
  6
Continuous
370
    -3
390
F
  0
LAYER
  5
BF
330
2
100
AcDbSymbolTableRecord
100
AcDbLayerTableRecord
  2
LAYER-112
 70
     0
 62
     7
  6
Continuous
370
    -3
390
F
  0
LAYER
  5
C0
330
2
100
AcDbSymbolTableRecord
100
AcDbLayerTableRecord
  2
LAYER-113
 70
     0
 62
     7
  6
Continuous
370
    -3
390
F
  0
LAYER
  5
C1
330
2
100
AcDbSymbolTableRecord
100
AcDbLayerTableRecord
  2
LAYER-114
 70
     0
 62
     7
  6
Continuous
370
    -3
390
F
  0
LAYER
  5
C2
330
2
100
AcDbSymbolTableRecord
100
AcDbLayerTableRecord
  2
LAYER-115
 70
     0
 62
     7
  6
Continuous
370
    -3
390
F
  0
LAYER
  5
C3
330
2
100
AcDbSymbolTableRecord
100
AcDbLayerTableRecord
  2
LAYER-116
 70
     0
 62
     7
  6
Continuous
370
    -3
390
F
  0
LAYER
  5
C4
330
2
100
AcDbSymbolTableRecord
100
AcDbLayerTableRecord
  2
LAYER-117
 70
     0
 62
     7
  6
Continuous
370
    -3
390
F
  0
LAYER
  5
C5
330
2
100
AcDbSymbolTableRecord
100
AcDbLayerTableRecord
  2
LAYER-118
 70
     0
 62
     7
  6
Continuous
370
    -3
390
F
  0
LAYER
  5
C6
330
2
100
AcDbSymbolTableRecord
100
AcDbLayerTableRecord
  2
LAYER-119
 70
     0
 62
     7
  6
Continuous
370
    -3
390
F
  0
LAYER
  5
C7
330
2
100
AcDbSymbolTableRecord
100
AcDbLayerTableRecord
  2
LAYER-120
 70
     0
 62
     7
  6
Continuous
370
    -3
390
F
  0
LAYER
  5
C8
330
2
100
AcDbSymbolTableRecord
100
AcDbLayerTableRecord
  2
LAYER-121
 70
     0
 62
     7
  6
Continuous
370
    -3
390
F
  0
LAYER
  5
C9
330
2
100
AcDbSymbolTableRecord
100
AcDbLayerTableRecord
  2
LAYER-122
 70
     0
 62
     7
  6
Continuous
370
    -3
390
F
  0
LAYER
  5
CA
330
2
100
AcDbSymbolTableRecord
100
AcDbLayerTableRecord
  2
LAYER-123
 70
     0
 62
     7
  6
Continuous
370
    -3
390
F
  0
LAYER
  5
CB
330
2
100
AcDbSymbolTableRecord
100
AcDbLayerTableRecord
  2
LAYER-124
 70
     0
 62
     7
  6
Continuous
370
    -3
390
F
  0
LAYER
  5
CC
330
2
100
AcDbSymbolTableRecord
100
AcDbLayerTableRecord
  2
LAYER-125
 70
     0
 62
     7
  6
Continuous
370
    -3
390
F
  0
LAYER
  5
CD
330
2
100
AcDbSymbolTableRecord
100
AcDbLayerTableRecord
  2
LAYER-126
 70
     0
 62
     7
  6
Continuous
370
    -3
390
F
  0
LAYER
  5
CE
330
2
100
AcDbSymbolTableRecord
100
AcDbLayerTableRecord
  2
LAYER-127
 70
     0
 62
     7
  6
Continuous
370
    -3
390
F
  0
LAYER
  5
CF
330
2
100
AcDbSymbolTableRecord
100
AcDbLayerTableRecord
  2
LAYER-128
 70
     0
 62
     7
  6
Continuous
370
    -3
390
F
  0
LAYER
  5
D0
330
2
100
AcDbSymbolTableRecord
100
AcDbLayerTableRecord
  2
LAYER-129
 70
     0
 62
     7
  6
Continuous
370
    -3
390
F
  0
LAYER
  5
D1
330
2
100
AcDbSymbolTableRecord
100
AcDbLayerTableRecord
  2
LAYER-130
 70
     0
 62
     7
  6
Continuous
370
    -3
390
F
  0
LAYER
  5
D2
330
2
100
AcDbSymbolTableRecord
100
AcDbLayerTableRecord
  2
LAYER-131
 70
     0
 62
     7
  6
Continuous
370
    -3
390
F
  0
LAYER
  5
D3
330
2
100
AcDbSymbolTableRecord
100
AcDbLayerTableRecord
  2
LAYER-132
 70
     0
 62
     7
  6
Continuous
370
    -3
390
F
  0
LAYER
  5
D4
330
2
100
AcDbSymbolTableRecord
100
AcDbLayerTableRecord
  2
LAYER-133
 70
     0
 62
     7
  6
Continuous
370
    -3
390
F
  0
LAYER
  5
D5
330
2
100
AcDbSymbolTableRecord
100
AcDbLayerTableRecord
  2
LAYER-134
 70
     0
 62
     7
  6
Continuous
370
    -3
390
F
  0
LAYER
  5
D6
330
2
100
AcDbSymbolTableRecord
100
AcDbLayerTableRecord
  2
LAYER-135
 70
     0
 62
    -4
  6
Continuous
370
    -3
390
F
  0
LAYER
  5
D7
330
2
100
AcDbSymbolTableRecord
100
AcDbLayerTableRecord
  2
LAYER-136
 70
     0
 62
    -3
  6
Continuous
370
    -3
390
F
  0
LAYER
  5
D8
330
2
100
AcDbSymbolTableRecord
100
AcDbLayerTableRecord
  2
LAYER-137
 70
     0
 62
    -1
  6
Continuous
370
    -3
390
F
  0
LAYER
  5
D9
330
2
100
AcDbSymbolTableRecord
100
AcDbLayerTableRecord
  2
LAYER-138
 70
     0
 62
     7
  6
Continuous
370
    -3
390
F
  0
LAYER
  5
DA
330
2
100
AcDbSymbolTableRecord
100
AcDbLayerTableRecord
  2
LAYER-139
 70
     0
 62
     7
  6
Continuous
370
    -3
390
F
  0
LAYER
  5
DB
330
2
100
AcDbSymbolTableRecord
100
AcDbLayerTableRecord
  2
LAYER-140
 70
     0
 62
     7
  6
Continuous
370
    -3
390
F
  0
LAYER
  5
DC
330
2
100
AcDbSymbolTableRecord
100
AcDbLayerTableRecord
  2
LAYER-141
 70
     0
 62
     7
  6
Continuous
370
    -3
390
F
  0
LAYER
  5
DD
330
2
100
AcDbSymbolTableRecord
100
AcDbLayerTableRecord
  2
LAYER-142
 70
     0
 62
     3
  6
Continuous
370
    -3
390
F
  0
LAYER
  5
DE
330
2
100
AcDbSymbolTableRecord
100
AcDbLayerTableRecord
  2
LAYER-143
 70
     0
 62
     7
  6
Continuous
370
    -3
390
F
  0
LAYER
  5
DF
330
2
100
AcDbSymbolTableRecord
100
AcDbLayerTableRecord
  2
LAYER-144
 70
     0
 62
     7
  6
Continuous
370
    -3
390
F
  0
LAYER
  5
E0
330
2
100
AcDbSymbolTableRecord
100
AcDbLayerTableRecord
  2
LAYER-145
 70
     0
 62
     3
  6
Continuous
370
    -3
390
F
  0
LAYER
  5
E1
330
2
100
AcDbSymbolTableRecord
100
AcDbLayerTableRecord
  2
LAYER-146
 70
     0
 62
     7
  6
Continuous
370
    -3
390
F
  0
LAYER
  5
E2
330
2
100
AcDbSymbolTableRecord
100
AcDbLayerTableRecord
  2
LAYER-147
 70
     0
 62
     7
  6
Continuous
370
    -3
390
F
  0
LAYER
  5
E3
330
2
100
AcDbSymbolTableRecord
100
AcDbLayerTableRecord
  2
LAYER-148
 70
     0
 62
     7
  6
Continuous
370
    -3
390
F
  0
LAYER
  5
E4
330
2
100
AcDbSymbolTableRecord
100
AcDbLayerTableRecord
  2
LAYER-149
 70
     0
 62
     7
  6
Continuous
370
    -3
390
F
  0
LAYER
  5
E5
330
2
100
AcDbSymbolTableRecord
100
AcDbLayerTableRecord
  2
LAYER-150
 70
     0
 62
     7
  6
Continuous
370
    -3
390
F
  0
LAYER
  5
E6
330
2
100
AcDbSymbolTableRecord
100
AcDbLayerTableRecord
  2
LAYER-151
 70
     0
 62
     7
  6
Continuous
370
    -3
390
F
  0
LAYER
  5
E7
330
2
100
AcDbSymbolTableRecord
100
AcDbLayerTableRecord
  2
LAYER-152
 70
     0
 62
     7
  6
Continuous
370
    -3
390
F
  0
LAYER
  5
E8
330
2
100
AcDbSymbolTableRecord
100
AcDbLayerTableRecord
  2
LAYER-153
 70
     0
 62
     7
  6
Continuous
370
    -3
390
F
  0
LAYER
  5
E9
330
2
100
AcDbSymbolTableRecord
100
AcDbLayerTableRecord
  2
LAYER-154
 70
     0
 62
     7
  6
Continuous
370
    -3
390
F
  0
LAYER
  5
EA
330
2
100
AcDbSymbolTableRecord
100
AcDbLayerTableRecord
  2
LAYER-155
 70
     0
 62
     7
  6
Continuous
370
    -3
390
F
  0
LAYER
  5
EB
330
2
100
AcDbSymbolTableRecord
100
AcDbLayerTableRecord
  2
LAYER-156
 70
     0
 62
     7
  6
Continuous
370
    -3
390
F
  0
LAYER
  5
EC
330
2
100
AcDbSymbolTableRecord
100
AcDbLayerTableRecord
  2
LAYER-157
 70
     0
 62
     7
  6
Continuous
370
    -3
390
F
  0
LAYER
  5
ED
330
2
100
AcDbSymbolTableRecord
100
AcDbLayerTableRecord
  2
LAYER-158
 70
     0
 62
     7
  6
Continuous
370
    -3
390
F
  0
LAYER
  5
EE
330
2
100
AcDbSymbolTableRecord
100
AcDbLayerTableRecord
  2
LAYER-159
 70
     0
 62
     7
  6
Continuous
370
    -3
390
F
  0
LAYER
  5
EF
330
2
100
AcDbSymbolTableRecord
100
AcDbLayerTableRecord
  2
LAYER-160
 70
     0
 62
     7
  6
Continuous
370
    -3
390
F
  0
LAYER
  5
F0
330
2
100
AcDbSymbolTableRecord
100
AcDbLayerTableRecord
  2
LAYER-161
 70
     0
 62
     7
  6
Continuous
370
    -3
390
F
  0
LAYER
  5
F1
330
2
100
AcDbSymbolTableRecord
100
AcDbLayerTableRecord
  2
LAYER-162
 70
     0
 62
     7
  6
Continuous
370
    -3
390
F
  0
LAYER
  5
F2
330
2
100
AcDbSymbolTableRecord
100
AcDbLayerTableRecord
  2
LAYER-163
 70
     0
 62
     7
  6
Continuous
370
    -3
390
F
  0
LAYER
  5
F3
330
2
100
AcDbSymbolTableRecord
100
AcDbLayerTableRecord
  2
LAYER-164
 70
     0
 62
     7
  6
Continuous
370
    -3
390
F
  0
LAYER
  5
F4
330
2
100
AcDbSymbolTableRecord
100
AcDbLayerTableRecord
  2
LAYER-165
 70
     0
 62
     7
  6
Continuous
370
    -3
390
F
  0
LAYER
  5
F5
330
2
100
AcDbSymbolTableRecord
100
AcDbLayerTableRecord
  2
LAYER-166
 70
     0
 62
     7
  6
Continuous
370
    -3
390
F
  0
LAYER
  5
F6
330
2
100
AcDbSymbolTableRecord
100
AcDbLayerTableRecord
  2
LAYER-167
 70
     0
 62
     7
  6
Continuous
370
    -3
390
F
  0
LAYER
  5
F7
330
2
100
AcDbSymbolTableRecord
100
AcDbLayerTableRecord
  2
LAYER-168
 70
     0
 62
     7
  6
Continuous
370
    -3
390
F
  0
LAYER
  5
F8
330
2
100
AcDbSymbolTableRecord
100
AcDbLayerTableRecord
  2
LAYER-169
 70
     0
 62
     7
  6
Continuous
370
    -3
390
F
  0
LAYER
  5
F9
330
2
100
AcDbSymbolTableRecord
100
AcDbLayerTableRecord
  2
LAYER-170
 70
     0
 62
     7
  6
Continuous
370
    -3
390
F
  0
LAYER
  5
FA
330
2
100
AcDbSymbolTableRecord
100
AcDbLayerTableRecord
  2
LAYER-171
 70
     0
 62
     7
  6
Continuous
370
    -3
390
F
  0
LAYER
  5
FB
330
2
100
AcDbSymbolTableRecord
100
AcDbLayerTableRecord
  2
LAYER-172
 70
     0
 62
     7
  6
Continuous
370
    -3
390
F
  0
LAYER
  5
FC
330
2
100
AcDbSymbolTableRecord
100
AcDbLayerTableRecord
  2
LAYER-173
 70
     0
 62
     7
  6
Continuous
370
    -3
390
F
  0
LAYER
  5
FD
330
2
100
AcDbSymbolTableRecord
100
AcDbLayerTableRecord
  2
LAYER-174
 70
     0
 62
     7
  6
Continuous
370
    -3
390
F
  0
LAYER
  5
FE
330
2
100
AcDbSymbolTableRecord
100
AcDbLayerTableRecord
  2
LAYER-175
 70
     0
 62
     7
  6
Continuous
370
    -3
390
F
  0
LAYER
  5
FF
330
2
100
AcDbSymbolTableRecord
100
AcDbLayerTableRecord
  2
LAYER-176
 70
     0
 62
     7
  6
Continuous
370
    -3
390
F
  0
LAYER
  5
100
330
2
100
AcDbSymbolTableRecord
100
AcDbLayerTableRecord
  2
LAYER-177
 70
     0
 62
     7
  6
Continuous
370
    -3
390
F
  0
LAYER
  5
101
330
2
100
AcDbSymbolTableRecord
100
AcDbLayerTableRecord
  2
LAYER-178
 70
     0
 62
     7
  6
Continuous
370
    -3
390
F
  0
LAYER
  5
102
330
2
100
AcDbSymbolTableRecord
100
AcDbLayerTableRecord
  2
LAYER-179
 70
     0
 62
     7
  6
Continuous
370
    -3
390
F
  0
LAYER
  5
103
330
2
100
AcDbSymbolTableRecord
100
AcDbLayerTableRecord
  2
LAYER-180
 70
     0
 62
     7
  6
Continuous
370
    -3
390
F
  0
LAYER
  5
104
330
2
100
AcDbSymbolTableRecord
100
AcDbLayerTableRecord
  2
LAYER-181
 70
     0
 62
     7
  6
Continuous
370
    -3
390
F
  0
LAYER
  5
105
330
2
100
AcDbSymbolTableRecord
100
AcDbLayerTableRecord
  2
LAYER-182
 70
     0
 62
     7
  6
Continuous
370
    -3
390
F
  0
LAYER
  5
106
330
2
100
AcDbSymbolTableRecord
100
AcDbLayerTableRecord
  2
LAYER-183
 70
     0
 62
     7
  6
Continuous
370
    -3
390
F
  0
LAYER
  5
107
330
2
100
AcDbSymbolTableRecord
100
AcDbLayerTableRecord
  2
LAYER-184
 70
     0
 62
     7
  6
Continuous
370
    -3
390
F
  0
LAYER
  5
108
330
2
100
AcDbSymbolTableRecord
100
AcDbLayerTableRecord
  2
LAYER-185
 70
     0
 62
     7
  6
Continuous
370
    -3
390
F
  0
LAYER
  5
109
330
2
100
AcDbSymbolTableRecord
100
AcDbLayerTableRecord
  2
LAYER-186
 70
     0
 62
     7
  6
Continuous
370
    -3
390
F
  0
LAYER
  5
10A
330
2
100
AcDbSymbolTableRecord
100
AcDbLayerTableRecord
  2
LAYER-187
 70
     0
 62
     7
  6
Continuous
370
    -3
390
F
  0
LAYER
  5
10B
330
2
100
AcDbSymbolTableRecord
100
AcDbLayerTableRecord
  2
LAYER-188
 70
     0
 62
     7
  6
Continuous
370
    -3
390
F
  0
LAYER
  5
10C
330
2
100
AcDbSymbolTableRecord
100
AcDbLayerTableRecord
  2
LAYER-189
 70
     0
 62
     7
  6
Continuous
370
    -3
390
F
  0
LAYER
  5
10D
330
2
100
AcDbSymbolTableRecord
100
AcDbLayerTableRecord
  2
LAYER-190
 70
     0
 62
     7
  6
Continuous
370
    -3
390
F
  0
LAYER
  5
10E
330
2
100
AcDbSymbolTableRecord
100
AcDbLayerTableRecord
  2
LAYER-191
 70
     0
 62
     7
  6
Continuous
370
    -3
390
F
  0
LAYER
  5
10F
330
2
100
AcDbSymbolTableRecord
100
AcDbLayerTableRecord
  2
LAYER-192
 70
     0
 62
     7
  6
Continuous
370
    -3
390
F
  0
LAYER
  5
110
330
2
100
AcDbSymbolTableRecord
100
AcDbLayerTableRecord
  2
LAYER-193
 70
     0
 62
     7
  6
Continuous
370
    -3
390
F
  0
LAYER
  5
111
330
2
100
AcDbSymbolTableRecord
100
AcDbLayerTableRecord
  2
LAYER-194
 70
     0
 62
     2
  6
Continuous
370
    -3
390
F
  0
LAYER
  5
112
330
2
100
AcDbSymbolTableRecord
100
AcDbLayerTableRecord
  2
LAYER-195
 70
     0
 62
     2
  6
Continuous
370
    -3
390
F
  0
LAYER
  5
113
330
2
100
AcDbSymbolTableRecord
100
AcDbLayerTableRecord
  2
LAYER-196
 70
     0
 62
     2
  6
Continuous
370
    -3
390
F
  0
LAYER
  5
114
330
2
100
AcDbSymbolTableRecord
100
AcDbLayerTableRecord
  2
LAYER-197
 70
     0
 62
     7
  6
Continuous
370
    -3
390
F
  0
LAYER
  5
115
330
2
100
AcDbSymbolTableRecord
100
AcDbLayerTableRecord
  2
LAYER-198
 70
     0
 62
     7
  6
Continuous
370
    -3
390
F
  0
LAYER
  5
116
330
2
100
AcDbSymbolTableRecord
100
AcDbLayerTableRecord
  2
LAYER-199
 70
     0
 62
     4
  6
Continuous
370
    -3
390
F
  0
LAYER
  5
117
330
2
100
AcDbSymbolTableRecord
100
AcDbLayerTableRecord
  2
LAYER-200
 70
     0
 62
     1
  6
Continuous
370
    -3
390
F
  0
LAYER
  5
118
330
2
100
AcDbSymbolTableRecord
100
AcDbLayerTableRecord
  2
LAYER-201
 70
     0
 62
     1
  6
Continuous
370
    -3
390
F
  0
LAYER
  5
119
330
2
100
AcDbSymbolTableRecord
100
AcDbLayerTableRecord
  2
LAYER-202
 70
     0
 62
     2
  6
Continuous
370
    -3
390
F
  0
LAYER
  5
11A
330
2
100
AcDbSymbolTableRecord
100
AcDbLayerTableRecord
  2
LAYER-203
 70
     0
 62
     2
  6
Continuous
370
    -3
390
F
  0
LAYER
  5
11B
330
2
100
AcDbSymbolTableRecord
100
AcDbLayerTableRecord
  2
LAYER-204
 70
     0
 62
     7
  6
Continuous
370
    -3
390
F
  0
LAYER
  5
11C
330
2
100
AcDbSymbolTableRecord
100
AcDbLayerTableRecord
  2
LAYER-205
 70
     0
 62
     7
  6
Continuous
370
    -3
390
F
  0
LAYER
  5
11D
330
2
100
AcDbSymbolTableRecord
100
AcDbLayerTableRecord
  2
LAYER-206
 70
     0
 62
     7
  6
Continuous
370
    -3
390
F
  0
LAYER
  5
11E
330
2
100
AcDbSymbolTableRecord
100
AcDbLayerTableRecord
  2
LAYER-207
 70
     0
 62
    -7
  6
Continuous
370
    -3
390
F
  0
LAYER
  5
11F
330
2
100
AcDbSymbolTableRecord
100
AcDbLayerTableRecord
  2
LAYER-208
 70
     0
 62
     2
  6
Continuous
370
    -3
390
F
  0
LAYER
  5
120
330
2
100
AcDbSymbolTableRecord
100
AcDbLayerTableRecord
  2
LAYER-209
 70
     0
 62
     7
  6
Continuous
370
    -3
390
F
  0
LAYER
  5
121
330
2
100
AcDbSymbolTableRecord
100
AcDbLayerTableRecord
  2
LAYER-210
 70
     0
 62
     2
  6
Continuous
290
     0
370
    -3
390
F
  0
LAYER
  5
122
330
2
100
AcDbSymbolTableRecord
100
AcDbLayerTableRecord
  2
LAYER-211
 70
     0
 62
     7
  6
Continuous
370
    -3
390
F
  0
LAYER
  5
123
330
2
100
AcDbSymbolTableRecord
100
AcDbLayerTableRecord
  2
LAYER-212
 70
     0
 62
     7
  6
Continuous
370
    -3
390
F
  0
LAYER
  5
124
330
2
100
AcDbSymbolTableRecord
100
AcDbLayerTableRecord
  2
LAYER-213
 70
     0
 62
     2
  6
Continuous
370
    -3
390
F
  0
LAYER
  5
125
330
2
100
AcDbSymbolTableRecord
100
AcDbLayerTableRecord
  2
LAYER-214
 70
     0
 62
     7
  6
Continuous
370
    -3
390
F
  0
LAYER
  5
126
330
2
100
AcDbSymbolTableRecord
100
AcDbLayerTableRecord
  2
LAYER-215
 70
     0
 62
     7
  6
Continuous
370
    -3
390
F
  0
LAYER
  5
127
330
2
100
AcDbSymbolTableRecord
100
AcDbLayerTableRecord
  2
LAYER-216
 70
     0
 62
     4
  6
Continuous
370
    -3
390
F
  0
LAYER
  5
128
330
2
100
AcDbSymbolTableRecord
100
AcDbLayerTableRecord
  2
LAYER-217
 70
     0
 62
     7
  6
Continuous
370
    -3
390
F
  0
LAYER
  5
129
330
2
100
AcDbSymbolTableRecord
100
AcDbLayerTableRecord
  2
LAYER-218
 70
     0
 62
     7
  6
Continuous
370
    -3
390
F
  0
LAYER
  5
12A
330
2
100
AcDbSymbolTableRecord
100
AcDbLayerTableRecord
  2
LAYER-219
 70
     0
 62
     7
  6
Continuous
370
    -3
390
F
  0
LAYER
  5
12B
330
2
100
AcDbSymbolTableRecord
100
AcDbLayerTableRecord
  2
LAYER-220
 70
     0
 62
     4
  6
Continuous
370
    -3
390
F
  0
LAYER
  5
12C
330
2
100
AcDbSymbolTableRecord
100
AcDbLayerTableRecord
  2
LAYER-221
 70
     0
 62
    -7
  6
Continuous
290
     0
370
    -3
390
F
  0
LAYER
  5
12D
330
2
100
AcDbSymbolTableRecord
100
AcDbLayerTableRecord
  2
LAYER-222
 70
     0
 62
    -4
  6
Continuous
290
     0
370
    -3
390
F
  0
LAYER
  5
12E
330
2
100
AcDbSymbolTableRecord
100
AcDbLayerTableRecord
  2
LAYER-223
 70
     0
 62
    -1
  6
Continuous
290
     0
370
    -3
390
F
  0
LAYER
  5
12F
330
2
100
AcDbSymbolTableRecord
100
AcDbLayerTableRecord
  2
LAYER-224
 70
     0
 62
    -1
  6
Continuous
290
     0
370
    -3
390
F
  0
LAYER
  5
130
330
2
100
AcDbSymbolTableRecord
100
AcDbLayerTableRecord
  2
LAYER-225
 70
     0
 62
     7
  6
Continuous
370
    -3
390
F
  0
LAYER
  5
131
330
2
100
AcDbSymbolTableRecord
100
AcDbLayerTableRecord
  2
LAYER-226
 70
     0
 62
     2
  6
Continuous
370
    -3
390
F
  0
LAYER
  5
132
330
2
100
AcDbSymbolTableRecord
100
AcDbLayerTableRecord
  2
LAYER-227
 70
     0
 62
     7
  6
Continuous
370
    -3
390
F
  0
LAYER
  5
133
330
2
100
AcDbSymbolTableRecord
100
AcDbLayerTableRecord
  2
LAYER-228
 70
     0
 62
     7
  6
Continuous
370
    -3
390
F
  0
LAYER
  5
134
330
2
100
AcDbSymbolTableRecord
100
AcDbLayerTableRecord
  2
LAYER-229
 70
     0
 62
     7
  6
Continuous
370
    -3
390
F
  0
LAYER
  5
135
330
2
100
AcDbSymbolTableRecord
100
AcDbLayerTableRecord
  2
LAYER-230
 70
     0
 62
     7
  6
Continuous
370
    -3
390
F
  0
LAYER
  5
136
330
2
100
AcDbSymbolTableRecord
100
AcDbLayerTableRecord
  2
LAYER-231
 70
     0
 62
     7
  6
Continuous
370
    -3
390
F
  0
LAYER
  5
137
330
2
100
AcDbSymbolTableRecord
100
AcDbLayerTableRecord
  2
LAYER-232
 70
     0
 62
     7
  6
Continuous
370
    -3
390
F
  0
LAYER
  5
138
330
2
100
AcDbSymbolTableRecord
100
AcDbLayerTableRecord
  2
LAYER-233
 70
     0
 62
     7
  6
Continuous
370
    -3
390
F
  0
LAYER
  5
139
330
2
100
AcDbSymbolTableRecord
100
AcDbLayerTableRecord
  2
LAYER-234
 70
     0
 62
     7
  6
Continuous
370
    -3
390
F
  0
LAYER
  5
13A
330
2
100
AcDbSymbolTableRecord
100
AcDbLayerTableRecord
  2
LAYER-235
 70
     0
 62
     7
  6
Continuous
370
    -3
390
F
  0
LAYER
  5
13B
330
2
100
AcDbSymbolTableRecord
100
AcDbLayerTableRecord
  2
LAYER-236
 70
     0
 62
     7
  6
Continuous
370
    -3
390
F
  0
LAYER
  5
13C
330
2
100
AcDbSymbolTableRecord
100
AcDbLayerTableRecord
  2
LAYER-237
 70
     0
 62
     7
  6
Continuous
370
    -3
390
F
  0
LAYER
  5
13D
330
2
100
AcDbSymbolTableRecord
100
AcDbLayerTableRecord
  2
LAYER-238
 70
     0
 62
     7
  6
Continuous
370
    -3
390
F
  0
LAYER
  5
13E
330
2
100
AcDbSymbolTableRecord
100
AcDbLayerTableRecord
  2
LAYER-239
 70
     0
 62
     7
  6
Continuous
370
    -3
390
F
  0
LAYER
  5
13F
330
2
100
AcDbSymbolTableRecord
100
AcDbLayerTableRecord
  2
LAYER-240
 70
     0
 62
     7
  6
Continuous
370
    -3
390
F
  0
LAYER
  5
140
330
2
100
AcDbSymbolTableRecord
100
AcDbLayerTableRecord
  2
LAYER-241
 70
     0
 62
     7
  6
Continuous
370
    -3
390
F
  0
LAYER
  5
141
330
2
100
AcDbSymbolTableRecord
100
AcDbLayerTableRecord
  2
LAYER-242
 70
     0
 62
     7
  6
Continuous
370
    -3
390
F
  0
LAYER
  5
142
330
2
100
AcDbSymbolTableRecord
100
AcDbLayerTableRecord
  2
LAYER-243
 70
     0
 62
     7
  6
Continuous
370
    -3
390
F
  0
LAYER
  5
143
330
2
100
AcDbSymbolTableRecord
100
AcDbLayerTableRecord
  2
LAYER-244
 70
     0
 62
     7
  6
Continuous
370
    -3
390
F
  0
LAYER
  5
144
330
2
100
AcDbSymbolTableRecord
100
AcDbLayerTableRecord
  2
LAYER-245
 70
     0
 62
     7
  6
Continuous
370
    -3
390
F
  0
LAYER
  5
145
330
2
100
AcDbSymbolTableRecord
100
AcDbLayerTableRecord
  2
LAYER-246
 70
     0
 62
     7
  6
Continuous
370
    -3
390
F
  0
LAYER
  5
146
330
2
100
AcDbSymbolTableRecord
100
AcDbLayerTableRecord
  2
LAYER-247
 70
     0
 62
     7
  6
Continuous
370
    -3
390
F
  0
LAYER
  5
147
330
2
100
AcDbSymbolTableRecord
100
AcDbLayerTableRecord
  2
LAYER-248
 70
     0
 62
     7
  6
Continuous
370
    -3
390
F
  0
LAYER
  5
148
330
2
100
AcDbSymbolTableRecord
100
AcDbLayerTableRecord
  2
LAYER-249
 70
     0
 62
     7
  6
Continuous
370
    -3
390
F
  0
LAYER
  5
149
330
2
100
AcDbSymbolTableRecord
100
AcDbLayerTableRecord
  2
LAYER-250
 70
     0
 62
     7
  6
Continuous
370
    -3
390
F
  0
LAYER
  5
14A
330
2
100
AcDbSymbolTableRecord
100
AcDbLayerTableRecord
  2
LAYER-251
 70
     0
 62
     7
  6
Continuous
370
    -3
390
F
  0
LAYER
  5
14B
330
2
100
AcDbSymbolTableRecord
100
AcDbLayerTableRecord
  2
LAYER-252
 70
     0
 62
     7
  6
Continuous
370
    -3
390
F
  0
LAYER
  5
14C
330
2
100
AcDbSymbolTableRecord
100
AcDbLayerTableRecord
  2
LAYER-253
 70
     0
 62
     7
  6
Continuous
370
    -3
390
F
  0
LAYER
  5
14D
330
2
100
AcDbSymbolTableRecord
100
AcDbLayerTableRecord
  2
LAYER-254
 70
     0
 62
     7
  6
Continuous
370
    -3
390
F
  0
LAYER
  5
14E
330
2
100
AcDbSymbolTableRecord
100
AcDbLayerTableRecord
  2
LAYER-255
 70
     0
 62
     7
  6
Continuous
370
    -3
390
F
  0
LAYER
  5
14F
330
2
100
AcDbSymbolTableRecord
100
AcDbLayerTableRecord
  2
LAYER-256
 70
     0
 62
     7
  6
Continuous
370
    -3
390
F
  0
LAYER
  5
150
330
2
100
AcDbSymbolTableRecord
100
AcDbLayerTableRecord
  2
SUPLINE
 70
     0
 62
    -7
  6
Continuous
290
     0
370
    -3
390
F
  0
ENDTAB
  0
TABLE
  2
STYLE
  5
3
330
0
100
AcDbSymbolTable
 70
     7
  0
STYLE
  5
11
330
3
100
AcDbSymbolTableRecord
100
AcDbTextStyleTableRecord
  2
Standard
 70
     0
 40
0.0
 41
1.0
 50
0.0
 71
     0
 42
2.5
  3
txt
  4

  0
STYLE
  5
31
330
3
100
AcDbSymbolTableRecord
100
AcDbTextStyleTableRecord
  2
STANDARD2
 70
     0
 40
0.0
 41
1.0
 50
0.0
 71
     0
 42
4.0
  3
txt.shx
  4
bigfont.shx
  0
STYLE
  5
32
330
3
100
AcDbSymbolTableRecord
100
AcDbTextStyleTableRecord
  2
STRING_H
 70
     0
 40
0.0
 41
1.0
 50
0.0
 71
     0
 42
4.0
  3
txt.shx
  4
bigfont.shx
  0
STYLE
  5
33
330
3
100
AcDbSymbolTableRecord
100
AcDbTextStyleTableRecord
  2
STRING_H_ITALIC
 70
     0
 40
0.0
 41
1.0
 50
15.0
 71
     0
 42
4.0
  3
txt.shx
  4
bigfont.shx
  0
STYLE
  5
34
330
3
100
AcDbSymbolTableRecord
100
AcDbTextStyleTableRecord
  2
STRING_V
 70
     4
 40
0.0
 41
1.0
 50
0.0
 71
     0
 42
4.0
  3
txt.shx
  4
bigfont.shx
  0
STYLE
  5
35
330
3
100
AcDbSymbolTableRecord
100
AcDbTextStyleTableRecord
  2
STRING_V_ITALIC
 70
     4
 40
0.0
 41
1.0
 50
15.0
 71
     0
 42
4.0
  3
txt.shx
  4
bigfont.shx
  0
STYLE
  5
36
330
3
100
AcDbSymbolTableRecord
100
AcDbTextStyleTableRecord
  2

 70
     1
 40
0.0
 41
1.0
 50
0.0
 71
     0
 42
0.2
  3
ltypeshp.shx
  4

  0
ENDTAB
  0
TABLE
  2
VIEW
  5
6
330
0
100
AcDbSymbolTable
 70
     0
  0
ENDTAB
  0
TABLE
  2
UCS
  5
7
330
0
100
AcDbSymbolTable
 70
     0
  0
ENDTAB
  0
TABLE
  2
APPID
  5
9
330
0
100
AcDbSymbolTable
 70
     1
  0
APPID
  5
12
330
9
100
AcDbSymbolTableRecord
100
AcDbRegAppTableRecord
  2
ACAD
 70
     0
  0
ENDTAB
  0
TABLE
  2
DIMSTYLE
  5
A
330
0
100
AcDbSymbolTable
 70
     2
100
AcDbDimStyleTable
  0
DIMSTYLE
105
27
330
A
100
AcDbSymbolTableRecord
100
AcDbDimStyleTableRecord
  2
ISO-25
 70
     0
 41
2.5
 42
0.625
 43
3.75
 44
1.25
 73
     0
 74
     0
 77
     1
 78
     8
140
2.5
141
2.5
143
0.03937007874016
147
0.625
171
     3
172
     1
271
     2
272
     2
274
     3
283
     0
284
     8
340
11
  0
DIMSTYLE
105
151
102
{ACAD_REACTORS
330
390
330
39A
330
3A4
330
3AE
330
3B8
330
3C2
330
3CC
102
}
330
A
100
AcDbSymbolTableRecord
100
AcDbDimStyleTableRecord
  2
DIO_DIMSTYLE
 70
     0
 41
4.0
 42
1.0
 43
3.75
 44
1.0
 45
0.1
 73
     0
 74
     0
 77
     1
 78
     8
 79
     2
140
3.0
141
2.5
143
0.03937007874016
147
0.5
171
     3
172
     1
173
     1
179
     1
271
     1
272
     1
274
     3
283
     0
284
     8
288
     1
289
     0
340
31
  0
ENDTAB
  0
TABLE
  2
BLOCK_RECORD
  5
1
330
0
100
AcDbSymbolTable
 70
     9
  0
BLOCK_RECORD
  5
1F
330
1
100
AcDbSymbolTableRecord
100
AcDbBlockTableRecord
  2
*Model_Space
340
22
  0
BLOCK_RECORD
  5
1B
330
1
100
AcDbSymbolTableRecord
100
AcDbBlockTableRecord
  2
*Paper_Space
340
1E
  0
BLOCK_RECORD
  5
23
330
1
100
AcDbSymbolTableRecord
100
AcDbBlockTableRecord
  2
*Paper_Space0
340
26
  0
BLOCK_RECORD
  5
381
330
1
100
AcDbSymbolTableRecord
100
AcDbBlockTableRecord
  2
_OPEN
340
0
102
{BLKREFS
331
38A
331
38B
331
394
331
395
331
39E
331
39F
331
3A8
331
3A9
331
3B2
331
3B3
331
3BC
331
3BD
331
3C6
331
3C7
102
}
  0
BLOCK_RECORD
  5
387
330
1
100
AcDbSymbolTableRecord
100
AcDbBlockTableRecord
  2
*D02
340
0
  0
BLOCK_RECORD
  5
391
330
1
100
AcDbSymbolTableRecord
100
AcDbBlockTableRecord
  2
*D13
340
0
  0
BLOCK_RECORD
  5
39B
330
1
100
AcDbSymbolTableRecord
100
AcDbBlockTableRecord
  2
*D24
340
0
  0
BLOCK_RECORD
  5
3A5
330
1
100
AcDbSymbolTableRecord
100
AcDbBlockTableRecord
  2
*D35
340
0
  0
BLOCK_RECORD
  5
3AF
330
1
100
AcDbSymbolTableRecord
100
AcDbBlockTableRecord
  2
*D46
340
0
  0
BLOCK_RECORD
  5
3B9
330
1
100
AcDbSymbolTableRecord
100
AcDbBlockTableRecord
  2
*D57
340
0
  0
BLOCK_RECORD
  5
3C3
330
1
100
AcDbSymbolTableRecord
100
AcDbBlockTableRecord
  2
*D68
340
0
  0
ENDTAB
  0
ENDSEC
  0
SECTION
  2
BLOCKS
  0
BLOCK
  5
20
330
1F
100
AcDbEntity
  8
0
100
AcDbBlockBegin
  2
*Model_Space
 70
     0
 71
     0
 10
0.0
 20
0.0
 30
0.0
  3
*Model_Space
  1

  0
ENDBLK
  5
21
330
1F
100
AcDbEntity
  8
0
100
AcDbBlockEnd
  0
BLOCK
  5
1C
330
1B
100
AcDbEntity
 67
     1
  8
0
100
AcDbBlockBegin
  2
*Paper_Space
 70
     0
 71
     0
 10
0.0
 20
0.0
 30
0.0
  3
*Paper_Space
  1

  0
ENDBLK
  5
1D
330
1B
100
AcDbEntity
 67
     1
  8
0
100
AcDbBlockEnd
  0
BLOCK
  5
24
330
23
100
AcDbEntity
  8
0
100
AcDbBlockBegin
  2
*Paper_Space0
 70
     0
 71
     0
 10
0.0
 20
0.0
 30
0.0
  3
*Paper_Space0
  1

  0
ENDBLK
  5
25
330
23
100
AcDbEntity
  8
0
100
AcDbBlockEnd
  0
BLOCK
  5
382
330
381
100
AcDbEntity
  8
0
100
AcDbBlockBegin
  2
_OPEN
 70
     0
 71
     0
 10
0.0
 20
0.0
 30
0.0
  3
_OPEN
  1

  0
LINE
  5
384
330
381
100
AcDbEntity
  8
LAYER-035
  6
Continuous
 62
     0
100
AcDbLine
 10
0.0
 20
0.0
 30
0.0
 11
-1.0
 21
0.0
 31
0.0
  0
LINE
  5
385
330
381
100
AcDbEntity
  8
LAYER-035
  6
Continuous
 62
     0
100
AcDbLine
 10
0.0
 20
0.0
 30
0.0
 11
-1.0
 21
0.1666250109338451
 31
0.0
  0
LINE
  5
386
330
381
100
AcDbEntity
  8
LAYER-035
  6
Continuous
 62
     0
100
AcDbLine
 10
0.0
 20
0.0
 30
0.0
 11
-1.0
 21
-0.1666250109338451
 31
0.0
  0
ENDBLK
  5
383
330
381
100
AcDbEntity
  8
0
100
AcDbBlockEnd
  0
BLOCK
  5
388
330
387
100
AcDbEntity
  8
0
100
AcDbBlockBegin
  2
*D02
 70
     1
 71
     0
 10
0.0
 20
0.0
 30
0.0
  3
*D02
  1

  0
INSERT
  5
38A
330
387
100
AcDbEntity
  8
LAYER-035
  6
Continuous
 62
     5
100
AcDbBlockReference
  2
_OPEN
 10
181.4531188339738
 20
-528.9213757087039
 30
0.0
 41
4.0
 42
4.0
 43
4.0
 50
180.0
  0
INSERT
  5
38B
330
387
100
AcDbEntity
  8
LAYER-035
  6
Continuous
 62
     5
100
AcDbBlockReference
  2
_OPEN
 10
526.4531188339738
 20
-528.9213757087039
 30
0.0
 41
4.0
 42
4.0
 43
4.0
  0
LINE
  5
38C
330
387
100
AcDbEntity
  8
LAYER-035
  6
Continuous
 62
     5
100
AcDbLine
 10
181.4531188339738
 20
-447.6746137921059
 30
0.0
 11
181.4531188339738
 21
-529.9213757087039
 31
0.0
  0
LINE
  5
38D
330
387
100
AcDbEntity
  8
LAYER-035
  6
Continuous
 62
     5
100
AcDbLine
 10
526.4531188339738
 20
-447.6746137921059
 30
0.0
 11
526.4531188339738
 21
-529.9213757087039
 31
0.0
  0
LINE
  5
38E
330
387
100
AcDbEntity
  8
LAYER-035
  6
Continuous
 62
     5
100
AcDbLine
 10
181.4531188339738
 20
-528.9213757087039
 30
0.0
 11
526.4531188339738
 21
-528.9213757087039
 31
0.0
  0
MTEXT
  5
38F
330
387
100
AcDbEntity
  8
LAYER-036
  6
Continuous
 62
     5
100
AcDbMText
 10
353.9531188339738
 20
-528.4213757087039
 30
0.0
 40
10.0
 41
0.0
 71
     8
 72
     1
  1
345
  7
STRING_H
 73
     1
 44
1.0
  0
ENDBLK
  5
389
330
387
100
AcDbEntity
  8
0
100
AcDbBlockEnd
  0
BLOCK
  5
392
330
391
100
AcDbEntity
  8
0
100
AcDbBlockBegin
  2
*D13
 70
     1
 71
     0
 10
0.0
 20
0.0
 30
0.0
  3
*D13
  1

  0
INSERT
  5
394
330
391
100
AcDbEntity
  8
LAYER-035
  6
Continuous
 62
     5
100
AcDbBlockReference
  2
_OPEN
 10
201.4531188339738
 20
-484.1077561897727
 30
0.0
 41
4.0
 42
4.0
 43
4.0
 50
180.0
  0
INSERT
  5
395
330
391
100
AcDbEntity
  8
LAYER-035
  6
Continuous
 62
     5
100
AcDbBlockReference
  2
_OPEN
 10
506.4531188339738
 20
-484.1077561897727
 30
0.0
 41
4.0
 42
4.0
 43
4.0
  0
LINE
  5
396
330
391
100
AcDbEntity
  8
LAYER-035
  6
Continuous
 62
     5
100
AcDbLine
 10
201.4531188339738
 20
-451.3967224167768
 30
0.0
 11
201.4531188339738
 21
-485.1077561897727
 31
0.0
  0
LINE
  5
397
330
391
100
AcDbEntity
  8
LAYER-035
  6
Continuous
 62
     5
100
AcDbLine
 10
506.4531188339738
 20
-451.3967224167768
 30
0.0
 11
506.4531188339738
 21
-485.1077561897727
 31
0.0
  0
LINE
  5
398
330
391
100
AcDbEntity
  8
LAYER-035
  6
Continuous
 62
     5
100
AcDbLine
 10
201.4531188339738
 20
-484.1077561897727
 30
0.0
 11
506.4531188339738
 21
-484.1077561897727
 31
0.0
  0
MTEXT
  5
399
330
391
100
AcDbEntity
  8
LAYER-036
  6
Continuous
 62
     5
100
AcDbMText
 10
353.9531188339738
 20
-483.6077561897727
 30
0.0
 40
10.0
 41
0.0
 71
     8
 72
     1
  1
305
  7
STRING_H
 73
     1
 44
1.0
  0
ENDBLK
  5
393
330
391
100
AcDbEntity
  8
0
100
AcDbBlockEnd
  0
BLOCK
  5
39C
330
39B
100
AcDbEntity
  8
0
100
AcDbBlockBegin
  2
*D24
 70
     1
 71
     0
 10
0.0
 20
0.0
 30
0.0
  3
*D24
  1

  0
INSERT
  5
39E
330
39B
100
AcDbEntity
  8
LAYER-035
  6
Continuous
 62
     5
100
AcDbBlockReference
  2
_OPEN
 10
538.9531188339738
 20
191.3915850036252
 30
0.0
 41
4.0
 42
4.0
 43
4.0
  0
INSERT
  5
39F
330
39B
100
AcDbEntity
  8
LAYER-035
  6
Continuous
 62
     5
100
AcDbBlockReference
  2
_OPEN
 10
168.9531188339738
 20
191.3915850036252
 30
0.0
 41
4.0
 42
4.0
 43
4.0
 50
180.0
  0
LINE
  5
3A0
330
39B
100
AcDbEntity
  8
LAYER-035
  6
Continuous
 62
     5
100
AcDbLine
 10
538.9531188339738
 20
160.9659542311875
 30
0.0
 11
538.9531188339738
 21
192.3915850036252
 31
0.0
  0
LINE
  5
3A1
330
39B
100
AcDbEntity
  8
LAYER-035
  6
Continuous
 62
     5
100
AcDbLine
 10
168.9531188339738
 20
160.9659542311875
 30
0.0
 11
168.9531188339738
 21
192.3915850036252
 31
0.0
  0
LINE
  5
3A2
330
39B
100
AcDbEntity
  8
LAYER-035
  6
Continuous
 62
     5
100
AcDbLine
 10
538.9531188339738
 20
191.3915850036252
 30
0.0
 11
168.9531188339738
 21
191.3915850036252
 31
0.0
  0
MTEXT
  5
3A3
330
39B
100
AcDbEntity
  8
LAYER-036
  6
Continuous
 62
     5
100
AcDbMText
 10
353.9531188339738
 20
191.8915850036252
 30
0.0
 40
10.0
 41
0.0
 71
     8
 72
     1
  1
370
  7
STRING_H
 73
     1
 44
1.0
  0
ENDBLK
  5
39D
330
39B
100
AcDbEntity
  8
0
100
AcDbBlockEnd
  0
BLOCK
  5
3A6
330
3A5
100
AcDbEntity
  8
0
100
AcDbBlockBegin
  2
*D35
 70
     1
 71
     0
 10
0.0
 20
0.0
 30
0.0
  3
*D35
  1

  0
INSERT
  5
3A8
330
3A5
100
AcDbEntity
  8
LAYER-035
  6
Continuous
 62
     5
100
AcDbBlockReference
  2
_OPEN
 10
62.42843655214756
 20
-528.9213757087039
 30
0.0
 41
4.0
 42
4.0
 43
4.0
  0
INSERT
  5
3A9
330
3A5
100
AcDbEntity
  8
LAYER-035
  6
Continuous
 62
     5
100
AcDbBlockReference
  2
_OPEN
 10
-532.5715634478524
 20
-528.9213757087039
 30
0.0
 41
4.0
 42
4.0
 43
4.0
 50
180.0
  0
LINE
  5
3AA
330
3A5
100
AcDbEntity
  8
LAYER-035
  6
Continuous
 62
     5
100
AcDbLine
 10
62.42843655214756
 20
-447.6746137921058
 30
0.0
 11
62.42843655214756
 21
-529.9213757087039
 31
0.0
  0
LINE
  5
3AB
330
3A5
100
AcDbEntity
  8
LAYER-035
  6
Continuous
 62
     5
100
AcDbLine
 10
-532.5715634478524
 20
-447.6746137921058
 30
0.0
 11
-532.5715634478524
 21
-529.9213757087039
 31
0.0
  0
LINE
  5
3AC
330
3A5
100
AcDbEntity
  8
LAYER-035
  6
Continuous
 62
     5
100
AcDbLine
 10
62.42843655214756
 20
-528.9213757087039
 30
0.0
 11
-532.5715634478524
 21
-528.9213757087039
 31
0.0
  0
MTEXT
  5
3AD
330
3A5
100
AcDbEntity
  8
LAYER-036
  6
Continuous
 62
     5
100
AcDbMText
 10
-235.0715634478524
 20
-528.4213757087039
 30
0.0
 40
10.0
 41
0.0
 71
     8
 72
     1
  1
595
  7
STRING_H
 73
     1
 44
1.0
  0
ENDBLK
  5
3A7
330
3A5
100
AcDbEntity
  8
0
100
AcDbBlockEnd
  0
BLOCK
  5
3B0
330
3AF
100
AcDbEntity
  8
0
100
AcDbBlockBegin
  2
*D46
 70
     1
 71
     0
 10
0.0
 20
0.0
 30
0.0
  3
*D46
  1

  0
INSERT
  5
3B2
330
3AF
100
AcDbEntity
  8
LAYER-035
  6
Continuous
 62
     5
100
AcDbBlockReference
  2
_OPEN
 10
112.9282605506381
 20
-446.6746137921058
 30
0.0
 41
4.0
 42
4.0
 43
4.0
 50
-90.0
  0
INSERT
  5
3B3
330
3AF
100
AcDbEntity
  8
LAYER-035
  6
Continuous
 62
     5
100
AcDbBlockReference
  2
_OPEN
 10
112.9282605506381
 20
133.3253862078941
 30
0.0
 41
4.0
 42
4.0
 43
4.0
 50
90.0
  0
LINE
  5
3B4
330
3AF
100
AcDbEntity
  8
LAYER-035
  6
Continuous
 62
     5
100
AcDbLine
 10
63.42843655214756
 20
-446.6746137921058
 30
0.0
 11
113.9282605506381
 21
-446.6746137921058
 31
0.0
  0
LINE
  5
3B5
330
3AF
100
AcDbEntity
  8
LAYER-035
  6
Continuous
 62
     5
100
AcDbLine
 10
37.99548570395655
 20
133.3253862078942
 30
0.0
 11
113.9282605506381
 21
133.3253862078941
 31
0.0
  0
LINE
  5
3B6
330
3AF
100
AcDbEntity
  8
LAYER-035
  6
Continuous
 62
     5
100
AcDbLine
 10
112.9282605506381
 20
-446.6746137921058
 30
0.0
 11
112.9282605506381
 21
133.3253862078941
 31
0.0
  0
MTEXT
  5
3B7
330
3AF
100
AcDbEntity
  8
LAYER-036
  6
Continuous
 62
     5
100
AcDbMText
 10
112.4282605506381
 20
-156.6746137921058
 30
0.0
 40
10.0
 41
0.0
 71
     8
 72
     1
  1
580
  7
STRING_H
 11
6.123031769111886E-17
 21
1.0
 31
0.0
 73
     1
 44
1.0
  0
ENDBLK
  5
3B1
330
3AF
100
AcDbEntity
  8
0
100
AcDbBlockEnd
  0
BLOCK
  5
3BA
330
3B9
100
AcDbEntity
  8
0
100
AcDbBlockBegin
  2
*D57
 70
     1
 71
     0
 10
0.0
 20
0.0
 30
0.0
  3
*D57
  1

  0
INSERT
  5
3BC
330
3B9
100
AcDbEntity
  8
LAYER-035
  6
Continuous
 62
     5
100
AcDbBlockReference
  2
_OPEN
 10
14.92843655214756
 20
-484.1077561897727
 30
0.0
 41
4.0
 42
4.0
 43
4.0
  0
INSERT
  5
3BD
330
3B9
100
AcDbEntity
  8
LAYER-035
  6
Continuous
 62
     5
100
AcDbBlockReference
  2
_OPEN
 10
-485.0715634478524
 20
-484.1077561897727
 30
0.0
 41
4.0
 42
4.0
 43
4.0
 50
180.0
  0
LINE
  5
3BE
330
3B9
100
AcDbEntity
  8
LAYER-035
  6
Continuous
 62
     5
100
AcDbLine
 10
14.92843655214756
 20
-453.8607755881252
 30
0.0
 11
14.92843655214756
 21
-485.1077561897727
 31
0.0
  0
LINE
  5
3BF
330
3B9
100
AcDbEntity
  8
LAYER-035
  6
Continuous
 62
     5
100
AcDbLine
 10
-485.0715634478524
 20
-453.8607755881252
 30
0.0
 11
-485.0715634478524
 21
-485.1077561897727
 31
0.0
  0
LINE
  5
3C0
330
3B9
100
AcDbEntity
  8
LAYER-035
  6
Continuous
 62
     5
100
AcDbLine
 10
14.92843655214756
 20
-484.1077561897727
 30
0.0
 11
-485.0715634478524
 21
-484.1077561897727
 31
0.0
  0
MTEXT
  5
3C1
330
3B9
100
AcDbEntity
  8
LAYER-036
  6
Continuous
 62
     5
100
AcDbMText
 10
-235.0715634478524
 20
-483.6077561897727
 30
0.0
 40
10.0
 41
0.0
 71
     8
 72
     1
  1
500
  7
STRING_H
 73
     1
 44
1.0
  0
ENDBLK
  5
3BB
330
3B9
100
AcDbEntity
  8
0
100
AcDbBlockEnd
  0
BLOCK
  5
3C4
330
3C3
100
AcDbEntity
  8
0
100
AcDbBlockBegin
  2
*D68
 70
     1
 71
     0
 10
0.0
 20
0.0
 30
0.0
  3
*D68
  1

  0
INSERT
  5
3C6
330
3C3
100
AcDbEntity
  8
LAYER-035
  6
Continuous
 62
     5
100
AcDbBlockReference
  2
_OPEN
 10
513.9531188339738
 20
-142.9582131155558
 30
0.0
 41
4.0
 42
4.0
 43
4.0
  0
INSERT
  5
3C7
330
3C3
100
AcDbEntity
  8
LAYER-035
  6
Continuous
 62
     5
100
AcDbBlockReference
  2
_OPEN
 10
193.9531188339738
 20
-142.9582131155558
 30
0.0
 41
4.0
 42
4.0
 43
4.0
 50
180.0
  0
LINE
  5
3C8
330
3C3
100
AcDbEntity
  8
LAYER-035
  6
Continuous
 62
     5
100
AcDbLine
 10
513.9531188339738
 20
-75.39446505186808
 30
0.0
 11
513.9531188339738
 21
-143.9582131155558
 31
0.0
  0
LINE
  5
3C9
330
3C3
100
AcDbEntity
  8
LAYER-035
  6
Continuous
 62
     5
100
AcDbLine
 10
193.9531188339738
 20
-75.39446505186808
 30
0.0
 11
193.9531188339738
 21
-143.9582131155558
 31
0.0
  0
LINE
  5
3CA
330
3C3
100
AcDbEntity
  8
LAYER-035
  6
Continuous
 62
     5
100
AcDbLine
 10
513.9531188339738
 20
-142.9582131155558
 30
0.0
 11
193.9531188339738
 21
-142.9582131155558
 31
0.0
  0
MTEXT
  5
3CB
330
3C3
100
AcDbEntity
  8
LAYER-036
  6
Continuous
 62
     5
100
AcDbMText
 10
335.0125794497222
 20
-142.4582131155558
 30
0.0
 40
10.0
 41
0.0
 71
     8
 72
     1
  1
320
  7
STRING_H
 73
     1
 44
1.0
  0
ENDBLK
  5
3C5
330
3C3
100
AcDbEntity
  8
0
100
AcDbBlockEnd
  0
ENDSEC
  0
SECTION
  2
ENTITIES
  0
LINE
  5
152
330
1F
100
AcDbEntity
  8
LAYER-033
  6
Continuous
 62
     1
100
AcDbLine
 10
-189.9718281110802
 20
-588.6095046642289
 30
0.0
 11
-21.22182811108016
 21
-588.6095046642289
 31
0.0
  0
LINE
  5
153
330
1F
100
AcDbEntity
  8
LAYER-033
  6
Continuous
 62
     1
100
AcDbLine
 10
-189.9718281110802
 20
-608.6095046642289
 30
0.0
 11
260.0281718889198
 21
-608.6095046642289
 31
0.0
  0
LINE
  5
154
330
1F
100
AcDbEntity
  8
LAYER-033
  6
Continuous
 62
     1
100
AcDbLine
 10
-189.9718281110802
 20
-628.6095046642289
 30
0.0
 11
-4.971828111080157
 21
-628.6095046642289
 31
0.0
  0
LINE
  5
155
330
1F
100
AcDbEntity
  8
LAYER-006
  6
Continuous
 62
     1
100
AcDbLine
 10
168.9531188339738
 20
159.9659542311875
 30
0.0
 11
168.9531188339738
 21
55.64872257899856
 31
0.0
  0
LINE
  5
156
330
1F
100
AcDbEntity
  8
LAYER-006
  6
Continuous
 62
     1
100
AcDbLine
 10
168.9531188339738
 20
159.9659542311875
 30
0.0
 11
173.3381118715915
 21
159.9659542311875
 31
0.0
  0
LINE
  5
157
330
1F
100
AcDbEntity
  8
LAYER-008
  6
HIDDEN
 62
     4
100
AcDbLine
 10
194.3624609169115
 20
159.6353444326921
 30
0.0
 11
194.3624609169115
 21
137.7103792455874
 31
0.0
  0
LINE
  5
158
330
1F
100
AcDbEntity
  8
LAYER-008
  6
HIDDEN
 62
     4
100
AcDbLine
 10
211.9024330673781
 20
159.6353444326921
 30
0.0
 11
211.9024330673781
 21
128.9403931703546
 31
0.0
  0
LINE
  5
159
330
1F
100
AcDbEntity
  8
LAYER-008
  6
HIDDEN
 62
     4
100
AcDbLine
 10
211.9024330673781
 20
159.6353444326921
 30
0.0
 11
194.3624609169115
 21
159.6353444326921
 31
0.0
  0
LINE
  5
15A
330
1F
100
AcDbEntity
  8
LAYER-008
  6
HIDDEN
 62
     4
100
AcDbLine
 10
496.0038046005707
 20
159.6353444326921
 30
0.0
 11
496.0038046005707
 21
128.9403931703546
 31
0.0
  0
LINE
  5
15B
330
1F
100
AcDbEntity
  8
LAYER-008
  6
HIDDEN
 62
     4
100
AcDbLine
 10
496.0038046005707
 20
159.6353444326921
 30
0.0
 11
513.5437767510373
 21
159.6353444326921
 31
0.0
  0
LINE
  5
15C
330
1F
100
AcDbEntity
  8
LAYER-008
  6
HIDDEN
 62
     4
100
AcDbLine
 10
513.5437767510373
 20
159.6353444326921
 30
0.0
 11
513.5437767510373
 21
137.7103792455874
 31
0.0
  0
LINE
  5
15D
330
1F
100
AcDbEntity
  8
LAYER-006
  6
Continuous
 62
     1
100
AcDbLine
 10
538.9531188339738
 20
159.9659542311875
 30
0.0
 11
538.9531188339738
 21
55.64872257836231
 31
0.0
  0
LINE
  5
15E
330
1F
100
AcDbEntity
  8
LAYER-006
  6
Continuous
 62
     1
100
AcDbLine
 10
538.9531188339738
 20
159.9659542311875
 30
0.0
 11
534.5681257963572
 21
159.9659542311875
 31
0.0
  0
LINE
  5
15F
330
1F
100
AcDbEntity
  8
LAYER-001
  6
Continuous
 62
     1
100
AcDbLine
 10
-437.4824500980492
 20
129.2542113358942
 30
0.0
 11
-437.8042999912842
 21
129.2542113358942
 31
0.0
  0
LINE
  5
160
330
1F
100
AcDbEntity
  8
LAYER-001
  6
CENTER
 62
     4
100
AcDbLine
 10
-466.8205062245717
 20
111.4219074856903
 30
0.0
 11
-359.1796359187693
 21
111.4219074856903
 31
0.0
  0
CIRCLE
  5
161
330
1F
100
AcDbEntity
  8
LAYER-033
  6
Continuous
 62
     1
100
AcDbCircle
 10
-437.6433750443202
 20
111.4219074856903
 30
0.0
 40
9.646946094817892
  0
ARC
  5
162
330
1F
100
AcDbEntity
  8
LAYER-001
  6
Continuous
 62
     1
100
AcDbCircle
 10
-437.8042999912842
 20
108.7909923470831
 30
0.0
 40
20.46321898900765
100
AcDbArc
 50
90.0
 51
151.7668667176462
  0
ARC
  5
163
330
1F
100
AcDbEntity
  8
LAYER-001
  6
Continuous
 62
     1
100
AcDbCircle
 10
-437.4824500980492
 20
108.7909923470831
 30
0.0
 40
20.46321898900765
100
AcDbArc
 50
28.05792239815993
 51
90.0
  0
ARC
  5
164
330
1F
100
AcDbEntity
  8
LAYER-001
  6
Continuous
 62
     1
100
AcDbCircle
 10
-448.6205728856155
 20
94.75889535480837
 30
0.0
 40
9.646946094817892
100
AcDbArc
 50
221.6136868790328
 51
270.0
  0
ARC
  5
165
330
1F
100
AcDbEntity
  8
LAYER-001
  6
Continuous
 62
     1
100
AcDbCircle
 10
-426.6661772029808
 20
94.75889535480837
 30
0.0
 40
9.646946094817892
100
AcDbArc
 50
270.0
 51
318.6509913549832
  0
LINE
  5
166
330
1F
100
AcDbEntity
  8
LAYER-001
  6
Continuous
 62
     1
100
AcDbLine
 10
-455.8330105470435
 20
88.35231187389309
 30
0.0
 11
-455.8330105470435
 21
118.4713294795316
 31
0.0
  0
LINE
  5
167
330
1F
100
AcDbEntity
  8
LAYER-001
  6
Continuous
 62
     1
100
AcDbLine
 10
-419.4242213463776
 20
88.35231187389309
 30
0.0
 11
-419.4242213463776
 21
118.4713294795316
 31
0.0
  0
LINE
  5
168
330
1F
100
AcDbEntity
  8
LAYER-001
  6
Continuous
 62
     1
100
AcDbLine
 10
-426.6661772029808
 20
85.11194925999047
 30
0.0
 11
-448.6205728856155
 21
85.11194925999047
 31
0.0
  0
LINE
  5
169
330
1F
100
AcDbEntity
  8
LAYER-001
  6
Continuous
 62
     1
100
AcDbLine
 10
-448.6205728856155
 20
63.186984072
 30
0.0
 11
-448.6205728856155
 21
85.11194925999047
 31
0.0
  0
LINE
  5
16A
330
1F
100
AcDbEntity
  8
LAYER-001
  6
Continuous
 62
     1
100
AcDbLine
 10
-426.6366590104675
 20
63.186984072
 30
0.0
 11
-448.6205728856155
 21
63.186984072
 31
0.0
  0
LINE
  5
16B
330
1F
100
AcDbEntity
  8
LAYER-001
  6
Continuous
 62
     1
100
AcDbLine
 10
-426.6366590104675
 20
63.186984072
 30
0.0
 11
-426.6366590104675
 21
85.11199442289308
 31
0.0
  0
LINE
  5
16C
330
1F
100
AcDbEntity
  8
LAYER-001
  6
CENTER
 62
     4
100
AcDbLine
 10
-437.628615944
 20
54.51148816860905
 30
0.0
 11
-437.628615944
 21
138.9322062412124
 31
0.0
  0
LINE
  5
16D
330
1F
100
AcDbEntity
  8
LAYER-001
  6
Continuous
 62
     1
100
AcDbLine
 10
-234.9106385018688
 20
129.2542113360902
 30
0.0
 11
-235.2324883951039
 21
129.2542113360902
 31
0.0
  0
LINE
  5
16E
330
1F
100
AcDbEntity
  8
LAYER-001
  6
CENTER
 62
     4
100
AcDbLine
 10
-264.2486946243258
 20
111.4219074856903
 30
0.0
 11
-206.6078243225424
 21
111.4219074856903
 31
0.0
  0
CIRCLE
  5
16F
330
1F
100
AcDbEntity
  8
LAYER-033
  6
Continuous
 62
     1
100
AcDbCircle
 10
-235.0715634478524
 20
111.4219074856903
 30
0.0
 40
9.646946094817892
  0
ARC
  5
170
330
1F
100
AcDbEntity
  8
LAYER-001
  6
Continuous
 62
     1
100
AcDbCircle
 10
-235.2324883951039
 20
108.7909923470831
 30
0.0
 40
20.46321898900765
100
AcDbArc
 50
90.0
 51
151.766866718211
  0
ARC
  5
171
330
1F
100
AcDbEntity
  8
LAYER-001
  6
Continuous
 62
     1
100
AcDbCircle
 10
-234.9106385018688
 20
108.7909923470831
 30
0.0
 40
20.46321898900765
100
AcDbArc
 50
28.05792239815993
 51
90.0
  0
ARC
  5
172
330
1F
100
AcDbEntity
  8
LAYER-001
  6
Continuous
 62
     1
100
AcDbCircle
 10
-246.0487612904329
 20
94.75889535480837
 30
0.0
 40
9.646946094817892
100
AcDbArc
 50
221.6136868812861
 51
270.0
  0
ARC
  5
173
330
1F
100
AcDbEntity
  8
LAYER-001
  6
Continuous
 62
     1
100
AcDbCircle
 10
-224.0943656070435
 20
94.75889535480837
 30
0.0
 40
9.646946094817892
100
AcDbArc
 50
270.0
 51
318.6509913559373
  0
LINE
  5
174
330
1F
100
AcDbEntity
  8
LAYER-001
  6
Continuous
 62
     1
100
AcDbLine
 10
-253.2611989512897
 20
88.35231187389309
 30
0.0
 11
-253.2611989512897
 21
118.4713294795316
 31
0.0
  0
LINE
  5
175
330
1F
100
AcDbEntity
  8
LAYER-001
  6
Continuous
 62
     1
100
AcDbLine
 10
-216.8524097501972
 20
88.35231187389309
 30
0.0
 11
-216.8524097501972
 21
118.4713294795316
 31
0.0
  0
LINE
  5
176
330
1F
100
AcDbEntity
  8
LAYER-001
  6
Continuous
 62
     1
100
AcDbLine
 10
-224.0943656070435
 20
85.11194925999047
 30
0.0
 11
-246.0487612904329
 21
85.11194925999047
 31
0.0
  0
LINE
  5
177
330
1F
100
AcDbEntity
  8
LAYER-001
  6
Continuous
 62
     1
100
AcDbLine
 10
-246.0487612904329
 20
63.186984072
 30
0.0
 11
-246.0487612904329
 21
85.11194925999047
 31
0.0
  0
LINE
  5
178
330
1F
100
AcDbEntity
  8
LAYER-001
  6
Continuous
 62
     1
100
AcDbLine
 10
-224.0648474142873
 20
63.186984072
 30
0.0
 11
-246.0487612904329
 21
63.186984072
 31
0.0
  0
LINE
  5
179
330
1F
100
AcDbEntity
  8
LAYER-001
  6
Continuous
 62
     1
100
AcDbLine
 10
-224.0648474142873
 20
63.186984072
 30
0.0
 11
-224.0648474142873
 21
85.11199442271573
 31
0.0
  0
LINE
  5
17A
330
1F
100
AcDbEntity
  8
LAYER-001
  6
Continuous
 62
     1
100
AcDbLine
 10
-33.6249262791049
 20
129.2542113358942
 30
0.0
 11
-33.94677617233998
 21
129.2542113358942
 31
0.0
  0
LINE
  5
17B
330
1F
100
AcDbEntity
  8
LAYER-001
  6
CENTER
 62
     4
100
AcDbLine
 10
-62.96298240562737
 20
111.4219074856903
 30
0.0
 11
-5.322112098880325
 21
111.4219074856903
 31
0.0
  0
CIRCLE
  5
17C
330
1F
100
AcDbEntity
  8
LAYER-033
  6
Continuous
 62
     1
100
AcDbCircle
 10
-33.78585122485242
 20
111.4219074856903
 30
0.0
 40
9.646946094817892
  0
ARC
  5
17D
330
1F
100
AcDbEntity
  8
LAYER-001
  6
Continuous
 62
     1
100
AcDbCircle
 10
-33.94677617233998
 20
108.7909923470831
 30
0.0
 40
20.46321898900765
100
AcDbArc
 50
90.0
 51
151.7668667182109
  0
ARC
  5
17E
330
1F
100
AcDbEntity
  8
LAYER-001
  6
Continuous
 62
     1
100
AcDbCircle
 10
-33.6249262791049
 20
108.7909923470831
 30
0.0
 40
20.46321898900765
100
AcDbArc
 50
28.05792239815993
 51
90.0
  0
ARC
  5
17F
330
1F
100
AcDbEntity
  8
LAYER-001
  6
Continuous
 62
     1
100
AcDbCircle
 10
-44.76304906477805
 20
94.75889535480837
 30
0.0
 40
9.646946094817892
100
AcDbArc
 50
221.6136868698836
 51
270.0
  0
ARC
  5
180
330
1F
100
AcDbEntity
  8
LAYER-001
  6
Continuous
 62
     1
100
AcDbCircle
 10
-22.808653384
 20
94.75889535480837
 30
0.0
 40
9.646946094817892
100
AcDbArc
 50
270.0
 51
318.6509913548401
  0
LINE
  5
181
330
1F
100
AcDbEntity
  8
LAYER-001
  6
Continuous
 62
     1
100
AcDbLine
 10
-51.97548672852565
 20
88.35231187389309
 30
0.0
 11
-51.97548672852565
 21
118.4713294795316
 31
0.0
  0
LINE
  5
182
330
1F
100
AcDbEntity
  8
LAYER-001
  6
Continuous
 62
     1
100
AcDbLine
 10
-15.56669752743335
 20
88.35231187389309
 30
0.0
 11
-15.56669752743335
 21
118.4713294795316
 31
0.0
  0
LINE
  5
183
330
1F
100
AcDbEntity
  8
LAYER-001
  6
Continuous
 62
     1
100
AcDbLine
 10
-22.808653384
 20
85.11194925999047
 30
0.0
 11
-44.76304906477805
 21
85.11194925999047
 31
0.0
  0
LINE
  5
184
330
1F
100
AcDbEntity
  8
LAYER-001
  6
Continuous
 62
     1
100
AcDbLine
 10
-44.76304906477805
 20
63.186984072
 30
0.0
 11
-44.76304906477805
 21
85.11194925999047
 31
0.0
  0
LINE
  5
185
330
1F
100
AcDbEntity
  8
LAYER-001
  6
Continuous
 62
     1
100
AcDbLine
 10
-22.77913519152338
 20
63.186984072
 30
0.0
 11
-44.76304906477805
 21
63.186984072
 31
0.0
  0
LINE
  5
186
330
1F
100
AcDbEntity
  8
LAYER-001
  6
Continuous
 62
     1
100
AcDbLine
 10
-22.77913519152338
 20
63.186984072
 30
0.0
 11
-22.77913519152338
 21
85.11199442289308
 31
0.0
  0
LINE
  5
187
330
1F
100
AcDbEntity
  8
LAYER-001
  6
CENTER
 62
     4
100
AcDbLine
 10
-33.77109212902644
 20
54.51148816860905
 30
0.0
 11
-33.77109212902644
 21
138.9322062412124
 31
0.0
  0
LINE
  5
188
330
1F
100
AcDbEntity
  8
LAYER-008
  6
HIDDEN
 62
     4
100
AcDbLine
 10
207.5174400297603
 20
133.3253862078942
 30
0.0
 11
194.3624609169115
 21
137.7103792455874
 31
0.0
  0
LINE
  5
189
330
1F
100
AcDbEntity
  8
LAYER-007
  6
HIDDEN
 62
     4
100
AcDbLine
 10
207.5174400297603
 20
133.3253862078942
 30
0.0
 11
207.5174400297603
 21
119.2933997176118
 31
0.0
  0
LINE
  5
18A
330
1F
100
AcDbEntity
  8
LAYER-007
  6
Continuous
 62
     1
100
AcDbLine
 10
259.5223495187768
 20
133.3253862078942
 30
0.0
 11
233.2123912934774
 21
133.3253862078942
 31
0.0
  0
LINE
  5
18B
330
1F
100
AcDbEntity
  8
LAYER-007
  6
Continuous
 62
     1
100
AcDbLine
 10
448.3838881491708
 20
133.3253862078942
 30
0.0
 11
474.6938463748709
 21
133.3253862078942
 31
0.0
  0
LINE
  5
18C
330
1F
100
AcDbEntity
  8
LAYER-033
  6
Continuous
 62
     1
100
AcDbLine
 10
448.3838881491708
 20
133.3253862078942
 30
0.0
 11
448.3838881491708
 21
89.47545583172769
 31
0.0
  0
LINE
  5
18D
330
1F
100
AcDbEntity
  8
LAYER-008
  6
HIDDEN
 62
     4
100
AcDbLine
 10
500.3887976384076
 20
133.3253862078942
 30
0.0
 11
513.5437767510373
 21
137.7103792455874
 31
0.0
  0
LINE
  5
18E
330
1F
100
AcDbEntity
  8
LAYER-007
  6
HIDDEN
 62
     4
100
AcDbLine
 10
500.3887976384076
 20
133.3253862078942
 30
0.0
 11
500.3887976384076
 21
119.2933997176118
 31
0.0
  0
LINE
  5
18F
330
1F
100
AcDbEntity
  8
LAYER-007
  6
Continuous
 62
     1
100
AcDbLine
 10
-505.3846153846155
 20
133.3253862078942
 30
0.0
 11
-505.3846153846155
 21
159.9659542311875
 31
0.0
  0
LINE
  5
190
330
1F
100
AcDbEntity
  8
LAYER-007
  6
Continuous
 62
     1
100
AcDbLine
 10
-487.8446344641631
 20
133.3253862078942
 30
0.0
 11
-487.8446344641631
 21
19.31555845987481
 31
0.0
  0
LINE
  5
191
330
1F
100
AcDbEntity
  8
LAYER-007
  6
Continuous
 62
     1
100
AcDbLine
 10
19.455513553
 20
133.3253862078942
 30
0.0
 11
19.455513553
 21
19.31555845987481
 31
0.0
  0
LINE
  5
192
330
1F
100
AcDbEntity
  8
LAYER-007
  6
Continuous
 62
     1
100
AcDbLine
 10
36.99548570395655
 20
133.3253862078942
 30
0.0
 11
36.99548570395655
 21
159.9659542311875
 31
0.0
  0
LINE
  5
193
330
1F
100
AcDbEntity
  8
LAYER-007
  6
Continuous
 62
     1
100
AcDbLine
 10
211.9024330673781
 20
128.9403931703546
 30
0.0
 11
211.9024330673781
 21
119.2933997176118
 31
0.0
  0
LINE
  5
194
330
1F
100
AcDbEntity
  8
LAYER-007
  6
Continuous
 62
     1
100
AcDbLine
 10
216.2874261049947
 20
128.9403931703546
 30
0.0
 11
211.9024330673781
 21
128.9403931703546
 31
0.0
  0
LINE
  5
195
330
1F
100
AcDbEntity
  8
LAYER-007
  6
Continuous
 62
     1
100
AcDbLine
 10
216.2874261049947
 20
128.9403931703546
 30
0.0
 11
216.2874261049947
 21
119.2933997176118
 31
0.0
  0
LINE
  5
196
330
1F
100
AcDbEntity
  8
LAYER-007
  6
Continuous
 62
     1
100
AcDbLine
 10
491.6188115631744
 20
128.9403931703546
 30
0.0
 11
496.0038046005707
 21
128.9403931703546
 31
0.0
  0
LINE
  5
197
330
1F
100
AcDbEntity
  8
LAYER-007
  6
Continuous
 62
     1
100
AcDbLine
 10
491.6188115631744
 20
128.9403931703546
 30
0.0
 11
491.6188115631744
 21
119.2933997176118
 31
0.0
  0
LINE
  5
198
330
1F
100
AcDbEntity
  8
LAYER-007
  6
Continuous
 62
     1
100
AcDbLine
 10
496.0038046005707
 20
128.9403931703546
 30
0.0
 11
496.0038046005707
 21
119.2933997176118
 31
0.0
  0
LINE
  5
199
330
1F
100
AcDbEntity
  8
LAYER-006
  6
Continuous
 62
     1
100
AcDbLine
 10
228.8273982554604
 20
126.7478966511319
 30
0.0
 11
228.8273982554604
 21
119.2933997176118
 31
0.0
  0
LINE
  5
19A
330
1F
100
AcDbEntity
  8
LAYER-006
  6
Continuous
 62
     1
100
AcDbLine
 10
233.2123912934774
 20
126.7478966511319
 30
0.0
 11
228.8273982554604
 21
126.7478966511319
 31
0.0
  0
LINE
  5
19B
330
1F
100
AcDbEntity
  8
LAYER-006
  6
Continuous
 62
     1
100
AcDbLine
 10
474.6938463750355
 20
126.7478966515458
 30
0.0
 11
479.0788394127078
 21
126.7478966515458
 31
0.0
  0
LINE
  5
19C
330
1F
100
AcDbEntity
  8
LAYER-006
  6
Continuous
 62
     1
100
AcDbLine
 10
479.0788394127078
 20
126.7478966515458
 30
0.0
 11
479.0788394127078
 21
119.2933997176118
 31
0.0
  0
LINE
  5
19D
330
1F
100
AcDbEntity
  8
LAYER-007
  6
Continuous
 62
     1
100
AcDbLine
 10
198.7474539545272
 20
123.2399066088932
 30
0.0
 11
198.7474539545272
 21
119.2933997176118
 31
0.0
  0
LINE
  5
19E
330
1F
100
AcDbEntity
  8
LAYER-007
  6
Continuous
 62
     1
100
AcDbLine
 10
207.5174400297603
 20
123.2399066088932
 30
0.0
 11
198.7474539545272
 21
123.2399066088932
 31
0.0
  0
LINE
  5
19F
330
1F
100
AcDbEntity
  8
LAYER-007
  6
Continuous
 62
     1
100
AcDbLine
 10
500.3887976384076
 20
123.2399066088932
 30
0.0
 11
509.1587837131476
 21
123.2399066088932
 31
0.0
  0
LINE
  5
1A0
330
1F
100
AcDbEntity
  8
LAYER-007
  6
Continuous
 62
     1
100
AcDbLine
 10
509.1587837131476
 20
123.2399066088932
 30
0.0
 11
509.1587837131476
 21
119.2933997176118
 31
0.0
  0
LINE
  5
1A1
330
1F
100
AcDbEntity
  8
LAYER-007
  6
Continuous
 62
     1
100
AcDbLine
 10
268.2923355940102
 20
120.1704070951209
 30
0.0
 11
259.5223495187768
 21
120.1704070951209
 31
0.0
  0
LINE
  5
1A2
330
1F
100
AcDbEntity
  8
LAYER-007
  6
Continuous
 62
     1
100
AcDbLine
 10
439.613902073462
 20
120.1704070951209
 30
0.0
 11
448.3838881491708
 21
120.1704070951209
 31
0.0
  0
LINE
  5
1A3
330
1F
100
AcDbEntity
  8
LAYER-007
  6
Continuous
 62
     4
100
AcDbLine
 10
-496.6146205393965
 20
120.1704070950442
 30
0.0
 11
-496.6146205393965
 21
100.8764289595445
 31
0.0
  0
LINE
  5
1A4
330
1F
100
AcDbEntity
  8
LAYER-007
  6
Continuous
 62
     1
100
AcDbLine
 10
-437.628615944
 20
120.1704070950442
 30
0.0
 11
-445.5216034144773
 21
115.7854140574275
 31
0.0
  0
LINE
  5
1A5
330
1F
100
AcDbEntity
  8
LAYER-007
  6
Continuous
 62
     1
100
AcDbLine
 10
-235.0568043517904
 20
120.1704070950442
 30
0.0
 11
-242.9497918182966
 21
115.7854140574275
 31
0.0
  0
LINE
  5
1A6
330
1F
100
AcDbEntity
  8
LAYER-007
  6
Continuous
 62
     1
100
AcDbLine
 10
-33.77109212902644
 20
120.1704070950442
 30
0.0
 11
-41.66407959553254
 21
115.7854140574275
 31
0.0
  0
LINE
  5
1A7
330
1F
100
AcDbEntity
  8
LAYER-007
  6
Continuous
 62
     4
100
AcDbLine
 10
28.2254996287237
 20
120.1704070950442
 30
0.0
 11
28.2254996287237
 21
100.8764289595445
 31
0.0
  0
LINE
  5
1A8
330
1F
100
AcDbEntity
  8
LAYER-006
  6
Continuous
 62
     1
100
AcDbLine
 10
159.70952720072
 20
119.2933997176118
 30
0.0
 11
159.70952720072
 21
103.5074335521778
 31
0.0
  0
LINE
  5
1A9
330
1F
100
AcDbEntity
  8
LAYER-006
  6
Continuous
 62
     1
100
AcDbLine
 10
159.70952720072
 20
119.2933997176118
 30
0.0
 11
168.9531188339738
 21
119.2933997176118
 31
0.0
  0
LINE
  5
1AA
330
1F
100
AcDbEntity
  8
LAYER-006
  6
Continuous
 62
     1
100
AcDbLine
 10
173.3381118715915
 20
119.2933997176118
 30
0.0
 11
233.2123912934774
 21
119.2933997176118
 31
0.0
  0
LINE
  5
1AB
330
1F
100
AcDbEntity
  8
LAYER-006
  6
Continuous
 62
     1
100
AcDbLine
 10
534.5681257963572
 20
119.2933997176118
 30
0.0
 11
474.6938463750355
 21
119.2933997176118
 31
0.0
  0
LINE
  5
1AC
330
1F
100
AcDbEntity
  8
LAYER-006
  6
Continuous
 62
     1
100
AcDbLine
 10
548.1967104672276
 20
119.2933997176118
 30
0.0
 11
548.1967104672276
 21
103.5074335521778
 31
0.0
  0
LINE
  5
1AD
330
1F
100
AcDbEntity
  8
LAYER-006
  6
Continuous
 62
     1
100
AcDbLine
 10
548.1967104672276
 20
119.2933997176118
 30
0.0
 11
538.9531188339738
 21
119.2933997176118
 31
0.0
  0
LINE
  5
1AE
330
1F
100
AcDbEntity
  8
LAYER-007
  6
Continuous
 62
     1
100
AcDbLine
 10
268.2923355940102
 20
115.7854140565256
 30
0.0
 11
259.5223495187768
 21
115.7854140565256
 31
0.0
  0
LINE
  5
1AF
330
1F
100
AcDbEntity
  8
LAYER-007
  6
Continuous
 62
     1
100
AcDbLine
 10
439.613902073462
 20
115.7854140563623
 30
0.0
 11
448.3838881491708
 21
115.7854140563623
 31
0.0
  0
LINE
  5
1B0
330
1F
100
AcDbEntity
  8
LAYER-007
  6
Continuous
 62
     1
100
AcDbLine
 10
-445.5216034144773
 20
115.7854140574275
 30
0.0
 11
-445.5216034144773
 21
107.0154279821943
 31
0.0
  0
LINE
  5
1B1
330
1F
100
AcDbEntity
  8
LAYER-007
  6
Continuous
 62
     1
100
AcDbLine
 10
-429.7356372502468
 20
115.7854140574275
 30
0.0
 11
-437.628615944
 21
120.1704070950442
 31
0.0
  0
LINE
  5
1B2
330
1F
100
AcDbEntity
  8
LAYER-007
  6
Continuous
 62
     1
100
AcDbLine
 10
-242.9497918182966
 20
115.7854140574275
 30
0.0
 11
-242.9497918182966
 21
107.0154279821943
 31
0.0
  0
LINE
  5
1B3
330
1F
100
AcDbEntity
  8
LAYER-007
  6
Continuous
 62
     1
100
AcDbLine
 10
-227.1638256540666
 20
115.7854140574275
 30
0.0
 11
-235.0568043517904
 21
120.1704070950442
 31
0.0
  0
LINE
  5
1B4
330
1F
100
AcDbEntity
  8
LAYER-007
  6
Continuous
 62
     1
100
AcDbLine
 10
-41.66407959553254
 20
115.7854140574275
 30
0.0
 11
-41.66407959553254
 21
107.0154279821943
 31
0.0
  0
LINE
  5
1B5
330
1F
100
AcDbEntity
  8
LAYER-007
  6
Continuous
 62
     1
100
AcDbLine
 10
-25.8781134313025
 20
115.7854140574275
 30
0.0
 11
-33.77109212902644
 21
120.1704070950442
 31
0.0
  0
LINE
  5
1B6
330
1F
100
AcDbEntity
  8
LAYER-008
  6
CENTER
 62
     4
100
AcDbLine
 10
274.0768521672294
 20
111.4004210198109
 30
0.0
 11
181.2074818050714
 21
111.4004210198109
 31
0.0
  0
LINE
  5
1B7
330
1F
100
AcDbEntity
  8
LAYER-008
  6
CENTER
 62
     4
100
AcDbLine
 10
433.8293855030354
 20
111.4004210198109
 30
0.0
 11
529.1987558644621
 21
111.4004210198109
 31
0.0
  0
LINE
  5
1B8
330
1F
100
AcDbEntity
  8
LAYER-007
  6
Continuous
 62
     4
100
AcDbLine
 10
-500.9996223469991
 20
111.4004210198109
 30
0.0
 11
-492.2296275017795
 21
111.4004210198109
 31
0.0
  0
LINE
  5
1B9
330
1F
100
AcDbEntity
  8
LAYER-007
  6
Continuous
 62
     4
100
AcDbLine
 10
32.61049266634018
 20
111.4004210198109
 30
0.0
 11
23.84050659110676
 21
111.4004210198109
 31
0.0
  0
LINE
  5
1BA
330
1F
100
AcDbEntity
  8
LAYER-007
  6
Continuous
 62
     1
100
AcDbLine
 10
268.2923355940102
 20
107.0154279812923
 30
0.0
 11
259.5223495187768
 21
107.0154279812923
 31
0.0
  0
LINE
  5
1BB
330
1F
100
AcDbEntity
  8
LAYER-007
  6
Continuous
 62
     1
100
AcDbLine
 10
439.613902073462
 20
107.0154279812923
 30
0.0
 11
448.3838881491708
 21
107.0154279812923
 31
0.0
  0
LINE
  5
1BC
330
1F
100
AcDbEntity
  8
LAYER-007
  6
Continuous
 62
     1
100
AcDbLine
 10
-445.5216034144773
 20
107.0154279821943
 30
0.0
 11
-437.628615944
 21
102.6304349445776
 31
0.0
  0
LINE
  5
1BD
330
1F
100
AcDbEntity
  8
LAYER-007
  6
Continuous
 62
     1
100
AcDbLine
 10
-429.7356372502468
 20
107.0154279821943
 30
0.0
 11
-429.7356372502468
 21
115.7854140574275
 31
0.0
  0
LINE
  5
1BE
330
1F
100
AcDbEntity
  8
LAYER-007
  6
Continuous
 62
     1
100
AcDbLine
 10
-242.9497918182966
 20
107.0154279821943
 30
0.0
 11
-235.0568043517904
 21
102.6304349445776
 31
0.0
  0
LINE
  5
1BF
330
1F
100
AcDbEntity
  8
LAYER-007
  6
Continuous
 62
     1
100
AcDbLine
 10
-227.1638256540666
 20
107.0154279821943
 30
0.0
 11
-227.1638256540666
 21
115.7854140574275
 31
0.0
  0
LINE
  5
1C0
330
1F
100
AcDbEntity
  8
LAYER-007
  6
Continuous
 62
     1
100
AcDbLine
 10
-41.66407959553254
 20
107.0154279821943
 30
0.0
 11
-33.77109212902644
 21
102.6304349445776
 31
0.0
  0
LINE
  5
1C1
330
1F
100
AcDbEntity
  8
LAYER-007
  6
Continuous
 62
     1
100
AcDbLine
 10
-25.8781134313025
 20
107.0154279821943
 30
0.0
 11
-25.8781134313025
 21
115.7854140574275
 31
0.0
  0
LINE
  5
1C2
330
1F
100
AcDbEntity
  8
LAYER-006
  6
Continuous
 62
     1
100
AcDbLine
 10
159.70952720072
 20
103.5074335521778
 30
0.0
 11
168.9531188339738
 21
103.5074335521778
 31
0.0
  0
LINE
  5
1C3
330
1F
100
AcDbEntity
  8
LAYER-006
  6
Continuous
 62
     1
100
AcDbLine
 10
173.3381118715915
 20
103.5074335521778
 30
0.0
 11
233.2123912934774
 21
103.5074335521778
 31
0.0
  0
LINE
  5
1C4
330
1F
100
AcDbEntity
  8
LAYER-007
  6
Continuous
 62
     1
100
AcDbLine
 10
198.7474539545272
 20
103.5074335521778
 30
0.0
 11
198.7474539545272
 21
99.56093543289416
 31
0.0
  0
LINE
  5
1C5
330
1F
100
AcDbEntity
  8
LAYER-007
  6
HIDDEN
 62
     4
100
AcDbLine
 10
207.5174400297603
 20
103.5074335521778
 30
0.0
 11
207.5174400297603
 21
93.86044886942094
 31
0.0
  0
LINE
  5
1C6
330
1F
100
AcDbEntity
  8
LAYER-006
  6
Continuous
 62
     1
100
AcDbLine
 10
228.8273982554604
 20
103.5074335521778
 30
0.0
 11
228.8273982554604
 21
96.0529453882298
 31
0.0
  0
LINE
  5
1C7
330
1F
100
AcDbEntity
  8
LAYER-006
  6
Continuous
 62
     1
100
AcDbLine
 10
479.0788394127078
 20
103.5074335521778
 30
0.0
 11
479.0788394127078
 21
96.0529453882298
 31
0.0
  0
LINE
  5
1C8
330
1F
100
AcDbEntity
  8
LAYER-007
  6
HIDDEN
 62
     4
100
AcDbLine
 10
500.3887976384076
 20
103.5074335521778
 30
0.0
 11
500.3887976384076
 21
93.86044886942094
 31
0.0
  0
LINE
  5
1C9
330
1F
100
AcDbEntity
  8
LAYER-007
  6
Continuous
 62
     1
100
AcDbLine
 10
509.1587837131476
 20
103.5074335521778
 30
0.0
 11
509.1587837131476
 21
99.56093543289416
 31
0.0
  0
LINE
  5
1CA
330
1F
100
AcDbEntity
  8
LAYER-006
  6
Continuous
 62
     1
100
AcDbLine
 10
534.5681257963572
 20
103.5074335521778
 30
0.0
 11
474.6938463750355
 21
103.5074335521778
 31
0.0
  0
LINE
  5
1CB
330
1F
100
AcDbEntity
  8
LAYER-006
  6
Continuous
 62
     1
100
AcDbLine
 10
548.1967104672276
 20
103.5074335521778
 30
0.0
 11
538.9531188339738
 21
103.5074335521778
 31
0.0
  0
LINE
  5
1CC
330
1F
100
AcDbEntity
  8
LAYER-007
  6
Continuous
 62
     1
100
AcDbLine
 10
268.2923355940102
 20
102.6304349446548
 30
0.0
 11
268.2923355940102
 21
120.1704070951209
 31
0.0
  0
LINE
  5
1CD
330
1F
100
AcDbEntity
  8
LAYER-007
  6
Continuous
 62
     1
100
AcDbLine
 10
268.2923355940102
 20
102.6304349446548
 30
0.0
 11
259.5223495187768
 21
102.6304349446548
 31
0.0
  0
LINE
  5
1CE
330
1F
100
AcDbEntity
  8
LAYER-007
  6
Continuous
 62
     1
100
AcDbLine
 10
439.613902073462
 20
102.6304349446548
 30
0.0
 11
439.613902073462
 21
120.1704070951209
 31
0.0
  0
LINE
  5
1CF
330
1F
100
AcDbEntity
  8
LAYER-007
  6
Continuous
 62
     1
100
AcDbLine
 10
439.613902073462
 20
102.6304349446548
 30
0.0
 11
448.3838881491708
 21
102.6304349446548
 31
0.0
  0
LINE
  5
1D0
330
1F
100
AcDbEntity
  8
LAYER-007
  6
Continuous
 62
     1
100
AcDbLine
 10
-437.628615944
 20
102.6304349445776
 30
0.0
 11
-429.7356372502468
 21
107.0154279821943
 31
0.0
  0
LINE
  5
1D1
330
1F
100
AcDbEntity
  8
LAYER-007
  6
Continuous
 62
     1
100
AcDbLine
 10
-235.0568043517904
 20
102.6304349445776
 30
0.0
 11
-227.1638256540666
 21
107.0154279821943
 31
0.0
  0
LINE
  5
1D2
330
1F
100
AcDbEntity
  8
LAYER-007
  6
Continuous
 62
     1
100
AcDbLine
 10
-33.77109212902644
 20
102.6304349445776
 30
0.0
 11
-25.8781134313025
 21
107.0154279821943
 31
0.0
  0
LINE
  5
1D3
330
1F
100
AcDbEntity
  8
LAYER-007
  6
Continuous
 62
     1
100
AcDbLine
 10
207.5174400297603
 20
99.56093543289416
 30
0.0
 11
198.7474539545272
 21
99.56093543289416
 31
0.0
  0
LINE
  5
1D4
330
1F
100
AcDbEntity
  8
LAYER-007
  6
Continuous
 62
     1
100
AcDbLine
 10
500.3887976384076
 20
99.56093543289416
 30
0.0
 11
509.1587837131476
 21
99.56093543289416
 31
0.0
  0
LINE
  5
1D5
330
1F
100
AcDbEntity
  8
LAYER-006
  6
Continuous
 62
     1
100
AcDbLine
 10
233.2123912934774
 20
96.0529453882298
 30
0.0
 11
228.8273982554604
 21
96.0529453882298
 31
0.0
  0
LINE
  5
1D6
330
1F
100
AcDbEntity
  8
LAYER-006
  6
Continuous
 62
     1
100
AcDbLine
 10
474.6938463750355
 20
96.0529453882298
 30
0.0
 11
479.0788394127078
 21
96.0529453882298
 31
0.0
  0
LINE
  5
1D7
330
1F
100
AcDbEntity
  8
LAYER-007
  6
HIDDEN
 62
     4
100
AcDbLine
 10
211.9024330673781
 20
93.86044886942094
 30
0.0
 11
207.5174400297603
 21
93.86044886942094
 31
0.0
  0
LINE
  5
1D8
330
1F
100
AcDbEntity
  8
LAYER-007
  6
HIDDEN
 62
     4
100
AcDbLine
 10
496.0038046005707
 20
93.86044886942094
 30
0.0
 11
500.3887976384076
 21
93.86044886942094
 31
0.0
  0
LINE
  5
1D9
330
1F
100
AcDbEntity
  8
LAYER-007
  6
Continuous
 62
     1
100
AcDbLine
 10
211.9024330673781
 20
89.49698745953066
 30
0.0
 11
198.7474539545272
 21
85.11199442289308
 31
0.0
  0
LINE
  5
1DA
330
1F
100
AcDbEntity
  8
LAYER-007
  6
Continuous
 62
     1
100
AcDbLine
 10
259.5223495187768
 20
89.47545583172769
 30
0.0
 11
237.5973843306936
 21
89.47545583172769
 31
0.0
  0
LINE
  5
1DB
330
1F
100
AcDbEntity
  8
LAYER-007
  6
Continuous
 62
     1
100
AcDbLine
 10
448.3838881491708
 20
89.47545583172769
 30
0.0
 11
470.3088533374744
 21
89.47545583172769
 31
0.0
  0
LINE
  5
1DC
330
1F
100
AcDbEntity
  8
LAYER-007
  6
Continuous
 62
     1
100
AcDbLine
 10
496.0038046005707
 20
89.49698745953066
 30
0.0
 11
509.1587837131476
 21
85.11199442289308
 31
0.0
  0
LINE
  5
1DD
330
1F
100
AcDbEntity
  8
LAYER-008
  6
HIDDEN
 62
     4
100
AcDbLine
 10
203.1324469921449
 20
86.57365876843917
 30
0.0
 11
203.1324469921449
 21
63.186984072
 31
0.0
  0
LINE
  5
1DE
330
1F
100
AcDbEntity
  8
LAYER-008
  6
HIDDEN
 62
     4
100
AcDbLine
 10
504.7737906758039
 20
86.57365876848792
 30
0.0
 11
504.7737906758039
 21
63.186984072
 31
0.0
  0
LINE
  5
1DF
330
1F
100
AcDbEntity
  8
LAYER-001
  6
CENTER
 62
     5
100
AcDbLine
 10
-515.0315912973858
 20
68.42748048118142
 30
0.0
 11
-515.0315912973858
 21
-4.36340394325498
 31
0.0
  0
LINE
  5
1E0
330
1F
100
AcDbEntity
  8
LAYER-001
  6
CENTER
 62
     5
100
AcDbLine
 10
-523.8015773726191
 20
59.65749440594811
 30
0.0
 11
-506.2616052221526
 21
59.65749440594811
 31
0.0
  0
LINE
  5
1E1
330
1F
100
AcDbEntity
  8
LAYER-003
  6
Continuous
 62
     1
100
AcDbLine
 10
-519.4165843350033
 20
59.65749440594811
 30
0.0
 11
-519.4165843350033
 21
22.92471994133791
 31
0.0
  0
ARC
  5
1E2
330
1F
100
AcDbEntity
  8
LAYER-003
  6
Continuous
 62
     1
100
AcDbCircle
 10
-515.0315912973858
 20
59.65749440594811
 30
0.0
 40
4.384993037616646
100
AcDbArc
 50
0.0
 51
180.0
  0
LINE
  5
1E3
330
1F
100
AcDbEntity
  8
LAYER-003
  6
Continuous
 62
     1
100
AcDbLine
 10
-510.64659825977
 20
59.65749440594811
 30
0.0
 11
-510.64659825977
 21
22.92471994133791
 31
0.0
  0
LINE
  5
1E4
330
1F
100
AcDbEntity
  8
LAYER-001
  6
CENTER
 62
     5
100
AcDbLine
 10
-523.8015773726191
 20
42.11752225548156
 30
0.0
 11
-506.2616052221526
 21
42.11752225548156
 31
0.0
  0
LINE
  5
1E5
330
1F
100
AcDbEntity
  8
LAYER-003
  6
Continuous
 62
     1
100
AcDbLine
 10
-510.64659825977
 20
28.21378365649343
 30
0.0
 11
-506.0937959240825
 21
27.43636034786675
 31
0.0
  0
LINE
  5
1E6
330
1F
100
AcDbEntity
  8
LAYER-003
  6
Continuous
 62
     1
100
AcDbLine
 10
-523.9693866711765
 20
27.43636034786675
 30
0.0
 11
-519.4165843350033
 21
28.21378365649343
 31
0.0
  0
LINE
  5
1E7
330
1F
100
AcDbEntity
  8
LAYER-003
  6
Continuous
 62
     1
100
AcDbLine
 10
-523.5495148178384
 20
27.20854592758508
 30
0.0
 11
-519.4165843350033
 21
27.20854592758508
 31
0.0
  0
LINE
  5
1E8
330
1F
100
AcDbEntity
  8
LAYER-003
  6
Continuous
 62
     1
100
AcDbLine
 10
-510.64659825977
 20
27.20854592758508
 30
0.0
 11
-506.5136677769346
 21
27.20854592758508
 31
0.0
  0
LINE
  5
1E9
330
1F
100
AcDbEntity
  8
LAYER-003
  6
Continuous
 62
     1
100
AcDbLine
 10
-525.4214876395663
 20
25.86026230035634
 30
0.0
 11
-525.9940738914282
 21
19.31555845987481
 31
0.0
  0
ARC
  5
1EA
330
1F
100
AcDbEntity
  8
LAYER-003
  6
Continuous
 62
     1
100
AcDbCircle
 10
-523.6741810468964
 20
25.70738741108721
 30
0.0
 40
1.753997215046659
100
AcDbArc
 50
99.69015600001318
 51
175.0000059991908
  0
ARC
  5
1EB
330
1F
100
AcDbEntity
  8
LAYER-003
  6
Continuous
 62
     1
100
AcDbCircle
 10
-520.732082246288
 20
22.92471994133791
 30
0.0
 40
1.315497911284994
100
AcDbArc
 50
269.9999970148984
 51
0.0
  0
ARC
  5
1EC
330
1F
100
AcDbEntity
  8
LAYER-003
  6
Continuous
 62
     1
100
AcDbCircle
 10
-506.3890015478766
 20
25.70738741108721
 30
0.0
 40
1.753997215046659
100
AcDbArc
 50
55.0663816344732
 51
80.30984899999841
  0
ARC
  5
1ED
330
1F
100
AcDbEntity
  8
LAYER-003
  6
Continuous
 62
     1
100
AcDbCircle
 10
-509.3311003486147
 20
22.92471994133791
 30
0.0
 40
1.315497911284994
100
AcDbArc
 50
180.000005000018
 51
270.0000010056583
  0
LINE
  5
1EE
330
1F
100
AcDbEntity
  8
LAYER-003
  6
Continuous
 62
     1
100
AcDbLine
 10
-525.9940738914282
 20
19.31555845987481
 30
0.0
 11
-504.069108703345
 21
19.31555845987481
 31
0.0
  0
LINE
  5
1EF
330
1F
100
AcDbEntity
  8
LAYER-001
  6
CENTER
 62
     5
100
AcDbLine
 10
44.88846440168095
 20
68.42748048118142
 30
0.0
 11
44.88846440168095
 21
-4.36340394325498
 31
0.0
  0
LINE
  5
1F0
330
1F
100
AcDbEntity
  8
LAYER-001
  6
CENTER
 62
     5
100
AcDbLine
 10
36.11847832644764
 20
59.65749440594811
 30
0.0
 11
53.65845047691425
 21
59.65749440594811
 31
0.0
  0
LINE
  5
1F1
330
1F
100
AcDbEntity
  8
LAYER-003
  6
Continuous
 62
     1
100
AcDbLine
 10
40.50347136406367
 20
59.65749440594811
 30
0.0
 11
40.50347136406367
 21
22.92471994133791
 31
0.0
  0
ARC
  5
1F2
330
1F
100
AcDbEntity
  8
LAYER-003
  6
Continuous
 62
     1
100
AcDbCircle
 10
44.88846440168095
 20
59.65749440594811
 30
0.0
 40
4.384993037616646
100
AcDbArc
 50
0.0
 51
180.0000050000002
  0
LINE
  5
1F3
330
1F
100
AcDbEntity
  8
LAYER-003
  6
Continuous
 62
     1
100
AcDbLine
 10
49.27345743929698
 20
59.65749440594811
 30
0.0
 11
49.27345743929698
 21
22.92471994133791
 31
0.0
  0
LINE
  5
1F4
330
1F
100
AcDbEntity
  8
LAYER-001
  6
CENTER
 62
     5
100
AcDbLine
 10
36.11847832644764
 20
42.11752225548156
 30
0.0
 11
53.65845047691425
 21
42.11752225548156
 31
0.0
  0
LINE
  5
1F5
330
1F
100
AcDbEntity
  8
LAYER-003
  6
Continuous
 62
     1
100
AcDbLine
 10
49.27345743929698
 20
28.21378365649343
 30
0.0
 11
53.82625977547025
 21
27.43636034786675
 31
0.0
  0
LINE
  5
1F6
330
1F
100
AcDbEntity
  8
LAYER-003
  6
Continuous
 62
     1
100
AcDbLine
 10
36.99548570395655
 20
27.61477021
 30
0.0
 11
40.50347136406367
 21
28.21378365649343
 31
0.0
  0
LINE
  5
1F7
330
1F
100
AcDbEntity
  8
LAYER-003
  6
Continuous
 62
     1
100
AcDbLine
 10
36.99548570395655
 20
27.20854592758508
 30
0.0
 11
40.50347136406367
 21
27.20854592758508
 31
0.0
  0
LINE
  5
1F8
330
1F
100
AcDbEntity
  8
LAYER-003
  6
Continuous
 62
     1
100
AcDbLine
 10
49.27345743929698
 20
27.20854592758508
 30
0.0
 11
53.40638792213235
 21
27.20854592758508
 31
0.0
  0
ARC
  5
1F9
330
1F
100
AcDbEntity
  8
LAYER-003
  6
Continuous
 62
     1
100
AcDbCircle
 10
53.53105415119035
 20
25.70738741108721
 30
0.0
 40
1.753997215046659
100
AcDbArc
 50
5.000000024198991
 51
80.30984899999474
  0
ARC
  5
1FA
330
1F
100
AcDbEntity
  8
LAYER-003
  6
Continuous
 62
     1
100
AcDbCircle
 10
39.18797345285304
 20
22.92471994133791
 30
0.0
 40
1.315497911284994
100
AcDbArc
 50
269.9999969992464
 51
0.0
  0
ARC
  5
1FB
330
1F
100
AcDbEntity
  8
LAYER-003
  6
Continuous
 62
     1
100
AcDbCircle
 10
50.58895535014756
 20
22.92471994133791
 30
0.0
 40
1.315497911284994
100
AcDbArc
 50
180.0000049656492
 51
270.0000010189285
  0
LINE
  5
1FC
330
1F
100
AcDbEntity
  8
LAYER-003
  6
Continuous
 62
     1
100
AcDbLine
 10
33.92598180763866
 20
19.31555845987481
 30
0.0
 11
62.42843655214756
 21
19.31555845987481
 31
0.0
  0
LINE
  5
1FD
330
1F
100
AcDbEntity
  8
LAYER-003
  6
Continuous
 62
     1
100
AcDbLine
 10
55.85094699572187
 20
19.31555845987481
 30
0.0
 11
55.27836074361539
 21
25.86026230035634
 31
0.0
  0
LINE
  5
1FE
330
1F
100
AcDbEntity
  8
LAYER-001
  6
CENTER
 62
     5
100
AcDbLine
 10
273.9531188339738
 20
68.42748048118142
 30
0.0
 11
273.9531188339738
 21
-4.36340394325498
 31
0.0
  0
LINE
  5
1FF
330
1F
100
AcDbEntity
  8
LAYER-001
  6
CENTER
 62
     5
100
AcDbLine
 10
247.6431606100339
 20
42.11752225548156
 30
0.0
 11
300.2630770614336
 21
42.11752225548156
 31
0.0
  0
ARC
  5
200
330
1F
100
AcDbEntity
  8
LAYER-003
  6
Continuous
 62
     1
100
AcDbCircle
 10
273.9531188339738
 20
42.11752225548156
 30
0.0
 40
21.92496518808323
100
AcDbArc
 50
306.4760049967234
 51
233.5240040035275
  0
CIRCLE
  5
201
330
1F
100
AcDbEntity
  8
LAYER-003
  6
Continuous
 62
     1
100
AcDbCircle
 10
273.9531188339738
 20
42.11752225548156
 30
0.0
 40
13.15497911284994
  0
LINE
  5
202
330
1F
100
AcDbEntity
  8
LAYER-003
  6
Continuous
 62
     1
100
AcDbLine
 10
273.9531188339738
 20
28.9625431426316
 30
0.0
 11
282.8909142101892
 21
27.43636034786681
 31
0.0
  0
LINE
  5
203
330
1F
100
AcDbEntity
  8
LAYER-003
  6
Continuous
 62
     1
100
AcDbLine
 10
265.0153234619434
 20
27.43636034786681
 30
0.0
 11
273.9531188339738
 21
28.9625431426316
 31
0.0
  0
LINE
  5
204
330
1F
100
AcDbEntity
  8
LAYER-003
  6
Continuous
 62
     1
100
AcDbLine
 10
265.4351953153437
 20
27.20854592758457
 30
0.0
 11
282.4710423561845
 21
27.20854592758457
 31
0.0
  0
LINE
  5
205
330
1F
100
AcDbEntity
  8
LAYER-003
  6
Continuous
 62
     1
100
AcDbLine
 10
263.5632224939565
 20
25.86026230035583
 30
0.0
 11
262.9906362379343
 21
19.31555845987481
 31
0.0
  0
ARC
  5
206
330
1F
100
AcDbEntity
  8
LAYER-003
  6
Continuous
 62
     1
100
AcDbCircle
 10
265.3105290862229
 20
25.70738741108721
 30
0.0
 40
1.753997215046659
100
AcDbArc
 50
99.69015600000951
 51
175.0000060004141
  0
ARC
  5
207
330
1F
100
AcDbEntity
  8
LAYER-003
  6
Continuous
 62
     1
100
AcDbCircle
 10
282.5957085852426
 20
25.70738741108721
 30
0.0
 40
1.753997215046659
100
AcDbArc
 50
4.999999991304869
 51
80.30984898714605
  0
ARC
  5
208
330
1F
100
AcDbEntity
  8
LAYER-003
  6
Continuous
 62
     1
100
AcDbCircle
 10
257.7908439689738
 20
20.25633503679836
 30
0.0
 40
5.261991645139976
100
AcDbArc
 50
355.0000000026477
 51
53.52399497438765
  0
ARC
  5
209
330
1F
100
AcDbEntity
  8
LAYER-003
  6
Continuous
 62
     1
100
AcDbCircle
 10
290.1153937032442
 20
20.25633503679836
 30
0.0
 40
5.261991645139976
100
AcDbArc
 50
126.4760060020903
 51
185.0000039958284
  0
LINE
  5
20A
330
1F
100
AcDbEntity
  8
LAYER-003
  6
Continuous
 62
     1
100
AcDbLine
 10
262.9906362379343
 20
19.31555845987481
 30
0.0
 11
284.9156014300135
 21
19.31555845987481
 31
0.0
  0
LINE
  5
20B
330
1F
100
AcDbEntity
  8
LAYER-003
  6
Continuous
 62
     1
100
AcDbLine
 10
284.9156014300135
 20
19.31555845987481
 30
0.0
 11
284.3430151779124
 21
25.86026230035583
 31
0.0
  0
LINE
  5
20C
330
1F
100
AcDbEntity
  8
LAYER-001
  6
CENTER
 62
     5
100
AcDbLine
 10
433.9531188339738
 20
68.42748048118142
 30
0.0
 11
433.9531188339738
 21
-4.363403943254951
 31
0.0
  0
LINE
  5
20D
330
1F
100
AcDbEntity
  8
LAYER-001
  6
CENTER
 62
     5
100
AcDbLine
 10
407.6431606080089
 20
42.11752225548156
 30
0.0
 11
460.2630770596961
 21
42.11752225548156
 31
0.0
  0
ARC
  5
20E
330
1F
100
AcDbEntity
  8
LAYER-003
  6
Continuous
 62
     1
100
AcDbCircle
 10
433.9531188339738
 20
42.11752225548156
 30
0.0
 40
21.92496518808323
100
AcDbArc
 50
306.476004992905
 51
233.5240039998787
  0
CIRCLE
  5
20F
330
1F
100
AcDbEntity
  8
LAYER-003
  6
Continuous
 62
     1
100
AcDbCircle
 10
433.9531188339738
 20
42.11752225548156
 30
0.0
 40
13.15497911284994
  0
LINE
  5
210
330
1F
100
AcDbEntity
  8
LAYER-003
  6
Continuous
 62
     1
100
AcDbLine
 10
433.9531188339738
 20
28.96254314263163
 30
0.0
 11
442.8909142084526
 21
27.43636034786678
 31
0.0
  0
LINE
  5
211
330
1F
100
AcDbEntity
  8
LAYER-003
  6
Continuous
 62
     1
100
AcDbLine
 10
425.0153234602069
 20
27.43636034786678
 30
0.0
 11
433.9531188339738
 21
28.96254314263163
 31
0.0
  0
LINE
  5
212
330
1F
100
AcDbEntity
  8
LAYER-003
  6
Continuous
 62
     1
100
AcDbLine
 10
425.4351953135445
 20
27.20854592758454
 30
0.0
 11
442.471042354448
 21
27.20854592758454
 31
0.0
  0
LINE
  5
213
330
1F
100
AcDbEntity
  8
LAYER-003
  6
Continuous
 62
     1
100
AcDbLine
 10
423.5632224918165
 20
25.8602623003558
 30
0.0
 11
422.9906362365975
 21
19.31555845987481
 31
0.0
  0
ARC
  5
214
330
1F
100
AcDbEntity
  8
LAYER-003
  6
Continuous
 62
     1
100
AcDbCircle
 10
425.3105290844865
 20
25.70738741108724
 30
0.0
 40
1.753997215046659
100
AcDbArc
 50
99.6901560050762
 51
175.0000060000053
  0
ARC
  5
215
330
1F
100
AcDbEntity
  8
LAYER-003
  6
Continuous
 62
     1
100
AcDbCircle
 10
442.5957085835059
 20
25.70738741108724
 30
0.0
 40
1.753997215046659
100
AcDbArc
 50
4.99999999236687
 51
80.30984897579759
  0
ARC
  5
216
330
1F
100
AcDbEntity
  8
LAYER-003
  6
Continuous
 62
     1
100
AcDbCircle
 10
417.7908439670564
 20
20.25633503679833
 30
0.0
 40
5.261991645139976
100
AcDbArc
 50
355.0000000028197
 51
53.52399497280398
  0
ARC
  5
217
330
1F
100
AcDbEntity
  8
LAYER-003
  6
Continuous
 62
     1
100
AcDbCircle
 10
450.1153937010577
 20
20.25633503679833
 30
0.0
 40
5.261991645139976
100
AcDbArc
 50
126.4760059981502
 51
185.0000039962554
  0
LINE
  5
218
330
1F
100
AcDbEntity
  8
LAYER-003
  6
Continuous
 62
     1
100
AcDbLine
 10
422.9906362365975
 20
19.31555845987481
 30
0.0
 11
444.9156014280379
 21
19.31555845987481
 31
0.0
  0
LINE
  5
219
330
1F
100
AcDbEntity
  8
LAYER-003
  6
Continuous
 62
     1
100
AcDbLine
 10
444.9156014280379
 20
19.31555845987481
 30
0.0
 11
444.3430151761759
 21
25.8602623003558
 31
0.0
  0
LINE
  5
21A
330
1F
100
AcDbEntity
  8
LAYER-007
  6
Continuous
 62
     1
100
AcDbLine
 10
216.2874261049947
 20
63.186984072
 30
0.0
 11
198.7474539545272
 21
63.186984072
 31
0.0
  0
LINE
  5
21B
330
1F
100
AcDbEntity
  8
LAYER-007
  6
Continuous
 62
     1
100
AcDbLine
 10
491.6188115631744
 20
63.186984072
 30
0.0
 11
509.1587837131476
 21
63.186984072
 31
0.0
  0
LINE
  5
21C
330
1F
100
AcDbEntity
  8
LAYER-006
  6
Continuous
 62
     1
100
AcDbLine
 10
168.9531188339738
 20
55.64872257899856
 30
0.0
 11
173.3381118715915
 21
55.64872257899856
 31
0.0
  0
LINE
  5
21D
330
1F
100
AcDbEntity
  8
LAYER-006
  6
Continuous
 62
     1
100
AcDbLine
 10
173.3381118715915
 20
55.64872257899856
 30
0.0
 11
173.3381118715915
 21
159.9659542311875
 31
0.0
  0
LINE
  5
21E
330
1F
100
AcDbEntity
  8
LAYER-006
  6
Continuous
 62
     1
100
AcDbLine
 10
534.5681257963572
 20
55.64872257836231
 30
0.0
 11
534.5681257963572
 21
159.9659542311875
 31
0.0
  0
LINE
  5
21F
330
1F
100
AcDbEntity
  8
LAYER-006
  6
Continuous
 62
     1
100
AcDbLine
 10
538.9531188339738
 20
55.64872257836231
 30
0.0
 11
534.5681257963572
 21
55.64872257836231
 31
0.0
  0
LINE
  5
220
330
1F
100
AcDbEntity
  8
LAYER-007
  6
Continuous
 62
     1
100
AcDbLine
 10
-505.3846153846155
 20
19.31555845987481
 30
0.0
 11
-505.3846153846155
 21
133.3253862078942
 31
0.0
  0
LINE
  5
221
330
1F
100
AcDbEntity
  8
LAYER-007
  6
Continuous
 62
     1
100
AcDbLine
 10
36.99548570395655
 20
19.31555845987481
 30
0.0
 11
36.99548570395655
 21
133.3253862078942
 31
0.0
  0
LINE
  5
222
330
1F
100
AcDbEntity
  8
LAYER-006
  6
Continuous
 62
     1
100
AcDbLine
 10
62.42843655214756
 20
19.31555845987481
 30
0.0
 11
62.42843655214756
 21
-446.6746137921058
 31
0.0
  0
LINE
  5
223
330
1F
100
AcDbEntity
  8
LAYER-007
  6
Continuous
 62
     4
100
AcDbLine
 10
14.92843655214756
 20
-2.398457834801263
 30
0.0
 11
14.92843655214756
 21
-33.09340909803564
 31
0.0
  0
LINE
  5
224
330
1F
100
AcDbEntity
  8
LAYER-007
  6
CENTER
 62
     4
100
AcDbLine
 10
-524.5715634478524
 20
-4.15245505
 30
0.0
 11
-524.5715634478524
 21
-33.09340909779871
 31
0.0
  0
LINE
  5
225
330
1F
100
AcDbEntity
  8
LAYER-007
  6
CENTER
 62
     4
100
AcDbLine
 10
54.42843655214756
 20
-4.15245505
 30
0.0
 11
54.42843655214756
 21
-33.09340909803564
 31
0.0
  0
LINE
  5
226
330
1F
100
AcDbEntity
  8
LAYER-007
  6
Continuous
 62
     4
100
AcDbLine
 10
-485.0715634478524
 20
-5.029462427038311
 30
0.0
 11
-485.0715634478524
 21
-32.21641049206284
 31
0.0
  0
LINE
  5
227
330
1F
100
AcDbEntity
  8
LAYER-006
  6
Continuous
 62
     1
100
AcDbLine
 10
223.2981484909738
 20
-5.906469805879596
 30
0.0
 11
223.2981484909738
 21
-32.21642803157945
 31
0.0
  0
LINE
  5
228
330
1F
100
AcDbEntity
  8
LAYER-006
  6
Continuous
 62
     1
100
AcDbLine
 10
236.4531188339738
 20
-5.906469805879596
 30
0.0
 11
223.2981484909738
 21
-5.906469805879596
 31
0.0
  0
LINE
  5
229
330
1F
100
AcDbEntity
  8
LAYER-006
  6
Continuous
 62
     1
100
AcDbLine
 10
471.4531188339738
 20
-5.906469805879567
 30
0.0
 11
484.6080979464741
 21
-5.906469805879567
 31
0.0
  0
LINE
  5
22A
330
1F
100
AcDbEntity
  8
LAYER-006
  6
Continuous
 62
     1
100
AcDbLine
 10
484.6080979464741
 20
-5.906469805879567
 30
0.0
 11
484.6080979464741
 21
-32.21642803157948
 31
0.0
  0
LINE
  5
22B
330
1F
100
AcDbEntity
  8
LAYER-006
  6
Continuous
 62
     1
100
AcDbLine
 10
214.5281624158777
 20
-12.04545128746148
 30
0.0
 11
214.5281624158777
 21
-25.20043040031143
 31
0.0
  0
LINE
  5
22C
330
1F
100
AcDbEntity
  8
LAYER-006
  6
Continuous
 62
     1
100
AcDbLine
 10
236.4531188339738
 20
-12.04545128746148
 30
0.0
 11
214.5281624158777
 21
-12.04545128746148
 31
0.0
  0
LINE
  5
22D
330
1F
100
AcDbEntity
  8
LAYER-006
  6
Continuous
 62
     1
100
AcDbLine
 10
246.8381118715915
 20
-12.0454512874615
 30
0.0
 11
461.0681257963572
 21
-12.0454512874615
 31
0.0
  0
LINE
  5
22E
330
1F
100
AcDbEntity
  8
LAYER-006
  6
Continuous
 62
     1
100
AcDbLine
 10
471.4531188339738
 20
-12.0454512874615
 30
0.0
 11
493.3780840217676
 21
-12.0454512874615
 31
0.0
  0
LINE
  5
22F
330
1F
100
AcDbEntity
  8
LAYER-006
  6
Continuous
 62
     1
100
AcDbLine
 10
493.3780840217676
 20
-12.0454512874615
 30
0.0
 11
493.3780840217676
 21
-25.2004304003114
 31
0.0
  0
LINE
  5
230
330
1F
100
AcDbEntity
  8
LAYER-007
  6
CENTER
 62
     4
100
AcDbLine
 10
-533.3415495230852
 20
-18.18444154012519
 30
0.0
 11
-515.8015773726197
 21
-18.18444154012519
 31
0.0
  0
LINE
  5
231
330
1F
100
AcDbEntity
  8
LAYER-007
  6
CENTER
 62
     4
100
AcDbLine
 10
-496.4725541156416
 20
-18.18444154012519
 30
0.0
 11
-472.7935829425253
 21
-18.18444154012519
 31
0.0
  0
CIRCLE
  5
232
330
1F
100
AcDbEntity
  8
LAYER-006
  6
Continuous
 62
     5
100
AcDbCircle
 10
-485.0715634478524
 20
-18.18444154012519
 30
0.0
 40
6.13898148267723
  0
LINE
  5
233
330
1F
100
AcDbEntity
  8
LAYER-007
  6
CENTER
 62
     4
100
AcDbLine
 10
3.527454654344638
 20
-18.18444154012519
 30
0.0
 11
27.2064258295452
 21
-18.18444154012519
 31
0.0
  0
CIRCLE
  5
234
330
1F
100
AcDbEntity
  8
LAYER-006
  6
Continuous
 62
     5
100
AcDbCircle
 10
14.92843655214756
 20
-18.18444154012519
 30
0.0
 40
6.13898148267723
  0
LINE
  5
235
330
1F
100
AcDbEntity
  8
LAYER-007
  6
CENTER
 62
     4
100
AcDbLine
 10
45.65845047691482
 20
-18.18444154012519
 30
0.0
 11
63.19842262738166
 21
-18.18444154012519
 31
0.0
  0
LINE
  5
236
330
1F
100
AcDbEntity
  8
LAYER-006
  6
Continuous
 62
     1
100
AcDbLine
 10
236.4531188339738
 20
-25.20043040031143
 30
0.0
 11
214.5281624158777
 21
-25.20043040031143
 31
0.0
  0
LINE
  5
237
330
1F
100
AcDbEntity
  8
LAYER-006
  6
Continuous
 62
     1
100
AcDbLine
 10
246.8381118715915
 20
-25.2004304003114
 30
0.0
 11
461.0681257963572
 21
-25.2004304003114
 31
0.0
  0
LINE
  5
238
330
1F
100
AcDbEntity
  8
LAYER-006
  6
Continuous
 62
     1
100
AcDbLine
 10
471.4531188339738
 20
-25.2004304003114
 30
0.0
 11
493.3780840217676
 21
-25.2004304003114
 31
0.0
  0
LINE
  5
239
330
1F
100
AcDbEntity
  8
LAYER-006
  6
Continuous
 62
     1
100
AcDbLine
 10
236.4531188339738
 20
-32.21642803157945
 30
0.0
 11
223.2981484909738
 21
-32.21642803157945
 31
0.0
  0
LINE
  5
23A
330
1F
100
AcDbEntity
  8
LAYER-006
  6
Continuous
 62
     1
100
AcDbLine
 10
471.4531188339738
 20
-32.21642803157948
 30
0.0
 11
484.6080979464741
 21
-32.21642803157948
 31
0.0
  0
LINE
  5
23B
330
1F
100
AcDbEntity
  8
LAYER-006
  6
Continuous
 62
     1
100
AcDbLine
 10
-460.0715634478524
 20
-55.68444154012519
 30
0.0
 11
-460.0715634478524
 21
-74.39446505186811
 31
0.0
  0
LINE
  5
23C
330
1F
100
AcDbEntity
  8
LAYER-006
  6
Continuous
 62
     1
100
AcDbLine
 10
-10.07156344785244
 20
-55.68444154012519
 30
0.0
 11
-10.07156344785244
 21
-74.39446505186811
 31
0.0
  0
LINE
  5
23D
330
1F
100
AcDbEntity
  8
LAYER-006
  6
Continuous
 62
     1
100
AcDbLine
 10
193.9531188339738
 20
-74.39446505186808
 30
0.0
 11
513.9531188339738
 21
-74.39446505186808
 31
0.0
  0
LINE
  5
23E
330
1F
100
AcDbEntity
  8
LAYER-033
  6
CENTER
 62
     5
100
AcDbLine
 10
54.42843655214756
 20
-308.4889693901259
 30
0.0
 11
54.42843655214756
 21
-323.6856060452266
 31
0.0
  0
LINE
  5
23F
330
1F
100
AcDbEntity
  8
LAYER-033
  6
HIDDEN
 62
     5
100
AcDbLine
 10
242.4531188339738
 20
-305.1248051236344
 30
0.0
 11
246.8381118715915
 21
-305.1248051236344
 31
0.0
  0
LINE
  5
240
330
1F
100
AcDbEntity
  8
LAYER-033
  6
CENTER
 62
     5
100
AcDbLine
 10
46.83011822676292
 20
-316.087287717676
 30
0.0
 11
62.02675488193574
 21
-316.087287717676
 31
0.0
  0
CIRCLE
  5
241
330
1F
100
AcDbEntity
  8
LAYER-033
  6
Continuous
 62
     5
100
AcDbCircle
 10
54.42843655214756
 20
-316.087287717676
 30
0.0
 40
4.262686593279735
  0
LINE
  5
242
330
1F
100
AcDbEntity
  8
LAYER-033
  6
HIDDEN
 62
     5
100
AcDbLine
 10
242.4531188339738
 20
-327.0497703117176
 30
0.0
 11
246.8381118715915
 21
-327.0497703117176
 31
0.0
  0
LINE
  5
243
330
1F
100
AcDbEntity
  8
LAYER-006
  6
Continuous
 62
     1
100
AcDbLine
 10
-460.0715634478524
 20
-354.1346504116263
 30
0.0
 11
-460.0715634478524
 21
-371.6746137921058
 31
0.0
  0
LINE
  5
244
330
1F
100
AcDbEntity
  8
LAYER-006
  6
Continuous
 62
     1
100
AcDbLine
 10
-10.07156344785244
 20
-354.1346504116263
 30
0.0
 11
-10.07156344785244
 21
-371.6746137921058
 31
0.0
  0
LINE
  5
245
330
1F
100
AcDbEntity
  8
LAYER-006
  6
Continuous
 62
     1
100
AcDbLine
 10
513.9531188339738
 20
-354.1346504116263
 30
0.0
 11
193.9531188339738
 21
-354.1346504116263
 31
0.0
  0
LINE
  5
246
330
1F
100
AcDbEntity
  8
LAYER-007
  6
CENTER
 62
     4
100
AcDbLine
 10
-524.5715634478524
 20
-395.1426448417184
 30
0.0
 11
-524.5715634478524
 21
-424.0835988899879
 31
0.0
  0
LINE
  5
247
330
1F
100
AcDbEntity
  8
LAYER-007
  6
CENTER
 62
     4
100
AcDbLine
 10
54.42843655214756
 20
-395.1426448417184
 30
0.0
 11
54.42843655214756
 21
-424.0835988899879
 31
0.0
  0
LINE
  5
248
330
1F
100
AcDbEntity
  8
LAYER-007
  6
CENTER
 62
     4
100
AcDbLine
 10
14.92843655214756
 20
-396.8966332867789
 30
0.0
 11
14.92843655214756
 21
-423.2066002824644
 31
0.0
  0
LINE
  5
249
330
1F
100
AcDbEntity
  8
LAYER-006
  6
Continuous
 62
     1
100
AcDbLine
 10
217.2981484909738
 20
-396.896633286779
 30
0.0
 11
217.2981484909738
 21
-423.2066002824644
 31
0.0
  0
LINE
  5
24A
330
1F
100
AcDbEntity
  8
LAYER-006
  6
Continuous
 62
     1
100
AcDbLine
 10
230.4531188339738
 20
-396.896633286779
 30
0.0
 11
217.2981484909738
 21
-396.896633286779
 31
0.0
  0
LINE
  5
24B
330
1F
100
AcDbEntity
  8
LAYER-006
  6
Continuous
 62
     1
100
AcDbLine
 10
477.4531188339738
 20
-396.8966332866378
 30
0.0
 11
490.6080979464741
 21
-396.8966332866378
 31
0.0
  0
LINE
  5
24C
330
1F
100
AcDbEntity
  8
LAYER-006
  6
Continuous
 62
     1
100
AcDbLine
 10
490.6080979464741
 20
-396.8966332866378
 30
0.0
 11
490.6080979464741
 21
-423.2066002824644
 31
0.0
  0
LINE
  5
24D
330
1F
100
AcDbEntity
  8
LAYER-006
  6
Continuous
 62
     1
100
AcDbLine
 10
208.5281624161
 20
-403.0356323094277
 30
0.0
 11
208.5281624161
 21
-416.1906114222782
 31
0.0
  0
LINE
  5
24E
330
1F
100
AcDbEntity
  8
LAYER-006
  6
Continuous
 62
     1
100
AcDbLine
 10
230.4531188339738
 20
-403.0356323094277
 30
0.0
 11
208.5281624161
 21
-403.0356323094277
 31
0.0
  0
LINE
  5
24F
330
1F
100
AcDbEntity
  8
LAYER-006
  6
Continuous
 62
     1
100
AcDbLine
 10
246.8381118715915
 20
-403.0356323094277
 30
0.0
 11
461.0681257963572
 21
-403.0356323094277
 31
0.0
  0
LINE
  5
250
330
1F
100
AcDbEntity
  8
LAYER-006
  6
Continuous
 62
     1
100
AcDbLine
 10
477.4531188339738
 20
-403.0356323094277
 30
0.0
 11
499.378084022057
 21
-403.0356323094277
 31
0.0
  0
LINE
  5
251
330
1F
100
AcDbEntity
  8
LAYER-006
  6
Continuous
 62
     1
100
AcDbLine
 10
499.378084022057
 20
-403.0356323094277
 30
0.0
 11
499.378084022057
 21
-416.1906114222782
 31
0.0
  0
LINE
  5
252
330
1F
100
AcDbEntity
  8
LAYER-007
  6
CENTER
 62
     4
100
AcDbLine
 10
-533.3415495230852
 20
-409.1746137921058
 30
0.0
 11
-515.8015773726197
 21
-409.1746137921058
 31
0.0
  0
LINE
  5
253
330
1F
100
AcDbEntity
  8
LAYER-007
  6
CENTER
 62
     4
100
AcDbLine
 10
3.527454654344638
 20
-409.1746137921058
 30
0.0
 11
27.20642582954525
 21
-409.1746137921058
 31
0.0
  0
CIRCLE
  5
254
330
1F
100
AcDbEntity
  8
LAYER-006
  6
Continuous
 62
     5
100
AcDbCircle
 10
14.92843655214756
 20
-409.1746137921058
 30
0.0
 40
6.13898148267723
  0
LINE
  5
255
330
1F
100
AcDbEntity
  8
LAYER-007
  6
CENTER
 62
     4
100
AcDbLine
 10
45.65845047691477
 20
-409.1746137921058
 30
0.0
 11
63.1984226273816
 21
-409.1746137921058
 31
0.0
  0
LINE
  5
256
330
1F
100
AcDbEntity
  8
LAYER-007
  6
CENTER
 62
     4
100
AcDbLine
 10
185.871349985
 20
-409.1746137921059
 30
0.0
 11
521.1578978471528
 21
-409.1746137921059
 31
0.0
  0
LINE
  5
257
330
1F
100
AcDbEntity
  8
LAYER-006
  6
Continuous
 62
     1
100
AcDbLine
 10
230.4531188339738
 20
-416.1906114222782
 30
0.0
 11
208.5281624161
 21
-416.1906114222782
 31
0.0
  0
LINE
  5
258
330
1F
100
AcDbEntity
  8
LAYER-006
  6
Continuous
 62
     1
100
AcDbLine
 10
246.8381118715915
 20
-416.1906114222782
 30
0.0
 11
461.0681257963572
 21
-416.1906114222782
 31
0.0
  0
LINE
  5
259
330
1F
100
AcDbEntity
  8
LAYER-006
  6
Continuous
 62
     1
100
AcDbLine
 10
477.4531188339738
 20
-416.1906114222782
 30
0.0
 11
499.378084022057
 21
-416.1906114222782
 31
0.0
  0
LINE
  5
25A
330
1F
100
AcDbEntity
  8
LAYER-006
  6
Continuous
 62
     1
100
AcDbLine
 10
230.4531188339738
 20
-423.2066002824644
 30
0.0
 11
217.2981484909738
 21
-423.2066002824644
 31
0.0
  0
LINE
  5
25B
330
1F
100
AcDbEntity
  8
LAYER-006
  6
Continuous
 62
     1
100
AcDbLine
 10
477.4531188339738
 20
-423.2066002824644
 30
0.0
 11
490.6080979464741
 21
-423.2066002824644
 31
0.0
  0
LINE
  5
25C
330
1F
100
AcDbEntity
  8
LAYER-007
  6
HIDDEN
 62
     1
100
AcDbLine
 10
7.689455069470341
 20
-440.6746137921058
 30
0.0
 11
7.689455069470341
 21
-446.6746137921058
 31
0.0
  0
LINE
  5
25D
330
1F
100
AcDbEntity
  8
LAYER-007
  6
HIDDEN
 62
     1
100
AcDbLine
 10
22.16742680514756
 20
-440.6746137921058
 30
0.0
 11
22.16742680514756
 21
-446.6746137921058
 31
0.0
  0
LINE
  5
25E
330
1F
100
AcDbEntity
  8
LAYER-006
  6
Continuous
 62
     1
100
AcDbLine
 10
-532.5715634478524
 20
-446.6746137921058
 30
0.0
 11
-532.5715634478524
 21
19.31555845987481
 31
0.0
  0
LINE
  5
25F
330
1F
100
AcDbEntity
  8
LAYER-007
  6
PHANTOM
 62
     4
100
AcDbLine
 10
311.4531188339738
 20
-446.6746137921059
 30
0.0
 11
396.4531188339738
 21
-446.6746137921059
 31
0.0
  0
LINE
  5
260
330
1F
100
AcDbEntity
  8
LAYER-007
  6
CENTER
 62
     4
100
AcDbLine
 10
-235.0715634478524
 20
154.9355575823464
 30
0.0
 11
-235.0715634478524
 21
-446.6746137921058
 31
0.0
  0
LINE
  5
261
330
1F
100
AcDbEntity
  8
LAYER-007
  6
Continuous
 62
     1
100
AcDbLine
 10
-29.38609909300703
 20
63.186984072
 30
0.0
 11
-29.38609909300703
 21
-74.39446505186811
 31
0.0
  0
LINE
  5
262
330
1F
100
AcDbEntity
  8
LAYER-007
  6
Continuous
 62
     1
100
AcDbLine
 10
-38.15608516824034
 20
63.186984072
 30
0.0
 11
-38.15608516824034
 21
-74.39446505186811
 31
0.0
  0
LINE
  5
263
330
1F
100
AcDbEntity
  8
LAYER-007
  6
Continuous
 62
     1
100
AcDbLine
 10
-230.671811315771
 20
63.186984072
 30
0.0
 11
-230.671811315771
 21
-74.39446505186811
 31
0.0
  0
LINE
  5
264
330
1F
100
AcDbEntity
  8
LAYER-007
  6
Continuous
 62
     1
100
AcDbLine
 10
-239.4417973910043
 20
63.186984072
 30
0.0
 11
-239.4417973910043
 21
-74.39446505186811
 31
0.0
  0
LINE
  5
265
330
1F
100
AcDbEntity
  8
LAYER-007
  6
Continuous
 62
     1
100
AcDbLine
 10
-433.2436229119513
 20
63.186984072
 30
0.0
 11
-433.2436229119513
 21
-74.39446505186811
 31
0.0
  0
LINE
  5
266
330
1F
100
AcDbEntity
  8
LAYER-007
  6
Continuous
 62
     1
100
AcDbLine
 10
-442.0136089871846
 20
63.186984072
 30
0.0
 11
-442.0136089871846
 21
-74.39446505186811
 31
0.0
  0
LINE
  5
267
330
1F
100
AcDbEntity
  8
LAYER-033
  6
Continuous
 62
     1
100
AcDbLine
 10
-10.07156344785244
 20
-384.1746137921058
 30
0.0
 11
39.92843655214756
 21
-384.1746137921058
 31
0.0
  0
LINE
  5
268
330
1F
100
AcDbEntity
  8
LAYER-006
  6
Continuous
 62
     1
100
AcDbLine
 10
-10.07156344785244
 20
-384.1746137921058
 30
0.0
 11
-10.07156344785244
 21
-446.6746137921058
 31
0.0
  0
LINE
  5
269
330
1F
100
AcDbEntity
  8
LAYER-006
  6
Continuous
 62
     1
100
AcDbLine
 10
39.92843655214756
 20
-384.1746137921058
 30
0.0
 11
39.92843655214756
 21
-446.6746137921058
 31
0.0
  0
LINE
  5
26A
330
1F
100
AcDbEntity
  8
LAYER-033
  6
CENTER
 62
     4
100
AcDbLine
 10
14.92843655214756
 20
-437.4125874125874
 30
0.0
 11
14.92843655214756
 21
-452.8607755881252
 31
0.0
  0
LINE
  5
26B
330
1F
100
AcDbEntity
  8
LAYER-006
  6
Continuous
 62
     1
100
AcDbLine
 10
-460.0715634478524
 20
-384.1746137921058
 30
0.0
 11
-460.0715634478524
 21
-446.6746137921058
 31
0.0
  0
LINE
  5
26C
330
1F
100
AcDbEntity
  8
LAYER-033
  6
Continuous
 62
     1
100
AcDbLine
 10
-510.0715634478524
 20
-384.1746137921058
 30
0.0
 11
-460.0715634478524
 21
-384.1746137921058
 31
0.0
  0
CIRCLE
  5
26D
330
1F
100
AcDbEntity
  8
LAYER-006
  6
Continuous
 62
     5
100
AcDbCircle
 10
-485.0715634478524
 20
-409.1746137921058
 30
0.0
 40
6.13898148267723
  0
LINE
  5
26E
330
1F
100
AcDbEntity
  8
LAYER-007
  6
CENTER
 62
     4
100
AcDbLine
 10
-485.0715634478524
 20
-396.8966332867789
 30
0.0
 11
-485.0715634478524
 21
-423.2066002824644
 31
0.0
  0
LINE
  5
26F
330
1F
100
AcDbEntity
  8
LAYER-007
  6
CENTER
 62
     4
100
AcDbLine
 10
-496.4725453456554
 20
-409.1746137921058
 30
0.0
 11
-472.7935741704548
 21
-409.1746137921058
 31
0.0
  0
LINE
  5
270
330
1F
100
AcDbEntity
  8
LAYER-033
  6
CENTER
 62
     4
100
AcDbLine
 10
-485.0715634478524
 20
-437.4125874125874
 30
0.0
 11
-485.0715634478524
 21
-452.8607755881252
 31
0.0
  0
LINE
  5
271
330
1F
100
AcDbEntity
  8
LAYER-007
  6
HIDDEN
 62
     1
100
AcDbLine
 10
-477.8325731948524
 20
-440.6746137921058
 30
0.0
 11
-477.8325731948524
 21
-446.6746137921058
 31
0.0
  0
LINE
  5
272
330
1F
100
AcDbEntity
  8
LAYER-007
  6
HIDDEN
 62
     1
100
AcDbLine
 10
-492.3105449305297
 20
-440.6746137921058
 30
0.0
 11
-492.3105449305297
 21
-446.6746137921058
 31
0.0
  0
LINE
  5
273
330
1F
100
AcDbEntity
  8
LAYER-006
  6
Continuous
 62
     1
100
AcDbLine
 10
-510.0715634478524
 20
-384.1746137921058
 30
0.0
 11
-510.0715634478524
 21
-446.6746137921058
 31
0.0
  0
LINE
  5
274
330
1F
100
AcDbEntity
  8
LAYER-033
  6
Continuous
 62
     5
100
AcDbLine
 10
46.42843655214756
 20
-327.0497703117176
 30
0.0
 11
62.42843655214756
 21
-327.0497703117176
 31
0.0
  0
LINE
  5
275
330
1F
100
AcDbEntity
  8
LAYER-033
  6
Continuous
 62
     5
100
AcDbLine
 10
46.42843655214756
 20
-305.1248051236344
 30
0.0
 11
62.42843655214756
 21
-305.1248051236344
 31
0.0
  0
LINE
  5
276
330
1F
100
AcDbEntity
  8
LAYER-007
  6
CENTER
 62
     4
100
AcDbLine
 10
353.9531188339738
 20
52.34842648252919
 30
0.0
 11
353.9531188339738
 21
-446.6746137921058
 31
0.0
  0
LINE
  5
277
330
1F
100
AcDbEntity
  8
LAYER-033
  6
Continuous
 62
     1
100
AcDbLine
 10
236.4531188339738
 20
-446.6746137921059
 30
0.0
 11
181.4531188339738
 21
-446.6746137921059
 31
0.0
  0
LINE
  5
278
330
1F
100
AcDbEntity
  8
LAYER-033
  6
Continuous
 62
     1
100
AcDbLine
 10
236.4531188339738
 20
-384.1746137921059
 30
0.0
 11
230.4531188339738
 21
-384.1746137921059
 31
0.0
  0
LINE
  5
279
330
1F
100
AcDbEntity
  8
LAYER-033
  6
Continuous
 62
     1
100
AcDbLine
 10
181.4531188339738
 20
-440.6746137921059
 30
0.0
 11
181.4531188339738
 21
-446.6746137921059
 31
0.0
  0
LINE
  5
27A
330
1F
100
AcDbEntity
  8
LAYER-033
  6
Continuous
 62
     1
100
AcDbLine
 10
230.4531188339738
 20
-440.6746137921059
 30
0.0
 11
181.4531188339738
 21
-440.6746137921059
 31
0.0
  0
LINE
  5
27B
330
1F
100
AcDbEntity
  8
LAYER-033
  6
Continuous
 62
     1
100
AcDbLine
 10
230.4531188339738
 20
-384.1746137921059
 30
0.0
 11
230.4531188339738
 21
-440.6746137921059
 31
0.0
  0
LINE
  5
27C
330
1F
100
AcDbEntity
  8
LAYER-033
  6
Continuous
 62
     1
100
AcDbLine
 10
236.4531188339738
 20
-446.6746137921059
 30
0.0
 11
311.4531188339738
 21
-446.6746137921059
 31
0.0
  0
LINE
  5
27D
330
1F
100
AcDbEntity
  8
LAYER-033
  6
Continuous
 62
     1
100
AcDbLine
 10
236.4531188339738
 20
-371.6746137921059
 30
0.0
 11
236.4531188339738
 21
-446.6746137921059
 31
0.0
  0
LINE
  5
27E
330
1F
100
AcDbEntity
  8
LAYER-033
  6
Continuous
 62
     1
100
AcDbLine
 10
236.4531188339738
 20
-371.6746137921059
 30
0.0
 11
242.4531188339738
 21
-371.6746137921059
 31
0.0
  0
LINE
  5
27F
330
1F
100
AcDbEntity
  8
LAYER-033
  6
Continuous
 62
     1
100
AcDbLine
 10
311.4531188339738
 20
-440.6746137921059
 30
0.0
 11
311.4531188339738
 21
-446.6746137921059
 31
0.0
  0
LINE
  5
280
330
1F
100
AcDbEntity
  8
LAYER-033
  6
Continuous
 62
     1
100
AcDbLine
 10
242.4531188339738
 20
-371.6746137921059
 30
0.0
 11
242.4531188339738
 21
-440.6746137921059
 31
0.0
  0
LINE
  5
281
330
1F
100
AcDbEntity
  8
LAYER-033
  6
Continuous
 62
     1
100
AcDbLine
 10
242.4531188339738
 20
-440.6746137921059
 30
0.0
 11
311.4531188339738
 21
-440.6746137921059
 31
0.0
  0
LINE
  5
282
330
1F
100
AcDbEntity
  8
LAYER-033
  6
HIDDEN
 62
     4
100
AcDbLine
 10
191.4531188339738
 20
-440.6746137921059
 30
0.0
 11
191.4531188339738
 21
-446.6746137921059
 31
0.0
  0
LINE
  5
283
330
1F
100
AcDbEntity
  8
LAYER-033
  6
HIDDEN
 62
     4
100
AcDbLine
 10
211.4531188339738
 20
-440.6746137921059
 30
0.0
 11
211.4531188339738
 21
-446.6746137921059
 31
0.0
  0
LINE
  5
284
330
1F
100
AcDbEntity
  8
LAYER-033
  6
CENTER
 62
     4
100
AcDbLine
 10
201.4531188339738
 20
-437.2049321500127
 30
0.0
 11
201.4531188339738
 21
-450.3967224167768
 31
0.0
  0
LINE
  5
285
330
1F
100
AcDbEntity
  8
LAYER-033
  6
Continuous
 62
     1
100
AcDbLine
 10
465.4531188339738
 20
-440.6746137921059
 30
0.0
 11
396.4531188339738
 21
-440.6746137921059
 31
0.0
  0
LINE
  5
286
330
1F
100
AcDbEntity
  8
LAYER-033
  6
Continuous
 62
     1
100
AcDbLine
 10
471.4531188339738
 20
-371.6746137921059
 30
0.0
 11
471.4531188339738
 21
-446.6746137921059
 31
0.0
  0
LINE
  5
287
330
1F
100
AcDbEntity
  8
LAYER-033
  6
Continuous
 62
     1
100
AcDbLine
 10
465.4531188339738
 20
-371.6746137921059
 30
0.0
 11
465.4531188339738
 21
-440.6746137921059
 31
0.0
  0
LINE
  5
288
330
1F
100
AcDbEntity
  8
LAYER-033
  6
Continuous
 62
     1
100
AcDbLine
 10
471.4531188339738
 20
-371.6746137921059
 30
0.0
 11
465.4531188339738
 21
-371.6746137921059
 31
0.0
  0
LINE
  5
289
330
1F
100
AcDbEntity
  8
LAYER-033
  6
Continuous
 62
     1
100
AcDbLine
 10
396.4531188339738
 20
-440.6746137921059
 30
0.0
 11
396.4531188339738
 21
-446.6746137921059
 31
0.0
  0
LINE
  5
28A
330
1F
100
AcDbEntity
  8
LAYER-033
  6
Continuous
 62
     1
100
AcDbLine
 10
471.4531188339738
 20
-446.6746137921059
 30
0.0
 11
396.4531188339738
 21
-446.6746137921059
 31
0.0
  0
LINE
  5
28B
330
1F
100
AcDbEntity
  8
LAYER-033
  6
Continuous
 62
     1
100
AcDbLine
 10
471.4531188339738
 20
-446.6746137921059
 30
0.0
 11
526.4531188339738
 21
-446.6746137921059
 31
0.0
  0
LINE
  5
28C
330
1F
100
AcDbEntity
  8
LAYER-033
  6
Continuous
 62
     1
100
AcDbLine
 10
477.4531188339738
 20
-440.6746137921059
 30
0.0
 11
526.4531188339738
 21
-440.6746137921059
 31
0.0
  0
LINE
  5
28D
330
1F
100
AcDbEntity
  8
LAYER-033
  6
Continuous
 62
     1
100
AcDbLine
 10
477.4531188339738
 20
-384.1746137921059
 30
0.0
 11
477.4531188339738
 21
-440.6746137921059
 31
0.0
  0
LINE
  5
28E
330
1F
100
AcDbEntity
  8
LAYER-033
  6
Continuous
 62
     1
100
AcDbLine
 10
526.4531188339738
 20
-440.6746137921059
 30
0.0
 11
526.4531188339738
 21
-446.6746137921059
 31
0.0
  0
LINE
  5
28F
330
1F
100
AcDbEntity
  8
LAYER-033
  6
CENTER
 62
     4
100
AcDbLine
 10
506.4531188339738
 20
-437.2049321500127
 30
0.0
 11
506.4531188339738
 21
-450.3967224167768
 31
0.0
  0
LINE
  5
290
330
1F
100
AcDbEntity
  8
LAYER-033
  6
HIDDEN
 62
     4
100
AcDbLine
 10
516.4531188339738
 20
-440.6746137921059
 30
0.0
 11
516.4531188339738
 21
-446.6746137921059
 31
0.0
  0
LINE
  5
291
330
1F
100
AcDbEntity
  8
LAYER-033
  6
HIDDEN
 62
     4
100
AcDbLine
 10
496.4531188339738
 20
-440.6746137921059
 30
0.0
 11
496.4531188339738
 21
-446.6746137921059
 31
0.0
  0
LINE
  5
292
330
1F
100
AcDbEntity
  8
LAYER-033
  6
Continuous
 62
     1
100
AcDbLine
 10
471.4531188339738
 20
-384.1746137921059
 30
0.0
 11
477.4531188339738
 21
-384.1746137921059
 31
0.0
  0
LINE
  5
293
330
1F
100
AcDbEntity
  8
LAYER-033
  6
Continuous
 62
     1
100
AcDbLine
 10
471.4531188339738
 20
19.31555845987481
 30
0.0
 11
396.4531188339738
 21
19.31555845987481
 31
0.0
  0
LINE
  5
294
330
1F
100
AcDbEntity
  8
LAYER-033
  6
Continuous
 62
     1
100
AcDbLine
 10
465.4531188339738
 20
13.31555845987481
 30
0.0
 11
396.4531188339738
 21
13.31555845987481
 31
0.0
  0
LINE
  5
295
330
1F
100
AcDbEntity
  8
LAYER-033
  6
Continuous
 62
     1
100
AcDbLine
 10
471.4531188339738
 20
-55.68444154012519
 30
0.0
 11
471.4531188339738
 21
19.31555845987481
 31
0.0
  0
LINE
  5
296
330
1F
100
AcDbEntity
  8
LAYER-033
  6
Continuous
 62
     1
100
AcDbLine
 10
465.4531188339738
 20
-55.68444154012519
 30
0.0
 11
465.4531188339738
 21
13.31555845987481
 31
0.0
  0
LINE
  5
297
330
1F
100
AcDbEntity
  8
LAYER-033
  6
Continuous
 62
     1
100
AcDbLine
 10
471.4531188339738
 20
-55.68444154012519
 30
0.0
 11
465.4531188339738
 21
-55.68444154012519
 31
0.0
  0
LINE
  5
298
330
1F
100
AcDbEntity
  8
LAYER-033
  6
Continuous
 62
     1
100
AcDbLine
 10
396.4531188339738
 20
13.31555845987481
 30
0.0
 11
396.4531188339738
 21
19.31555845987481
 31
0.0
  0
LINE
  5
299
330
1F
100
AcDbEntity
  8
LAYER-033
  6
Continuous
 62
     1
100
AcDbLine
 10
236.4531188339738
 20
19.31555845987481
 30
0.0
 11
311.4531188339738
 21
19.31555845987481
 31
0.0
  0
LINE
  5
29A
330
1F
100
AcDbEntity
  8
LAYER-033
  6
Continuous
 62
     1
100
AcDbLine
 10
242.4531188339738
 20
13.31555845987481
 30
0.0
 11
311.4531188339738
 21
13.31555845987481
 31
0.0
  0
LINE
  5
29B
330
1F
100
AcDbEntity
  8
LAYER-033
  6
Continuous
 62
     1
100
AcDbLine
 10
236.4531188339738
 20
-55.68444154012519
 30
0.0
 11
236.4531188339738
 21
19.31555845987481
 31
0.0
  0
LINE
  5
29C
330
1F
100
AcDbEntity
  8
LAYER-033
  6
Continuous
 62
     1
100
AcDbLine
 10
242.4531188339738
 20
-55.68444154012519
 30
0.0
 11
242.4531188339738
 21
13.31555845987481
 31
0.0
  0
LINE
  5
29D
330
1F
100
AcDbEntity
  8
LAYER-033
  6
Continuous
 62
     1
100
AcDbLine
 10
236.4531188339738
 20
-55.68444154012519
 30
0.0
 11
242.4531188339738
 21
-55.68444154012519
 31
0.0
  0
LINE
  5
29E
330
1F
100
AcDbEntity
  8
LAYER-033
  6
Continuous
 62
     1
100
AcDbLine
 10
311.4531188339738
 20
13.31555845987481
 30
0.0
 11
311.4531188339738
 21
19.31555845987481
 31
0.0
  0
LINE
  5
29F
330
1F
100
AcDbEntity
  8
LAYER-006
  6
Continuous
 62
     1
100
AcDbLine
 10
465.4531188339738
 20
13.31555845987481
 30
0.0
 11
465.4531188339738
 21
-440.6746137921059
 31
0.0
  0
LINE
  5
2A0
330
1F
100
AcDbEntity
  8
LAYER-006
  6
Continuous
 62
     1
100
AcDbLine
 10
461.0681257963572
 20
-440.6746137921059
 30
0.0
 11
461.0681257963572
 21
13.31555845987481
 31
0.0
  0
LINE
  5
2A1
330
1F
100
AcDbEntity
  8
LAYER-006
  6
Continuous
 62
     1
100
AcDbLine
 10
246.8381118715915
 20
13.31555845987481
 30
0.0
 11
246.8381118715915
 21
-440.6746137921059
 31
0.0
  0
LINE
  5
2A2
330
1F
100
AcDbEntity
  8
LAYER-006
  6
Continuous
 62
     1
100
AcDbLine
 10
242.4531188339738
 20
13.31555845987481
 30
0.0
 11
242.4531188339738
 21
-440.6746137921059
 31
0.0
  0
LINE
  5
2A3
330
1F
100
AcDbEntity
  8
LAYER-007
  6
Continuous
 62
     1
100
AcDbLine
 10
211.9024330673781
 20
63.186984072
 30
0.0
 11
211.9024330673781
 21
-74.39446505186808
 31
0.0
  0
LINE
  5
2A4
330
1F
100
AcDbEntity
  8
LAYER-007
  6
Continuous
 62
     1
100
AcDbLine
 10
203.1324469921449
 20
63.186984072
 30
0.0
 11
203.1324469921449
 21
-74.39446505186808
 31
0.0
  0
LINE
  5
2A5
330
1F
100
AcDbEntity
  8
LAYER-007
  6
Continuous
 62
     1
100
AcDbLine
 10
504.7737906758039
 20
63.186984072
 30
0.0
 11
504.7737906758039
 21
-74.39446505186808
 31
0.0
  0
LINE
  5
2A6
330
1F
100
AcDbEntity
  8
LAYER-007
  6
Continuous
 62
     1
100
AcDbLine
 10
496.0038046005707
 20
63.186984072
 30
0.0
 11
496.0038046005707
 21
-74.39446505186808
 31
0.0
  0
LINE
  5
2A7
330
1F
100
AcDbEntity
  8
LAYER-007
  6
Continuous
 62
     1
100
AcDbLine
 10
198.7474539545272
 20
85.11199442289308
 30
0.0
 11
198.7474539545272
 21
63.186984072
 31
0.0
  0
LINE
  5
2A8
330
1F
100
AcDbEntity
  8
LAYER-008
  6
HIDDEN
 62
     4
100
AcDbLine
 10
211.9024330673781
 20
89.49698745953066
 30
0.0
 11
211.9024330673781
 21
63.186984072
 31
0.0
  0
LINE
  5
2A9
330
1F
100
AcDbEntity
  8
LAYER-007
  6
Continuous
 62
     1
100
AcDbLine
 10
509.1587837131476
 20
85.11199442285806
 30
0.0
 11
509.1587837131476
 21
63.186984072
 31
0.0
  0
LINE
  5
2AA
330
1F
100
AcDbEntity
  8
LAYER-008
  6
HIDDEN
 62
     4
100
AcDbLine
 10
496.0038046005707
 20
89.49698745953066
 30
0.0
 11
496.0038046005707
 21
63.186984072
 31
0.0
  0
LINE
  5
2AB
330
1F
100
AcDbEntity
  8
LAYER-033
  6
Continuous
 62
     1
100
AcDbLine
 10
259.5223495187768
 20
133.3253862078942
 30
0.0
 11
259.5223495187768
 21
89.47545583172769
 31
0.0
  0
LINE
  5
2AC
330
1F
100
AcDbEntity
  8
LAYER-007
  6
Continuous
 62
     1
100
AcDbLine
 10
237.5973843306936
 20
133.3253862078942
 30
0.0
 11
237.5973843306936
 21
19.31555845987481
 31
0.0
  0
LINE
  5
2AD
330
1F
100
AcDbEntity
  8
LAYER-007
  6
Continuous
 62
     1
100
AcDbLine
 10
233.2123912934774
 20
133.3253862078942
 30
0.0
 11
233.2123912934774
 21
-5.906469805879596
 31
0.0
  0
LINE
  5
2AE
330
1F
100
AcDbEntity
  8
LAYER-007
  6
Continuous
 62
     1
100
AcDbLine
 10
216.2874261049947
 20
103.5074335521778
 30
0.0
 11
216.2874261049947
 21
63.186984072
 31
0.0
  0
LINE
  5
2AF
330
1F
100
AcDbEntity
  8
LAYER-007
  6
Continuous
 62
     1
100
AcDbLine
 10
474.6938463748709
 20
133.3253862078942
 30
0.0
 11
474.6938463748709
 21
-5.906469805879567
 31
0.0
  0
LINE
  5
2B0
330
1F
100
AcDbEntity
  8
LAYER-007
  6
Continuous
 62
     1
100
AcDbLine
 10
470.3088533374744
 20
133.3253862078942
 30
0.0
 11
470.3088533374744
 21
19.31555845987481
 31
0.0
  0
LINE
  5
2B1
330
1F
100
AcDbEntity
  8
LAYER-007
  6
Continuous
 62
     1
100
AcDbLine
 10
496.0038046005707
 20
103.5074335521778
 30
0.0
 11
496.0038046005707
 21
89.49698745953066
 31
0.0
  0
LINE
  5
2B2
330
1F
100
AcDbEntity
  8
LAYER-007
  6
Continuous
 62
     1
100
AcDbLine
 10
491.6188115631744
 20
103.5074335521778
 30
0.0
 11
491.6188115631744
 21
63.186984072
 31
0.0
  0
LINE
  5
2B3
330
1F
100
AcDbEntity
  8
LAYER-007
  6
Continuous
 62
     1
100
AcDbLine
 10
211.9024330673781
 20
103.5074335521778
 30
0.0
 11
211.9024330673781
 21
89.49698745953069
 31
0.0
  0
LINE
  5
2B4
330
1F
100
AcDbEntity
  8
LAYER-033
  6
Continuous
 62
     1
100
AcDbLine
 10
396.4531188339738
 20
13.31555845987481
 30
0.0
 11
311.4531188339738
 21
13.31555845987481
 31
0.0
  0
LINE
  5
2B5
330
1F
100
AcDbEntity
  8
LAYER-033
  6
Continuous
 62
     1
100
AcDbLine
 10
396.4531188339738
 20
-440.6746137921059
 30
0.0
 11
311.4531188339738
 21
-440.6746137921059
 31
0.0
  0
LINE
  5
2B6
330
1F
100
AcDbEntity
  8
LAYER-006
  6
Continuous
 62
     1
100
AcDbLine
 10
-29.38609909300703
 20
-55.68444154012519
 30
0.0
 11
62.42843655214756
 21
-55.68444154012519
 31
0.0
  0
LINE
  5
2B7
330
1F
100
AcDbEntity
  8
LAYER-007
  6
HIDDEN
 62
     1
100
AcDbLine
 10
-29.38609909300703
 20
13.31555845987481
 30
0.0
 11
62.42843655214756
 21
13.31555845987481
 31
0.0
  0
LINE
  5
2B8
330
1F
100
AcDbEntity
  8
LAYER-006
  6
Continuous
 62
     1
100
AcDbLine
 10
-29.38609909300703
 20
19.31555845987481
 30
0.0
 11
62.42843655214756
 21
19.31555845987481
 31
0.0
  0
LINE
  5
2B9
330
1F
100
AcDbEntity
  8
LAYER-007
  6
HIDDEN
 62
     1
100
AcDbLine
 10
-230.671811315771
 20
13.31555845987481
 30
0.0
 11
-38.15608516824034
 21
13.31555845987481
 31
0.0
  0
LINE
  5
2BA
330
1F
100
AcDbEntity
  8
LAYER-006
  6
Continuous
 62
     1
100
AcDbLine
 10
-230.671811315771
 20
19.31555845987481
 30
0.0
 11
-38.15608516824034
 21
19.31555845987481
 31
0.0
  0
LINE
  5
2BB
330
1F
100
AcDbEntity
  8
LAYER-006
  6
Continuous
 62
     1
100
AcDbLine
 10
-230.671811315771
 20
-55.68444154012519
 30
0.0
 11
-38.15608516824034
 21
-55.68444154012519
 31
0.0
  0
LINE
  5
2BC
330
1F
100
AcDbEntity
  8
LAYER-006
  6
Continuous
 62
     1
100
AcDbLine
 10
-532.5715634478524
 20
-371.6746137921058
 30
0.0
 11
62.42843655214756
 21
-371.6746137921058
 31
0.0
  0
LINE
  5
2BD
330
1F
100
AcDbEntity
  8
LAYER-007
  6
HIDDEN
 62
     1
100
AcDbLine
 10
-532.5715634478524
 20
-440.6746137921058
 30
0.0
 11
62.42843655214756
 21
-440.6746137921058
 31
0.0
  0
LINE
  5
2BE
330
1F
100
AcDbEntity
  8
LAYER-006
  6
Continuous
 62
     1
100
AcDbLine
 10
62.42843655214756
 20
-446.6746137921058
 30
0.0
 11
-532.5715634478524
 21
-446.6746137921058
 31
0.0
  0
LINE
  5
2BF
330
1F
100
AcDbEntity
  8
LAYER-006
  6
Continuous
 62
     1
100
AcDbLine
 10
-532.5715634478524
 20
-55.68444154012519
 30
0.0
 11
-442.0136089871846
 21
-55.68444154012519
 31
0.0
  0
LINE
  5
2C0
330
1F
100
AcDbEntity
  8
LAYER-007
  6
HIDDEN
 62
     1
100
AcDbLine
 10
-532.5715634478524
 20
13.31555845987481
 30
0.0
 11
-442.0136089871846
 21
13.31555845987481
 31
0.0
  0
LINE
  5
2C1
330
1F
100
AcDbEntity
  8
LAYER-006
  6
Continuous
 62
     1
100
AcDbLine
 10
-532.5715634478524
 20
19.31555845987481
 30
0.0
 11
-442.0136089871846
 21
19.31555845987481
 31
0.0
  0
LINE
  5
2C2
330
1F
100
AcDbEntity
  8
LAYER-007
  6
Continuous
 62
     1
100
AcDbLine
 10
-487.8446344641631
 20
89.47545583172769
 30
0.0
 11
19.455513553
 21
89.47545583172769
 31
0.0
  0
LINE
  5
2C3
330
1F
100
AcDbEntity
  8
LAYER-007
  6
Continuous
 62
     1
100
AcDbLine
 10
-505.3846153846155
 20
133.3253862078942
 30
0.0
 11
36.99548570395655
 21
133.3253862078942
 31
0.0
  0
LINE
  5
2C4
330
1F
100
AcDbEntity
  8
LAYER-007
  6
Continuous
 62
     1
100
AcDbLine
 10
-505.3846153846155
 20
159.9659542311875
 30
0.0
 11
36.99548570395655
 21
159.9659542311875
 31
0.0
  0
LINE
  5
2C5
330
1F
100
AcDbEntity
  8
LAYER-007
  6
Continuous
 62
     1
100
AcDbLine
 10
-505.3846153846155
 20
55.64872257873287
 30
0.0
 11
36.99548570395655
 21
55.64872257873287
 31
0.0
  0
LINE
  5
2C6
330
1F
100
AcDbEntity
  8
LAYER-007
  6
HIDDEN
 62
     1
100
AcDbLine
 10
-433.2436229119513
 20
13.31555845987481
 30
0.0
 11
-239.4417973910043
 21
13.31555845987481
 31
0.0
  0
LINE
  5
2C7
330
1F
100
AcDbEntity
  8
LAYER-006
  6
Continuous
 62
     1
100
AcDbLine
 10
-433.2436229119513
 20
19.31555845987481
 30
0.0
 11
-239.4417973910043
 21
19.31555845987481
 31
0.0
  0
LINE
  5
2C8
330
1F
100
AcDbEntity
  8
LAYER-006
  6
Continuous
 62
     1
100
AcDbLine
 10
-433.2436229119513
 20
-55.68444154012519
 30
0.0
 11
-239.4417973910043
 21
-55.68444154012519
 31
0.0
  0
LINE
  5
2C9
330
1F
100
AcDbEntity
  8
LAYER-006
  6
Continuous
 62
     1
100
AcDbLine
 10
46.42843655214756
 20
-55.68444154012519
 30
0.0
 11
46.42843655214756
 21
-371.6746137921058
 31
0.0
  0
LINE
  5
2CA
330
1F
100
AcDbEntity
  8
LAYER-006
  6
Continuous
 62
     1
100
AcDbLine
 10
4.928436552147559
 20
-74.39446505186811
 30
0.0
 11
4.928436552147559
 21
-354.1346504116263
 31
0.0
  0
LINE
  5
2CB
330
1F
100
AcDbEntity
  8
LAYER-006
  6
Continuous
 62
     1
100
AcDbLine
 10
-149.2045634503046
 20
-74.39446505186811
 30
0.0
 11
-149.2045634503046
 21
-354.1346504116263
 31
0.0
  0
LINE
  5
2CC
330
1F
100
AcDbEntity
  8
LAYER-006
  6
Continuous
 62
     1
100
AcDbLine
 10
-158.0045634478525
 20
-74.39446505186811
 30
0.0
 11
-158.0045634478525
 21
-354.1346504116263
 31
0.0
  0
LINE
  5
2CD
330
1F
100
AcDbEntity
  8
LAYER-006
  6
Continuous
 62
     1
100
AcDbLine
 10
-312.1385634478524
 20
-74.39446505186811
 30
0.0
 11
-312.1385634478524
 21
-354.1346504116263
 31
0.0
  0
LINE
  5
2CE
330
1F
100
AcDbEntity
  8
LAYER-006
  6
Continuous
 62
     1
100
AcDbLine
 10
-320.9385634478524
 20
-74.39446505186811
 30
0.0
 11
-320.9385634478524
 21
-354.1346504116263
 31
0.0
  0
LINE
  5
2CF
330
1F
100
AcDbEntity
  8
LAYER-006
  6
Continuous
 62
     1
100
AcDbLine
 10
-475.0715634478524
 20
-354.1346504116263
 30
0.0
 11
-475.0715634478524
 21
-74.39446505186811
 31
0.0
  0
LINE
  5
2D0
330
1F
100
AcDbEntity
  8
LAYER-006
  6
Continuous
 62
     1
100
AcDbLine
 10
-516.5715634478524
 20
-55.68444154012519
 30
0.0
 11
-516.5715634478524
 21
-371.6746137921058
 31
0.0
  0
LINE
  5
2D1
330
1F
100
AcDbEntity
  8
LAYER-006
  6
Continuous
 62
     1
100
AcDbLine
 10
513.9531188339738
 20
-74.39446505186808
 30
0.0
 11
513.9531188339738
 21
-354.1346504116264
 31
0.0
  0
LINE
  5
2D2
330
1F
100
AcDbEntity
  8
LAYER-006
  6
Continuous
 62
     1
100
AcDbLine
 10
193.9531188339738
 20
-354.1346504116263
 30
0.0
 11
193.9531188339738
 21
-74.39446505186805
 31
0.0
  0
LINE
  5
2D3
330
1F
100
AcDbEntity
  8
LAYER-006
  6
Continuous
 62
     1
100
AcDbLine
 10
479.0788394127078
 20
123.2399066088932
 30
0.0
 11
491.6188115631744
 21
123.2399066088932
 31
0.0
  0
LINE
  5
2D4
330
1F
100
AcDbEntity
  8
LAYER-006
  6
Continuous
 62
     1
100
AcDbLine
 10
479.0788394127078
 20
99.56093543289416
 30
0.0
 11
491.6188115631744
 21
99.56093543289416
 31
0.0
  0
LINE
  5
2D5
330
1F
100
AcDbEntity
  8
LAYER-006
  6
Continuous
 62
     1
100
AcDbLine
 10
228.8273982554604
 20
123.2399066088932
 30
0.0
 11
216.2874261049947
 21
123.2399066088932
 31
0.0
  0
LINE
  5
2D6
330
1F
100
AcDbEntity
  8
LAYER-006
  6
Continuous
 62
     1
100
AcDbLine
 10
228.8273982554604
 20
99.56093543289416
 30
0.0
 11
216.2874261049947
 21
99.56093543289416
 31
0.0
  0
LINE
  5
2D7
330
1F
100
AcDbEntity
  8
LAYER-033
  6
Continuous
 62
     4
100
AcDbLine
 10
203.1324469921449
 20
59.65145016606725
 30
0.0
 11
206.6679808980776
 21
63.186984072
 31
0.0
  0
LINE
  5
2D8
330
1F
100
AcDbEntity
  8
LAYER-033
  6
Continuous
 62
     4
100
AcDbLine
 10
203.1324469921449
 20
56.1159162601345
 30
0.0
 11
210.2035148040104
 21
63.186984072
 31
0.0
  0
LINE
  5
2D9
330
1F
100
AcDbEntity
  8
LAYER-033
  6
Continuous
 62
     4
100
AcDbLine
 10
203.1324469921449
 20
52.58038235420175
 30
0.0
 11
211.9024330673781
 21
61.35036842943489
 31
0.0
  0
LINE
  5
2DA
330
1F
100
AcDbEntity
  8
LAYER-033
  6
Continuous
 62
     4
100
AcDbLine
 10
203.1324469921449
 20
49.04484844826899
 30
0.0
 11
211.9024330673781
 21
57.81483452350219
 31
0.0
  0
LINE
  5
2DB
330
1F
100
AcDbEntity
  8
LAYER-033
  6
Continuous
 62
     4
100
AcDbLine
 10
203.1324469921449
 20
45.50931454233624
 30
0.0
 11
211.9024330673781
 21
54.27930061756942
 31
0.0
  0
LINE
  5
2DC
330
1F
100
AcDbEntity
  8
LAYER-033
  6
Continuous
 62
     4
100
AcDbLine
 10
203.1324469921449
 20
41.97378063640349
 30
0.0
 11
211.9024330673781
 21
50.74376671163668
 31
0.0
  0
LINE
  5
2DD
330
1F
100
AcDbEntity
  8
LAYER-033
  6
Continuous
 62
     4
100
AcDbLine
 10
203.1324469921449
 20
38.43824673047074
 30
0.0
 11
211.9024330673781
 21
47.20823280570392
 31
0.0
  0
LINE
  5
2DE
330
1F
100
AcDbEntity
  8
LAYER-033
  6
Continuous
 62
     4
100
AcDbLine
 10
203.1324469921449
 20
34.90271282453799
 30
0.0
 11
211.9024330673781
 21
43.67269889977116
 31
0.0
  0
LINE
  5
2DF
330
1F
100
AcDbEntity
  8
LAYER-033
  6
Continuous
 62
     4
100
AcDbLine
 10
203.1324469921449
 20
31.36717891859541
 30
0.0
 11
211.9024330673781
 21
40.13716499383843
 31
0.0
  0
LINE
  5
2E0
330
1F
100
AcDbEntity
  8
LAYER-033
  6
Continuous
 62
     4
100
AcDbLine
 10
203.1324469921449
 20
27.83164501267249
 30
0.0
 11
211.9024330673781
 21
36.60163108790567
 31
0.0
  0
LINE
  5
2E1
330
1F
100
AcDbEntity
  8
LAYER-033
  6
Continuous
 62
     4
100
AcDbLine
 10
203.1324469921449
 20
24.29611110673973
 30
0.0
 11
211.9024330673781
 21
33.06609718197292
 31
0.0
  0
LINE
  5
2E2
330
1F
100
AcDbEntity
  8
LAYER-033
  6
Continuous
 62
     4
100
AcDbLine
 10
203.1324469921449
 20
20.76057720080698
 30
0.0
 11
211.9024330673781
 21
29.53056327604016
 31
0.0
  0
LINE
  5
2E3
330
1F
100
AcDbEntity
  8
LAYER-033
  6
Continuous
 62
     4
100
AcDbLine
 10
203.1324469921449
 20
17.22504329487423
 30
0.0
 11
211.9024330673781
 21
25.99502937010742
 31
0.0
  0
LINE
  5
2E4
330
1F
100
AcDbEntity
  8
LAYER-033
  6
Continuous
 62
     4
100
AcDbLine
 10
203.1324469921449
 20
13.68950938894148
 30
0.0
 11
211.9024330673781
 21
22.45949546417465
 31
0.0
  0
LINE
  5
2E5
330
1F
100
AcDbEntity
  8
LAYER-033
  6
Continuous
 62
     4
100
AcDbLine
 10
203.1324469921449
 20
10.15397548300873
 30
0.0
 11
211.9024330673781
 21
18.92396155824193
 31
0.0
  0
LINE
  5
2E6
330
1F
100
AcDbEntity
  8
LAYER-033
  6
Continuous
 62
     4
100
AcDbLine
 10
203.1324469921449
 20
6.618441577075977
 30
0.0
 11
211.9024330673781
 21
15.38842765230916
 31
0.0
  0
LINE
  5
2E7
330
1F
100
AcDbEntity
  8
LAYER-033
  6
Continuous
 62
     4
100
AcDbLine
 10
203.1324469921449
 20
3.082907671143225
 30
0.0
 11
211.9024330673781
 21
11.8528937463764
 31
0.0
  0
LINE
  5
2E8
330
1F
100
AcDbEntity
  8
LAYER-033
  6
Continuous
 62
     4
100
AcDbLine
 10
203.1324469921449
 20
-0.4526262347895269
 30
0.0
 11
211.9024330673781
 21
8.317359840443672
 31
0.0
  0
LINE
  5
2E9
330
1F
100
AcDbEntity
  8
LAYER-033
  6
Continuous
 62
     4
100
AcDbLine
 10
203.1324469921449
 20
-3.988160140722272
 30
0.0
 11
211.9024330673781
 21
4.781825934510906
 31
0.0
  0
LINE
  5
2EA
330
1F
100
AcDbEntity
  8
LAYER-033
  6
Continuous
 62
     4
100
AcDbLine
 10
203.1324469921449
 20
-7.523694046655024
 30
0.0
 11
211.9024330673781
 21
1.246292028578168
 31
0.0
  0
LINE
  5
2EB
330
1F
100
AcDbEntity
  8
LAYER-033
  6
Continuous
 62
     4
100
AcDbLine
 10
203.1324469921449
 20
-11.05922795258778
 30
0.0
 11
211.9024330673781
 21
-2.289241877354598
 31
0.0
  0
LINE
  5
2EC
330
1F
100
AcDbEntity
  8
LAYER-033
  6
Continuous
 62
     4
100
AcDbLine
 10
203.1324469921449
 20
-14.59476185852054
 30
0.0
 11
211.9024330673781
 21
-5.82477578328735
 31
0.0
  0
LINE
  5
2ED
330
1F
100
AcDbEntity
  8
LAYER-033
  6
Continuous
 62
     4
100
AcDbLine
 10
203.1324469921449
 20
-18.13029576445328
 30
0.0
 11
211.9024330673781
 21
-9.360309689125192
 31
0.0
  0
LINE
  5
2EE
330
1F
100
AcDbEntity
  8
LAYER-033
  6
Continuous
 62
     4
100
AcDbLine
 10
203.1324469921449
 20
-21.66582967038605
 30
0.0
 11
211.9024330673781
 21
-12.89584359515285
 31
0.0
  0
LINE
  5
2EF
330
1F
100
AcDbEntity
  8
LAYER-033
  6
Continuous
 62
     4
100
AcDbLine
 10
203.1324469921449
 20
-25.20136357631878
 30
0.0
 11
211.9024330673781
 21
-16.43137750108559
 31
0.0
  0
LINE
  5
2F0
330
1F
100
AcDbEntity
  8
LAYER-033
  6
Continuous
 62
     4
100
AcDbLine
 10
203.1324469921449
 20
-28.73689748212519
 30
0.0
 11
211.9024330673781
 21
-19.96691138168478
 31
0.0
  0
LINE
  5
2F1
330
1F
100
AcDbEntity
  8
LAYER-033
  6
Continuous
 62
     4
100
AcDbLine
 10
203.1324469921449
 20
-32.27243138818432
 30
0.0
 11
211.9024330673781
 21
-23.50244531295111
 31
0.0
  0
LINE
  5
2F2
330
1F
100
AcDbEntity
  8
LAYER-033
  6
Continuous
 62
     4
100
AcDbLine
 10
203.1324469921449
 20
-35.80796529411704
 30
0.0
 11
211.9024330673781
 21
-27.03797921886809
 31
0.0
  0
LINE
  5
2F3
330
1F
100
AcDbEntity
  8
LAYER-033
  6
Continuous
 62
     4
100
AcDbLine
 10
203.1324469921449
 20
-39.34349920004981
 30
0.0
 11
211.9024330673781
 21
-30.5735131248166
 31
0.0
  0
LINE
  5
2F4
330
1F
100
AcDbEntity
  8
LAYER-033
  6
Continuous
 62
     4
100
AcDbLine
 10
203.1324469921449
 20
-42.87903310598254
 30
0.0
 11
211.9024330673781
 21
-34.10904708164645
 31
0.0
  0
LINE
  5
2F5
330
1F
100
AcDbEntity
  8
LAYER-033
  6
Continuous
 62
     4
100
AcDbLine
 10
203.1324469921449
 20
-46.41456701191531
 30
0.0
 11
211.9024330673781
 21
-37.6445809366821
 31
0.0
  0
LINE
  5
2F6
330
1F
100
AcDbEntity
  8
LAYER-033
  6
Continuous
 62
     4
100
AcDbLine
 10
203.1324469921449
 20
-49.95010091784805
 30
0.0
 11
211.9024330673781
 21
-41.18011484261487
 31
0.0
  0
LINE
  5
2F7
330
1F
100
AcDbEntity
  8
LAYER-033
  6
Continuous
 62
     4
100
AcDbLine
 10
203.1324469921449
 20
-53.4856348237808
 30
0.0
 11
211.9024330673781
 21
-44.71564874854761
 31
0.0
  0
LINE
  5
2F8
330
1F
100
AcDbEntity
  8
LAYER-033
  6
Continuous
 62
     4
100
AcDbLine
 10
203.1324469921449
 20
-57.02116872971355
 30
0.0
 11
211.9024330673781
 21
-48.25118265448037
 31
0.0
  0
LINE
  5
2F9
330
1F
100
AcDbEntity
  8
LAYER-033
  6
Continuous
 62
     4
100
AcDbLine
 10
203.1324469921449
 20
-60.55670263564632
 30
0.0
 11
211.9024330673781
 21
-51.78671656041311
 31
0.0
  0
LINE
  5
2FA
330
1F
100
AcDbEntity
  8
LAYER-033
  6
Continuous
 62
     4
100
AcDbLine
 10
203.1324469921449
 20
-64.09223654157906
 30
0.0
 11
211.9024330673781
 21
-55.32225046634586
 31
0.0
  0
LINE
  5
2FB
330
1F
100
AcDbEntity
  8
LAYER-033
  6
Continuous
 62
     4
100
AcDbLine
 10
203.1324469921449
 20
-67.62777044751181
 30
0.0
 11
211.9024330673781
 21
-58.85778437227863
 31
0.0
  0
LINE
  5
2FC
330
1F
100
AcDbEntity
  8
LAYER-033
  6
Continuous
 62
     4
100
AcDbLine
 10
203.1324469921449
 20
-71.16330435344455
 30
0.0
 11
211.9024330673781
 21
-62.39331827821137
 31
0.0
  0
LINE
  5
2FD
330
1F
100
AcDbEntity
  8
LAYER-033
  6
Continuous
 62
     4
100
AcDbLine
 10
203.4368201996541
 20
-74.39446505186808
 30
0.0
 11
211.9024330673781
 21
-65.92885218414413
 31
0.0
  0
LINE
  5
2FE
330
1F
100
AcDbEntity
  8
LAYER-033
  6
Continuous
 62
     4
100
AcDbLine
 10
206.9723541055869
 20
-74.39446505186808
 30
0.0
 11
211.9024330673781
 21
-69.46438609007689
 31
0.0
  0
LINE
  5
2FF
330
1F
100
AcDbEntity
  8
LAYER-033
  6
Continuous
 62
     4
100
AcDbLine
 10
210.5078880115196
 20
-74.39446505186808
 30
0.0
 11
211.9024330673781
 21
-72.99991999600962
 31
0.0
  0
LINE
  5
300
330
1F
100
AcDbEntity
  8
LAYER-033
  6
Continuous
 62
     4
100
AcDbLine
 10
203.1324469921449
 20
-70.85893114593532
 30
0.0
 11
206.6679808980776
 21
-74.39446505186808
 31
0.0
  0
LINE
  5
301
330
1F
100
AcDbEntity
  8
LAYER-033
  6
Continuous
 62
     4
100
AcDbLine
 10
203.1324469921449
 20
-67.32339724000255
 30
0.0
 11
210.2035148040104
 21
-74.39446505186808
 31
0.0
  0
LINE
  5
302
330
1F
100
AcDbEntity
  8
LAYER-033
  6
Continuous
 62
     4
100
AcDbLine
 10
203.1324469921449
 20
-63.7878633340698
 30
0.0
 11
211.9024330673781
 21
-72.55784940930302
 31
0.0
  0
LINE
  5
303
330
1F
100
AcDbEntity
  8
LAYER-033
  6
Continuous
 62
     4
100
AcDbLine
 10
203.1324469921449
 20
-60.25232942813707
 30
0.0
 11
211.9024330673781
 21
-69.02231550337027
 31
0.0
  0
LINE
  5
304
330
1F
100
AcDbEntity
  8
LAYER-033
  6
Continuous
 62
     4
100
AcDbLine
 10
203.1324469921449
 20
-56.71679552220429
 30
0.0
 11
211.9024330673781
 21
-65.48678159743751
 31
0.0
  0
LINE
  5
305
330
1F
100
AcDbEntity
  8
LAYER-033
  6
Continuous
 62
     4
100
AcDbLine
 10
203.1324469921449
 20
-53.18126161627157
 30
0.0
 11
211.9024330673781
 21
-61.95124769150476
 31
0.0
  0
LINE
  5
306
330
1F
100
AcDbEntity
  8
LAYER-033
  6
Continuous
 62
     4
100
AcDbLine
 10
203.1324469921449
 20
-49.6457277103388
 30
0.0
 11
211.9024330673781
 21
-58.41571378557201
 31
0.0
  0
LINE
  5
307
330
1F
100
AcDbEntity
  8
LAYER-033
  6
Continuous
 62
     4
100
AcDbLine
 10
203.1324469921449
 20
-46.11019380440607
 30
0.0
 11
211.9024330673781
 21
-54.88017987963926
 31
0.0
  0
LINE
  5
308
330
1F
100
AcDbEntity
  8
LAYER-033
  6
Continuous
 62
     4
100
AcDbLine
 10
203.1324469921449
 20
-42.57465989846845
 30
0.0
 11
211.9024330673781
 21
-51.34464597370153
 31
0.0
  0
LINE
  5
309
330
1F
100
AcDbEntity
  8
LAYER-033
  6
Continuous
 62
     4
100
AcDbLine
 10
203.1324469921449
 20
-39.03912599254058
 30
0.0
 11
211.9024330673781
 21
-47.80911206777375
 31
0.0
  0
LINE
  5
30A
330
1F
100
AcDbEntity
  8
LAYER-033
  6
Continuous
 62
     4
100
AcDbLine
 10
203.1324469921449
 20
-35.50359208660781
 30
0.0
 11
211.9024330673781
 21
-44.273578161841
 31
0.0
  0
LINE
  5
30B
330
1F
100
AcDbEntity
  8
LAYER-033
  6
Continuous
 62
     4
100
AcDbLine
 10
203.1324469921449
 20
-31.96805818067503
 30
0.0
 11
211.9024330673781
 21
-40.73804425590825
 31
0.0
  0
LINE
  5
30C
330
1F
100
AcDbEntity
  8
LAYER-033
  6
Continuous
 62
     4
100
AcDbLine
 10
203.1324469921449
 20
-28.43252427474231
 30
0.0
 11
211.9024330673781
 21
-37.2025103499755
 31
0.0
  0
LINE
  5
30D
330
1F
100
AcDbEntity
  8
LAYER-033
  6
Continuous
 62
     4
100
AcDbLine
 10
203.1324469921449
 20
-24.89699036880955
 30
0.0
 11
211.9024330673781
 21
-33.66697644404275
 31
0.0
  0
LINE
  5
30E
330
1F
100
AcDbEntity
  8
LAYER-033
  6
Continuous
 62
     4
100
AcDbLine
 10
203.1324469921449
 20
-21.36145646287682
 30
0.0
 11
211.9024330673781
 21
-30.13144253810998
 31
0.0
  0
LINE
  5
30F
330
1F
100
AcDbEntity
  8
LAYER-033
  6
Continuous
 62
     4
100
AcDbLine
 10
203.1324469921449
 20
-17.82592255694406
 30
0.0
 11
211.9024330673781
 21
-26.59590863217724
 31
0.0
  0
LINE
  5
310
330
1F
100
AcDbEntity
  8
LAYER-033
  6
Continuous
 62
     4
100
AcDbLine
 10
203.1324469921449
 20
-14.2903886510113
 30
0.0
 11
211.9024330673781
 21
-23.0603747262445
 31
0.0
  0
LINE
  5
311
330
1F
100
AcDbEntity
  8
LAYER-033
  6
Continuous
 62
     4
100
AcDbLine
 10
203.1324469921449
 20
-10.75485474507855
 30
0.0
 11
211.9024330673781
 21
-19.52484082031174
 31
0.0
  0
LINE
  5
312
330
1F
100
AcDbEntity
  8
LAYER-033
  6
Continuous
 62
     4
100
AcDbLine
 10
203.1324469921449
 20
-7.219320839145809
 30
0.0
 11
211.9024330673781
 21
-15.989306914379
 31
0.0
  0
LINE
  5
313
330
1F
100
AcDbEntity
  8
LAYER-033
  6
Continuous
 62
     4
100
AcDbLine
 10
203.1324469921449
 20
-3.683786933213057
 30
0.0
 11
211.9024330673781
 21
-12.45377300844624
 31
0.0
  0
LINE
  5
314
330
1F
100
AcDbEntity
  8
LAYER-033
  6
Continuous
 62
     4
100
AcDbLine
 10
203.1324469921449
 20
-0.1482530272802833
 30
0.0
 11
211.9024330673781
 21
-8.918239102513482
 31
0.0
  0
LINE
  5
315
330
1F
100
AcDbEntity
  8
LAYER-033
  6
Continuous
 62
     4
100
AcDbLine
 10
203.1324469921449
 20
3.387280878652462
 30
0.0
 11
211.9024330673781
 21
-5.38270519658073
 31
0.0
  0
LINE
  5
316
330
1F
100
AcDbEntity
  8
LAYER-033
  6
Continuous
 62
     4
100
AcDbLine
 10
203.1324469921449
 20
6.922814784585214
 30
0.0
 11
211.9024330673781
 21
-1.847171290647978
 31
0.0
  0
LINE
  5
317
330
1F
100
AcDbEntity
  8
LAYER-033
  6
Continuous
 62
     4
100
AcDbLine
 10
203.1324469921449
 20
10.45834869051796
 30
0.0
 11
211.9024330673781
 21
1.68836261528476
 31
0.0
  0
LINE
  5
318
330
1F
100
AcDbEntity
  8
LAYER-033
  6
Continuous
 62
     4
100
AcDbLine
 10
203.1324469921449
 20
13.99388259645071
 30
0.0
 11
211.9024330673781
 21
5.223896521217512
 31
0.0
  0
LINE
  5
319
330
1F
100
AcDbEntity
  8
LAYER-033
  6
Continuous
 62
     4
100
AcDbLine
 10
203.1324469921449
 20
17.52941650238348
 30
0.0
 11
211.9024330673781
 21
8.759430427150264
 31
0.0
  0
LINE
  5
31A
330
1F
100
AcDbEntity
  8
LAYER-033
  6
Continuous
 62
     4
100
AcDbLine
 10
203.1324469921449
 20
21.06495040831622
 30
0.0
 11
211.9024330673781
 21
12.29496433308303
 31
0.0
  0
LINE
  5
31B
330
1F
100
AcDbEntity
  8
LAYER-033
  6
Continuous
 62
     4
100
AcDbLine
 10
203.1324469921449
 20
24.60048431424896
 30
0.0
 11
211.9024330673781
 21
15.830498239
 31
0.0
  0
LINE
  5
31C
330
1F
100
AcDbEntity
  8
LAYER-033
  6
Continuous
 62
     4
100
AcDbLine
 10
203.1324469921449
 20
28.13601822018171
 30
0.0
 11
211.9024330673781
 21
19.36603214494853
 31
0.0
  0
LINE
  5
31D
330
1F
100
AcDbEntity
  8
LAYER-033
  6
Continuous
 62
     4
100
AcDbLine
 10
203.1324469921449
 20
31.67155212611446
 30
0.0
 11
211.9024330673781
 21
22.9015660508813
 31
0.0
  0
LINE
  5
31E
330
1F
100
AcDbEntity
  8
LAYER-033
  6
Continuous
 62
     4
100
AcDbLine
 10
203.1324469921449
 20
35.207086032
 30
0.0
 11
211.9024330673781
 21
26.43709995681402
 31
0.0
  0
LINE
  5
31F
330
1F
100
AcDbEntity
  8
LAYER-033
  6
Continuous
 62
     4
100
AcDbLine
 10
203.1324469921449
 20
38.74261993797997
 30
0.0
 11
211.9024330673781
 21
29.97263386274678
 31
0.0
  0
LINE
  5
320
330
1F
100
AcDbEntity
  8
LAYER-033
  6
Continuous
 62
     4
100
AcDbLine
 10
203.1324469921449
 20
42.27815384391273
 30
0.0
 11
211.9024330673781
 21
33.50816776867953
 31
0.0
  0
LINE
  5
321
330
1F
100
AcDbEntity
  8
LAYER-033
  6
Continuous
 62
     4
100
AcDbLine
 10
203.1324469921449
 20
45.81368774984548
 30
0.0
 11
211.9024330673781
 21
37.04370167461229
 31
0.0
  0
LINE
  5
322
330
1F
100
AcDbEntity
  8
LAYER-033
  6
Continuous
 62
     4
100
AcDbLine
 10
203.1324469921449
 20
49.34922165577823
 30
0.0
 11
211.9024330673781
 21
40.57923558054503
 31
0.0
  0
LINE
  5
323
330
1F
100
AcDbEntity
  8
LAYER-033
  6
Continuous
 62
     4
100
AcDbLine
 10
203.1324469921449
 20
52.88475556171098
 30
0.0
 11
211.9024330673781
 21
44.11476948647778
 31
0.0
  0
LINE
  5
324
330
1F
100
AcDbEntity
  8
LAYER-033
  6
Continuous
 62
     4
100
AcDbLine
 10
203.1324469921449
 20
56.42028946764373
 30
0.0
 11
211.9024330673781
 21
47.65030339241054
 31
0.0
  0
LINE
  5
325
330
1F
100
AcDbEntity
  8
LAYER-033
  6
Continuous
 62
     4
100
AcDbLine
 10
203.1324469921449
 20
59.95582337357649
 30
0.0
 11
211.9024330673781
 21
51.18583729834329
 31
0.0
  0
LINE
  5
326
330
1F
100
AcDbEntity
  8
LAYER-033
  6
Continuous
 62
     4
100
AcDbLine
 10
203.4368201996541
 20
63.186984072
 30
0.0
 11
211.9024330673781
 21
54.72137120427604
 31
0.0
  0
LINE
  5
327
330
1F
100
AcDbEntity
  8
LAYER-033
  6
Continuous
 62
     4
100
AcDbLine
 10
206.9723541055869
 20
63.186984072
 30
0.0
 11
211.9024330673781
 21
58.25690511020881
 31
0.0
  0
LINE
  5
328
330
1F
100
AcDbEntity
  8
LAYER-033
  6
Continuous
 62
     4
100
AcDbLine
 10
210.5078880115196
 20
63.186984072
 30
0.0
 11
211.9024330673781
 21
61.79243901614154
 31
0.0
  0
LINE
  5
329
330
1F
100
AcDbEntity
  8
LAYER-007
  6
CENTER
 62
     4
100
AcDbLine
 10
213.7523870670776
 20
-18.18444154012519
 30
0.0
 11
494.7194220529991
 21
-18.18444154012519
 31
0.0
  0
LINE
  5
32A
330
1F
100
AcDbEntity
  8
LAYER-033
  6
Continuous
 62
     4
100
AcDbLine
 10
496.0038046005707
 20
59.65145016606725
 30
0.0
 11
499.5393385065036
 21
63.186984072
 31
0.0
  0
LINE
  5
32B
330
1F
100
AcDbEntity
  8
LAYER-033
  6
Continuous
 62
     4
100
AcDbLine
 10
496.0038046005707
 20
56.1159162601345
 30
0.0
 11
503.0748724124362
 21
63.186984072
 31
0.0
  0
LINE
  5
32C
330
1F
100
AcDbEntity
  8
LAYER-033
  6
Continuous
 62
     4
100
AcDbLine
 10
496.0038046005707
 20
52.58038235420175
 30
0.0
 11
504.7737906758039
 21
61.35036842943489
 31
0.0
  0
LINE
  5
32D
330
1F
100
AcDbEntity
  8
LAYER-033
  6
Continuous
 62
     4
100
AcDbLine
 10
496.0038046005707
 20
49.04484844826899
 30
0.0
 11
504.7737906758039
 21
57.81483452350219
 31
0.0
  0
LINE
  5
32E
330
1F
100
AcDbEntity
  8
LAYER-033
  6
Continuous
 62
     4
100
AcDbLine
 10
496.0038046005707
 20
45.50931454233624
 30
0.0
 11
504.7737906758039
 21
54.27930061756942
 31
0.0
  0
LINE
  5
32F
330
1F
100
AcDbEntity
  8
LAYER-033
  6
Continuous
 62
     4
100
AcDbLine
 10
496.0038046005707
 20
41.97378063640349
 30
0.0
 11
504.7737906758039
 21
50.74376671163668
 31
0.0
  0
LINE
  5
330
330
1F
100
AcDbEntity
  8
LAYER-033
  6
Continuous
 62
     4
100
AcDbLine
 10
496.0038046005707
 20
38.43824673047074
 30
0.0
 11
504.7737906758039
 21
47.20823280570392
 31
0.0
  0
LINE
  5
331
330
1F
100
AcDbEntity
  8
LAYER-033
  6
Continuous
 62
     4
100
AcDbLine
 10
496.0038046005707
 20
34.90271282453799
 30
0.0
 11
504.7737906758039
 21
43.67269889977116
 31
0.0
  0
LINE
  5
332
330
1F
100
AcDbEntity
  8
LAYER-033
  6
Continuous
 62
     4
100
AcDbLine
 10
496.0038046005707
 20
31.36717891859541
 30
0.0
 11
504.7737906758039
 21
40.13716499383843
 31
0.0
  0
LINE
  5
333
330
1F
100
AcDbEntity
  8
LAYER-033
  6
Continuous
 62
     4
100
AcDbLine
 10
496.0038046005707
 20
27.83164501267249
 30
0.0
 11
504.7737906758039
 21
36.60163108790567
 31
0.0
  0
LINE
  5
334
330
1F
100
AcDbEntity
  8
LAYER-033
  6
Continuous
 62
     4
100
AcDbLine
 10
496.0038046005707
 20
24.29611110673979
 30
0.0
 11
504.7737906758039
 21
33.06609718197298
 31
0.0
  0
LINE
  5
335
330
1F
100
AcDbEntity
  8
LAYER-033
  6
Continuous
 62
     4
100
AcDbLine
 10
496.0038046005707
 20
20.76057720080709
 30
0.0
 11
504.7737906758039
 21
29.53056327604027
 31
0.0
  0
LINE
  5
336
330
1F
100
AcDbEntity
  8
LAYER-033
  6
Continuous
 62
     4
100
AcDbLine
 10
496.0038046005707
 20
17.2250432948744
 30
0.0
 11
504.7737906758039
 21
25.99502937010757
 31
0.0
  0
LINE
  5
337
330
1F
100
AcDbEntity
  8
LAYER-033
  6
Continuous
 62
     4
100
AcDbLine
 10
496.0038046005707
 20
13.68950938894171
 30
0.0
 11
504.7737906758039
 21
22.45949546417489
 31
0.0
  0
LINE
  5
338
330
1F
100
AcDbEntity
  8
LAYER-033
  6
Continuous
 62
     4
100
AcDbLine
 10
496.0038046005707
 20
10.15397548300902
 30
0.0
 11
504.7737906758039
 21
18.92396155824221
 31
0.0
  0
LINE
  5
339
330
1F
100
AcDbEntity
  8
LAYER-033
  6
Continuous
 62
     4
100
AcDbLine
 10
496.0038046005707
 20
6.618441577076325
 30
0.0
 11
504.7737906758039
 21
15.38842765230952
 31
0.0
  0
LINE
  5
33A
330
1F
100
AcDbEntity
  8
LAYER-033
  6
Continuous
 62
     4
100
AcDbLine
 10
496.0038046005707
 20
3.082907671143623
 30
0.0
 11
504.7737906758039
 21
11.85289374637679
 31
0.0
  0
LINE
  5
33B
330
1F
100
AcDbEntity
  8
LAYER-033
  6
Continuous
 62
     4
100
AcDbLine
 10
496.0038046005707
 20
-0.4526262347890722
 30
0.0
 11
504.7737906758039
 21
8.317359840444112
 31
0.0
  0
LINE
  5
33C
330
1F
100
AcDbEntity
  8
LAYER-033
  6
Continuous
 62
     4
100
AcDbLine
 10
496.0038046005707
 20
-3.988160140721774
 30
0.0
 11
504.7737906758039
 21
4.781825934511417
 31
0.0
  0
LINE
  5
33D
330
1F
100
AcDbEntity
  8
LAYER-033
  6
Continuous
 62
     4
100
AcDbLine
 10
496.0038046005707
 20
-7.52369404665447
 30
0.0
 11
504.7737906758039
 21
1.246292028578736
 31
0.0
  0
LINE
  5
33E
330
1F
100
AcDbEntity
  8
LAYER-033
  6
Continuous
 62
     4
100
AcDbLine
 10
496.0038046005707
 20
-11.05922795258715
 30
0.0
 11
504.7737906758039
 21
-2.289241877353987
 31
0.0
  0
LINE
  5
33F
330
1F
100
AcDbEntity
  8
LAYER-033
  6
Continuous
 62
     4
100
AcDbLine
 10
496.0038046005707
 20
-14.59476185851985
 30
0.0
 11
504.7737906758039
 21
-5.824775783286668
 31
0.0
  0
LINE
  5
340
330
1F
100
AcDbEntity
  8
LAYER-033
  6
Continuous
 62
     4
100
AcDbLine
 10
496.0038046005707
 20
-18.13029576445254
 30
0.0
 11
504.7737906758039
 21
-9.360309689125192
 31
0.0
  0
LINE
  5
341
330
1F
100
AcDbEntity
  8
LAYER-033
  6
Continuous
 62
     4
100
AcDbLine
 10
496.0038046005707
 20
-21.66582967038525
 30
0.0
 11
504.7737906758039
 21
-12.89584359515205
 31
0.0
  0
LINE
  5
342
330
1F
100
AcDbEntity
  8
LAYER-033
  6
Continuous
 62
     4
100
AcDbLine
 10
496.0038046005707
 20
-25.20136357631795
 30
0.0
 11
504.7737906758039
 21
-16.43137750108474
 31
0.0
  0
LINE
  5
343
330
1F
100
AcDbEntity
  8
LAYER-033
  6
Continuous
 62
     4
100
AcDbLine
 10
496.0038046005707
 20
-28.73689748212519
 30
0.0
 11
504.7737906758039
 21
-19.96691138168478
 31
0.0
  0
LINE
  5
344
330
1F
100
AcDbEntity
  8
LAYER-033
  6
Continuous
 62
     4
100
AcDbLine
 10
496.0038046005707
 20
-32.27243138818334
 30
0.0
 11
504.7737906758039
 21
-23.50244531295013
 31
0.0
  0
LINE
  5
345
330
1F
100
AcDbEntity
  8
LAYER-033
  6
Continuous
 62
     4
100
AcDbLine
 10
496.0038046005707
 20
-35.80796529411602
 30
0.0
 11
504.7737906758039
 21
-27.03797921886809
 31
0.0
  0
LINE
  5
346
330
1F
100
AcDbEntity
  8
LAYER-033
  6
Continuous
 62
     4
100
AcDbLine
 10
496.0038046005707
 20
-39.34349920004871
 30
0.0
 11
504.7737906758039
 21
-30.57351312481552
 31
0.0
  0
LINE
  5
347
330
1F
100
AcDbEntity
  8
LAYER-033
  6
Continuous
 62
     4
100
AcDbLine
 10
496.0038046005707
 20
-42.87903310598142
 30
0.0
 11
504.7737906758039
 21
-34.10904708164645
 31
0.0
  0
LINE
  5
348
330
1F
100
AcDbEntity
  8
LAYER-033
  6
Continuous
 62
     4
100
AcDbLine
 10
496.0038046005707
 20
-46.4145670119141
 30
0.0
 11
504.7737906758039
 21
-37.64458093668091
 31
0.0
  0
LINE
  5
349
330
1F
100
AcDbEntity
  8
LAYER-033
  6
Continuous
 62
     4
100
AcDbLine
 10
496.0038046005707
 20
-49.9501009178468
 30
0.0
 11
504.7737906758039
 21
-41.18011484261362
 31
0.0
  0
LINE
  5
34A
330
1F
100
AcDbEntity
  8
LAYER-033
  6
Continuous
 62
     4
100
AcDbLine
 10
496.0038046005707
 20
-53.48563482377948
 30
0.0
 11
504.7737906758039
 21
-44.71564874854632
 31
0.0
  0
LINE
  5
34B
330
1F
100
AcDbEntity
  8
LAYER-033
  6
Continuous
 62
     4
100
AcDbLine
 10
496.0038046005707
 20
-57.02116872971219
 30
0.0
 11
504.7737906758039
 21
-48.25118265447901
 31
0.0
  0
LINE
  5
34C
330
1F
100
AcDbEntity
  8
LAYER-033
  6
Continuous
 62
     4
100
AcDbLine
 10
496.0038046005707
 20
-60.5567026356449
 30
0.0
 11
504.7737906758039
 21
-51.78671656041169
 31
0.0
  0
LINE
  5
34D
330
1F
100
AcDbEntity
  8
LAYER-033
  6
Continuous
 62
     4
100
AcDbLine
 10
496.0038046005707
 20
-64.09223654157758
 30
0.0
 11
504.7737906758039
 21
-55.32225046634439
 31
0.0
  0
LINE
  5
34E
330
1F
100
AcDbEntity
  8
LAYER-033
  6
Continuous
 62
     4
100
AcDbLine
 10
496.0038046005707
 20
-67.62777044751027
 30
0.0
 11
504.7737906758039
 21
-58.8577843722771
 31
0.0
  0
LINE
  5
34F
330
1F
100
AcDbEntity
  8
LAYER-033
  6
Continuous
 62
     4
100
AcDbLine
 10
496.0038046005707
 20
-71.16330435344295
 30
0.0
 11
504.7737906758039
 21
-62.39331827820979
 31
0.0
  0
LINE
  5
350
330
1F
100
AcDbEntity
  8
LAYER-033
  6
Continuous
 62
     4
100
AcDbLine
 10
496.3081778080782
 20
-74.39446505186808
 30
0.0
 11
504.7737906758039
 21
-65.92885218414249
 31
0.0
  0
LINE
  5
351
330
1F
100
AcDbEntity
  8
LAYER-033
  6
Continuous
 62
     4
100
AcDbLine
 10
499.8437117140111
 20
-74.39446505186808
 30
0.0
 11
504.7737906758039
 21
-69.46438609007517
 31
0.0
  0
LINE
  5
352
330
1F
100
AcDbEntity
  8
LAYER-033
  6
Continuous
 62
     4
100
AcDbLine
 10
503.3792456199437
 20
-74.39446505186808
 30
0.0
 11
504.7737906758039
 21
-72.99991999600786
 31
0.0
  0
LINE
  5
353
330
1F
100
AcDbEntity
  8
LAYER-033
  6
Continuous
 62
     4
100
AcDbLine
 10
496.0038046005707
 20
-70.85893114593532
 30
0.0
 11
499.5393385065036
 21
-74.39446505186808
 31
0.0
  0
LINE
  5
354
330
1F
100
AcDbEntity
  8
LAYER-033
  6
Continuous
 62
     4
100
AcDbLine
 10
496.0038046005707
 20
-67.32339724000255
 30
0.0
 11
503.0748724124362
 21
-74.39446505186808
 31
0.0
  0
LINE
  5
355
330
1F
100
AcDbEntity
  8
LAYER-033
  6
Continuous
 62
     4
100
AcDbLine
 10
496.0038046005707
 20
-63.7878633340698
 30
0.0
 11
504.7737906758039
 21
-72.55784940930302
 31
0.0
  0
LINE
  5
356
330
1F
100
AcDbEntity
  8
LAYER-033
  6
Continuous
 62
     4
100
AcDbLine
 10
496.0038046005707
 20
-60.25232942813707
 30
0.0
 11
504.7737906758039
 21
-69.02231550337027
 31
0.0
  0
LINE
  5
357
330
1F
100
AcDbEntity
  8
LAYER-033
  6
Continuous
 62
     4
100
AcDbLine
 10
496.0038046005707
 20
-56.71679552220429
 30
0.0
 11
504.7737906758039
 21
-65.48678159743751
 31
0.0
  0
LINE
  5
358
330
1F
100
AcDbEntity
  8
LAYER-033
  6
Continuous
 62
     4
100
AcDbLine
 10
496.0038046005707
 20
-53.18126161627157
 30
0.0
 11
504.7737906758039
 21
-61.95124769150476
 31
0.0
  0
LINE
  5
359
330
1F
100
AcDbEntity
  8
LAYER-033
  6
Continuous
 62
     4
100
AcDbLine
 10
496.0038046005707
 20
-49.6457277103388
 30
0.0
 11
504.7737906758039
 21
-58.41571378557201
 31
0.0
  0
LINE
  5
35A
330
1F
100
AcDbEntity
  8
LAYER-033
  6
Continuous
 62
     4
100
AcDbLine
 10
496.0038046005707
 20
-46.11019380440607
 30
0.0
 11
504.7737906758039
 21
-54.88017987963926
 31
0.0
  0
LINE
  5
35B
330
1F
100
AcDbEntity
  8
LAYER-033
  6
Continuous
 62
     4
100
AcDbLine
 10
496.0038046005707
 20
-42.57465989846845
 30
0.0
 11
504.7737906758039
 21
-51.34464597370153
 31
0.0
  0
LINE
  5
35C
330
1F
100
AcDbEntity
  8
LAYER-033
  6
Continuous
 62
     4
100
AcDbLine
 10
496.0038046005707
 20
-39.03912599254058
 30
0.0
 11
504.7737906758039
 21
-47.80911206777375
 31
0.0
  0
LINE
  5
35D
330
1F
100
AcDbEntity
  8
LAYER-033
  6
Continuous
 62
     4
100
AcDbLine
 10
496.0038046005707
 20
-35.50359208660788
 30
0.0
 11
504.7737906758039
 21
-44.27357816184106
 31
0.0
  0
LINE
  5
35E
330
1F
100
AcDbEntity
  8
LAYER-033
  6
Continuous
 62
     4
100
AcDbLine
 10
496.0038046005707
 20
-31.96805818067516
 30
0.0
 11
504.7737906758039
 21
-40.73804425590836
 31
0.0
  0
LINE
  5
35F
330
1F
100
AcDbEntity
  8
LAYER-033
  6
Continuous
 62
     4
100
AcDbLine
 10
496.0038046005707
 20
-28.43252427474248
 30
0.0
 11
504.7737906758039
 21
-37.20251034997567
 31
0.0
  0
LINE
  5
360
330
1F
100
AcDbEntity
  8
LAYER-033
  6
Continuous
 62
     4
100
AcDbLine
 10
496.0038046005707
 20
-24.8969903688098
 30
0.0
 11
504.7737906758039
 21
-33.66697644404297
 31
0.0
  0
LINE
  5
361
330
1F
100
AcDbEntity
  8
LAYER-033
  6
Continuous
 62
     4
100
AcDbLine
 10
496.0038046005707
 20
-21.36145646287709
 30
0.0
 11
504.7737906758039
 21
-30.13144253811028
 31
0.0
  0
LINE
  5
362
330
1F
100
AcDbEntity
  8
LAYER-033
  6
Continuous
 62
     4
100
AcDbLine
 10
496.0038046005707
 20
-17.82592255694441
 30
0.0
 11
504.7737906758039
 21
-26.59590863217758
 31
0.0
  0
LINE
  5
363
330
1F
100
AcDbEntity
  8
LAYER-033
  6
Continuous
 62
     4
100
AcDbLine
 10
496.0038046005707
 20
-14.2903886510117
 30
0.0
 11
504.7737906758039
 21
-23.0603747262449
 31
0.0
  0
LINE
  5
364
330
1F
100
AcDbEntity
  8
LAYER-033
  6
Continuous
 62
     4
100
AcDbLine
 10
496.0038046005707
 20
-10.754854745079
 30
0.0
 11
504.7737906758039
 21
-19.52484082031219
 31
0.0
  0
LINE
  5
365
330
1F
100
AcDbEntity
  8
LAYER-033
  6
Continuous
 62
     4
100
AcDbLine
 10
496.0038046005707
 20
-7.219320839146306
 30
0.0
 11
504.7737906758039
 21
-15.98930691437951
 31
0.0
  0
LINE
  5
366
330
1F
100
AcDbEntity
  8
LAYER-033
  6
Continuous
 62
     4
100
AcDbLine
 10
496.0038046005707
 20
-3.683786933213625
 30
0.0
 11
504.7737906758039
 21
-12.45377300844681
 31
0.0
  0
LINE
  5
367
330
1F
100
AcDbEntity
  8
LAYER-033
  6
Continuous
 62
     4
100
AcDbLine
 10
496.0038046005707
 20
-0.1482530272809086
 30
0.0
 11
504.7737906758039
 21
-8.918239102514107
 31
0.0
  0
LINE
  5
368
330
1F
100
AcDbEntity
  8
LAYER-033
  6
Continuous
 62
     4
100
AcDbLine
 10
496.0038046005707
 20
3.387280878651779
 30
0.0
 11
504.7737906758039
 21
-5.382705196581426
 31
0.0
  0
LINE
  5
369
330
1F
100
AcDbEntity
  8
LAYER-033
  6
Continuous
 62
     4
100
AcDbLine
 10
496.0038046005707
 20
6.922814784584467
 30
0.0
 11
504.7737906758039
 21
-1.847171290648731
 31
0.0
  0
LINE
  5
36A
330
1F
100
AcDbEntity
  8
LAYER-033
  6
Continuous
 62
     4
100
AcDbLine
 10
496.0038046005707
 20
10.45834869051716
 30
0.0
 11
504.7737906758039
 21
1.688362615283964
 31
0.0
  0
LINE
  5
36B
330
1F
100
AcDbEntity
  8
LAYER-033
  6
Continuous
 62
     4
100
AcDbLine
 10
496.0038046005707
 20
13.99388259644985
 30
0.0
 11
504.7737906758039
 21
5.223896521216673
 31
0.0
  0
LINE
  5
36C
330
1F
100
AcDbEntity
  8
LAYER-033
  6
Continuous
 62
     4
100
AcDbLine
 10
496.0038046005707
 20
17.52941650238256
 30
0.0
 11
504.7737906758039
 21
8.759430427149368
 31
0.0
  0
LINE
  5
36D
330
1F
100
AcDbEntity
  8
LAYER-033
  6
Continuous
 62
     4
100
AcDbLine
 10
496.0038046005707
 20
21.06495040831526
 30
0.0
 11
504.7737906758039
 21
12.29496433308205
 31
0.0
  0
LINE
  5
36E
330
1F
100
AcDbEntity
  8
LAYER-033
  6
Continuous
 62
     4
100
AcDbLine
 10
496.0038046005707
 20
24.60048431424794
 30
0.0
 11
504.7737906758039
 21
15.830498239
 31
0.0
  0
LINE
  5
36F
330
1F
100
AcDbEntity
  8
LAYER-033
  6
Continuous
 62
     4
100
AcDbLine
 10
496.0038046005707
 20
28.13601822018064
 30
0.0
 11
504.7737906758039
 21
19.36603214494745
 31
0.0
  0
LINE
  5
370
330
1F
100
AcDbEntity
  8
LAYER-033
  6
Continuous
 62
     4
100
AcDbLine
 10
496.0038046005707
 20
31.67155212611333
 30
0.0
 11
504.7737906758039
 21
22.90156605088014
 31
0.0
  0
LINE
  5
371
330
1F
100
AcDbEntity
  8
LAYER-033
  6
Continuous
 62
     4
100
AcDbLine
 10
496.0038046005707
 20
35.207086032
 30
0.0
 11
504.7737906758039
 21
26.43709995681283
 31
0.0
  0
LINE
  5
372
330
1F
100
AcDbEntity
  8
LAYER-033
  6
Continuous
 62
     4
100
AcDbLine
 10
496.0038046005707
 20
38.74261993797872
 30
0.0
 11
504.7737906758039
 21
29.97263386274551
 31
0.0
  0
LINE
  5
373
330
1F
100
AcDbEntity
  8
LAYER-033
  6
Continuous
 62
     4
100
AcDbLine
 10
496.0038046005707
 20
42.27815384391141
 30
0.0
 11
504.7737906758039
 21
33.50816776867823
 31
0.0
  0
LINE
  5
374
330
1F
100
AcDbEntity
  8
LAYER-033
  6
Continuous
 62
     4
100
AcDbLine
 10
496.0038046005707
 20
45.81368774984411
 30
0.0
 11
504.7737906758039
 21
37.0437016746109
 31
0.0
  0
LINE
  5
375
330
1F
100
AcDbEntity
  8
LAYER-033
  6
Continuous
 62
     4
100
AcDbLine
 10
496.0038046005707
 20
49.34922165577681
 30
0.0
 11
504.7737906758039
 21
40.57923558054361
 31
0.0
  0
LINE
  5
376
330
1F
100
AcDbEntity
  8
LAYER-033
  6
Continuous
 62
     4
100
AcDbLine
 10
496.0038046005707
 20
52.8847555617095
 30
0.0
 11
504.7737906758039
 21
44.11476948647631
 31
0.0
  0
LINE
  5
377
330
1F
100
AcDbEntity
  8
LAYER-033
  6
Continuous
 62
     4
100
AcDbLine
 10
496.0038046005707
 20
56.42028946764219
 30
0.0
 11
504.7737906758039
 21
47.650303392409
 31
0.0
  0
LINE
  5
378
330
1F
100
AcDbEntity
  8
LAYER-033
  6
Continuous
 62
     4
100
AcDbLine
 10
496.0038046005707
 20
59.95582337357489
 30
0.0
 11
504.7737906758039
 21
51.18583729834171
 31
0.0
  0
LINE
  5
379
330
1F
100
AcDbEntity
  8
LAYER-033
  6
Continuous
 62
     4
100
AcDbLine
 10
496.3081778080782
 20
63.186984072
 30
0.0
 11
504.7737906758039
 21
54.72137120427442
 31
0.0
  0
LINE
  5
37A
330
1F
100
AcDbEntity
  8
LAYER-033
  6
Continuous
 62
     4
100
AcDbLine
 10
499.8437117140111
 20
63.186984072
 30
0.0
 11
504.7737906758039
 21
58.2569051102071
 31
0.0
  0
LINE
  5
37B
330
1F
100
AcDbEntity
  8
LAYER-033
  6
Continuous
 62
     4
100
AcDbLine
 10
503.3792456199437
 20
63.186984072
 30
0.0
 11
504.7737906758039
 21
61.79243901613978
 31
0.0
  0
LINE
  5
37C
330
1F
100
AcDbEntity
  8
LAYER-006
  6
Continuous
 62
     1
100
AcDbLine
 10
-475.0715634478524
 20
-74.39446505186811
 30
0.0
 11
4.928436552147559
 21
-74.39446505186811
 31
0.0
  0
LINE
  5
37D
330
1F
100
AcDbEntity
  8
LAYER-006
  6
Continuous
 62
     1
100
AcDbLine
 10
4.928436552147559
 20
-354.1346504116263
 30
0.0
 11
-475.0715634478524
 21
-354.1346504116263
 31
0.0
  0
TEXT
  5
37E
330
1F
100
AcDbEntity
  8
LAYER-033
  6
Continuous
 62
     7
100
AcDbText
 10
-189.9718281110802
 20
-608.6095046642289
 30
0.0
 40
15.0
  1
４００／４４０Ｖ　５０／６０Ｈｚ　　　４００ｋＷ
  7
STRING_H
 11
-189.9718281110802
 21
-601.1095046642289
 31
0.0
100
AcDbText
 73
     2
  0
TEXT
  5
37F
330
1F
100
AcDbEntity
  8
LAYER-033
  6
Continuous
 62
     7
100
AcDbText
 10
-189.9718281110802
 20
-628.6095046642289
 30
0.0
 40
15.0
  1
質　　量　　３２４㎏
  7
STRING_H
 11
-189.9718281110802
 21
-621.1095046642289
 31
0.0
100
AcDbText
 73
     2
  0
TEXT
  5
380
330
1F
100
AcDbEntity
  8
LAYER-033
  6
Continuous
 62
     7
100
AcDbText
 10
-189.9718281110802
 20
-588.6095046642289
 30
0.0
 40
15.0
  1
ＲＳ－１Ｐ(低　圧)
  7
STRING_H
 11
-189.9718281110802
 21
-581.1095046642289
 31
0.0
100
AcDbText
 73
     2
  0
DIMENSION
  5
390
330
1F
100
AcDbEntity
  8
LAYER-035
  6
Continuous
 62
     5
100
AcDbDimension
  2
*D02
 10
526.4531188339738
 20
-528.9213757087039
 30
0.0
 11
353.9531188339738
 21
-528.9213757087039
 31
0.0
 70
   129
  1
<>
 71
     0
 42
0.0
  3
DIO_DIMSTYLE
100
AcDbAlignedDimension
 13
181.4531188339738
 23
-446.6746137921059
 33
0.0
 14
526.4531188339738
 24
-446.6746137921059
 34
0.0
1001
ACAD
1000
DSTYLE
1002
{
1070
    41
1040
4.0
1070
    44
1040
1.0
1070
    42
1040
1.0
1070
     6
1000
_OPEN
1070
     7
1000
_OPEN
1070
   173
1070
     1
1070
   140
1040
10.0
1070
   178
1070
     5
1070
   147
1040
0.5
1002
}
  0
DIMENSION
  5
39A
330
1F
100
AcDbEntity
  8
LAYER-035
  6
Continuous
 62
     5
100
AcDbDimension
  2
*D13
 10
506.4531188339738
 20
-484.1077561897727
 30
0.0
 11
353.9531188339738
 21
-484.1077561897727
 31
0.0
 70
   128
  1
<>
 71
     0
 42
0.0
  3
DIO_DIMSTYLE
100
AcDbAlignedDimension
 13
201.4531188339738
 23
-450.3967224167768
 33
0.0
 14
506.4531188339738
 24
-450.3967224167768
 34
0.0
 50
180.0
100
AcDbRotatedDimension
1001
ACAD
1000
DSTYLE
1002
{
1070
    41
1040
4.0
1070
    44
1040
1.0
1070
    42
1040
1.0
1070
     6
1000
_OPEN
1070
     7
1000
_OPEN
1070
   173
1070
     1
1070
   140
1040
10.0
1070
   178
1070
     5
1070
   147
1040
0.5
1002
}
  0
DIMENSION
  5
3A4
330
1F
100
AcDbEntity
  8
LAYER-035
  6
Continuous
 62
     5
100
AcDbDimension
  2
*D24
 10
168.9531188339738
 20
191.3915850036252
 30
0.0
 11
353.9531188339738
 21
191.3915850036252
 31
0.0
 70
   129
  1
<>
 71
     0
 42
0.0
  3
DIO_DIMSTYLE
100
AcDbAlignedDimension
 13
538.9531188339738
 23
159.9659542311875
 33
0.0
 14
168.9531188339738
 24
159.9659542311875
 34
0.0
1001
ACAD
1000
DSTYLE
1002
{
1070
    41
1040
4.0
1070
    44
1040
1.0
1070
    42
1040
1.0
1070
     6
1000
_OPEN
1070
     7
1000
_OPEN
1070
   173
1070
     1
1070
   140
1040
10.0
1070
   178
1070
     5
1070
   147
1040
0.5
1002
}
  0
DIMENSION
  5
3AE
330
1F
100
AcDbEntity
  8
LAYER-035
  6
Continuous
 62
     5
100
AcDbDimension
  2
*D35
 10
-532.5715634478524
 20
-528.9213757087039
 30
0.0
 11
-235.0715634478524
 21
-528.9213757087039
 31
0.0
 70
   129
  1
<>
 71
     0
 42
0.0
  3
DIO_DIMSTYLE
100
AcDbAlignedDimension
 13
62.42843655214756
 23
-446.6746137921058
 33
0.0
 14
-532.5715634478524
 24
-446.6746137921058
 34
0.0
1001
ACAD
1000
DSTYLE
1002
{
1070
    41
1040
4.0
1070
    44
1040
1.0
1070
    42
1040
1.0
1070
     6
1000
_OPEN
1070
     7
1000
_OPEN
1070
   173
1070
     1
1070
   140
1040
10.0
1070
   178
1070
     5
1070
   147
1040
0.5
1002
}
  0
DIMENSION
  5
3B8
330
1F
100
AcDbEntity
  8
LAYER-035
  6
Continuous
 62
     5
100
AcDbDimension
  2
*D46
 10
112.9282605506381
 20
133.3253862078941
 30
0.0
 11
112.9282605506381
 21
-156.6746137921058
 31
0.0
 70
   128
  1
<>
 71
     0
 42
0.0
  3
DIO_DIMSTYLE
100
AcDbAlignedDimension
 13
62.42843655214756
 23
-446.6746137921058
 33
0.0
 14
36.99548570395655
 24
133.3253862078942
 34
0.0
 50
270.0
100
AcDbRotatedDimension
1001
ACAD
1000
DSTYLE
1002
{
1070
    41
1040
4.0
1070
    44
1040
1.0
1070
    42
1040
1.0
1070
     6
1000
_OPEN
1070
     7
1000
_OPEN
1070
   173
1070
     1
1070
   140
1040
10.0
1070
   178
1070
     5
1070
   147
1040
0.5
1002
}
  0
DIMENSION
  5
3C2
330
1F
100
AcDbEntity
  8
LAYER-035
  6
Continuous
 62
     5
100
AcDbDimension
  2
*D57
 10
-485.0715634478524
 20
-484.1077561897727
 30
0.0
 11
-235.0715634478524
 21
-484.1077561897727
 31
0.0
 70
   129
  1
<>
 71
     0
 42
0.0
  3
DIO_DIMSTYLE
100
AcDbAlignedDimension
 13
14.92843655214756
 23
-452.8607755881252
 33
0.0
 14
-485.0715634478524
 24
-452.8607755881252
 34
0.0
1001
ACAD
1000
DSTYLE
1002
{
1070
    41
1040
4.0
1070
    44
1040
1.0
1070
    42
1040
1.0
1070
     6
1000
_OPEN
1070
     7
1000
_OPEN
1070
   173
1070
     1
1070
   140
1040
10.0
1070
   178
1070
     5
1070
   147
1040
0.5
1002
}
  0
DIMENSION
  5
3CC
330
1F
100
AcDbEntity
  8
LAYER-035
  6
Continuous
 62
     5
100
AcDbDimension
  2
*D68
 10
193.9531188339738
 20
-142.9582131155558
 30
0.0
 11
335.0125794497222
 21
-142.9582131155558
 31
0.0
 70
   129
  1
<>
 71
     0
 42
0.0
  3
DIO_DIMSTYLE
100
AcDbAlignedDimension
 13
513.9531188339738
 23
-74.39446505186808
 33
0.0
 14
193.9531188339738
 24
-74.39446505186808
 34
0.0
1001
ACAD
1000
DSTYLE
1002
{
1070
    41
1040
4.0
1070
    44
1040
1.0
1070
    42
1040
1.0
1070
     6
1000
_OPEN
1070
     7
1000
_OPEN
1070
   173
1070
     1
1070
   140
1040
10.0
1070
   178
1070
     5
1070
   147
1040
0.5
1002
}
  0
ENDSEC
  0
SECTION
  2
OBJECTS
  0
DICTIONARY
  5
C
330
0
100
AcDbDictionary
281
     1
  3
ACAD_GROUP
350
D
  3
ACAD_LAYOUT
350
1A
  3
ACAD_MLINESTYLE
350
17
  3
ACAD_PLOTSETTINGS
350
19
  3
ACAD_PLOTSTYLENAME
350
E
  0
DICTIONARY
  5
D
102
{ACAD_REACTORS
330
C
102
}
330
C
100
AcDbDictionary
281
     1
  0
DICTIONARY
  5
1A
102
{ACAD_REACTORS
330
C
102
}
330
C
100
AcDbDictionary
281
     1
  3
Model
350
22
  3
ﾚｲｱｳﾄ1
350
1E
  3
ﾚｲｱｳﾄ2
350
26
  0
DICTIONARY
  5
17
102
{ACAD_REACTORS
330
C
102
}
330
C
100
AcDbDictionary
281
     1
  3
Standard
350
18
  0
DICTIONARY
  5
19
102
{ACAD_REACTORS
330
C
102
}
330
C
100
AcDbDictionary
281
     1
  0
ACDBDICTIONARYWDFLT
  5
E
102
{ACAD_REACTORS
330
C
102
}
330
C
100
AcDbDictionary
281
     1
  3
Normal
350
F
100
AcDbDictionaryWithDefault
340
F
  0
LAYOUT
  5
22
102
{ACAD_REACTORS
330
1A
102
}
330
1A
100
AcDbPlotSettings
  1

  2
DWF ePlot.pc3
  4
ANSI_A_(8.50_x_11.00_Inches)
  6

 40
5.793749809265137
 41
17.79375076293945
 42
5.793746948242188
 43
17.79376220703125
 44
215.8999938964844
 45
279.3999938964844
 46
0.0
 47
0.0
 48
0.0
 49
0.0
140
0.0
141
0.0
142
1.0
143
39.26051453979704
 70
 11952
 72
     0
 73
     1
 74
     0
  7
acad.ctb
 75
     0
147
0.0254708837039396
148
-1793.922354682663
149
1.490346453088415
100
AcDbLayout
  1
Model
 70
     1
 71
     0
 10
-1000.0
 20
-750.0
 11
1000.0
 21
750.0
 12
0.0
 22
0.0
 32
0.0
 14
-1000.0
 24
-750.0
 34
0.0
 15
1000.0
 25
750.0
 35
0.0
146
0.0
 13
0.0
 23
0.0
 33
0.0
 16
1.0
 26
0.0
 36
0.0
 17
0.0
 27
1.0
 37
0.0
 76
     0
330
1F
  0
LAYOUT
  5
1E
102
{ACAD_REACTORS
330
1A
102
}
330
1A
100
AcDbPlotSettings
  1

  2
RICOH IPSiO NX700
  4

  6

 40
0.0
 41
0.0
 42
0.0
 43
0.0
 44
0.0
 45
0.0
 46
0.0
 47
0.0
 48
0.0
 49
0.0
140
0.0
141
0.0
142
1.0
143
1.0
 70
   688
 72
     0
 73
     0
 74
     5
  7
acad.ctb
 75
    16
147
1.0
148
0.0
149
0.0
100
AcDbLayout
  1
ﾚｲｱｳﾄ1
 70
     1
 71
     1
 10
-1000.0
 20
-750.0
 11
1000.0
 21
750.0
 12
0.0
 22
0.0
 32
0.0
 14
-1000.0
 24
-750.0
 34
0.0
 15
1000.0
 25
750.0
 35
0.0
146
0.0
 13
0.0
 23
0.0
 33
0.0
 16
1.0
 26
0.0
 36
0.0
 17
0.0
 27
1.0
 37
0.0
 76
     0
330
1B
  0
LAYOUT
  5
26
102
{ACAD_REACTORS
330
1A
102
}
330
1A
100
AcDbPlotSettings
  1

  2
RICOH IPSiO NX700
  4

  6

 40
0.0
 41
0.0
 42
0.0
 43
0.0
 44
0.0
 45
0.0
 46
0.0
 47
0.0
 48
0.0
 49
0.0
140
0.0
141
0.0
142
1.0
143
1.0
 70
   688
 72
     0
 73
     0
 74
     5
  7
acad.ctb
 75
    16
147
1.0
148
0.0
149
0.0
100
AcDbLayout
  1
ﾚｲｱｳﾄ2
 70
     1
 71
     2
 10
0.0
 20
0.0
 11
12.0
 21
9.0
 12
0.0
 22
0.0
 32
0.0
 14
0.0
 24
0.0
 34
0.0
 15
0.0
 25
0.0
 35
0.0
146
0.0
 13
0.0
 23
0.0
 33
0.0
 16
1.0
 26
0.0
 36
0.0
 17
0.0
 27
1.0
 37
0.0
 76
     0
330
23
  0
MLINESTYLE
  5
18
102
{ACAD_REACTORS
330
17
102
}
330
17
100
AcDbMlineStyle
  2
STANDARD
 70
     0
  3

 62
   256
 51
90.0
 52
90.0
 71
     2
 49
0.5
 62
   256
  6
BYLAYER
 49
-0.5
 62
   256
  6
BYLAYER
  0
ACDBPLACEHOLDER
  5
F
102
{ACAD_REACTORS
330
E
102
}
330
E
  0
ENDSEC
  0
EOF
